  0
SECTION
  2
HEADER
  9
$ACADVER
  1
AC1032
  9
$ACADMAINTVER
 90
        4
  9
$DWGCODEPAGE
  3
ANSI_1252
  9
$LASTSAVEDBY
  1
Siqi
  9
$REQUIREDVERSIONS
160
                 0
  9
$INSBASE
 10
0.0
 20
0.0
 30
0.0
  9
$EXTMIN
 10
-24780.53543926415
 20
3744.589285657021
 30
0.0
  9
$EXTMAX
 10
-8093.293314993228
 20
10305.24738539574
 30
0.0
  9
$LIMMIN
 10
0.0
 20
0.0
  9
$LIMMAX
 10
420.0
 20
297.0
  9
$ORTHOMODE
 70
     0
  9
$REGENMODE
 70
     1
  9
$FILLMODE
 70
     1
  9
$QTEXTMODE
 70
     0
  9
$MIRRTEXT
 70
     0
  9
$LTSCALE
 40
1.0
  9
$ATTMODE
 70
     1
  9
$TEXTSIZE
 40
2.5
  9
$TRACEWID
 40
1.0
  9
$TEXTSTYLE
  7
Standard
  9
$CLAYER
  8
0
  9
$CELTYPE
  6
ByLayer
  9
$CECOLOR
 62
   256
  9
$CELTSCALE
 40
1.0
  9
$DISPSILH
 70
     0
  9
$DIMSCALE
 40
1.0
  9
$DIMASZ
 40
15.0
  9
$DIMEXO
 40
5.0
  9
$DIMDLI
 40
3.75
  9
$DIMRND
 40
0.0
  9
$DIMDLE
 40
0.0
  9
$DIMEXE
 40
1.25
  9
$DIMTP
 40
0.0
  9
$DIMTM
 40
0.0
  9
$DIMTXT
 40
30.0
  9
$DIMCEN
 40
0.5
  9
$DIMTSZ
 40
0.0
  9
$DIMTOL
 70
     0
  9
$DIMLIM
 70
     0
  9
$DIMTIH
 70
     0
  9
$DIMTOH
 70
     0
  9
$DIMSE1
 70
     0
  9
$DIMSE2
 70
     0
  9
$DIMTAD
 70
     1
  9
$DIMZIN
 70
     8
  9
$DIMBLK
  1

  9
$DIMASO
 70
     1
  9
$DIMSHO
 70
     1
  9
$DIMPOST
  1

  9
$DIMAPOST
  1

  9
$DIMALT
 70
     0
  9
$DIMALTD
 70
     3
  9
$DIMALTF
 40
0.03937007874016
  9
$DIMLFAC
 40
1.0
  9
$DIMTOFL
 70
     1
  9
$DIMTVP
 40
0.0
  9
$DIMTIX
 70
     0
  9
$DIMSOXD
 70
     0
  9
$DIMSAH
 70
     0
  9
$DIMBLK1
  1

  9
$DIMBLK2
  1

  9
$DIMSTYLE
  2
ISO-25
  9
$DIMCLRD
 70
     0
  9
$DIMCLRE
 70
     0
  9
$DIMCLRT
 70
     0
  9
$DIMTFAC
 40
1.0
  9
$DIMGAP
 40
5.0
  9
$DIMJUST
 70
     0
  9
$DIMSD1
 70
     0
  9
$DIMSD2
 70
     0
  9
$DIMTOLJ
 70
     0
  9
$DIMTZIN
 70
     8
  9
$DIMALTZ
 70
     0
  9
$DIMALTTZ
 70
     0
  9
$DIMUPT
 70
     0
  9
$DIMDEC
 70
     2
  9
$DIMTDEC
 70
     2
  9
$DIMALTU
 70
     2
  9
$DIMALTTD
 70
     3
  9
$DIMTXSTY
  7
Standard
  9
$DIMAUNIT
 70
     0
  9
$DIMADEC
 70
     2
  9
$DIMALTRND
 40
0.0
  9
$DIMAZIN
 70
     0
  9
$DIMDSEP
 70
    44
  9
$DIMATFIT
 70
     3
  9
$DIMFRAC
 70
     0
  9
$DIMLDRBLK
  1

  9
$DIMLUNIT
 70
     2
  9
$DIMLWD
 70
    -2
  9
$DIMLWE
 70
    -2
  9
$DIMTMOVE
 70
     0
  9
$DIMFXL
 40
1.0
  9
$DIMFXLON
 70
     0
  9
$DIMJOGANG
 40
0.7853981633974483
  9
$DIMTFILL
 70
     0
  9
$DIMTFILLCLR
 70
     0
  9
$DIMARCSYM
 70
     0
  9
$DIMLTYPE
  6

  9
$DIMLTEX1
  6

  9
$DIMLTEX2
  6

  9
$DIMTXTDIRECTION
 70
     0
  9
$LUNITS
 70
     2
  9
$LUPREC
 70
     4
  9
$SKETCHINC
 40
1.0
  9
$FILLETRAD
 40
50.0
  9
$AUNITS
 70
     0
  9
$AUPREC
 70
     0
  9
$MENU
  1
.
  9
$ELEVATION
 40
0.0
  9
$PELEVATION
 40
0.0
  9
$THICKNESS
 40
0.0
  9
$LIMCHECK
 70
     0
  9
$CHAMFERA
 40
0.0
  9
$CHAMFERB
 40
0.0
  9
$CHAMFERC
 40
0.0
  9
$CHAMFERD
 40
0.0
  9
$SKPOLY
 70
     0
  9
$TDCREATE
 40
2453649.060439815
  9
$TDUCREATE
 40
2453649.352115521
  9
$TDUPDATE
 40
2457974.441574074
  9
$TDUUPDATE
 40
2457974.733240741
  9
$TDINDWG
 40
2.0074055324
  9
$TDUSRTIMER
 40
2.0074008333
  9
$USRTIMER
 70
     1
  9
$ANGBASE
 50
0.0
  9
$ANGDIR
 70
     0
  9
$PDMODE
 70
     0
  9
$PDSIZE
 40
0.0
  9
$PLINEWID
 40
0.0
  9
$SPLFRAME
 70
     0
  9
$SPLINETYPE
 70
     6
  9
$SPLINESEGS
 70
     8
  9
$HANDSEED
  5
8E10
  9
$SURFTAB1
 70
     6
  9
$SURFTAB2
 70
     6
  9
$SURFTYPE
 70
     6
  9
$SURFU
 70
     6
  9
$SURFV
 70
     6
  9
$UCSBASE
  2

  9
$UCSNAME
  2

  9
$UCSORG
 10
0.0
 20
0.0
 30
0.0
  9
$UCSXDIR
 10
1.0
 20
0.0
 30
0.0
  9
$UCSYDIR
 10
0.0
 20
1.0
 30
0.0
  9
$UCSORTHOREF
  2

  9
$UCSORTHOVIEW
 70
     0
  9
$UCSORGTOP
 10
0.0
 20
0.0
 30
0.0
  9
$UCSORGBOTTOM
 10
0.0
 20
0.0
 30
0.0
  9
$UCSORGLEFT
 10
0.0
 20
0.0
 30
0.0
  9
$UCSORGRIGHT
 10
0.0
 20
0.0
 30
0.0
  9
$UCSORGFRONT
 10
0.0
 20
0.0
 30
0.0
  9
$UCSORGBACK
 10
0.0
 20
0.0
 30
0.0
  9
$PUCSBASE
  2

  9
$PUCSNAME
  2

  9
$PUCSORG
 10
0.0
 20
0.0
 30
0.0
  9
$PUCSXDIR
 10
1.0
 20
0.0
 30
0.0
  9
$PUCSYDIR
 10
0.0
 20
1.0
 30
0.0
  9
$PUCSORTHOREF
  2

  9
$PUCSORTHOVIEW
 70
     0
  9
$PUCSORGTOP
 10
0.0
 20
0.0
 30
0.0
  9
$PUCSORGBOTTOM
 10
0.0
 20
0.0
 30
0.0
  9
$PUCSORGLEFT
 10
0.0
 20
0.0
 30
0.0
  9
$PUCSORGRIGHT
 10
0.0
 20
0.0
 30
0.0
  9
$PUCSORGFRONT
 10
0.0
 20
0.0
 30
0.0
  9
$PUCSORGBACK
 10
0.0
 20
0.0
 30
0.0
  9
$USERI1
 70
     0
  9
$USERI2
 70
     0
  9
$USERI3
 70
     0
  9
$USERI4
 70
     0
  9
$USERI5
 70
     0
  9
$USERR1
 40
0.0
  9
$USERR2
 40
0.0
  9
$USERR3
 40
0.0
  9
$USERR4
 40
0.0
  9
$USERR5
 40
2.5
  9
$WORLDVIEW
 70
     1
  9
$SHADEDGE
 70
     3
  9
$SHADEDIF
 70
    70
  9
$TILEMODE
 70
     1
  9
$MAXACTVP
 70
    64
  9
$PINSBASE
 10
0.0
 20
0.0
 30
0.0
  9
$PLIMCHECK
 70
     0
  9
$PEXTMIN
 10
0.0
 20
0.0
 30
0.0
  9
$PEXTMAX
 10
0.0
 20
0.0
 30
0.0
  9
$PLIMMIN
 10
0.0
 20
0.0
  9
$PLIMMAX
 10
12.0
 20
9.0
  9
$UNITMODE
 70
     0
  9
$VISRETAIN
 70
     1
  9
$PLINEGEN
 70
     0
  9
$PSLTSCALE
 70
     1
  9
$TREEDEPTH
 70
  3020
  9
$CMLSTYLE
  2
Standard
  9
$CMLJUST
 70
     0
  9
$CMLSCALE
 40
20.0
  9
$PROXYGRAPHICS
 70
     1
  9
$MEASUREMENT
 70
     1
  9
$CELWEIGHT
370
    20
  9
$ENDCAPS
280
     0
  9
$JOINSTYLE
280
     0
  9
$LWDISPLAY
290
     0
  9
$INSUNITS
 70
     4
  9
$HYPERLINKBASE
  1

  9
$STYLESHEET
  1

  9
$XEDIT
290
     1
  9
$CEPSNTYPE
380
     0
  9
$PSTYLEMODE
290
     1
  9
$FINGERPRINTGUID
  2
{FDEAD578-A652-11D2-9A35-0060089B3A3F}
  9
$VERSIONGUID
  2
{E9BC6680-BA4B-8043-8FF3-87F24DA86B63}
  9
$EXTNAMES
290
     1
  9
$PSVPSCALE
 40
0.0
  9
$OLESTARTUP
290
     0
  9
$SORTENTS
280
   127
  9
$INDEXCTL
280
     0
  9
$HIDETEXT
280
     1
  9
$XCLIPFRAME
280
     0
  9
$HALOGAP
280
     0
  9
$OBSCOLOR
 70
   257
  9
$OBSLTYPE
280
     0
  9
$INTERSECTIONDISPLAY
280
     0
  9
$INTERSECTIONCOLOR
 70
   257
  9
$DIMASSOC
280
     2
  9
$PROJECTNAME
  1

  9
$CAMERADISPLAY
290
     0
  9
$LENSLENGTH
 40
50.0
  9
$CAMERAHEIGHT
 40
0.0
  9
$STEPSPERSEC
 40
2.0
  9
$STEPSIZE
 40
6.0
  9
$3DDWFPREC
 40
2.0
  9
$PSOLWIDTH
 40
0.25
  9
$PSOLHEIGHT
 40
4.0
  9
$LOFTANG1
 40
1.570796326794896
  9
$LOFTANG2
 40
1.570796326794896
  9
$LOFTMAG1
 40
0.0
  9
$LOFTMAG2
 40
0.0
  9
$LOFTPARAM
 70
     7
  9
$LOFTNORMALS
280
     1
  9
$LATITUDE
 40
37.795
  9
$LONGITUDE
 40
-122.394
  9
$NORTHDIRECTION
 40
0.0
  9
$TIMEZONE
 70
 -8000
  9
$LIGHTGLYPHDISPLAY
280
     1
  9
$TILEMODELIGHTSYNCH
280
     1
  9
$CMATERIAL
347
8C79
  9
$SOLIDHIST
280
     1
  9
$SHOWHIST
280
     1
  9
$DWFFRAME
280
     2
  9
$DGNFRAME
280
     0
  9
$REALWORLDSCALE
290
     1
  9
$INTERFERECOLOR
 62
     1
  9
$INTERFEREOBJVS
345
8C86
  9
$INTERFEREVPVS
346
8CB7
  9
$CSHADOW
280
     0
  9
$SHADOWPLANELOCATION
 40
0.0
  0
ENDSEC
  0
SECTION
  2
CLASSES
  0
CLASS
  1
ACDBDICTIONARYWDFLT
  2
AcDbDictionaryWithDefault
  3
ObjectDBX Classes
 90
        0
 91
        1
280
     0
281
     0
  0
CLASS
  1
ACDBPLACEHOLDER
  2
AcDbPlaceHolder
  3
ObjectDBX Classes
 90
        0
 91
        1
280
     0
281
     0
  0
CLASS
  1
LAYOUT
  2
AcDbLayout
  3
ObjectDBX Classes
 90
        0
 91
        3
280
     0
281
     0
  0
CLASS
  1
DICTIONARYVAR
  2
AcDbDictionaryVar
  3
ObjectDBX Classes
 90
        0
 91
       28
280
     0
281
     0
  0
CLASS
  1
DIMASSOC
  2
AcDbDimAssoc
  3
"AcDbDimAssoc|Product Desc:     AcDim ARX App For Dimension|Company:          Autodesk, Inc.|WEB Address:      www.autodesk.com"
 90
        0
 91
       15
280
     0
281
     0
  0
CLASS
  1
MATERIAL
  2
AcDbMaterial
  3
ObjectDBX Classes
 90
     1153
 91
        3
280
     0
281
     0
  0
CLASS
  1
VISUALSTYLE
  2
AcDbVisualStyle
  3
ObjectDBX Classes
 90
     4095
 91
       26
280
     0
281
     0
  0
CLASS
  1
TABLESTYLE
  2
AcDbTableStyle
  3
ObjectDBX Classes
 90
     4095
 91
        1
280
     0
281
     0
  0
CLASS
  1
VLO-VL
  2
vlo_VL
  3
VL|AutoLISP based application
 90
      129
 91
        2
280
     0
281
     0
  0
CLASS
  1
SCALE
  2
AcDbScale
  3
ObjectDBX Classes
 90
     1153
 91
       17
280
     0
281
     0
  0
CLASS
  1
MLEADERSTYLE
  2
AcDbMLeaderStyle
  3
ACDB_MLEADERSTYLE_CLASS
 90
     4095
 91
        1
280
     0
281
     0
  0
CLASS
  1
ACDBSECTIONVIEWSTYLE
  2
AcDbSectionViewStyle
  3
ObjectDBX Classes
 90
     1025
 91
        1
280
     0
281
     0
  0
CLASS
  1
ACDBDETAILVIEWSTYLE
  2
AcDbDetailViewStyle
  3
ObjectDBX Classes
 90
     1025
 91
        1
280
     0
281
     0
  0
CLASS
  1
CELLSTYLEMAP
  2
AcDbCellStyleMap
  3
ObjectDBX Classes
 90
     1152
 91
        1
280
     0
281
     0
  0
ENDSEC
  0
SECTION
  2
TABLES
  0
TABLE
  2
VPORT
  5
8
330
0
100
AcDbSymbolTable
 70
     1
  0
VPORT
  5
8C77
330
8
100
AcDbSymbolTableRecord
100
AcDbViewportTableRecord
  2
*Active
 70
     0
 10
0.0
 20
0.0
 11
1.0
 21
1.0
 12
-14202.2912184836
 22
9572.170296383285
 13
0.0
 23
0.0
 14
10.0
 24
10.0
 15
10.0
 25
10.0
 16
0.0
 26
0.0
 36
1.0
 17
0.0
 27
0.0
 37
0.0
 40
1977.882645886075
 41
1.913595933926302
 42
50.0
 43
0.0
 44
0.0
 50
0.0
 51
0.0
 71
     0
 72
  1000
 73
     1
 74
     3
 75
     0
 76
     0
 77
     0
 78
     0
281
     0
 65
     1
110
0.0
120
0.0
130
0.0
111
1.0
121
0.0
131
0.0
112
0.0
122
1.0
132
0.0
 79
     0
146
0.0
348
8C82
 60
     3
 61
     5
292
     1
282
     1
141
0.0
142
0.0
 63
   250
421
  3355443
1001
ACAD_NAV_VCDISPLAY
1070
     3
  0
ENDTAB
  0
TABLE
  2
LTYPE
  5
5
330
0
100
AcDbSymbolTable
 70
     4
  0
LTYPE
  5
14
330
5
100
AcDbSymbolTableRecord
100
AcDbLinetypeTableRecord
  2
ByBlock
 70
     0
  3

 72
    65
 73
     0
 40
0.0
  0
LTYPE
  5
15
330
5
100
AcDbSymbolTableRecord
100
AcDbLinetypeTableRecord
  2
ByLayer
 70
     0
  3

 72
    65
 73
     0
 40
0.0
  0
LTYPE
  5
16
330
5
100
AcDbSymbolTableRecord
100
AcDbLinetypeTableRecord
  2
Continuous
 70
     0
  3
Solid line
 72
    65
 73
     0
 40
0.0
  0
LTYPE
  5
562D
330
5
100
AcDbSymbolTableRecord
100
AcDbLinetypeTableRecord
  2
CENTER
 70
     0
  3
Center ____ _ ____ _ ____ _ ____ _ ____ _ ____
 72
    65
 73
     4
 40
50.8
 49
31.75
 74
     0
 49
-6.349999999999999
 74
     0
 49
6.349999999999999
 74
     0
 49
-6.349999999999999
 74
     0
  0
LTYPE
  5
8096
330
5
100
AcDbSymbolTableRecord
100
AcDbLinetypeTableRecord
  2
ACAD_ISO02W100
 70
     0
  3
ISO dash __ __ __ __ __ __ __ __ __ __ __ __ __
 72
    65
 73
     2
 40
15.0
 49
12.0
 74
     0
 49
-3.0
 74
     0
  0
ENDTAB
  0
TABLE
  2
LAYER
  5
2
330
0
100
AcDbSymbolTable
 70
     7
  0
LAYER
  5
10
102
{ACAD_XDICTIONARY
360
8DF1
102
}
330
2
100
AcDbSymbolTableRecord
100
AcDbLayerTableRecord
  2
0
 70
     0
 62
     7
  6
Continuous
370
    25
390
F
347
8C7B
348
0
  0
LAYER
  5
84
102
{ACAD_XDICTIONARY
360
8DF3
102
}
330
2
100
AcDbSymbolTableRecord
100
AcDbLayerTableRecord
  2
base
 70
     0
 62
     4
  6
Continuous
370
    40
390
F
347
8C7B
348
0
  0
LAYER
  5
1DA
330
2
100
AcDbSymbolTableRecord
100
AcDbLayerTableRecord
  2
Defpoints
 70
     0
 62
     7
  6
Continuous
290
     0
370
    -3
390
F
347
8C7B
348
0
  0
LAYER
  5
2D93
102
{ACAD_XDICTIONARY
360
8DF5
102
}
330
2
100
AcDbSymbolTableRecord
100
AcDbLayerTableRecord
  2
DIM
 70
     0
 62
     7
  6
Continuous
370
    13
390
F
347
8C7B
348
0
  0
LAYER
  5
5567
102
{ACAD_XDICTIONARY
360
8DF7
102
}
330
2
100
AcDbSymbolTableRecord
100
AcDbLayerTableRecord
  2
DEFAULT
 70
     0
 62
     7
  6
Continuous
370
    30
390
F
347
8C7B
348
0
  0
LAYER
  5
8057
102
{ACAD_XDICTIONARY
360
8DF9
102
}
330
2
100
AcDbSymbolTableRecord
100
AcDbLayerTableRecord
  2
图层1
 70
     0
 62
     1
  6
Continuous
370
    20
390
F
347
8C7B
348
0
1001
AcadStringInfo
1000
MIFCodePage
1070
     5
  0
LAYER
  5
8058
102
{ACAD_XDICTIONARY
360
8DFB
102
}
330
2
100
AcDbSymbolTableRecord
100
AcDbLayerTableRecord
  2
图层2
 70
     0
 62
     5
  6
Continuous
370
    20
390
F
347
8C7B
348
0
1001
AcadStringInfo
1000
MIFCodePage
1070
     5
  0
ENDTAB
  0
TABLE
  2
STYLE
  5
3
330
0
100
AcDbSymbolTable
 70
     3
  0
STYLE
  5
11
330
3
100
AcDbSymbolTableRecord
100
AcDbTextStyleTableRecord
  2
Standard
 70
     0
 40
0.0
 41
1.0
 50
0.0
 71
     0
 42
2.5
  3
txt
  4

  0
STYLE
  5
5568
330
3
100
AcDbSymbolTableRecord
100
AcDbTextStyleTableRecord
  2
arial_ttf
 70
     0
 40
0.0
 41
1.0
 50
0.0
 71
     0
 42
0.2
  3
arial.ttf
  4

1001
ACAD
1000
Arial
1071
    34306
  0
STYLE
  5
562C
330
3
100
AcDbSymbolTableRecord
100
AcDbTextStyleTableRecord
  2

 70
     1
 40
0.0
 41
1.0
 50
0.0
 71
     0
 42
2.5
  3
ltypeshp.shx
  4

  0
ENDTAB
  0
TABLE
  2
VIEW
  5
6
330
0
100
AcDbSymbolTable
 70
     0
  0
ENDTAB
  0
TABLE
  2
UCS
  5
7
330
0
100
AcDbSymbolTable
 70
     0
  0
ENDTAB
  0
TABLE
  2
APPID
  5
9
330
0
100
AcDbSymbolTable
 70
     7
  0
APPID
  5
12
330
9
100
AcDbSymbolTableRecord
100
AcDbRegAppTableRecord
  2
ACAD
 70
     0
  0
APPID
  5
5388
330
9
100
AcDbSymbolTableRecord
100
AcDbRegAppTableRecord
  2
DCO15
 70
     0
  0
APPID
  5
8CA0
330
9
100
AcDbSymbolTableRecord
100
AcDbRegAppTableRecord
  2
ACAD_PSEXT
 70
     0
  0
APPID
  5
8CDA
330
9
100
AcDbSymbolTableRecord
100
AcDbRegAppTableRecord
  2
AcadStringInfo
 70
     0
  0
APPID
  5
8CE3
330
9
100
AcDbSymbolTableRecord
100
AcDbRegAppTableRecord
  2
ACAD_NAV_VCDISPLAY
 70
     0
  0
APPID
  5
8CEC
330
9
100
AcDbSymbolTableRecord
100
AcDbRegAppTableRecord
  2
AcadAnnoMonitorAlertIconDisabled
 70
     0
  0
APPID
  5
8CED
330
9
100
AcDbSymbolTableRecord
100
AcDbRegAppTableRecord
  2
ACAD_EXEMPT_FROM_CAD_STANDARDS
 70
     0
  0
ENDTAB
  0
TABLE
  2
DIMSTYLE
  5
A
330
0
100
AcDbSymbolTable
 70
     2
100
AcDbDimStyleTable
 71
     1
340
27
  0
DIMSTYLE
105
27
102
{ACAD_REACTORS
330
7284
330
729C
330
72B4
330
72CC
330
7A3E
330
7A53
330
7A6B
330
7A83
330
7A9B
330
7AF7
330
7B87
330
7BA0
330
7BC4
330
7BE8
330
732B
102
}
330
A
100
AcDbSymbolTableRecord
100
AcDbDimStyleTableRecord
  2
ISO-25
 70
     0
 41
2.0
 42
1.0
 43
3.75
 44
1.25
 73
     0
 74
     0
 77
     1
 78
     8
140
3.0
141
2.5
143
0.03937007874016
147
5.0
171
     3
172
     1
271
     2
272
     2
274
     3
278
    44
283
     0
284
     8
340
11
  0
DIMSTYLE
105
4350
330
A
100
AcDbSymbolTableRecord
100
AcDbDimStyleTableRecord
  2
Standard
 70
     0
 41
13.0
 42
5.0
 43
2.0
 44
5.0
 73
     0
 74
     0
 77
     1
 78
    12
 79
     3
140
20.0
141
4.0
147
4.0
179
     2
340
11
  0
ENDTAB
  0
TABLE
  2
BLOCK_RECORD
  5
1
330
0
100
AcDbSymbolTable
 70
   102
  0
BLOCK_RECORD
  5
1F
330
1
100
AcDbSymbolTableRecord
100
AcDbBlockTableRecord
  2
*Model_Space
340
22
 70
     0
280
     1
281
     0
  0
BLOCK_RECORD
  5
50
330
1
100
AcDbSymbolTableRecord
100
AcDbBlockTableRecord
  2
*Paper_Space
340
51
 70
     0
280
     1
281
     0
  0
BLOCK_RECORD
  5
55
330
1
100
AcDbSymbolTableRecord
100
AcDbBlockTableRecord
  2
*Paper_Space0
340
56
 70
     0
280
     1
281
     0
  0
BLOCK_RECORD
  5
5563
330
1
100
AcDbSymbolTableRecord
100
AcDbBlockTableRecord
  2
SE13
340
0
102
{BLKREFS
331
55BB
331
5BE9
331
5D78
331
5941
331
7441
331
811B
331
8519
331
8AF5
102
}
 70
     0
280
     1
281
     0
  0
BLOCK_RECORD
  5
7285
330
1
100
AcDbSymbolTableRecord
100
AcDbBlockTableRecord
  2
*D57
340
0
 70
     0
280
     1
281
     0
  0
BLOCK_RECORD
  5
729D
330
1
100
AcDbSymbolTableRecord
100
AcDbBlockTableRecord
  2
*D58
340
0
 70
     0
280
     1
281
     0
  0
BLOCK_RECORD
  5
72B5
330
1
100
AcDbSymbolTableRecord
100
AcDbBlockTableRecord
  2
*D59
340
0
 70
     0
280
     1
281
     0
  0
BLOCK_RECORD
  5
72CD
330
1
100
AcDbSymbolTableRecord
100
AcDbBlockTableRecord
  2
*D60
340
0
 70
     0
280
     1
281
     0
  0
BLOCK_RECORD
  5
732C
330
1
100
AcDbSymbolTableRecord
100
AcDbBlockTableRecord
  2
*D61
340
0
 70
     0
280
     1
281
     0
  0
BLOCK_RECORD
  5
7A3F
330
1
100
AcDbSymbolTableRecord
100
AcDbBlockTableRecord
  2
*D62
340
0
 70
     0
280
     1
281
     0
  0
BLOCK_RECORD
  5
7A54
330
1
100
AcDbSymbolTableRecord
100
AcDbBlockTableRecord
  2
*D63
340
0
 70
     0
280
     1
281
     0
  0
BLOCK_RECORD
  5
7A6C
330
1
100
AcDbSymbolTableRecord
100
AcDbBlockTableRecord
  2
*D64
340
0
 70
     0
280
     1
281
     0
  0
BLOCK_RECORD
  5
7A84
330
1
100
AcDbSymbolTableRecord
100
AcDbBlockTableRecord
  2
*D65
340
0
 70
     0
280
     1
281
     0
  0
BLOCK_RECORD
  5
7A9C
330
1
100
AcDbSymbolTableRecord
100
AcDbBlockTableRecord
  2
*D66
340
0
 70
     0
280
     1
281
     0
  0
BLOCK_RECORD
  5
7AF8
330
1
100
AcDbSymbolTableRecord
100
AcDbBlockTableRecord
  2
*D67
340
0
 70
     0
280
     1
281
     0
  0
BLOCK_RECORD
  5
7B88
330
1
100
AcDbSymbolTableRecord
100
AcDbBlockTableRecord
  2
*D68
340
0
 70
     0
280
     1
281
     0
  0
BLOCK_RECORD
  5
7BA1
330
1
100
AcDbSymbolTableRecord
100
AcDbBlockTableRecord
  2
*D69
340
0
 70
     0
280
     1
281
     0
  0
BLOCK_RECORD
  5
7BC5
330
1
100
AcDbSymbolTableRecord
100
AcDbBlockTableRecord
  2
*D70
340
0
 70
     0
280
     1
281
     0
  0
BLOCK_RECORD
  5
7BE9
330
1
100
AcDbSymbolTableRecord
100
AcDbBlockTableRecord
  2
*D71
340
0
 70
     0
280
     1
281
     0
  0
ENDTAB
  0
ENDSEC
  0
SECTION
  2
BLOCKS
  0
BLOCK
  5
20
330
1F
100
AcDbEntity
  8
0
100
AcDbBlockBegin
  2
*Model_Space
 70
     0
 10
0.0
 20
0.0
 30
0.0
  3
*Model_Space
  1

  0
ENDBLK
  5
21
330
1F
100
AcDbEntity
  8
0
100
AcDbBlockEnd
  0
BLOCK
  5
52
330
50
100
AcDbEntity
 67
     1
  8
0
100
AcDbBlockBegin
  2
*Paper_Space
 70
     0
 10
0.0
 20
0.0
 30
0.0
  3
*Paper_Space
  1

  0
ENDBLK
  5
53
330
50
100
AcDbEntity
 67
     1
  8
0
100
AcDbBlockEnd
  0
BLOCK
  5
57
330
55
100
AcDbEntity
 67
     1
  8
0
100
AcDbBlockBegin
  2
*Paper_Space0
 70
     0
 10
0.0
 20
0.0
 30
0.0
  3
*Paper_Space0
  1

  0
ENDBLK
  5
58
330
55
100
AcDbEntity
 67
     1
  8
0
100
AcDbBlockEnd
  0
BLOCK
  5
5564
330
5563
100
AcDbEntity
  8
DEFAULT
 62
     1
 48
0.0
370
     0
100
AcDbBlockBegin
  2
SE13
 70
     0
 10
0.0
 20
0.0
 30
0.0
  3
SE13
  1

  0
TEXT
  5
5565
330
5563
100
AcDbEntity
  8
0
  6
Continuous
 62
   136
370
     0
100
AcDbText
 10
531.075280003713
 20
16.1647734594651
 30
0.0
 40
3.5
  1
 
  7
arial_ttf
 11
531.075280003713
 21
19.6647734594651
 31
0.0
100
AcDbText
 73
     3
  0
ENDBLK
  5
5566
330
5563
100
AcDbEntity
  8
0
 62
   136
370
     0
100
AcDbBlockEnd
  0
BLOCK
  5
728F
330
7285
100
AcDbEntity
  8
0
370
     9
100
AcDbBlockBegin
  2
*D57
 70
     1
 10
0.0
 20
0.0
 30
0.0
  3
*D57
  1

  0
LINE
  5
8DA7
330
7285
100
AcDbEntity
  8
DIM
 62
     0
440
 16777216
370
    -2
100
AcDbLine
 10
-13810.63664323582
 20
9697.50950576194
 30
0.0
 11
-13810.63664323582
 21
9754.004014591803
 31
0.0
  0
LINE
  5
8DA8
330
7285
100
AcDbEntity
  8
DIM
 62
     0
440
 16777216
370
    -2
100
AcDbLine
 10
-13630.63664323582
 20
9697.509505761944
 30
0.0
 11
-13630.63664323582
 21
9754.004014591803
 31
0.0
  0
LINE
  5
8DA9
330
7285
100
AcDbEntity
  8
DIM
 62
     0
440
 16777216
370
    -2
100
AcDbLine
 10
-13795.63664323582
 20
9752.754014591802
 30
0.0
 11
-13645.63664323582
 21
9752.754014591802
 31
0.0
  0
LINE
  5
8DAA
330
7285
100
AcDbEntity
  8
DIM
 62
     0
440
 16777216
370
    -2
100
AcDbLine
 10
-13630.63664323582
 20
9752.754014591802
 30
0.0
 11
-13370.63664323582
 21
9752.754014591802
 31
0.0
  0
SOLID
  5
8DAB
330
7285
100
AcDbEntity
  8
DIM
 62
     0
440
 16777216
370
    20
100
AcDbTrace
 10
-13795.63664323582
 20
9755.254014591804
 30
0.0
 11
-13795.63664323582
 21
9750.254014591803
 31
0.0
 12
-13810.63664323582
 22
9752.754014591802
 32
0.0
 13
-13810.63664323582
 23
9752.754014591802
 33
0.0
  0
SOLID
  5
8DAC
330
7285
100
AcDbEntity
  8
DIM
 62
     0
440
 16777216
370
    20
100
AcDbTrace
 10
-13645.63664323582
 20
9755.254014591804
 30
0.0
 11
-13645.63664323582
 21
9750.254014591803
 31
0.0
 12
-13630.63664323582
 22
9752.754014591802
 32
0.0
 13
-13630.63664323582
 23
9752.754014591802
 33
0.0
  0
MTEXT
  5
8DAD
330
7285
100
AcDbEntity
  8
DIM
 62
     0
440
 16777216
370
     9
100
AcDbMText
 10
-13493.13664323582
 20
9772.754014591804
 30
0.0
 40
30.0
 41
0.0
 46
0.0
 71
     5
 72
     1
  1
%%C90{\Ftxt|c134; [3.5"]}
 73
     1
 44
1.0
  0
POINT
  5
8DAE
330
7285
100
AcDbEntity
  8
Defpoints
 62
     0
440
 16777216
370
    20
100
AcDbPoint
 10
-13810.63664323582
 20
9692.50950576194
 30
0.0
  0
POINT
  5
8DAF
330
7285
100
AcDbEntity
  8
Defpoints
 62
     0
440
 16777216
370
    20
100
AcDbPoint
 10
-13630.63664323582
 20
9692.509505761945
 30
0.0
  0
POINT
  5
8DB0
330
7285
100
AcDbEntity
  8
Defpoints
 62
     0
440
 16777216
370
    20
100
AcDbPoint
 10
-13630.63664323582
 20
9752.754014591802
 30
0.0
  0
ENDBLK
  5
7290
330
7285
100
AcDbEntity
  8
0
370
     9
100
AcDbBlockEnd
  0
BLOCK
  5
72A7
330
729D
100
AcDbEntity
  8
0
370
     9
100
AcDbBlockBegin
  2
*D58
 70
     1
 10
0.0
 20
0.0
 30
0.0
  3
*D58
  1

  0
LINE
  5
8D93
330
729D
100
AcDbEntity
  8
DIM
 62
     0
440
 16777216
370
    -2
100
AcDbLine
 10
-13834.63664323582
 20
9703.509505761941
 30
0.0
 11
-13834.63664323582
 21
9801.010041720546
 31
0.0
  0
LINE
  5
8D94
330
729D
100
AcDbEntity
  8
DIM
 62
     0
440
 16777216
370
    -2
100
AcDbLine
 10
-13606.63664323582
 20
9703.509505761941
 30
0.0
 11
-13606.63664323582
 21
9801.010041720546
 31
0.0
  0
LINE
  5
8D95
330
729D
100
AcDbEntity
  8
DIM
 62
     0
440
 16777216
370
    -2
100
AcDbLine
 10
-13819.63664323582
 20
9799.760041720547
 30
0.0
 11
-13621.63664323582
 21
9799.760041720547
 31
0.0
  0
LINE
  5
8D96
330
729D
100
AcDbEntity
  8
DIM
 62
     0
440
 16777216
370
    -2
100
AcDbLine
 10
-13606.63664323582
 20
9799.760041720547
 30
0.0
 11
-13331.63664323582
 21
9799.760041720547
 31
0.0
  0
SOLID
  5
8D97
330
729D
100
AcDbEntity
  8
DIM
 62
     0
440
 16777216
370
    20
100
AcDbTrace
 10
-13819.63664323582
 20
9802.260041720547
 30
0.0
 11
-13819.63664323582
 21
9797.260041720548
 31
0.0
 12
-13834.63664323582
 22
9799.760041720547
 32
0.0
 13
-13834.63664323582
 23
9799.760041720547
 33
0.0
  0
SOLID
  5
8D98
330
729D
100
AcDbEntity
  8
DIM
 62
     0
440
 16777216
370
    20
100
AcDbTrace
 10
-13621.63664323582
 20
9802.260041720547
 30
0.0
 11
-13621.63664323582
 21
9797.260041720548
 31
0.0
 12
-13606.63664323582
 22
9799.760041720547
 32
0.0
 13
-13606.63664323582
 23
9799.760041720547
 33
0.0
  0
MTEXT
  5
8D99
330
729D
100
AcDbEntity
  8
DIM
 62
     0
440
 16777216
370
     9
100
AcDbMText
 10
-13461.63664323583
 20
9819.760041720547
 30
0.0
 40
30.0
 41
0.0
 46
0.0
 71
     5
 72
     1
  1
%%C114{\Ftxt|c134; [4.5"]}
 73
     1
 44
1.0
  0
POINT
  5
8D9A
330
729D
100
AcDbEntity
  8
Defpoints
 62
     0
440
 16777216
370
    20
100
AcDbPoint
 10
-13834.63664323582
 20
9698.50950576194
 30
0.0
  0
POINT
  5
8D9B
330
729D
100
AcDbEntity
  8
Defpoints
 62
     0
440
 16777216
370
    20
100
AcDbPoint
 10
-13606.63664323582
 20
9698.50950576194
 30
0.0
  0
POINT
  5
8D9C
330
729D
100
AcDbEntity
  8
Defpoints
 62
     0
440
 16777216
370
    20
100
AcDbPoint
 10
-13606.63664323582
 20
9799.760041720547
 30
0.0
  0
ENDBLK
  5
72A8
330
729D
100
AcDbEntity
  8
0
370
     9
100
AcDbBlockEnd
  0
BLOCK
  5
72BF
330
72B5
100
AcDbEntity
  8
0
370
     9
100
AcDbBlockBegin
  2
*D59
 70
     1
 10
0.0
 20
0.0
 30
0.0
  3
*D59
  1

  0
LINE
  5
8DBB
330
72B5
100
AcDbEntity
  8
DIM
 62
     0
440
 16777216
370
    -2
100
AcDbLine
 10
-13841.69074240357
 20
9697.169492380004
 30
0.0
 11
-13841.69074240357
 21
9600.236603345118
 31
0.0
  0
LINE
  5
8DBC
330
72B5
100
AcDbEntity
  8
DIM
 62
     0
440
 16777216
370
    -2
100
AcDbLine
 10
-13599.58254406806
 20
9697.169492380004
 30
0.0
 11
-13599.58254406806
 21
9600.236603345118
 31
0.0
  0
LINE
  5
8DBD
330
72B5
100
AcDbEntity
  8
DIM
 62
     0
440
 16777216
370
    -2
100
AcDbLine
 10
-13826.69074240357
 20
9601.486603345119
 30
0.0
 11
-13614.58254406806
 21
9601.486603345119
 31
0.0
  0
LINE
  5
8DBE
330
72B5
100
AcDbEntity
  8
DIM
 62
     0
440
 16777216
370
    -2
100
AcDbLine
 10
-13599.58254406806
 20
9601.486603345119
 30
0.0
 11
-13319.58254406806
 21
9601.486603345119
 31
0.0
  0
SOLID
  5
8DBF
330
72B5
100
AcDbEntity
  8
DIM
 62
     0
440
 16777216
370
    20
100
AcDbTrace
 10
-13826.69074240357
 20
9603.986603345118
 30
0.0
 11
-13826.69074240357
 21
9598.986603345117
 31
0.0
 12
-13841.69074240357
 22
9601.486603345119
 32
0.0
 13
-13841.69074240357
 23
9601.486603345119
 33
0.0
  0
SOLID
  5
8DC0
330
72B5
100
AcDbEntity
  8
DIM
 62
     0
440
 16777216
370
    20
100
AcDbTrace
 10
-13614.58254406806
 20
9603.986603345118
 30
0.0
 11
-13614.58254406806
 21
9598.986603345117
 31
0.0
 12
-13599.58254406806
 22
9601.486603345119
 32
0.0
 13
-13599.58254406806
 23
9601.486603345119
 33
0.0
  0
MTEXT
  5
8DC1
330
72B5
100
AcDbEntity
  8
DIM
 62
     0
440
 16777216
370
     9
100
AcDbMText
 10
-13452.08254406806
 20
9621.486603345118
 30
0.0
 40
30.0
 41
0.0
 46
0.0
 71
     5
 72
     1
  1
%%C120{\Ftxt|c134; [4.7"]}
 73
     1
 44
1.0
  0
POINT
  5
8DC2
330
72B5
100
AcDbEntity
  8
Defpoints
 62
     0
440
 16777216
370
    20
100
AcDbPoint
 10
-13841.69074240357
 20
9702.169492380003
 30
0.0
  0
POINT
  5
8DC3
330
72B5
100
AcDbEntity
  8
Defpoints
 62
     0
440
 16777216
370
    20
100
AcDbPoint
 10
-13599.58254406806
 20
9702.169492380003
 30
0.0
  0
POINT
  5
8DC4
330
72B5
100
AcDbEntity
  8
Defpoints
 62
     0
440
 16777216
370
    20
100
AcDbPoint
 10
-13599.58254406806
 20
9601.486603345119
 30
0.0
  0
ENDBLK
  5
72C0
330
72B5
100
AcDbEntity
  8
0
370
     9
100
AcDbBlockEnd
  0
BLOCK
  5
72D9
330
72CD
100
AcDbEntity
  8
0
370
     9
100
AcDbBlockBegin
  2
*D60
 70
     1
 10
0.0
 20
0.0
 30
0.0
  3
*D60
  1

  0
LINE
  5
8DE6
330
72CD
100
AcDbEntity
  8
DIM
 62
     0
440
 16777216
370
    -2
100
AcDbLine
 10
-13845.63664323582
 20
9704.509505761944
 30
0.0
 11
-13913.89186847122
 21
9704.509505761944
 31
0.0
  0
LINE
  5
8DE7
330
72CD
100
AcDbEntity
  8
DIM
 62
     0
440
 16777216
370
    -2
100
AcDbLine
 10
-13839.63664323582
 20
9698.509505761945
 30
0.0
 11
-13913.89186847122
 21
9698.509505761945
 31
0.0
  0
LINE
  5
8DE8
330
72CD
100
AcDbEntity
  8
DIM
 62
     0
440
 16777216
370
    -2
100
AcDbLine
 10
-13912.64186847122
 20
9683.509505761945
 30
0.0
 11
-13912.64186847122
 21
9668.509505761944
 31
0.0
  0
LINE
  5
8DE9
330
72CD
100
AcDbEntity
  8
DIM
 62
     0
440
 16777216
370
    -2
100
AcDbLine
 10
-13912.64186847122
 20
9719.509505761944
 30
0.0
 11
-13912.64186847122
 21
9914.509505761945
 31
0.0
  0
LINE
  5
8DEA
330
72CD
100
AcDbEntity
  8
DIM
 62
     0
440
 16777216
370
    -2
100
AcDbLine
 10
-13912.64186847122
 20
9698.509505761945
 30
0.0
 11
-13912.64186847122
 21
9704.509505761944
 31
0.0
  0
SOLID
  5
8DEB
330
72CD
100
AcDbEntity
  8
DIM
 62
     0
440
 16777216
370
    20
100
AcDbTrace
 10
-13915.14186847122
 20
9683.509505761945
 30
0.0
 11
-13910.14186847122
 21
9683.509505761945
 31
0.0
 12
-13912.64186847122
 22
9698.509505761945
 32
0.0
 13
-13912.64186847122
 23
9698.509505761945
 33
0.0
  0
SOLID
  5
8DEC
330
72CD
100
AcDbEntity
  8
DIM
 62
     0
440
 16777216
370
    20
100
AcDbTrace
 10
-13915.14186847122
 20
9719.509505761944
 30
0.0
 11
-13910.14186847122
 21
9719.509505761944
 31
0.0
 12
-13912.64186847122
 22
9704.509505761944
 32
0.0
 13
-13912.64186847122
 23
9704.509505761944
 33
0.0
  0
MTEXT
  5
8DED
330
72CD
100
AcDbEntity
  8
DIM
 62
     0
440
 16777216
370
     9
100
AcDbMText
 10
-13932.64186847122
 20
9824.509505761945
 30
0.0
 40
30.0
 41
0.0
 46
0.0
 71
     5
 72
     1
  1
3{\Ftxt|c134; [.12"]}
 11
0.0000000000000001
 21
1.0
 31
0.0
 73
     1
 44
1.0
  0
POINT
  5
8DEE
330
72CD
100
AcDbEntity
  8
Defpoints
 62
     0
440
 16777216
370
    20
100
AcDbPoint
 10
-13840.63664323582
 20
9704.509505761944
 30
0.0
  0
POINT
  5
8DEF
330
72CD
100
AcDbEntity
  8
Defpoints
 62
     0
440
 16777216
370
    20
100
AcDbPoint
 10
-13834.63664323582
 20
9698.509505761945
 30
0.0
  0
POINT
  5
8DF0
330
72CD
100
AcDbEntity
  8
Defpoints
 62
     0
440
 16777216
370
    20
100
AcDbPoint
 10
-13912.64186847122
 20
9698.509505761945
 30
0.0
  0
ENDBLK
  5
72DA
330
72CD
100
AcDbEntity
  8
0
370
     9
100
AcDbBlockEnd
  0
BLOCK
  5
7338
330
732C
100
AcDbEntity
  8
0
370
     9
100
AcDbBlockBegin
  2
*D61
 70
     1
 10
0.0
 20
0.0
 30
0.0
  3
*D61
  1

  0
LINE
  5
8DD0
330
732C
100
AcDbEntity
  8
DIM
 62
     0
440
 16777216
370
    -2
100
AcDbLine
 10
-13815.63664323582
 20
9692.509505761945
 30
0.0
 11
-13968.84718953552
 21
9692.509505761945
 31
0.0
  0
LINE
  5
8DD1
330
732C
100
AcDbEntity
  8
DIM
 62
     0
440
 16777216
370
    -2
100
AcDbLine
 10
-13845.63664323582
 20
9704.509505761944
 30
0.0
 11
-13968.84718953552
 21
9704.509505761944
 31
0.0
  0
LINE
  5
8DD2
330
732C
100
AcDbEntity
  8
DIM
 62
     0
440
 16777216
370
    -2
100
AcDbLine
 10
-13967.59718953552
 20
9677.509505761944
 30
0.0
 11
-13967.59718953552
 21
9662.509505761944
 31
0.0
  0
LINE
  5
8DD3
330
732C
100
AcDbEntity
  8
DIM
 62
     0
440
 16777216
370
    -2
100
AcDbLine
 10
-13967.59718953552
 20
9719.509505761944
 30
0.0
 11
-13967.59718953552
 21
9924.509505761944
 31
0.0
  0
LINE
  5
8DD4
330
732C
100
AcDbEntity
  8
DIM
 62
     0
440
 16777216
370
    -2
100
AcDbLine
 10
-13967.59718953552
 20
9692.509505761945
 30
0.0
 11
-13967.59718953552
 21
9704.509505761944
 31
0.0
  0
SOLID
  5
8DD5
330
732C
100
AcDbEntity
  8
DIM
 62
     0
440
 16777216
370
    20
100
AcDbTrace
 10
-13970.09718953552
 20
9677.509505761944
 30
0.0
 11
-13965.09718953552
 21
9677.509505761944
 31
0.0
 12
-13967.59718953552
 22
9692.509505761945
 32
0.0
 13
-13967.59718953552
 23
9692.509505761945
 33
0.0
  0
SOLID
  5
8DD6
330
732C
100
AcDbEntity
  8
DIM
 62
     0
440
 16777216
370
    20
100
AcDbTrace
 10
-13970.09718953552
 20
9719.509505761944
 30
0.0
 11
-13965.09718953552
 21
9719.509505761944
 31
0.0
 12
-13967.59718953552
 22
9704.509505761944
 32
0.0
 13
-13967.59718953552
 23
9704.509505761944
 33
0.0
  0
MTEXT
  5
8DD7
330
732C
100
AcDbEntity
  8
DIM
 62
     0
440
 16777216
370
     9
100
AcDbMText
 10
-13987.59718953552
 20
9829.509505761947
 30
0.0
 40
30.0
 41
0.0
 46
0.0
 71
     5
 72
     1
  1
6{\Ftxt|c134; [.24"]}
 11
0.0000000000000001
 21
1.0
 31
0.0
 73
     1
 44
1.0
  0
POINT
  5
8DD8
330
732C
100
AcDbEntity
  8
Defpoints
 62
     0
440
 16777216
370
    20
100
AcDbPoint
 10
-13810.63664323582
 20
9692.509505761945
 30
0.0
  0
POINT
  5
8DD9
330
732C
100
AcDbEntity
  8
Defpoints
 62
     0
440
 16777216
370
    20
100
AcDbPoint
 10
-13840.63664323582
 20
9704.509505761944
 30
0.0
  0
POINT
  5
8DDA
330
732C
100
AcDbEntity
  8
Defpoints
 62
     0
440
 16777216
370
    20
100
AcDbPoint
 10
-13967.59718953552
 20
9704.509505761944
 30
0.0
  0
ENDBLK
  5
7339
330
732C
100
AcDbEntity
  8
0
370
     9
100
AcDbBlockEnd
  0
BLOCK
  5
7A45
330
7A3F
100
AcDbEntity
  8
0
370
    20
100
AcDbBlockBegin
  2
*D62
 70
     1
 10
0.0
 20
0.0
 30
0.0
  3
*D62
  1

  0
LINE
  5
8D78
330
7A3F
100
AcDbEntity
  8
DIM
 62
     0
440
 16777216
370
    -2
100
AcDbLine
 10
-14578.00036614773
 20
9258.332238584586
 30
0.0
 11
-14459.46754395397
 21
9365.803025604991
 31
0.0
  0
MTEXT
  5
8D79
330
7A3F
100
AcDbEntity
  8
DIM
 62
     0
440
 16777216
370
     9
100
AcDbMText
 10
-14554.51633994067
 20
9340.367295195198
 30
0.0
 40
30.0
 41
8.700722833056637
 46
0.0
 71
     5
 72
     1
  1
4-R90{\Ftxt|c134; [3.5"]}
 11
0.7408301387109415
 21
0.6716924188775151
 31
0.0
 73
     1
 44
1.0
  0
SOLID
  5
8D7A
330
7A3F
100
AcDbEntity
  8
DIM
 62
     0
440
 16777216
370
    20
100
AcDbTrace
 10
-14461.14677500117
 20
9367.65510095177
 30
0.0
 11
-14457.78831290678
 21
9363.950950258216
 31
0.0
 12
-14448.35509187331
 22
9375.878411888153
 32
0.0
 13
-14448.35509187331
 23
9375.878411888153
 33
0.0
  0
POINT
  5
8D7B
330
7A3F
100
AcDbEntity
  8
Defpoints
 62
     0
440
 16777216
370
    20
100
AcDbPoint
 10
-14448.35509187331
 20
9375.878411888153
 30
0.0
  0
POINT
  5
8D7C
330
7A3F
100
AcDbEntity
  8
Defpoints
 62
     0
440
 16777216
370
    20
100
AcDbPoint
 10
-14515.0298043573
 20
9315.426094189172
 30
0.0
  0
ENDBLK
  5
7A46
330
7A3F
100
AcDbEntity
  8
0
370
    20
100
AcDbBlockEnd
  0
BLOCK
  5
7A5E
330
7A54
100
AcDbEntity
  8
0
370
    20
100
AcDbBlockBegin
  2
*D63
 70
     1
 10
0.0
 20
0.0
 30
0.0
  3
*D63
  1

  0
LINE
  5
8D14
330
7A54
100
AcDbEntity
  8
DIM
 62
     0
440
 16777216
370
    -2
100
AcDbLine
 10
-14421.50697038307
 20
9211.524578433266
 30
0.0
 11
-14421.50697038307
 21
9528.305649655099
 31
0.0
  0
LINE
  5
8D15
330
7A54
100
AcDbEntity
  8
DIM
 62
     0
440
 16777216
370
    -2
100
AcDbLine
 10
-15168.50697038306
 20
9211.524578433266
 30
0.0
 11
-15168.50697038306
 21
9528.305649655099
 31
0.0
  0
LINE
  5
8D16
330
7A54
100
AcDbEntity
  8
DIM
 62
     0
440
 16777216
370
    -2
100
AcDbLine
 10
-14436.50697038307
 20
9527.055649655098
 30
0.0
 11
-15153.50697038306
 21
9527.055649655098
 31
0.0
  0
SOLID
  5
8D17
330
7A54
100
AcDbEntity
  8
DIM
 62
     0
440
 16777216
370
    20
100
AcDbTrace
 10
-14436.50697038307
 20
9529.555649655099
 30
0.0
 11
-14436.50697038307
 21
9524.555649655097
 31
0.0
 12
-14421.50697038307
 22
9527.055649655098
 32
0.0
 13
-14421.50697038307
 23
9527.055649655098
 33
0.0
  0
SOLID
  5
8D18
330
7A54
100
AcDbEntity
  8
DIM
 62
     0
440
 16777216
370
    20
100
AcDbTrace
 10
-15153.50697038306
 20
9529.555649655099
 30
0.0
 11
-15153.50697038306
 21
9524.555649655097
 31
0.0
 12
-15168.50697038306
 22
9527.055649655098
 32
0.0
 13
-15168.50697038306
 23
9527.055649655098
 33
0.0
  0
MTEXT
  5
8D19
330
7A54
100
AcDbEntity
  8
DIM
 62
     0
440
 16777216
370
     9
100
AcDbMText
 10
-14795.00697038306
 20
9547.055649655098
 30
0.0
 40
30.0
 41
0.0
 46
0.0
 71
     5
 72
     1
  1
747{\Ftxt|c134; [29.41"]}
 73
     1
 44
1.0
  0
POINT
  5
8D1A
330
7A54
100
AcDbEntity
  8
Defpoints
 62
     0
440
 16777216
370
    20
100
AcDbPoint
 10
-14421.50697038307
 20
9206.524578433265
 30
0.0
  0
POINT
  5
8D1B
330
7A54
100
AcDbEntity
  8
Defpoints
 62
     0
440
 16777216
370
    20
100
AcDbPoint
 10
-15168.50697038306
 20
9206.524578433265
 30
0.0
  0
POINT
  5
8D1C
330
7A54
100
AcDbEntity
  8
Defpoints
 62
     0
440
 16777216
370
    20
100
AcDbPoint
 10
-15168.50697038306
 20
9527.055649655098
 30
0.0
  0
ENDBLK
  5
7A5F
330
7A54
100
AcDbEntity
  8
0
370
    20
100
AcDbBlockEnd
  0
BLOCK
  5
7A76
330
7A6C
100
AcDbEntity
  8
0
370
    20
100
AcDbBlockBegin
  2
*D64
 70
     1
 10
0.0
 20
0.0
 30
0.0
  3
*D64
  1

  0
LINE
  5
8D02
330
7A6C
100
AcDbEntity
  8
DIM
 62
     0
440
 16777216
370
    -2
100
AcDbLine
 10
-15193.50697038306
 20
9211.524578433266
 30
0.0
 11
-15193.50697038306
 21
9594.089513283877
 31
0.0
  0
LINE
  5
8D03
330
7A6C
100
AcDbEntity
  8
DIM
 62
     0
440
 16777216
370
    -2
100
AcDbLine
 10
-14396.50697038306
 20
9211.524578433266
 30
0.0
 11
-14396.50697038306
 21
9594.089513283877
 31
0.0
  0
LINE
  5
8D04
330
7A6C
100
AcDbEntity
  8
DIM
 62
     0
440
 16777216
370
    -2
100
AcDbLine
 10
-15178.50697038306
 20
9592.839513283877
 30
0.0
 11
-14411.50697038307
 21
9592.839513283877
 31
0.0
  0
SOLID
  5
8D05
330
7A6C
100
AcDbEntity
  8
DIM
 62
     0
440
 16777216
370
    20
100
AcDbTrace
 10
-15178.50697038306
 20
9595.339513283878
 30
0.0
 11
-15178.50697038306
 21
9590.339513283877
 31
0.0
 12
-15193.50697038306
 22
9592.839513283877
 32
0.0
 13
-15193.50697038306
 23
9592.839513283877
 33
0.0
  0
SOLID
  5
8D06
330
7A6C
100
AcDbEntity
  8
DIM
 62
     0
440
 16777216
370
    20
100
AcDbTrace
 10
-14411.50697038307
 20
9595.339513283878
 30
0.0
 11
-14411.50697038307
 21
9590.339513283877
 31
0.0
 12
-14396.50697038306
 22
9592.839513283877
 32
0.0
 13
-14396.50697038306
 23
9592.839513283877
 33
0.0
  0
MTEXT
  5
8D07
330
7A6C
100
AcDbEntity
  8
DIM
 62
     0
440
 16777216
370
     9
100
AcDbMText
 10
-14795.00697038306
 20
9612.839513283878
 30
0.0
 40
30.0
 41
0.0
 46
0.0
 71
     5
 72
     1
  1
797{\Ftxt|c134; [31.38"]}
 73
     1
 44
1.0
  0
POINT
  5
8D08
330
7A6C
100
AcDbEntity
  8
Defpoints
 62
     0
440
 16777216
370
    20
100
AcDbPoint
 10
-15193.50697038306
 20
9206.524578433265
 30
0.0
  0
POINT
  5
8D09
330
7A6C
100
AcDbEntity
  8
Defpoints
 62
     0
440
 16777216
370
    20
100
AcDbPoint
 10
-14396.50697038306
 20
9206.524578433265
 30
0.0
  0
POINT
  5
8D0A
330
7A6C
100
AcDbEntity
  8
Defpoints
 62
     0
440
 16777216
370
    20
100
AcDbPoint
 10
-14396.50697038306
 20
9592.839513283877
 30
0.0
  0
ENDBLK
  5
7A77
330
7A6C
100
AcDbEntity
  8
0
370
    20
100
AcDbBlockEnd
  0
BLOCK
  5
7A8E
330
7A84
100
AcDbEntity
  8
0
370
    20
100
AcDbBlockBegin
  2
*D65
 70
     1
 10
0.0
 20
0.0
 30
0.0
  3
*D65
  1

  0
LINE
  5
8D38
330
7A84
100
AcDbEntity
  8
DIM
 62
     0
440
 16777216
370
    -2
100
AcDbLine
 10
-14800.00697038307
 20
9417.02457843327
 30
0.0
 11
-15274.05109462366
 21
9417.02457843327
 31
0.0
  0
LINE
  5
8D39
330
7A84
100
AcDbEntity
  8
DIM
 62
     0
440
 16777216
370
    -2
100
AcDbLine
 10
-14800.00697038307
 20
8996.024578433269
 30
0.0
 11
-15274.05109462366
 21
8996.024578433269
 31
0.0
  0
LINE
  5
8D3A
330
7A84
100
AcDbEntity
  8
DIM
 62
     0
440
 16777216
370
    -2
100
AcDbLine
 10
-15272.80109462366
 20
9402.024578433271
 30
0.0
 11
-15272.80109462366
 21
9011.02457843327
 31
0.0
  0
SOLID
  5
8D3B
330
7A84
100
AcDbEntity
  8
DIM
 62
     0
440
 16777216
370
    20
100
AcDbTrace
 10
-15275.30109462366
 20
9402.024578433271
 30
0.0
 11
-15270.30109462366
 21
9402.024578433271
 31
0.0
 12
-15272.80109462366
 22
9417.02457843327
 32
0.0
 13
-15272.80109462366
 23
9417.02457843327
 33
0.0
  0
SOLID
  5
8D3C
330
7A84
100
AcDbEntity
  8
DIM
 62
     0
440
 16777216
370
    20
100
AcDbTrace
 10
-15275.30109462366
 20
9011.02457843327
 30
0.0
 11
-15270.30109462366
 21
9011.02457843327
 31
0.0
 12
-15272.80109462366
 22
8996.024578433269
 32
0.0
 13
-15272.80109462366
 23
8996.024578433269
 33
0.0
  0
MTEXT
  5
8D3D
330
7A84
100
AcDbEntity
  8
DIM
 62
     0
440
 16777216
370
     9
100
AcDbMText
 10
-15292.80109462365
 20
9206.524578433274
 30
0.0
 40
30.0
 41
0.0
 46
0.0
 71
     5
 72
     1
  1
421{\Ftxt|c134; [16.57"]}
 11
0.0000000000000001
 21
1.0
 31
0.0
 73
     1
 44
1.0
  0
POINT
  5
8D3E
330
7A84
100
AcDbEntity
  8
Defpoints
 62
     0
440
 16777216
370
    20
100
AcDbPoint
 10
-14795.00697038307
 20
9417.02457843327
 30
0.0
  0
POINT
  5
8D3F
330
7A84
100
AcDbEntity
  8
Defpoints
 62
     0
440
 16777216
370
    20
100
AcDbPoint
 10
-14795.00697038307
 20
8996.024578433269
 30
0.0
  0
POINT
  5
8D40
330
7A84
100
AcDbEntity
  8
Defpoints
 62
     0
440
 16777216
370
    20
100
AcDbPoint
 10
-15272.80109462366
 20
8996.024578433269
 30
0.0
  0
ENDBLK
  5
7A8F
330
7A84
100
AcDbEntity
  8
0
370
    20
100
AcDbBlockEnd
  0
BLOCK
  5
7AA6
330
7A9C
100
AcDbEntity
  8
0
370
    20
100
AcDbBlockBegin
  2
*D66
 70
     1
 10
0.0
 20
0.0
 30
0.0
  3
*D66
  1

  0
LINE
  5
8D26
330
7A9C
100
AcDbEntity
  8
DIM
 62
     0
440
 16777216
370
    -2
100
AcDbLine
 10
-14800.00697038307
 20
9442.024578433269
 30
0.0
 11
-15337.00556928265
 21
9442.024578433269
 31
0.0
  0
LINE
  5
8D27
330
7A9C
100
AcDbEntity
  8
DIM
 62
     0
440
 16777216
370
    -2
100
AcDbLine
 10
-14800.00697038307
 20
8971.024578433265
 30
0.0
 11
-15337.00556928265
 21
8971.024578433265
 31
0.0
  0
LINE
  5
8D28
330
7A9C
100
AcDbEntity
  8
DIM
 62
     0
440
 16777216
370
    -2
100
AcDbLine
 10
-15335.75556928266
 20
9427.024578433268
 30
0.0
 11
-15335.75556928266
 21
8986.024578433266
 31
0.0
  0
SOLID
  5
8D29
330
7A9C
100
AcDbEntity
  8
DIM
 62
     0
440
 16777216
370
    20
100
AcDbTrace
 10
-15338.25556928265
 20
9427.024578433268
 30
0.0
 11
-15333.25556928265
 21
9427.024578433268
 31
0.0
 12
-15335.75556928266
 22
9442.024578433269
 32
0.0
 13
-15335.75556928266
 23
9442.024578433269
 33
0.0
  0
SOLID
  5
8D2A
330
7A9C
100
AcDbEntity
  8
DIM
 62
     0
440
 16777216
370
    20
100
AcDbTrace
 10
-15338.25556928265
 20
8986.024578433266
 30
0.0
 11
-15333.25556928265
 21
8986.024578433266
 31
0.0
 12
-15335.75556928266
 22
8971.024578433265
 32
0.0
 13
-15335.75556928266
 23
8971.024578433265
 33
0.0
  0
MTEXT
  5
8D2B
330
7A9C
100
AcDbEntity
  8
DIM
 62
     0
440
 16777216
370
     9
100
AcDbMText
 10
-15355.75556928265
 20
9206.524578433272
 30
0.0
 40
30.0
 41
0.0
 46
0.0
 71
     5
 72
     1
  1
471{\Ftxt|c134; [18.54"]}
 11
0.0000000000000001
 21
1.0
 31
0.0
 73
     1
 44
1.0
  0
POINT
  5
8D2C
330
7A9C
100
AcDbEntity
  8
Defpoints
 62
     0
440
 16777216
370
    20
100
AcDbPoint
 10
-14795.00697038307
 20
9442.024578433269
 30
0.0
  0
POINT
  5
8D2D
330
7A9C
100
AcDbEntity
  8
Defpoints
 62
     0
440
 16777216
370
    20
100
AcDbPoint
 10
-14795.00697038307
 20
8971.024578433265
 30
0.0
  0
POINT
  5
8D2E
330
7A9C
100
AcDbEntity
  8
Defpoints
 62
     0
440
 16777216
370
    20
100
AcDbPoint
 10
-15335.75556928266
 20
8971.024578433265
 30
0.0
  0
ENDBLK
  5
7AA7
330
7A9C
100
AcDbEntity
  8
0
370
    20
100
AcDbBlockEnd
  0
BLOCK
  5
7AFF
330
7AF8
100
AcDbEntity
  8
0
370
    20
100
AcDbBlockBegin
  2
*D67
 70
     1
 10
0.0
 20
0.0
 30
0.0
  3
*D67
  1

  0
LINE
  5
8D83
330
7AF8
100
AcDbEntity
  8
DIM
 62
     0
440
 16777216
370
    -2
100
AcDbLine
 10
-14186.90031189872
 20
8768.144632155914
 30
0.0
 11
-14423.29467743339
 21
9005.510813284274
 31
0.0
  0
MTEXT
  5
8D84
330
7AF8
100
AcDbEntity
  8
DIM
 62
     0
440
 16777216
370
     9
100
AcDbMText
 10
-14285.63396820612
 20
8895.626650935708
 30
0.0
 40
30.0
 41
0.0
 46
0.0
 71
     5
 72
     1
  1
4-R115{\Ftxt|c134; [4.5"]}
 11
0.7056548224915486
 21
-0.708555764562269
 31
0.0
 73
     1
 44
1.0
  0
LINE
  5
8D85
330
7AF8
100
AcDbEntity
  8
DIM
 62
     0
440
 16777216
370
    -2
100
AcDbLine
 10
-14515.02980435729
 20
9097.623062677365
 30
0.0
 11
-14433.87949977076
 21
9016.139149752708
 31
0.0
  0
SOLID
  5
8D86
330
7AF8
100
AcDbEntity
  8
DIM
 62
     0
440
 16777216
370
    20
100
AcDbTrace
 10
-14421.52328802198
 20
9007.274950340503
 30
0.0
 11
-14425.0660668448
 21
9003.746676228045
 31
0.0
 12
-14433.87949977076
 22
9016.139149752708
 32
0.0
 13
-14433.87949977076
 23
9016.139149752708
 33
0.0
  0
POINT
  5
8D87
330
7AF8
100
AcDbEntity
  8
Defpoints
 62
     0
440
 16777216
370
    20
100
AcDbPoint
 10
-14433.87949977076
 20
9016.139149752708
 30
0.0
  0
POINT
  5
8D88
330
7AF8
100
AcDbEntity
  8
Defpoints
 62
     0
440
 16777216
370
    20
100
AcDbPoint
 10
-14515.02980435729
 20
9097.623062677365
 30
0.0
  0
ENDBLK
  5
7B00
330
7AF8
100
AcDbEntity
  8
0
370
    20
100
AcDbBlockEnd
  0
BLOCK
  5
7B92
330
7B88
100
AcDbEntity
  8
0
370
    20
100
AcDbBlockBegin
  2
*D68
 70
     1
 10
0.0
 20
0.0
 30
0.0
  3
*D68
  1

  0
LINE
  5
89AB
330
7B88
100
AcDbEntity
  8
DIM
 62
     0
440
 16777216
370
    -2
100
AcDbLine
 10
-15198.50697038292
 20
10006.99429431987
 30
0.0
 11
-15330.12880952211
 21
10006.99429431987
 31
0.0
  0
LINE
  5
89AC
330
7B88
100
AcDbEntity
  8
DIM
 62
     0
440
 16777216
370
    -2
100
AcDbLine
 10
-14860.00697038307
 20
9761.994294319869
 30
0.0
 11
-15330.12880952211
 21
9761.994294319869
 31
0.0
  0
LINE
  5
89AD
330
7B88
100
AcDbEntity
  8
DIM
 62
     0
440
 16777216
370
    -2
100
AcDbLine
 10
-15328.87880952211
 20
9991.994294319869
 30
0.0
 11
-15328.87880952211
 21
9776.994294319869
 31
0.0
  0
SOLID
  5
89AE
330
7B88
100
AcDbEntity
  8
DIM
 62
     0
440
 16777216
370
    20
100
AcDbTrace
 10
-15331.37880952211
 20
9991.994294319869
 30
0.0
 11
-15326.37880952211
 21
9991.994294319869
 31
0.0
 12
-15328.87880952211
 22
10006.99429431987
 32
0.0
 13
-15328.87880952211
 23
10006.99429431987
 33
0.0
  0
SOLID
  5
89AF
330
7B88
100
AcDbEntity
  8
DIM
 62
     0
440
 16777216
370
    20
100
AcDbTrace
 10
-15331.37880952211
 20
9776.994294319869
 30
0.0
 11
-15326.37880952211
 21
9776.994294319869
 31
0.0
 12
-15328.87880952211
 22
9761.994294319869
 32
0.0
 13
-15328.87880952211
 23
9761.994294319869
 33
0.0
  0
MTEXT
  5
89B0
330
7B88
100
AcDbEntity
  8
DIM
 62
     0
440
 16777216
370
     9
100
AcDbMText
 10
-15348.87880952211
 20
9884.494294319868
 30
0.0
 40
30.0
 41
0.0
 46
0.0
 71
     5
 72
     1
  1
245
 11
0.0000000000000001
 21
1.0
 31
0.0
 73
     1
 44
1.0
  0
POINT
  5
89B1
330
7B88
100
AcDbEntity
  8
Defpoints
 62
     0
440
 16777216
370
    20
100
AcDbPoint
 10
-15193.50697038292
 20
10006.99429431987
 30
0.0
  0
POINT
  5
89B2
330
7B88
100
AcDbEntity
  8
Defpoints
 62
     0
440
 16777216
370
    20
100
AcDbPoint
 10
-14855.00697038306
 20
9761.994294319869
 30
0.0
  0
POINT
  5
89B3
330
7B88
100
AcDbEntity
  8
Defpoints
 62
     0
440
 16777216
370
    20
100
AcDbPoint
 10
-15328.87880952211
 20
9761.994294319869
 30
0.0
  0
ENDBLK
  5
7B93
330
7B88
100
AcDbEntity
  8
0
370
    20
100
AcDbBlockEnd
  0
BLOCK
  5
7BB1
330
7BA1
100
AcDbEntity
  8
0
370
    20
100
AcDbBlockBegin
  2
*D69
 70
     1
 10
0.0
 20
0.0
 30
0.0
  3
*D69
  1

  0
LINE
  5
899C
330
7BA1
100
AcDbEntity
  8
DIM
 62
     0
440
 16777216
370
    -2
100
AcDbLine
 10
-15169.30074366582
 20
9962.383506494923
 30
0.0
 11
-15169.30074366583
 21
9634.109918499227
 31
0.0
  0
LINE
  5
899D
330
7BA1
100
AcDbEntity
  8
DIM
 62
     0
440
 16777216
370
    -2
100
AcDbLine
 10
-15156.55491774716
 20
9818.869274059785
 30
0.0
 11
-15143.69780480336
 21
9635.003992825554
 31
0.0
  0
ARC
  5
899E
330
7BA1
100
AcDbEntity
  8
DIM
 62
     0
440
 16777216
370
    -2
100
AcDbCircle
 10
-15169.30074366582
 20
10001.14307668859
 30
0.0
 40
365.7831581893618
100
AcDbArc
 50
265.2995224943837
 51
269.9999999999989
  0
LINE
  5
899F
330
7BA1
100
AcDbEntity
  8
DIM
 62
     0
440
 16777216
370
    -2
100
AcDbLine
 10
-15199.27550833141
 20
9636.590155567077
 30
0.0
 11
-15323.85509631943
 21
9646.833507398106
 31
0.0
  0
ARC
  5
89A0
330
7BA1
100
AcDbEntity
  8
DIM
 62
     0
440
 16777216
370
    -2
100
AcDbCircle
 10
-15169.30074366582
 20
10001.14307668859
 30
0.0
 40
365.7831581893618
100
AcDbArc
 50
265.3005112212857
 51
267.6502556106423
  0
ARC
  5
89A1
330
7BA1
100
AcDbEntity
  8
DIM
 62
     0
440
 16777216
370
    -2
100
AcDbCircle
 10
-15169.30074366582
 20
10001.14307668859
 30
0.0
 40
365.7831581893618
100
AcDbArc
 50
276.3497443893566
 51
278.6994887787133
  0
ARC
  5
89A2
330
7BA1
100
AcDbEntity
  8
DIM
 62
     0
440
 16777216
370
    -2
100
AcDbCircle
 10
-15169.30074366582
 20
10001.14307668859
 30
0.0
 40
365.7831581893618
100
AcDbArc
 50
269.9999999999989
 51
274.0
  0
SOLID
  5
89A3
330
7BA1
100
AcDbEntity
  8
DIM
 62
     0
440
 16777216
370
    20
100
AcDbTrace
 10
-15184.24633036644
 20
9638.166952195929
 30
0.0
 11
-15184.3488501221
 21
9633.168003336448
 31
0.0
 12
-15169.30074366583
 22
9635.359918499226
 32
0.0
 13
-15169.30074366583
 23
9635.359918499226
 33
0.0
  0
SOLID
  5
89A4
330
7BA1
100
AcDbEntity
  8
DIM
 62
     0
440
 16777216
370
    20
100
AcDbTrace
 10
-15128.62065009778
 20
9635.114074963688
 30
0.0
 11
-15129.07162916533
 21
9640.09369521835
 31
0.0
 12
-15143.78500039554
 22
9636.250947888377
 32
0.0
 13
-15143.78500039554
 23
9636.250947888377
 33
0.0
  0
MTEXT
  5
89A5
330
7BA1
100
AcDbEntity
  8
DIM
 62
     0
440
 16777216
370
     9
100
AcDbMText
 10
-15259.72149899583
 20
9664.136157320434
 30
0.0
 40
30.0
 41
0.0
 46
0.0
 71
     5
 72
     1
  1
4,00°
 11
0.9966367039041912
 21
-0.0819468146482173
 31
0.0
 73
     1
 44
1.0
  0
POINT
  5
89A6
330
7BA1
100
AcDbEntity
  8
Defpoints
 62
     0
440
 16777216
370
    20
100
AcDbPoint
 10
-15152.28256803438
 20
9635.75602093379
 30
0.0
  0
POINT
  5
89A7
330
7BA1
100
AcDbEntity
  8
Defpoints
 62
     0
440
 16777216
370
    20
100
AcDbPoint
 10
-15169.30074366582
 20
10001.14307668859
 30
0.0
  0
POINT
  5
89A8
330
7BA1
100
AcDbEntity
  8
Defpoints
 62
     0
440
 16777216
370
    20
100
AcDbPoint
 10
-15169.30074366582
 20
10001.14307668859
 30
0.0
  0
POINT
  5
89A9
330
7BA1
100
AcDbEntity
  8
Defpoints
 62
     0
440
 16777216
370
    20
100
AcDbPoint
 10
-15169.30074366582
 20
9967.383506494924
 30
0.0
  0
POINT
  5
89AA
330
7BA1
100
AcDbEntity
  8
Defpoints
 62
     0
440
 16777216
370
    20
100
AcDbPoint
 10
-15156.90370011588
 20
9823.857094311085
 30
0.0
  0
ENDBLK
  5
7BB2
330
7BA1
100
AcDbEntity
  8
0
370
    20
100
AcDbBlockEnd
  0
BLOCK
  5
7BD5
330
7BC5
100
AcDbEntity
  8
0
370
    20
100
AcDbBlockBegin
  2
*D70
 70
     1
 10
0.0
 20
0.0
 30
0.0
  3
*D70
  1

  0
LINE
  5
898D
330
7BC5
100
AcDbEntity
  8
DIM
 62
     0
440
 16777216
370
    -2
100
AcDbLine
 10
-15113.94477995897
 20
9776.629366785092
 30
0.0
 11
-15272.12130894184
 21
9786.303857743995
 31
0.0
  0
LINE
  5
898E
330
7BC5
100
AcDbEntity
  8
DIM
 62
     0
440
 16777216
370
    -2
100
AcDbLine
 10
-14879.66346027035
 20
9761.994294319869
 30
0.0
 11
-15272.86403327903
 21
9761.994294319876
 31
0.0
  0
ARC
  5
898F
330
7BC5
100
AcDbEntity
  8
DIM
 62
     0
440
 16777216
370
    -2
100
AcDbCircle
 10
-14874.66346027035
 20
9761.994294319869
 30
0.0
 40
396.9505730086813
100
AcDbArc
 50
172.1687737976244
 51
176.5000000000001
  0
LINE
  5
8990
330
7BC5
100
AcDbEntity
  8
DIM
 62
     0
440
 16777216
370
    -2
100
AcDbLine
 10
-15267.91196440101
 20
9816.080997038003
 30
0.0
 11
-15250.19874811802
 21
9944.868581722678
 31
0.0
  0
ARC
  5
8991
330
7BC5
100
AcDbEntity
  8
DIM
 62
     0
440
 16777216
370
    -2
100
AcDbCircle
 10
-14874.66346027035
 20
9761.994294319869
 30
0.0
 40
396.9505730086813
100
AcDbArc
 50
172.1695473257728
 51
174.3347736628865
  0
ARC
  5
8992
330
7BC5
100
AcDbEntity
  8
DIM
 62
     0
440
 16777216
370
    -2
100
AcDbCircle
 10
-14874.66346027035
 20
9761.994294319869
 30
0.0
 40
396.9505730086813
100
AcDbArc
 50
182.1652263371131
 51
184.3304526742267
  0
ARC
  5
8993
330
7BC5
100
AcDbEntity
  8
DIM
 62
     0
440
 16777216
370
    -2
100
AcDbCircle
 10
-14874.66346027035
 20
9761.994294319869
 30
0.0
 40
396.9505730086813
100
AcDbArc
 50
176.5000000000001
 51
179.9999999999994
  0
SOLID
  5
8994
330
7BC5
100
AcDbEntity
  8
DIM
 62
     0
440
 16777216
370
    20
100
AcDbTrace
 10
-15267.18318591012
 20
9800.979853510764
 30
0.0
 11
-15272.16720175774
 21
9801.379335714059
 31
0.0
 12
-15270.87364044382
 22
9786.227547069573
 32
0.0
 13
-15270.87364044382
 23
9786.227547069573
 33
0.0
  0
SOLID
  5
8995
330
7BC5
100
AcDbEntity
  8
DIM
 62
     0
440
 16777216
370
    20
100
AcDbTrace
 10
-15273.83017640844
 20
9746.949736844497
 30
0.0
 11
-15268.83106894997
 21
9747.044207044439
 31
0.0
 12
-15271.61403327903
 22
9761.994294319876
 32
0.0
 13
-15271.61403327903
 23
9761.994294319876
 33
0.0
  0
MTEXT
  5
8996
330
7BC5
100
AcDbEntity
  8
DIM
 62
     0
440
 16777216
370
     9
100
AcDbMText
 10
-15281.34551514725
 20
9883.540538352399
 30
0.0
 40
30.0
 41
0.0
 46
0.0
 71
     5
 72
     1
  1
3,50°
 11
0.1362555098691029
 21
0.9906737283436514
 31
0.0
 73
     1
 44
1.0
  0
POINT
  5
8997
330
7BC5
100
AcDbEntity
  8
Defpoints
 62
     0
440
 16777216
370
    20
100
AcDbPoint
 10
-15271.53174466524
 20
9770.076512664907
 30
0.0
  0
POINT
  5
8998
330
7BC5
100
AcDbEntity
  8
Defpoints
 62
     0
440
 16777216
370
    20
100
AcDbPoint
 10
-14855.00697038306
 20
9761.994294319869
 30
0.0
  0
POINT
  5
8999
330
7BC5
100
AcDbEntity
  8
Defpoints
 62
     0
440
 16777216
370
    20
100
AcDbPoint
 10
-14855.53401996694
 20
9760.824287628901
 30
0.0
  0
POINT
  5
899A
330
7BC5
100
AcDbEntity
  8
Defpoints
 62
     0
440
 16777216
370
    20
100
AcDbPoint
 10
-15108.95410596686
 20
9776.324124087418
 30
0.0
  0
POINT
  5
899B
330
7BC5
100
AcDbEntity
  8
Defpoints
 62
     0
440
 16777216
370
    20
100
AcDbPoint
 10
-14735.00697038307
 20
9761.994294319869
 30
0.0
  0
ENDBLK
  5
7BD6
330
7BC5
100
AcDbEntity
  8
0
370
    20
100
AcDbBlockEnd
  0
BLOCK
  5
7BEF
330
7BE9
100
AcDbEntity
  8
0
370
    20
100
AcDbBlockBegin
  2
*D71
 70
     1
 10
0.0
 20
0.0
 30
0.0
  3
*D71
  1

  0
LINE
  5
8CF4
330
7BE9
100
AcDbEntity
  8
DIM
 62
     0
440
 16777216
370
    -2
100
AcDbLine
 10
-14929.50120662562
 20
9997.52775439984
 30
0.0
 11
-15131.01802275935
 21
9803.128750247752
 31
0.0
  0
MTEXT
  5
8CF5
330
7BE9
100
AcDbEntity
  8
DIM
 62
     0
440
 16777216
370
     9
100
AcDbMText
 10
-15038.74748598548
 20
9919.929426801708
 30
0.0
 40
30.0
 41
0.0
 46
0.0
 71
     5
 72
     1
  1
R50{\Ftxt|c134; [1.97"]}
 11
0.7197029147633291
 21
0.6942821576860292
 31
0.0
 73
     1
 44
1.0
  0
SOLID
  5
8CF6
330
7BE9
100
AcDbEntity
  8
DIM
 62
     0
440
 16777216
370
    20
100
AcDbTrace
 10
-15132.75372815356
 20
9804.928007534661
 30
0.0
 11
-15129.28231736514
 21
9801.329492960844
 31
0.0
 12
-15141.8135664808
 22
9792.714517882462
 32
0.0
 13
-15141.8135664808
 23
9792.714517882462
 33
0.0
  0
POINT
  5
8CF7
330
7BE9
100
AcDbEntity
  8
Defpoints
 62
     0
440
 16777216
370
    20
100
AcDbPoint
 10
-15141.8135664808
 20
9792.714517882462
 30
0.0
  0
POINT
  5
8CF8
330
7BE9
100
AcDbEntity
  8
Defpoints
 62
     0
440
 16777216
370
    20
100
AcDbPoint
 10
-15105.82842074263
 20
9827.428625766765
 30
0.0
  0
ENDBLK
  5
7BF0
330
7BE9
100
AcDbEntity
  8
0
370
    20
100
AcDbBlockEnd
  0
ENDSEC
  0
SECTION
  2
ENTITIES
  0
INSERT
  5
55BB
330
1F
100
AcDbEntity
  8
0
 48
0.0
100
AcDbBlockReference
  2
SE13
 10
-30264.84451808856
 20
9604.540603303085
 30
0.0
 41
11.19999999999709
 42
11.19999999999709
 43
11.2
  0
INSERT
  5
5941
330
1F
100
AcDbEntity
  8
0
 48
0.0
100
AcDbBlockReference
  2
SE13
 10
-28349.36132088818
 20
7752.257145165145
 30
0.0
 41
6.719999999998253
 42
6.719999999998253
 43
6.719999999999999
  0
INSERT
  5
5BE9
330
1F
100
AcDbEntity
  8
0
 48
0.0
100
AcDbBlockReference
  2
SE13
 10
-25540.717805408
 20
9604.540603303085
 30
0.0
 41
11.19999999999709
 42
11.19999999999709
 43
11.2
  0
INSERT
  5
5D78
330
1F
100
AcDbEntity
  8
0
 48
0.0
100
AcDbBlockReference
  2
SE13
 10
-23794.42688780458
 20
7685.651422938978
 30
0.0
 41
7.391999999998079
 42
7.391999999998079
 43
7.392
  0
LINE
  5
724F
330
1F
100
AcDbEntity
  8
DIM
  6
CENTER
 62
     0
370
     9
100
AcDbLine
 10
-13720.63516131673
 20
9735.009656634343
 30
0.0
 11
-13720.63516131673
 21
9666.708682868836
 31
0.0
  0
LINE
  5
7250
330
1F
100
AcDbEntity
  8
base
 62
     0
370
    20
100
AcDbLine
 10
-13600.63664323582
 20
9704.50950576194
 30
0.0
 11
-13572.13320396172
 21
9706.252850791244
 31
0.0
  0
LINE
  5
7251
330
1F
100
AcDbEntity
  8
base
 62
     0
370
    20
100
AcDbLine
 10
-13599.58254406806
 20
9702.169492380003
 30
0.0
 11
-13572.12444051602
 21
9703.848901937607
 31
0.0
  0
LINE
  5
7252
330
1F
100
AcDbEntity
  8
base
 62
     0
370
    20
100
AcDbLine
 10
-13841.69074240357
 20
9702.169492380003
 30
0.0
 11
-13869.14588131077
 21
9703.848720612164
 31
0.0
  0
LINE
  5
7253
330
1F
100
AcDbEntity
  8
base
 62
     0
370
    20
100
AcDbLine
 10
-13840.63664323582
 20
9704.50950576194
 30
0.0
 11
-13869.13712079821
 21
9706.252669645197
 31
0.0
  0
LINE
  5
7254
330
1F
100
AcDbEntity
  8
base
 62
     0
370
    20
100
AcDbLine
 10
-13600.63664323582
 20
9704.50950576194
 30
0.0
 11
-13606.63664323582
 21
9698.50950576194
 31
0.0
  0
LINE
  5
7255
330
1F
100
AcDbEntity
  8
base
 62
     0
370
    20
100
AcDbLine
 10
-13606.63664323582
 20
9698.50950576194
 30
0.0
 11
-13630.63664323582
 21
9692.509505761945
 31
0.0
  0
LINE
  5
7256
102
{ACAD_REACTORS
330
72CB
102
}
330
1F
100
AcDbEntity
  8
base
 62
     0
370
    20
100
AcDbLine
 10
-13599.58254406806
 20
9702.169492380003
 30
0.0
 11
-13605.21498128243
 21
9696.537055165634
 31
0.0
  0
LINE
  5
7257
330
1F
100
AcDbEntity
  8
base
 62
     0
370
    20
100
AcDbLine
 10
-13605.21498128243
 20
9696.537055165634
 30
0.0
 11
-13630.07008008982
 21
9690.109505761938
 31
0.0
  0
LINE
  5
7258
330
1F
100
AcDbEntity
  8
base
 62
     0
370
    20
100
AcDbLine
 10
-13630.63664323582
 20
9692.509505761945
 30
0.0
 11
-13630.07008008982
 21
9690.109505761943
 31
0.0
  0
LINE
  5
7259
330
1F
100
AcDbEntity
  8
base
 62
     0
370
    20
100
AcDbLine
 10
-13810.63664323582
 20
9692.50950576194
 30
0.0
 11
-13811.20320638182
 21
9690.109505761938
 31
0.0
  0
LINE
  5
725A
330
1F
100
AcDbEntity
  8
base
 62
     0
370
    20
100
AcDbLine
 10
-13836.0583051892
 20
9696.537055165634
 30
0.0
 11
-13811.20320638182
 21
9690.109505761938
 31
0.0
  0
LINE
  5
725B
102
{ACAD_REACTORS
330
72CB
102
}
330
1F
100
AcDbEntity
  8
base
 62
     0
370
    20
100
AcDbLine
 10
-13841.69074240357
 20
9702.169492380003
 30
0.0
 11
-13836.0583051892
 21
9696.537055165634
 31
0.0
  0
LINE
  5
725C
330
1F
100
AcDbEntity
  8
base
 62
     0
370
    20
100
AcDbLine
 10
-13834.63664323582
 20
9698.50950576194
 30
0.0
 11
-13810.63664323582
 21
9692.50950576194
 31
0.0
  0
LINE
  5
725D
330
1F
100
AcDbEntity
  8
base
 62
     0
370
    20
100
AcDbLine
 10
-13840.63664323582
 20
9704.50950576194
 30
0.0
 11
-13834.63664323582
 21
9698.50950576194
 31
0.0
  0
LINE
  5
725E
330
1F
100
AcDbEntity
  8
base
 62
     0
370
    20
100
AcDbLine
 10
-13811.20320638182
 20
9690.109505761938
 30
0.0
 11
-13630.07008008982
 21
9690.109505761938
 31
0.0
  0
LINE
  5
725F
102
{ACAD_REACTORS
330
729B
330
7346
102
}
330
1F
100
AcDbEntity
  8
base
 62
     0
370
    20
100
AcDbLine
 10
-13810.63664323582
 20
9692.50950576194
 30
0.0
 11
-13630.63664323582
 21
9692.509505761945
 31
0.0
  0
LINE
  5
7260
102
{ACAD_REACTORS
330
72B3
330
72E7
102
}
330
1F
100
AcDbEntity
  8
base
 62
     0
370
    20
100
AcDbLine
 10
-13834.63664323582
 20
9698.50950576194
 30
0.0
 11
-13606.63664323582
 21
9698.50950576194
 31
0.0
  0
LINE
  5
7261
102
{ACAD_REACTORS
330
72E7
102
}
330
1F
100
AcDbEntity
  8
base
 62
     0
370
    20
100
AcDbLine
 10
-13840.63664323581
 20
9704.50950576194
 30
0.0
 11
-13600.63664323582
 21
9704.50950576194
 31
0.0
  0
DIMENSION
  5
7284
102
{ACAD_XDICTIONARY
360
7291
102
}
102
{ACAD_REACTORS
330
729B
102
}
330
1F
100
AcDbEntity
  8
DIM
 62
     0
370
     9
100
AcDbDimension
280
     0
  2
*D57
 10
-13630.63664323582
 20
9752.754014591802
 30
0.0
 11
-13493.13664323582
 21
9772.754014591804
 31
0.0
 70
    32
  1
%%C90{\Ftxt|c134; [3.5"]}
 71
     5
 42
180.0
 73
     0
 74
     0
 75
     0
  3
ISO-25
100
AcDbAlignedDimension
 13
-13810.63664323582
 23
9692.50950576194
 33
0.0
 14
-13630.63664323582
 24
9692.509505761945
 34
0.0
100
AcDbRotatedDimension
1001
ACAD
1000
DSTYLE
1002
{
1070
    41
1040
15.0
1070
    42
1040
5.0
1070
   140
1040
30.0
1070
   141
1040
0.5
1070
   179
1070
     2
1002
}
  0
DIMENSION
  5
729C
102
{ACAD_XDICTIONARY
360
72A9
102
}
102
{ACAD_REACTORS
330
72B3
102
}
330
1F
100
AcDbEntity
  8
DIM
 62
     0
370
     9
100
AcDbDimension
280
     0
  2
*D58
 10
-13606.63664323582
 20
9799.760041720547
 30
0.0
 11
-13461.63664323583
 21
9819.760041720547
 31
0.0
 70
    32
  1
%%C114{\Ftxt|c134; [4.5"]}
 71
     5
 42
227.9999999999927
 73
     0
 74
     0
 75
     0
  3
ISO-25
100
AcDbAlignedDimension
 13
-13834.63664323582
 23
9698.50950576194
 33
0.0
 14
-13606.63664323582
 24
9698.50950576194
 34
0.0
100
AcDbRotatedDimension
1001
ACAD
1000
DSTYLE
1002
{
1070
    41
1040
15.0
1070
    42
1040
5.0
1070
   140
1040
30.0
1070
   141
1040
0.5
1070
   179
1070
     2
1002
}
  0
DIMENSION
  5
72B4
102
{ACAD_XDICTIONARY
360
72C1
102
}
102
{ACAD_REACTORS
330
72CB
102
}
330
1F
100
AcDbEntity
  8
DIM
 62
     0
370
     9
100
AcDbDimension
280
     0
  2
*D59
 10
-13599.58254406806
 20
9601.486603345119
 30
0.0
 11
-13452.08254406806
 21
9621.486603345118
 31
0.0
 70
    32
  1
%%C120{\Ftxt|c134; [4.7"]}
 71
     5
 42
242.1081983355107
 73
     0
 74
     0
 75
     0
  3
ISO-25
100
AcDbAlignedDimension
 13
-13841.69074240357
 23
9702.169492380003
 33
0.0
 14
-13599.58254406806
 24
9702.169492380003
 34
0.0
100
AcDbRotatedDimension
1001
ACAD
1000
DSTYLE
1002
{
1070
    41
1040
15.0
1070
    42
1040
5.0
1070
   140
1040
30.0
1070
   141
1040
0.5
1070
   179
1070
     2
1002
}
  0
DIMENSION
  5
72CC
102
{ACAD_XDICTIONARY
360
72DB
102
}
102
{ACAD_REACTORS
330
72E7
102
}
330
1F
100
AcDbEntity
  8
DIM
 62
     0
370
     9
100
AcDbDimension
280
     0
  2
*D60
 10
-13912.64186847122
 20
9698.509505761945
 30
0.0
 11
-13912.64186847122
 21
9824.509505761945
 31
0.0
 70
   160
  1
3{\Ftxt|c134; [.12"]}
 71
     5
 42
6.0
 73
     0
 74
     0
 75
     0
  3
ISO-25
100
AcDbAlignedDimension
 13
-13840.63664323581
 23
9704.50950576194
 33
0.0
 14
-13834.63664323582
 24
9698.50950576194
 34
0.0
 50
90.0
100
AcDbRotatedDimension
1001
ACAD
1000
DSTYLE
1002
{
1070
    41
1040
15.0
1070
    42
1040
5.0
1070
   140
1040
30.0
1070
   141
1040
0.5
1070
   179
1070
     2
1002
}
  0
DIMENSION
  5
732B
102
{ACAD_XDICTIONARY
360
733A
102
}
102
{ACAD_REACTORS
330
7346
102
}
330
1F
100
AcDbEntity
  8
DIM
 62
     0
370
     9
100
AcDbDimension
280
     0
  2
*D61
 10
-13967.59718953552
 20
9704.509505761944
 30
0.0
 11
-13987.59718953552
 21
9829.509505761947
 31
0.0
 70
    32
  1
6{\Ftxt|c134; [.24"]}
 71
     5
 42
12.0
 73
     0
 74
     0
 75
     0
  3
ISO-25
100
AcDbAlignedDimension
 13
-13810.63664323582
 23
9692.50950576194
 33
0.0
 14
-13840.63664323581
 24
9704.50950576194
 34
0.0
 50
90.0
100
AcDbRotatedDimension
1001
ACAD
1000
DSTYLE
1002
{
1070
    41
1040
15.0
1070
    42
1040
5.0
1070
   140
1040
30.0
1070
   141
1040
0.5
1070
   179
1070
     2
1002
}
  0
INSERT
  5
7441
330
1F
100
AcDbEntity
  8
0
 62
     0
 48
0.0
100
AcDbBlockReference
  2
SE13
 10
-17443.31802675567
 20
8425.739738893366
 30
0.0
 41
7.096319999998155
 42
7.096319999998155
 43
7.09632
  0
ARC
  5
77D7
102
{ACAD_REACTORS
330
780E
102
}
330
1F
100
AcDbEntity
  8
base
 62
     0
370
    20
100
AcDbCircle
 10
-13687.06315382878
 20
9316.889624401854
 30
0.0
 40
16.0
100
AcDbArc
 50
90.0
 51
177.0000000001815
  0
ARC
  5
77D8
102
{ACAD_REACTORS
330
780E
102
}
330
1F
100
AcDbEntity
  8
base
 62
     0
370
    20
100
AcDbCircle
 10
-13687.06315382878
 20
9316.889624401854
 30
0.0
 40
20.8
100
AcDbArc
 50
90.0
 51
177.0000000001815
  0
LINE
  5
77D9
102
{ACAD_REACTORS
330
780E
102
}
330
1F
100
AcDbEntity
  8
base
 62
     0
370
    20
100
AcDbLine
 10
-13707.8346481517
 20
9317.978212291711
 30
0.0
 11
-13712.5093896533
 21
9228.778830719944
 31
0.0
  0
LINE
  5
77DA
102
{ACAD_REACTORS
330
780E
102
}
330
1F
100
AcDbEntity
  8
base
 62
     0
370
    20
100
AcDbLine
 10
-13703.04122638487
 20
9317.726999701744
 30
0.0
 11
-13707.91321202278
 21
9224.763975804156
 31
0.0
  0
LINE
  5
77DB
102
{ACAD_REACTORS
330
780E
102
}
330
1F
100
AcDbEntity
  8
base
 62
     0
370
    20
100
AcDbLine
 10
-13606.80754449282
 20
9332.889624401854
 30
0.0
 11
-13687.06315382878
 21
9332.889624401854
 31
0.0
  0
LINE
  5
77DC
330
1F
100
AcDbEntity
  8
base
 62
     0
370
    20
100
AcDbLine
 10
-13706.94782246087
 20
9334.899854516619
 30
0.0
 11
-13706.80161681647
 21
9337.689624401857
 31
0.0
  0
LINE
  5
77DD
102
{ACAD_REACTORS
330
780E
102
}
330
1F
100
AcDbEntity
  8
base
 62
     0
370
    20
100
AcDbLine
 10
-13769.21500003537
 20
9337.689624401857
 30
0.0
 11
-13606.80754449282
 21
9337.689624401857
 31
0.0
  0
LINE
  5
77DE
102
{ACAD_REACTORS
330
780E
102
}
330
1F
100
AcDbEntity
  8
base
 62
     0
370
    20
100
AcDbLine
 10
-13606.80754449282
 20
9337.689624401857
 30
0.0
 11
-13606.80754449282
 21
9332.889624401854
 31
0.0
  0
SPLINE
  5
7801
102
{ACAD_REACTORS
330
780E
102
}
330
1F
100
AcDbEntity
  8
DIM
 62
     0
370
     9
100
AcDbSpline
210
0.0
220
0.0
230
1.0
 70
  1064
 71
     3
 72
    11
 73
     7
 74
     5
 42
0.000000001
 43
0.0000000001
 44
0.0000000001
 40
0.0
 40
0.0
 40
0.0
 40
0.0
 40
107.7250410832174
 40
138.9023994876985
 40
199.1154970760446
 40
224.0002474484995
 40
224.0002474484995
 40
224.0002474484995
 40
224.0002474484995
 10
-13772.67518858047
 20
9351.342730923191
 30
0.0
 10
-13765.19587897051
 20
9314.430570566615
 30
0.0
 10
-13755.551936941
 20
9266.835437696414
 30
0.0
 10
-13705.23226033055
 20
9222.066279747782
 30
0.0
 10
-13675.18442369594
 20
9197.936129463114
 30
0.0
 10
-13653.97105112638
 20
9179.073261962523
 30
0.0
 10
-13647.76772761583
 20
9173.55728523327
 30
0.0
 11
-13772.67518858047
 21
9351.342730923191
 31
0.0
 11
-13734.92448771745
 21
9250.44888046276
 31
0.0
 11
-13712.5093896533
 21
9228.778830719944
 31
0.0
 11
-13666.44419363976
 21
9190.002357989461
 31
0.0
 11
-13647.76772761583
 21
9173.55728523327
 31
0.0
  0
HATCH
  5
780E
330
1F
100
AcDbEntity
  8
DIM
 62
     0
370
     9
100
AcDbHatch
 10
0.0
 20
0.0
 30
0.0
210
0.0
220
0.0
230
1.0
  2
ANSI31
 70
     0
 71
     1
 91
        1
 92
        5
 93
        8
 72
     1
 10
-13606.80754449281
 20
9332.889624401856
 11
-13606.80754449281
 21
9337.689624401857
 72
     1
 10
-13606.80754449281
 20
9337.689624401857
 11
-13687.06315382878
 21
9337.689624401857
 72
     2
 10
-13687.0631538288
 20
9316.889624401857
 40
20.79999999999929
 50
89.99999999994988
 51
176.9999999999944
 73
     1
 72
     1
 10
-13707.8346481517
 20
9317.978212291713
 11
-13712.5093896533
 21
9228.778830719944
 72
     4
 94
        3
 73
     0
 74
     0
 95
        8
 96
        4
 40
138.9023994876955
 40
138.9023994876955
 40
138.9023994876955
 40
138.9023994876985
 40
144.9161718062715
 40
144.9161718062715
 40
144.9161718062715
 40
144.9161718062715
 10
-13712.5093896533
 20
9228.778830719944
 10
-13710.97791098281
 20
9227.462213988758
 10
-13709.44417511555
 20
9226.152448818982
 10
-13707.90879534919
 20
9224.848250956606
 97
        0
 72
     1
 10
-13707.9087953492
 20
9224.848250956608
 11
-13703.04122638487
 21
9317.726999701744
 72
     2
 10
-13687.0631538288
 20
9316.889624401854
 40
16.0000000000003
 50
183.0000000000054
 51
270.0000000000652
 73
     0
 72
     1
 10
-13687.06315382878
 20
9332.889624401854
 11
-13606.80754449281
 21
9332.889624401856
 97
        8
330
77DD
330
77D8
330
77D9
330
7801
330
77DA
330
77D7
330
77DB
330
77DE
 75
     0
 76
     1
 52
0.0
 41
1.0
 77
     0
 78
     1
 53
45.0
 43
0.0
 44
0.0
 45
-2.245064030267287
 46
2.245064030267288
 79
     0
 47
0.4444599006216609
 98
        1
 10
-13653.9463218688
 20
9334.897742952454
  0
LINE
  5
7812
330
1F
100
AcDbEntity
  8
DIM
 62
     0
370
     9
100
AcDbLine
 10
-13597.73819163395
 20
9218.628460811519
 30
0.0
 11
-13687.73581273493
 21
9317.629577100332
 31
0.0
  0
MTEXT
  5
7813
330
1F
100
AcDbEntity
  8
DIM
 62
     0
370
     9
100
AcDbMText
 10
-13609.84549391028
 20
9261.679746873488
 30
0.0
 40
30.0
 41
0.0
 46
0.0
 71
     5
 72
     1
  1
R5
 11
0.6726589061463291
 21
-0.7399526984760742
 31
0.0
 73
     1
 44
1.0
  0
SOLID
  5
7814
330
1F
100
AcDbEntity
  8
DIM
 62
     0
370
     9
100
AcDbTrace
 10
-13685.88593098874
 20
9319.311224365698
 30
0.0
 11
-13689.58569448112
 21
9315.947929834965
 31
0.0
 12
-13697.82569632713
 22
9328.728867577472
 32
0.0
 13
-13697.82569632713
 23
9328.728867577472
 33
0.0
  0
LINE
  5
7A30
330
1F
100
AcDbEntity
  8
DIM
  6
CENTER
 62
     0
370
     9
100
AcDbLine
 10
-14795.00697038306
 20
9442.024578433267
 30
0.0
 11
-14795.00697038306
 21
8971.024578433265
 31
0.0
  0
LINE
  5
7A31
330
1F
100
AcDbEntity
  8
DIM
  6
CENTER
 62
     0
370
     9
100
AcDbLine
 10
-14396.50697038306
 20
9206.524578433265
 30
0.0
 11
-15193.50697038307
 21
9206.524578433265
 31
0.0
  0
LWPOLYLINE
  5
7A3C
102
{ACAD_REACTORS
330
7A82
330
7AB2
330
7B08
102
}
330
1F
100
AcDbEntity
  8
base
 62
     0
370
    20
100
AcDbPolyline
 90
        8
 70
     1
 43
0.0
 10
-14505.51802471388
 20
8983.017102762472
 42
0.3716482151225702
 10
-14400.27023516265
 20
9090.190615014504
 42
0.0323488057055373
 10
-14400.27023516265
 20
9322.858541852026
 42
0.3716482151225704
 10
-14505.51802471388
 20
9430.03205410406
 42
0.0414265363448828
 10
-15084.49591605225
 20
9430.03205410406
 42
0.3716482151225704
 10
-15189.74370560347
 20
9322.858541852026
 42
0.0323488057055375
 10
-15189.74370560347
 20
9090.190615014504
 42
0.3716482151225706
 10
-15084.49591605225
 20
8983.017102762472
 42
0.0414265363448826
  0
LWPOLYLINE
  5
7A3D
102
{ACAD_REACTORS
330
7A6A
330
7A9A
102
}
330
1F
100
AcDbEntity
  8
base
 62
     0
370
    20
100
AcDbPolyline
 90
        8
 70
     1
 43
0.0
 10
-14507.58580289723
 20
9007.931441874408
 42
0.3716482151225735
 10
-14425.21796759627
 20
9091.806364506432
 42
0.0323488057055376
 10
-14425.21796759627
 20
9321.2427923601
 42
0.3716482151225762
 10
-14507.58580289723
 20
9405.117714992128
 42
0.0414265363448828
 10
-15082.4281378689
 20
9405.117714992126
 42
0.3716482151225701
 10
-15164.79597316986
 20
9321.2427923601
 42
0.0323488057055371
 10
-15164.79597316986
 20
9091.806364506433
 42
0.3716482151225747
 10
-15082.4281378689
 20
9007.931441874408
 42
0.0414265363448826
  0
DIMENSION
  5
7A3E
330
1F
100
AcDbEntity
  8
DIM
 62
     0
370
     9
100
AcDbDimension
280
     0
  2
*D62
 10
-14515.0298043573
 20
9315.426094189172
 30
0.0
 11
-14524.29018109118
 21
9307.029938953206
 31
0.0
 70
   164
  1
4-<>{\Ftxt|c134; [3.5"]}
 71
     5
 42
90.00000000000818
 73
     0
 74
     0
 75
     0
  3
ISO-25
100
AcDbRadialDimension
 15
-14448.35509187331
 25
9375.878411888153
 35
0.0
 40
0.0
1001
ACAD
1000
DSTYLE
1002
{
1070
    41
1040
15.0
1070
    42
1040
5.0
1070
   140
1040
30.0
1070
   141
1040
0.5
1070
   179
1070
     2
1070
   279
1070
     1
1070
   288
1070
     1
1002
}
  0
DIMENSION
  5
7A53
102
{ACAD_XDICTIONARY
360
7A60
102
}
102
{ACAD_REACTORS
330
7A6A
102
}
330
1F
100
AcDbEntity
  8
DIM
 62
     0
370
     9
100
AcDbDimension
280
     0
  2
*D63
 10
-15168.50697038306
 20
9527.055649655098
 30
0.0
 11
-14795.00697038306
 21
9547.055649655098
 31
0.0
 70
    32
  1
<>{\Ftxt|c134; [29.41"]}
 71
     5
 42
746.9999999999963
 73
     0
 74
     0
 75
     0
  3
ISO-25
100
AcDbAlignedDimension
 13
-14421.50697038307
 23
9206.524578433265
 33
0.0
 14
-15168.50697038306
 24
9206.524578433265
 34
0.0
100
AcDbRotatedDimension
1001
ACAD
1000
DSTYLE
1002
{
1070
    41
1040
15.0
1070
    42
1040
5.0
1070
   140
1040
30.0
1070
   141
1040
0.5
1070
   179
1070
     2
1002
}
  0
DIMENSION
  5
7A6B
102
{ACAD_XDICTIONARY
360
7A78
102
}
102
{ACAD_REACTORS
330
7A82
102
}
330
1F
100
AcDbEntity
  8
DIM
 62
     0
370
     9
100
AcDbDimension
280
     0
  2
*D64
 10
-14396.50697038306
 20
9592.839513283877
 30
0.0
 11
-14795.00697038306
 21
9612.839513283878
 31
0.0
 70
    32
  1
<>{\Ftxt|c134; [31.38"]}
 71
     5
 42
796.9999999999981
 73
     0
 74
     0
 75
     0
  3
ISO-25
100
AcDbAlignedDimension
 13
-15193.50697038306
 23
9206.524578433265
 33
0.0
 14
-14396.50697038306
 24
9206.524578433265
 34
0.0
100
AcDbRotatedDimension
1001
ACAD
1000
DSTYLE
1002
{
1070
    41
1040
15.0
1070
    42
1040
5.0
1070
   140
1040
30.0
1070
   141
1040
0.5
1070
   179
1070
     2
1002
}
  0
DIMENSION
  5
7A83
102
{ACAD_XDICTIONARY
360
7A90
102
}
102
{ACAD_REACTORS
330
7A9A
102
}
330
1F
100
AcDbEntity
  8
DIM
 62
     0
370
     9
100
AcDbDimension
280
     0
  2
*D65
 10
-15272.80109462366
 20
8996.024578433269
 30
0.0
 11
-15292.80109462365
 21
9206.524578433274
 31
0.0
 70
    32
  1
<>{\Ftxt|c134; [16.57"]}
 71
     5
 42
421.0000000000018
 73
     0
 74
     0
 75
     0
  3
ISO-25
100
AcDbAlignedDimension
 13
-14795.00697038306
 23
9417.024578433268
 33
0.0
 14
-14795.00697038307
 24
8996.024578433265
 34
0.0
 50
90.0
100
AcDbRotatedDimension
1001
ACAD
1000
DSTYLE
1002
{
1070
    41
1040
15.0
1070
    42
1040
5.0
1070
   140
1040
30.0
1070
   141
1040
0.5
1070
   179
1070
     2
1002
}
  0
DIMENSION
  5
7A9B
102
{ACAD_XDICTIONARY
360
7AA8
102
}
102
{ACAD_REACTORS
330
7AB2
102
}
330
1F
100
AcDbEntity
  8
DIM
 62
     0
370
     9
100
AcDbDimension
280
     0
  2
*D66
 10
-15335.75556928266
 20
8971.024578433265
 30
0.0
 11
-15355.75556928265
 21
9206.524578433272
 31
0.0
 70
    32
  1
<>{\Ftxt|c134; [18.54"]}
 71
     5
 42
471.0000000000036
 73
     0
 74
     0
 75
     0
  3
ISO-25
100
AcDbAlignedDimension
 13
-14795.00697038306
 23
9442.024578433267
 33
0.0
 14
-14795.00697038306
 24
8971.024578433263
 34
0.0
 50
90.0
100
AcDbRotatedDimension
1001
ACAD
1000
DSTYLE
1002
{
1070
    41
1040
15.0
1070
    42
1040
5.0
1070
   140
1040
30.0
1070
   141
1040
0.5
1070
   179
1070
     2
1002
}
  0
DIMENSION
  5
7AF7
102
{ACAD_XDICTIONARY
360
7B01
102
}
102
{ACAD_REACTORS
330
7B08
102
}
330
1F
100
AcDbEntity
  8
DIM
 62
     0
370
     9
100
AcDbDimension
280
     0
  2
*D67
 10
-14515.02980435729
 20
9097.623062677365
 30
0.0
 11
-14285.63396820612
 21
8895.626650935708
 31
0.0
 70
    36
  1
4-<>{\Ftxt|c134; [4.5"]}
 71
     5
 42
114.9999999999927
 73
     0
 74
     0
 75
     0
  3
ISO-25
100
AcDbRadialDimension
 15
-14433.87949977076
 25
9016.139149752708
 35
0.0
 40
0.0
1001
ACAD
1000
DSTYLE
1002
{
1070
    41
1040
15.0
1070
    42
1040
5.0
1070
   140
1040
30.0
1070
   141
1040
0.5
1070
   179
1070
     2
1070
   288
1070
     1
1002
}
  0
LINE
  5
7B15
330
1F
100
AcDbEntity
  8
DIM
 62
     0
370
     9
100
AcDbLine
 10
-14651.40051924872
 20
8753.662781841777
 30
0.0
 11
-14694.32693274157
 21
8957.693773614737
 31
0.0
  0
MTEXT
  5
7B16
330
1F
100
AcDbEntity
  8
DIM
 62
     0
370
     9
100
AcDbMText
 10
-14645.79504592574
 20
8861.530245896579
 30
0.0
 40
30.0
 41
0.0
 46
0.0
 71
     5
 72
     1
  1
2-R3500
 11
0.2010606716399221
 21
-0.9795787902561505
 31
0.0
 73
     1
 44
1.0
  0
SOLID
  5
7B18
330
1F
100
AcDbEntity
  8
DIM
 62
     0
370
     9
100
AcDbTrace
 10
-14691.87798576593
 20
8958.196425293836
 30
0.0
 11
-14696.77587971722
 21
8957.191121935636
 31
0.0
 12
-14697.34284281617
 22
8972.387455468577
 32
0.0
 13
-14697.34284281617
 23
8972.387455468577
 33
0.0
  0
LINE
  5
7B19
330
1F
100
AcDbEntity
  8
DIM
 62
     0
370
     9
100
AcDbLine
 10
-14187.50402908154
 20
9105.87530555451
 30
0.0
 11
-14383.12712273299
 21
9131.204980495262
 31
0.0
  0
MTEXT
  5
7B1A
330
1F
100
AcDbEntity
  8
DIM
 62
     0
370
     9
100
AcDbMText
 10
-14281.85664279315
 20
9139.009488894419
 30
0.0
 40
30.0
 41
0.0
 46
0.0
 71
     5
 72
     1
  1
2-R1800
 11
0.991811803775472
 21
-0.1277080494395103
 31
0.0
 73
     1
 44
1.0
  0
SOLID
  5
7B1C
330
1F
100
AcDbEntity
  8
DIM
 62
     0
370
     9
100
AcDbTrace
 10
-14382.80785260939
 20
9133.6845100047
 30
0.0
 11
-14383.44639285659
 21
9128.725450985823
 31
0.0
 12
-14398.00429978962
 22
9133.120601236852
 32
0.0
 13
-14398.00429978962
 23
9133.120601236852
 33
0.0
  0
LINE
  5
7B1D
330
1F
100
AcDbEntity
  8
DIM
 62
     0
370
     9
100
AcDbLine
 10
-14398.00429978962
 20
9133.120601236855
 30
0.0
 11
-14673.74718139438
 21
9164.499577224431
 31
0.0
  0
LINE
  5
7B1F
330
1F
100
AcDbEntity
  8
DIM
 62
     0
370
     9
100
AcDbLine
 10
-14673.74718139438
 20
9164.499577224431
 30
0.0
 11
-14650.20247327855
 21
9172.867178521119
 31
0.0
  0
LINE
  5
7B20
330
1F
100
AcDbEntity
  8
DIM
 62
     0
370
     9
100
AcDbLine
 10
-14650.20247327855
 20
9172.867178521119
 30
0.0
 11
-14914.3631288884
 21
9206.524578433265
 31
0.0
  0
LINE
  5
7B21
330
1F
100
AcDbEntity
  8
DIM
 62
     0
370
     9
100
AcDbLine
 10
-14697.34284281617
 20
8972.387455468583
 30
0.0
 11
-14726.44873692359
 21
9140.908909143865
 31
0.0
  0
LINE
  5
7B22
330
1F
100
AcDbEntity
  8
DIM
 62
     0
370
     9
100
AcDbLine
 10
-14726.44873692359
 20
9140.908909143865
 30
0.0
 11
-14734.33769102116
 21
9091.307222733085
 31
0.0
  0
LINE
  5
7B23
330
1F
100
AcDbEntity
  8
DIM
 62
     0
370
     9
100
AcDbLine
 10
-14734.33769102116
 20
9091.307222733085
 30
0.0
 11
-14795.00697038306
 21
9369.342038639903
 31
0.0
  0
LINE
  5
7B2E
330
1F
100
AcDbEntity
  8
base
 62
     0
370
    20
100
AcDbLine
 10
-15193.50697038292
 20
10006.99429431987
 30
0.0
 11
-15193.50697038292
 21
10005.79429431987
 31
0.0
  0
LINE
  5
7B30
102
{ACAD_REACTORS
330
7B9E
102
}
330
1F
100
AcDbEntity
  8
base
 62
     0
370
    20
100
AcDbLine
 10
-15193.50697038292
 20
10006.99429431987
 30
0.0
 11
-14396.50697038321
 21
10006.99429431987
 31
0.0
  0
LINE
  5
7B3C
330
1F
100
AcDbEntity
  8
base
 62
     0
370
    20
100
AcDbLine
 10
-15193.50697038292
 20
10005.79429431987
 30
0.0
 11
-15174.28856391712
 21
10005.79429431987
 31
0.0
  0
LINE
  5
7B3D
330
1F
100
AcDbEntity
  8
base
 62
     0
370
    20
100
AcDbLine
 10
-15168.50697038306
 20
10006.99429431987
 30
0.0
 11
-15168.44762407416
 21
10006.14560256264
 31
0.0
  0
LINE
  5
7B3E
102
{ACAD_REACTORS
330
7BC3
102
}
330
1F
100
AcDbEntity
  8
base
 62
     0
370
    20
100
AcDbLine
 10
-15169.30074366582
 20
10001.14307668859
 30
0.0
 11
-15156.90370011588
 21
9823.857094311085
 31
0.0
  0
ARC
  5
7B3F
330
1F
100
AcDbEntity
  8
base
 62
     0
370
    20
100
AcDbCircle
 10
-15174.28856391712
 20
10000.79429431987
 30
0.0
 40
5.0
100
AcDbArc
 50
3.999999999984243
 51
90.0
  0
LINE
  5
7B40
330
1F
100
AcDbEntity
  8
base
 62
     0
370
    20
100
AcDbLine
 10
-14415.72537684901
 20
10005.79429431987
 30
0.0
 11
-14396.50697038321
 21
10005.79429431987
 31
0.0
  0
ARC
  5
7B41
330
1F
100
AcDbEntity
  8
base
 62
     0
370
    20
100
AcDbCircle
 10
-15174.28856391712
 20
10000.79429431987
 30
0.0
 40
6.2
100
AcDbArc
 50
3.999999999984243
 51
90.0
  0
LINE
  5
7B43
330
1F
100
AcDbEntity
  8
base
 62
     0
370
    20
100
AcDbLine
 10
-15168.10366680551
 20
10001.22678445708
 30
0.0
 11
-15155.70662325557
 21
9823.940802079578
 31
0.0
  0
LINE
  5
7B61
102
{ACAD_REACTORS
330
7BE7
102
}
330
1F
100
AcDbEntity
  8
base
 62
     0
370
    20
100
AcDbLine
 10
-14855.00697038306
 20
9761.994294319869
 30
0.0
 11
-14735.00697038306
 21
9761.994294319869
 31
0.0
  0
CIRCLE
  5
7B62
330
1F
100
AcDbEntity
  8
base
 62
     0
370
    20
100
AcDbCircle
 10
-14795.00697038306
 20
9206.524578433265
 30
0.0
 40
60.0
  0
CIRCLE
  5
7B63
330
1F
100
AcDbEntity
  8
base
 62
     0
370
    20
100
AcDbCircle
 10
-14795.00697038306
 20
9206.524578433265
 30
0.0
 40
57.0
  0
CIRCLE
  5
7B64
330
1F
100
AcDbEntity
  8
base
 62
     0
370
    20
100
AcDbCircle
 10
-14795.00697038306
 20
9206.524578433265
 30
0.0
 40
45.0
  0
LINE
  5
7B67
330
1F
100
AcDbEntity
  8
DIM
  6
CENTER
 62
     0
370
     9
100
AcDbLine
 10
-14795.00697038306
 20
10028.45012593904
 30
0.0
 11
-14795.00697038306
 21
9736.59662041571
 31
0.0
  0
LINE
  5
7B68
330
1F
100
AcDbEntity
  8
base
 62
     0
370
    20
100
AcDbLine
 10
-14852.00697038306
 20
9758.994294319869
 30
0.0
 11
-14738.00697038307
 21
9758.994294319869
 31
0.0
  0
LINE
  5
7B6A
330
1F
100
AcDbEntity
  8
base
 62
     0
370
    20
100
AcDbLine
 10
-14840.1546971338
 20
9754.79429431987
 30
0.0
 11
-14749.85924363233
 21
9754.79429431987
 31
0.0
  0
LINE
  5
7B6B
330
1F
100
AcDbEntity
  8
base
 62
     0
370
    20
100
AcDbLine
 10
-14840.00697038307
 20
9755.994294319869
 30
0.0
 11
-14750.00697038306
 21
9755.994294319869
 31
0.0
  0
LINE
  5
7B6E
330
1F
100
AcDbEntity
  8
base
 62
     0
370
    20
100
AcDbLine
 10
-14840.00697038307
 20
9755.994294319869
 30
0.0
 11
-14852.00697038306
 21
9758.994294319869
 31
0.0
  0
LINE
  5
7B6F
330
1F
100
AcDbEntity
  8
base
 62
     0
370
    20
100
AcDbLine
 10
-14852.00697038306
 20
9758.994294319869
 30
0.0
 11
-14855.00697038306
 21
9761.994294319869
 31
0.0
  0
LINE
  5
7B70
330
1F
100
AcDbEntity
  8
base
 62
     0
370
    20
100
AcDbLine
 10
-14852.62046983261
 20
9757.910737494571
 30
0.0
 11
-14855.53401996694
 21
9760.824287628901
 31
0.0
  0
LINE
  5
7B71
330
1F
100
AcDbEntity
  8
base
 62
     0
370
    20
100
AcDbLine
 10
-14840.1546971338
 20
9754.79429431987
 30
0.0
 11
-14852.62046983261
 21
9757.910737494571
 31
0.0
  0
LINE
  5
7B72
102
{ACAD_REACTORS
330
7B9E
102
}
330
1F
100
AcDbEntity
  8
base
 62
     0
370
    20
100
AcDbLine
 10
-14855.00697038306
 20
9761.994294319869
 30
0.0
 11
-15108.88084771941
 21
9777.521885845523
 31
0.0
  0
LINE
  5
7B73
102
{ACAD_REACTORS
330
7BE7
102
}
330
1F
100
AcDbEntity
  8
base
 62
     0
370
    20
100
AcDbLine
 10
-14855.53401996694
 20
9760.824287628901
 30
0.0
 11
-15108.95410596686
 21
9776.324124087416
 31
0.0
  0
LINE
  5
7B74
330
1F
100
AcDbEntity
  8
base
 62
     0
370
    20
100
AcDbLine
 10
-14840.00697038307
 20
9755.994294319869
 30
0.0
 11
-14840.00697038307
 21
9754.79429431987
 31
0.0
  0
LINE
  5
7B75
330
1F
100
AcDbEntity
  8
base
 62
     0
370
    20
100
AcDbLine
 10
-14750.00697038306
 20
9755.994294319869
 30
0.0
 11
-14750.00697038306
 21
9754.79429431987
 31
0.0
  0
LINE
  5
7B76
330
1F
100
AcDbEntity
  8
base
 62
     0
370
    20
100
AcDbLine
 10
-14749.85924363233
 20
9754.79429431987
 30
0.0
 11
-14737.39347093352
 21
9757.910737494571
 31
0.0
  0
LINE
  5
7B77
330
1F
100
AcDbEntity
  8
base
 62
     0
370
    20
100
AcDbLine
 10
-14737.39347093352
 20
9757.910737494571
 30
0.0
 11
-14734.47992079919
 21
9760.824287628901
 31
0.0
  0
LINE
  5
7B78
330
1F
100
AcDbEntity
  8
base
 62
     0
370
    20
100
AcDbLine
 10
-14738.00697038307
 20
9758.994294319869
 30
0.0
 11
-14735.00697038306
 21
9761.994294319869
 31
0.0
  0
LINE
  5
7B79
330
1F
100
AcDbEntity
  8
base
 62
     0
370
    20
100
AcDbLine
 10
-14750.00697038306
 20
9755.994294319869
 30
0.0
 11
-14738.00697038307
 21
9758.994294319869
 31
0.0
  0
LINE
  5
7B7A
330
1F
100
AcDbEntity
  8
base
 62
     0
370
    20
100
AcDbLine
 10
-14734.47992079919
 20
9760.824287628901
 30
0.0
 11
-14481.05983479927
 21
9776.324124087416
 31
0.0
  0
LINE
  5
7B7B
330
1F
100
AcDbEntity
  8
base
 62
     0
370
    20
100
AcDbLine
 10
-14735.00697038306
 20
9761.994294319869
 30
0.0
 11
-14481.13309304672
 21
9777.521885845523
 31
0.0
  0
LINE
  5
7B7C
330
1F
100
AcDbEntity
  8
base
 62
     0
370
    20
100
AcDbLine
 10
-14421.91027396062
 20
10001.22678445708
 30
0.0
 11
-14434.30731751056
 21
9823.940802079578
 31
0.0
  0
LINE
  5
7B7D
330
1F
100
AcDbEntity
  8
base
 62
     0
370
    20
100
AcDbLine
 10
-14420.71319710031
 20
10001.14307668859
 30
0.0
 11
-14433.11024065024
 21
9823.857094311085
 31
0.0
  0
ARC
  5
7B7E
330
1F
100
AcDbEntity
  8
base
 62
     0
370
    20
100
AcDbCircle
 10
-14415.72537684901
 20
10000.79429431987
 30
0.0
 40
6.2
100
AcDbArc
 50
90.0
 51
176.0000000000157
  0
ARC
  5
7B7F
330
1F
100
AcDbEntity
  8
base
 62
     0
370
    20
100
AcDbCircle
 10
-14415.72537684901
 20
10000.79429431987
 30
0.0
 40
5.0
100
AcDbArc
 50
90.0
 51
176.0000000000157
  0
LINE
  5
7B80
330
1F
100
AcDbEntity
  8
base
 62
     0
370
    20
100
AcDbLine
 10
-14421.50697038307
 20
10006.99429431987
 30
0.0
 11
-14421.56631669197
 21
10006.14560256264
 31
0.0
  0
LINE
  5
7B81
330
1F
100
AcDbEntity
  8
base
 62
     0
370
    20
100
AcDbLine
 10
-14396.50697038321
 20
10005.79429431987
 30
0.0
 11
-14415.72537684901
 21
10005.79429431987
 31
0.0
  0
LINE
  5
7B82
330
1F
100
AcDbEntity
  8
base
 62
     0
370
    20
100
AcDbLine
 10
-14396.50697038321
 20
10006.99429431987
 30
0.0
 11
-14396.50697038321
 21
10005.79429431987
 31
0.0
  0
ARC
  5
7B83
330
1F
100
AcDbEntity
  8
base
 62
     0
370
    20
100
AcDbCircle
 10
-14484.1855200235
 20
9827.428625766765
 30
0.0
 40
50.0
100
AcDbArc
 50
273.5000000000336
 51
356.0000000000186
  0
ARC
  5
7B84
330
1F
100
AcDbEntity
  8
base
 62
     0
370
    20
100
AcDbCircle
 10
-14484.1855200235
 20
9827.428625766765
 30
0.0
 40
51.2
100
AcDbArc
 50
273.5000000000336
 51
356.0000000000186
  0
ARC
  5
7B85
102
{ACAD_REACTORS
330
7BF7
102
}
330
1F
100
AcDbEntity
  8
base
 62
     0
370
    20
100
AcDbCircle
 10
-15105.82842074263
 20
9827.428625766765
 30
0.0
 40
50.0
100
AcDbArc
 50
183.9999999999813
 51
266.4999999999653
  0
ARC
  5
7B86
330
1F
100
AcDbEntity
  8
base
 62
     0
370
    20
100
AcDbCircle
 10
-15105.82842074263
 20
9827.428625766765
 30
0.0
 40
51.2
100
AcDbArc
 50
183.9999999999813
 51
266.4999999999653
  0
DIMENSION
  5
7B87
102
{ACAD_XDICTIONARY
360
7B94
102
}
102
{ACAD_REACTORS
330
7B9E
102
}
330
1F
100
AcDbEntity
  8
DIM
 62
     0
370
     9
100
AcDbDimension
280
     0
  2
*D68
 10
-15328.87880952211
 20
9761.994294319869
 30
0.0
 11
-15348.87880952211
 21
9884.494294319868
 31
0.0
 70
    32
 71
     5
 42
245.0
 73
     0
 74
     0
 75
     0
  3
ISO-25
100
AcDbAlignedDimension
 13
-15193.50697038292
 23
10006.99429431987
 33
0.0
 14
-14855.00697038306
 24
9761.994294319869
 34
0.0
 50
90.0
100
AcDbRotatedDimension
1001
ACAD
1000
DSTYLE
1002
{
1070
    41
1040
15.0
1070
    42
1040
5.0
1070
   140
1040
30.0
1070
   141
1040
0.5
1070
   179
1070
     2
1002
}
  0
LINE
  5
7B9F
102
{ACAD_REACTORS
330
7BC3
102
}
330
1F
100
AcDbEntity
  8
DIM
 62
     0
370
     9
100
AcDbLine
 10
-15169.30074366582
 20
10001.14307668859
 30
0.0
 11
-15169.30074366582
 21
9967.383506494924
 31
0.0
  0
DIMENSION
  5
7BA0
102
{ACAD_XDICTIONARY
360
7BB3
102
}
102
{ACAD_REACTORS
330
7BC3
102
}
330
1F
100
AcDbEntity
  8
DIM
 62
     0
370
     9
100
AcDbDimension
280
     0
  2
*D69
 10
-15156.90370011588
 20
9823.857094311085
 30
0.0
 11
-15259.72149899583
 21
9664.136157320434
 31
0.0
 70
    34
 71
     5
 42
0.0698131700797919
 73
     0
 74
     0
 75
     0
  3
ISO-25
100
AcDb2LineAngularDimension
 13
-15169.30074366582
 23
10001.14307668859
 33
0.0
 14
-15169.30074366582
 24
9967.383506494924
 34
0.0
 15
-15169.30074366582
 25
10001.14307668859
 35
0.0
 16
-15152.28256803438
 26
9635.75602093379
 36
0.0
1001
ACAD
1000
DSTYLE
1002
{
1070
    41
1040
15.0
1070
    42
1040
5.0
1070
   140
1040
30.0
1070
   141
1040
0.5
1070
   179
1070
     2
1002
}
  0
DIMENSION
  5
7BC4
102
{ACAD_XDICTIONARY
360
7BD7
102
}
102
{ACAD_REACTORS
330
7BE7
102
}
330
1F
100
AcDbEntity
  8
DIM
 62
     0
370
     9
100
AcDbDimension
280
     0
  2
*D70
 10
-14735.00697038306
 20
9761.994294319869
 30
0.0
 11
-15281.34551514725
 21
9883.540538352399
 31
0.0
 70
    34
 71
     5
 42
0.0610865238197884
 73
     0
 74
     0
 75
     0
  3
ISO-25
100
AcDb2LineAngularDimension
 13
-14855.53401996694
 23
9760.824287628901
 33
0.0
 14
-15108.95410596686
 24
9776.324124087416
 34
0.0
 15
-14855.00697038306
 25
9761.994294319869
 35
0.0
 16
-15271.53174466524
 26
9770.076512664907
 36
0.0
1001
ACAD
1000
DSTYLE
1002
{
1070
    41
1040
15.0
1070
    42
1040
5.0
1070
   140
1040
30.0
1070
   141
1040
0.5
1070
   179
1070
     2
1002
}
  0
DIMENSION
  5
7BE8
102
{ACAD_XDICTIONARY
360
7BF1
102
}
102
{ACAD_REACTORS
330
7BF7
102
}
330
1F
100
AcDbEntity
  8
DIM
 62
     0
370
     9
100
AcDbDimension
280
     0
  2
*D71
 10
-15105.82842074263
 20
9827.428625766765
 30
0.0
 11
-15024.86184283176
 21
9905.535368506441
 31
0.0
 70
   164
  1
<>{\Ftxt|c134; [1.97"]}
 71
     5
 42
50.00000000000273
 73
     0
 74
     0
 75
     0
  3
ISO-25
100
AcDbRadialDimension
 15
-15141.8135664808
 25
9792.714517882462
 35
0.0
 40
0.0
1001
ACAD
1000
DSTYLE
1002
{
1070
    41
1040
15.0
1070
    42
1040
5.0
1070
   140
1040
30.0
1070
   141
1040
0.5
1070
   179
1070
     2
1070
   279
1070
     1
1070
   288
1070
     1
1002
}
  0
CIRCLE
  5
7C7E
330
1F
100
AcDbEntity
  8
DIM
 62
     0
370
     9
100
AcDbCircle
 10
-14795.00697038306
 20
9755.994294319869
 30
0.0
 40
71.8066429995597
  0
CIRCLE
  5
7C7F
330
1F
100
AcDbEntity
  8
DIM
 62
     0
370
     9
100
AcDbCircle
 10
-14411.95537233038
 20
9995.92874548502
 30
0.0
 40
26.3320500394766
  0
LEADER
  5
7C80
330
1F
100
AcDbEntity
  8
DIM
 62
     0
370
     9
100
AcDbLeader
  3
ISO-25
 73
     0
 74
     0
 75
     1
 40
30.0
 41
30.0
 76
     3
 10
-14405.05543152778
 20
9989.924860221218
 30
0.0
 10
-14366.62804551401
 20
9940.01925157482
 30
0.0
 10
-14351.62804551401
 20
9940.01925157482
 30
0.0
340
7C81
213
0.0
223
-15.0
233
0.0
1001
ACAD
1000
DSTYLE
1002
{
1070
   147
1040
5.0
1070
    77
1070
     0
1070
    41
1040
15.0
1070
    42
1040
5.0
1070
   140
1040
30.0
1070
   141
1040
0.5
1070
   179
1070
     2
1002
}
  0
MTEXT
  5
7C81
102
{ACAD_REACTORS
330
7C80
102
}
330
1F
100
AcDbEntity
  8
DIM
 62
     0
370
     9
100
AcDbMText
 10
-14346.62804551401
 20
9955.019251574821
 30
0.0
 40
30.0
 41
0.0
 46
0.0
 71
     1
 72
     1
  1
II
 73
     1
 44
1.0
  0
LEADER
  5
7C82
330
1F
100
AcDbEntity
  8
DIM
 62
     0
370
     9
100
AcDbLeader
  3
ISO-25
 73
     0
 74
     0
 75
     1
 40
30.0
 41
10.0
 76
     3
 10
-14761.32131248418
 20
9727.562361760362
 30
0.0
 10
-14717.00280863318
 20
9702.699065519315
 30
0.0
 10
-14702.00280863318
 20
9702.699065519315
 30
0.0
340
7C83
213
0.0
223
-15.0
233
0.0
1001
ACAD
1000
DSTYLE
1002
{
1070
   147
1040
5.0
1070
    77
1070
     0
1070
    41
1040
15.0
1070
    42
1040
5.0
1070
   140
1040
30.0
1070
   141
1040
0.5
1070
   179
1070
     2
1002
}
  0
MTEXT
  5
7C83
102
{ACAD_REACTORS
330
7C82
102
}
330
1F
100
AcDbEntity
  8
DIM
 62
     0
370
     9
100
AcDbMText
 10
-14697.00280863318
 20
9717.699065519315
 30
0.0
 40
30.0
 41
0.0
 46
0.0
 71
     1
 72
     1
  1
I
 73
     1
 44
1.0
  0
INSERT
  5
811B
330
1F
100
AcDbEntity
  8
0
 48
0.0
100
AcDbBlockReference
  2
SE13
 10
-16554.31673235048
 20
4868.741068176225
 30
0.0
 41
4.257791999998893
 42
4.257791999998893
 43
4.257792
  0
INSERT
  5
8519
330
1F
100
AcDbEntity
  8
0
 62
     0
 48
0.0
100
AcDbBlockReference
  2
SE13
 10
-16554.31673235048
 20
3678.760147522755
 30
0.0
 41
4.257791999998893
 42
4.257791999998893
 43
4.257792
  0
INSERT
  5
8AF5
330
1F
100
AcDbEntity
  8
0
 62
     0
 48
0.0
100
AcDbBlockReference
  2
SE13
 10
-11879.7340681111
 20
8425.739738893366
 30
0.0
 41
7.096319999998155
 42
7.096319999998155
 43
7.09632
  0
ENDSEC
  0
SECTION
  2
OBJECTS
  0
DICTIONARY
  5
C
330
0
100
AcDbDictionary
281
     1
  3
ACAD_CIP_PREVIOUS_PRODUCT_INFO
350
8CE2
  3
ACAD_COLOR
350
6B
  3
ACAD_DETAILVIEWSTYLE
350
8CD7
  3
ACAD_GROUP
350
D
  3
ACAD_LAYOUT
350
1A
  3
ACAD_MATERIAL
350
6A
  3
ACAD_MLEADERSTYLE
350
8CD3
  3
ACAD_MLINESTYLE
350
17
  3
ACAD_PLOTSETTINGS
350
19
  3
ACAD_PLOTSTYLENAME
350
E
  3
ACAD_SCALELIST
350
8CC1
  3
ACAD_SECTIONVIEWSTYLE
350
8CD5
  3
ACAD_TABLESTYLE
350
8C8D
  3
ACAD_VISUALSTYLE
350
8C7C
  3
AcadDim
350
6B74
  3
ACDB_RECOMPOSE_DATA
350
8E0F
  3
AcDbVariableDictionary
350
5E
  3
ASE_INDEX_DICTIONARY
350
5387
  3
lxx_dict
350
8CB4
  0
DICTIONARY
  5
8DF1
330
10
100
AcDbDictionary
280
     1
281
     1
  3
ADSK_XREC_LAYER_RECONCILED
360
8DF2
  0
DICTIONARY
  5
8DF3
330
84
100
AcDbDictionary
280
     1
281
     1
  3
ADSK_XREC_LAYER_RECONCILED
360
8DF4
  0
DICTIONARY
  5
8DF5
330
2D93
100
AcDbDictionary
280
     1
281
     1
  3
ADSK_XREC_LAYER_RECONCILED
360
8DF6
  0
DICTIONARY
  5
8DF7
330
5567
100
AcDbDictionary
280
     1
281
     1
  3
ADSK_XREC_LAYER_RECONCILED
360
8DF8
  0
DICTIONARY
  5
8DF9
330
8057
100
AcDbDictionary
280
     1
281
     1
  3
ADSK_XREC_LAYER_RECONCILED
360
8DFA
  0
DICTIONARY
  5
8DFB
330
8058
100
AcDbDictionary
280
     1
281
     1
  3
ADSK_XREC_LAYER_RECONCILED
360
8DFC
  0
DICTIONARY
  5
7291
330
7284
100
AcDbDictionary
280
     1
281
     1
  3
ACAD_DIMASSOC
360
729B
  0
DICTIONARY
  5
72A9
330
729C
100
AcDbDictionary
280
     1
281
     1
  3
ACAD_DIMASSOC
360
72B3
  0
DICTIONARY
  5
72C1
330
72B4
100
AcDbDictionary
280
     1
281
     1
  3
ACAD_DIMASSOC
360
72CB
  0
DICTIONARY
  5
72DB
330
72CC
100
AcDbDictionary
280
     1
281
     1
  3
ACAD_DIMASSOC
360
72E7
  0
DICTIONARY
  5
733A
330
732B
100
AcDbDictionary
280
     1
281
     1
  3
ACAD_DIMASSOC
360
7346
  0
DICTIONARY
  5
7A60
330
7A53
100
AcDbDictionary
280
     1
281
     1
  3
ACAD_DIMASSOC
360
7A6A
  0
DICTIONARY
  5
7A78
330
7A6B
100
AcDbDictionary
280
     1
281
     1
  3
ACAD_DIMASSOC
360
7A82
  0
DICTIONARY
  5
7A90
330
7A83
100
AcDbDictionary
280
     1
281
     1
  3
ACAD_DIMASSOC
360
7A9A
  0
DICTIONARY
  5
7AA8
330
7A9B
100
AcDbDictionary
280
     1
281
     1
  3
ACAD_DIMASSOC
360
7AB2
  0
DICTIONARY
  5
7B01
330
7AF7
100
AcDbDictionary
280
     1
281
     1
  3
ACAD_DIMASSOC
360
7B08
  0
DICTIONARY
  5
7B94
330
7B87
100
AcDbDictionary
280
     1
281
     1
  3
ACAD_DIMASSOC
360
7B9E
  0
DICTIONARY
  5
7BB3
330
7BA0
100
AcDbDictionary
280
     1
281
     1
  3
ACAD_DIMASSOC
360
7BC3
  0
DICTIONARY
  5
7BD7
330
7BC4
100
AcDbDictionary
280
     1
281
     1
  3
ACAD_DIMASSOC
360
7BE7
  0
DICTIONARY
  5
7BF1
330
7BE8
100
AcDbDictionary
280
     1
281
     1
  3
ACAD_DIMASSOC
360
7BF7
  0
XRECORD
  5
8CE2
102
{ACAD_REACTORS
330
C
102
}
330
C
100
AcDbXrecord
280
     1
300
ACDLT
300
2018
300

  0
DICTIONARY
  5
6B
102
{ACAD_REACTORS
330
C
102
}
330
C
100
AcDbDictionary
281
     1
  0
DICTIONARY
  5
8CD7
102
{ACAD_REACTORS
330
C
102
}
330
C
100
AcDbDictionary
281
     1
  3
Metric50
350
8CD8
  0
DICTIONARY
  5
D
102
{ACAD_REACTORS
330
C
102
}
330
C
100
AcDbDictionary
281
     1
  0
DICTIONARY
  5
1A
102
{ACAD_REACTORS
330
C
102
}
330
C
100
AcDbDictionary
281
     1
  3
Layout1
350
51
  3
Layout2
350
56
  3
Model
350
22
  0
DICTIONARY
  5
6A
102
{ACAD_REACTORS
330
C
102
}
330
C
100
AcDbDictionary
281
     1
  3
ByBlock
350
8C7A
  3
ByLayer
350
8C79
  3
Global
350
8C7B
  0
DICTIONARY
  5
8CD3
102
{ACAD_REACTORS
330
C
102
}
330
C
100
AcDbDictionary
281
     1
  3
Standard
350
8CD4
  0
DICTIONARY
  5
17
102
{ACAD_REACTORS
330
C
102
}
330
C
100
AcDbDictionary
281
     1
  3
Standard
350
18
  0
DICTIONARY
  5
19
102
{ACAD_REACTORS
330
C
102
}
330
C
100
AcDbDictionary
281
     1
  0
ACDBDICTIONARYWDFLT
  5
E
102
{ACAD_REACTORS
330
C
102
}
330
C
100
AcDbDictionary
281
     1
  3
Normal
350
F
100
AcDbDictionaryWithDefault
340
F
  0
DICTIONARY
  5
8CC1
102
{ACAD_REACTORS
330
C
102
}
330
C
100
AcDbDictionary
281
     1
  3
A0
350
8CC2
  3
A1
350
8CC3
  3
A2
350
8CC4
  3
A3
350
8CC5
  3
A4
350
8CC6
  3
A5
350
8CC7
  3
A6
350
8CC8
  3
A7
350
8CC9
  3
A8
350
8CCA
  3
A9
350
8CCB
  3
B0
350
8CCC
  3
B1
350
8CCD
  3
B2
350
8CCE
  3
B3
350
8CCF
  3
B4
350
8CD0
  3
B5
350
8CD1
  3
B6
350
8CD2
  0
DICTIONARY
  5
8CD5
102
{ACAD_REACTORS
330
C
102
}
330
C
100
AcDbDictionary
281
     1
  3
Metric50
350
8CD6
  0
DICTIONARY
  5
8C8D
102
{ACAD_REACTORS
330
C
102
}
330
C
100
AcDbDictionary
281
     1
  3
Standard
350
8C8E
  0
DICTIONARY
  5
8C7C
102
{ACAD_REACTORS
330
C
102
}
330
C
100
AcDbDictionary
281
     1
  3
2dWireframe
350
8C82
  3
3D Hidden
350
8C84
  3
3dWireframe
350
8C83
  3
Basic
350
8C81
  3
Brighten
350
8C88
  3
ColorChange
350
8C8C
  3
Conceptual
350
8C85
  3
Dim
350
8C87
  3
EdgeColorOff
350
8CC0
  3
Facepattern
350
8C8B
  3
Flat
350
8C7D
  3
FlatWithEdges
350
8C7E
  3
Gouraud
350
8C7F
  3
GouraudWithEdges
350
8C80
  3
Hidden
350
8CB8
  3
JitterOff
350
8CBE
  3
Linepattern
350
8C8A
  3
OverhangOff
350
8CBF
  3
Realistic
350
8C86
  3
Shaded
350
8CBD
  3
Shaded with edges
350
8CBC
  3
Shades of Gray
350
8CB9
  3
Sketchy
350
8CBA
  3
Thicken
350
8C89
  3
Wireframe
350
8CB7
  3
X-Ray
350
8CBB
  0
XRECORD
  5
6B74
102
{ACAD_REACTORS
330
C
102
}
330
C
100
AcDbXrecord
280
     1
 90
   990106
  3

 60
     0
 61
     0
 62
     1
 63
     3
 64
     0
 65
     0
 66
     0
 67
     3
 68
     1
 69
     0
 70
     0
 71
     0
 72
     0
 40
0.0
170
     0
340
7C83
  0
XRECORD
  5
8E0F
102
{ACAD_REACTORS
330
C
102
}
330
C
100
AcDbXrecord
280
     1
 90
        1
330
8C8E
  0
DICTIONARY
  5
5E
102
{ACAD_REACTORS
330
C
102
}
330
C
100
AcDbDictionary
281
     1
  3
CANNOSCALE
350
8E09
  3
CMLEADERSTYLE
350
8E05
  3
CTABLESTYLE
350
8CA1
  3
CVIEWDETAILSTYLE
350
8E06
  3
CVIEWSECTIONSTYLE
350
8E07
  3
DIMASSOC
350
5F
  3
HIDETEXT
350
63
  3
LAYEREVAL
350
8E0B
  3
LAYERNOTIFY
350
8E0C
  3
LIGHTINGUNITS
350
8E0A
  3
MSLTSCALE
350
8E08
  3
PROJECTNAME
350
1CF
  0
DICTIONARY
  5
5387
102
{ACAD_REACTORS
330
C
102
}
330
C
100
AcDbDictionary
281
     1
  3
ASEBlockHierarchyIndexRecord
350
5389
1001
DCO15
1040
1573791348.5
  0
DICTIONARY
  5
8CB4
102
{ACAD_REACTORS
330
C
102
}
330
C
100
AcDbDictionary
281
     1
  3
lxx_dimth
350
8CB5
  0
XRECORD
  5
8DF2
102
{ACAD_REACTORS
330
8DF1
102
}
330
8DF1
100
AcDbXrecord
280
     1
290
     1
  0
XRECORD
  5
8DF4
102
{ACAD_REACTORS
330
8DF3
102
}
330
8DF3
100
AcDbXrecord
280
     1
290
     1
  0
XRECORD
  5
8DF6
102
{ACAD_REACTORS
330
8DF5
102
}
330
8DF5
100
AcDbXrecord
280
     1
290
     1
  0
XRECORD
  5
8DF8
102
{ACAD_REACTORS
330
8DF7
102
}
330
8DF7
100
AcDbXrecord
280
     1
290
     1
  0
XRECORD
  5
8DFA
102
{ACAD_REACTORS
330
8DF9
102
}
330
8DF9
100
AcDbXrecord
280
     1
290
     1
  0
XRECORD
  5
8DFC
102
{ACAD_REACTORS
330
8DFB
102
}
330
8DFB
100
AcDbXrecord
280
     1
290
     1
  0
DIMASSOC
  5
729B
102
{ACAD_REACTORS
330
7291
102
}
330
7291
100
AcDbDimAssoc
330
7284
 90
        3
 70
     0
 71
     0
  1
AcDbOsnapPointRef
 72
    13
331
725F
 73
     2
 91
        0
 40
0.0
 10
0.0
 20
0.0
 30
2.000000000000000E+50
 75
     0
  1
AcDbOsnapPointRef
 72
     1
331
725F
 73
     2
 91
        0
 40
1.0
 10
0.0
 20
0.0
 30
2.000000000000000E+50
 75
     0
  0
DIMASSOC
  5
72B3
102
{ACAD_REACTORS
330
72A9
102
}
330
72A9
100
AcDbDimAssoc
330
729C
 90
        3
 70
     0
 71
     0
  1
AcDbOsnapPointRef
 72
    13
331
7260
 73
     2
 91
        0
 40
0.0
 10
0.0
 20
0.0
 30
2.000000000000000E+50
 75
     0
  1
AcDbOsnapPointRef
 72
     1
331
7260
 73
     2
 91
        0
 40
1.0
 10
0.0
 20
0.0
 30
2.000000000000000E+50
 75
     0
  0
DIMASSOC
  5
72CB
102
{ACAD_REACTORS
330
72C1
102
}
330
72C1
100
AcDbDimAssoc
330
72B4
 90
        3
 70
     0
 71
     0
  1
AcDbOsnapPointRef
 72
    13
331
725B
 73
     2
 91
        0
 40
0.0
 10
0.0
 20
0.0
 30
2.000000000000000E+50
 75
     0
  1
AcDbOsnapPointRef
 72
    13
331
7256
 73
     2
 91
        0
 40
0.0
 10
0.0
 20
0.0
 30
2.000000000000000E+50
 75
     0
  0
DIMASSOC
  5
72E7
102
{ACAD_REACTORS
330
72DB
102
}
330
72DB
100
AcDbDimAssoc
330
72CC
 90
        3
 70
     0
 71
     0
  1
AcDbOsnapPointRef
 72
    13
331
7261
 73
     2
 91
        0
 40
0.0
 10
0.0
 20
0.0
 30
2.000000000000000E+50
 75
     0
  1
AcDbOsnapPointRef
 72
    13
331
7260
 73
     2
 91
        0
 40
0.0
 10
0.0
 20
0.0
 30
2.000000000000000E+50
 75
     0
  0
DIMASSOC
  5
7346
102
{ACAD_REACTORS
330
733A
102
}
330
733A
100
AcDbDimAssoc
330
732B
 90
        1
 70
     0
 71
     0
  1
AcDbOsnapPointRef
 72
    13
331
725F
 73
     2
 91
        0
 40
0.0
 10
0.0
 20
0.0
 30
2.000000000000000E+50
 75
     0
  0
DIMASSOC
  5
7A6A
102
{ACAD_REACTORS
330
7A60
102
}
330
7A60
100
AcDbDimAssoc
330
7A53
 90
        3
 70
     0
 71
     0
  1
AcDbOsnapPointRef
 72
     2
331
7A3D
 73
     2
 91
        2
 40
6.283185307179591
 10
0.0
 20
0.0
 30
0.0
 75
     0
  1
AcDbOsnapPointRef
 72
     2
331
7A3D
 73
     2
 91
        6
 40
3.141592653589786
 10
0.0
 20
0.0
 30
0.0
 75
     0
  0
DIMASSOC
  5
7A82
102
{ACAD_REACTORS
330
7A78
102
}
330
7A78
100
AcDbDimAssoc
330
7A6B
 90
        3
 70
     0
 71
     0
  1
AcDbOsnapPointRef
 72
     2
331
7A3C
 73
     2
 91
        6
 40
3.141592653589789
 10
0.0
 20
0.0
 30
0.0
 75
     0
  1
AcDbOsnapPointRef
 72
     2
331
7A3C
 73
     2
 91
        2
 40
6.28318530717959
 10
0.0
 20
0.0
 30
0.0
 75
     0
  0
DIMASSOC
  5
7A9A
102
{ACAD_REACTORS
330
7A90
102
}
330
7A90
100
AcDbDimAssoc
330
7A83
 90
        3
 70
     0
 71
     0
  1
AcDbOsnapPointRef
 72
     2
331
7A3D
 73
     2
 91
        4
 40
1.570796326794899
 10
0.0
 20
0.0
 30
0.0
 75
     0
  1
AcDbOsnapPointRef
 72
     2
331
7A3D
 73
     2
 91
        8
 40
4.712388980384688
 10
0.0
 20
0.0
 30
0.0
 75
     0
  0
DIMASSOC
  5
7AB2
102
{ACAD_REACTORS
330
7AA8
102
}
330
7AA8
100
AcDbDimAssoc
330
7A9B
 90
        3
 70
     0
 71
     0
  1
AcDbOsnapPointRef
 72
     2
331
7A3C
 73
     2
 91
        4
 40
1.570796326794896
 10
0.0
 20
0.0
 30
0.0
 75
     0
  1
AcDbOsnapPointRef
 72
     2
331
7A3C
 73
     2
 91
        8
 40
4.712388980384689
 10
0.0
 20
0.0
 30
0.0
 75
     0
  0
DIMASSOC
  5
7B08
102
{ACAD_REACTORS
330
7B01
102
}
330
7B01
100
AcDbDimAssoc
330
7AF7
 90
        2
 70
     0
 71
     0
  1
AcDbOsnapPointRef
 72
     3
331
7A3C
 73
     2
 91
        1
 40
0.0
 10
0.0
 20
0.0
 30
0.0
 75
     0
  0
DIMASSOC
  5
7B9E
102
{ACAD_REACTORS
330
7B94
102
}
330
7B94
100
AcDbDimAssoc
330
7B87
 90
        3
 70
     0
 71
     0
  1
AcDbOsnapPointRef
 72
    13
331
7B30
 73
     2
 91
        0
 40
0.0
 10
0.0
 20
0.0
 30
2.000000000000000E+50
 75
     0
  1
AcDbOsnapPointRef
 72
    13
331
7B72
 73
     2
 91
        0
 40
0.0
 10
0.0
 20
0.0
 30
2.000000000000000E+50
 75
     0
  0
DIMASSOC
  5
7BC3
102
{ACAD_REACTORS
330
7BB3
102
}
330
7BB3
100
AcDbDimAssoc
330
7BA0
 90
       15
 70
     0
 71
     0
  1
AcDbOsnapPointRef
 72
    13
331
7B9F
 73
     2
 91
        0
 40
0.0
 10
0.0
 20
0.0
 30
2.000000000000000E+50
 75
     0
  1
AcDbOsnapPointRef
 72
     1
331
7B9F
 73
     2
 91
        0
 40
0.9999999999999998
 10
0.0
 20
0.0
 30
2.000000000000000E+50
 75
     0
  1
AcDbOsnapPointRef
 72
    13
331
7B3E
 73
     2
 91
        0
 40
0.0
 10
0.0
 20
0.0
 30
2.000000000000000E+50
 75
     0
  1
AcDbOsnapPointRef
 72
     1
331
7B3E
 73
     2
 91
        0
 40
1.0
 10
0.0
 20
0.0
 30
2.000000000000000E+50
 75
     0
  0
DIMASSOC
  5
7BE7
102
{ACAD_REACTORS
330
7BD7
102
}
330
7BD7
100
AcDbDimAssoc
330
7BC4
 90
       15
 70
     0
 71
     0
  1
AcDbOsnapPointRef
 72
    13
331
7B73
 73
     2
 91
        0
 40
0.0
 10
0.0
 20
0.0
 30
2.000000000000000E+50
 75
     0
  1
AcDbOsnapPointRef
 72
     1
331
7B73
 73
     2
 91
        0
 40
1.0
 10
0.0
 20
0.0
 30
2.000000000000000E+50
 75
     0
  1
AcDbOsnapPointRef
 72
    13
331
7B61
 73
     2
 91
        0
 40
0.0
 10
0.0
 20
0.0
 30
2.000000000000000E+50
 75
     0
  1
AcDbOsnapPointRef
 72
     1
331
7B61
 73
     2
 91
        0
 40
0.9999999999999998
 10
0.0
 20
0.0
 30
2.000000000000000E+50
 75
     0
  0
DIMASSOC
  5
7BF7
102
{ACAD_REACTORS
330
7BF1
102
}
330
7BF1
100
AcDbDimAssoc
330
7BE8
 90
        2
 70
     0
 71
     0
  1
AcDbOsnapPointRef
 72
     3
331
7B85
 73
     2
 91
        0
 40
0.0
 10
0.0
 20
0.0
 30
0.0
 75
     0
  0
ACDBDETAILVIEWSTYLE
  5
8CD8
102
{ACAD_REACTORS
330
8CD7
102
}
330
8CD7
100
AcDbModelDocViewStyle
 70
     0
  3
Metric50
290
     1
300
Metric50
 90
        0
100
AcDbDetailViewStyle
 70
     0
 71
     0
 90
        3
 71
     1
340
11
 62
   256
 40
5.0
340
0
 62
   256
 40
5.0
300

 40
0.0
280
     1
 71
     2
340
16
 90
       25
 62
   256
 71
     3
340
11
 62
   256
 40
5.0
 90
        0
 40
15.0
 90
        1
300
%<\AcVar ViewDetailId>% (%<\AcVar ViewScale \f "%sn">%)
 71
     4
340
16
 90
       25
 62
   256
340
16
 90
       25
 62
   256
280
     0
  0
LAYOUT
  5
51
102
{ACAD_REACTORS
330
1A
102
}
330
1A
100
AcDbPlotSettings
  1

  2
None
  4

  6

 40
0.0
 41
0.0
 42
0.0
 43
0.0
 44
0.0
 45
0.0
 46
0.0
 47
0.0
 48
0.0
 49
0.0
140
0.0
141
0.0
142
1.0
143
1.0
 70
   688
 72
     0
 73
     0
 74
     5
  7

 75
    16
147
1.0
 76
     0
 77
     2
 78
   300
148
0.0
149
0.0
100
AcDbLayout
  1
Layout1
 70
     1
 71
     1
 10
0.0
 20
0.0
 11
12.0
 21
9.0
 12
0.0
 22
0.0
 32
0.0
 14
0.0
 24
0.0
 34
0.0
 15
0.0
 25
0.0
 35
0.0
146
0.0
 13
0.0
 23
0.0
 33
0.0
 16
1.0
 26
0.0
 36
0.0
 17
0.0
 27
1.0
 37
0.0
 76
     0
330
50
  0
LAYOUT
  5
56
102
{ACAD_REACTORS
330
1A
102
}
330
1A
100
AcDbPlotSettings
  1

  2
None
  4

  6

 40
0.0
 41
0.0
 42
0.0
 43
0.0
 44
0.0
 45
0.0
 46
0.0
 47
0.0
 48
0.0
 49
0.0
140
0.0
141
0.0
142
1.0
143
1.0
 70
   688
 72
     0
 73
     0
 74
     5
  7

 75
    16
147
1.0
 76
     0
 77
     2
 78
   300
148
0.0
149
0.0
100
AcDbLayout
  1
Layout2
 70
     1
 71
     2
 10
0.0
 20
0.0
 11
12.0
 21
9.0
 12
0.0
 22
0.0
 32
0.0
 14
0.0
 24
0.0
 34
0.0
 15
0.0
 25
0.0
 35
0.0
146
0.0
 13
0.0
 23
0.0
 33
0.0
 16
1.0
 26
0.0
 36
0.0
 17
0.0
 27
1.0
 37
0.0
 76
     0
330
55
  0
LAYOUT
  5
22
102
{ACAD_REACTORS
330
1A
102
}
330
1A
100
AcDbPlotSettings
  1

  2
PublishToWeb JPG.pc3
  4
User-2
  6

 40
49.375
 41
68.87500762939453
 42
49.375
 43
44.374755859375
 44
2480.0
 45
3507.499755859375
 46
0.0
 47
8.498193300684079
 48
-15879.754832127
 49
8460.204185395745
140
-13262.986832127
141
10305.24738539574
142
1.0
143
0.7748212913385811
 70
 11956
 72
     2
 73
     1
 74
     4
  7

 75
     0
147
1.290620187104564
 76
     0
 77
     2
 78
   180
148
15879.754832127
149
-8460.204185395745
100
AcDbLayout
  1
Model
 70
     1
 71
     0
 10
0.0
 20
0.0
 11
12.0
 21
9.0
 12
0.0
 22
0.0
 32
0.0
 14
0.0
 24
0.0
 34
0.0
 15
0.0
 25
0.0
 35
0.0
146
0.0
 13
0.0
 23
0.0
 33
0.0
 16
1.0
 26
0.0
 36
0.0
 17
0.0
 27
1.0
 37
0.0
 76
     0
330
1F
331
8C77
1001
ACAD_PSEXT
1000
PublishToWeb JPG.pc3
1000
Independent JPEG Group JFIF (JPEG Compression)
1000
文件
1000

1070
     0
  0
MATERIAL
  5
8C7A
102
{ACAD_REACTORS
330
6A
102
}
330
6A
100
AcDbMaterial
  1
ByBlock
 73
     1
 78
     1
172
     1
176
     1
270
     1
274
     1
 94
       63
  0
MATERIAL
  5
8C79
102
{ACAD_REACTORS
330
6A
102
}
330
6A
100
AcDbMaterial
  1
ByLayer
 73
     1
 78
     1
172
     1
176
     1
270
     1
274
     1
 94
       63
  0
MATERIAL
  5
8C7B
102
{ACAD_REACTORS
330
6A
102
}
330
6A
100
AcDbMaterial
  1
Global
 73
     1
 78
     1
172
     1
176
     1
270
     1
274
     1
 94
       63
  0
MLEADERSTYLE
  5
8CD4
102
{ACAD_REACTORS
330
8CD3
102
}
330
8CD3
100
AcDbMLeaderStyle
179
     2
170
     2
171
     1
172
     0
 90
        2
 40
0.0
 41
0.0
173
     1
 91
-1056964608
340
14
 92
       -2
290
     1
 42
2.0
291
     1
 43
0.36
  3
Standard
 44
4.0
300

342
11
174
     1
178
     6
175
     1
176
     0
 93
-1056964608
 45
4.0
292
     0
297
     0
 46
4.0
 94
-1056964608
 47
1.0
 49
1.0
140
1.0
293
     1
141
0.0
294
     1
177
     0
142
1.0
295
     1
296
     0
143
0.125
271
     0
272
     9
273
     9
298
     1
  0
MLINESTYLE
  5
18
102
{ACAD_REACTORS
330
17
102
}
330
17
100
AcDbMlineStyle
  2
STANDARD
 70
     0
  3

 62
   256
 51
90.0
 52
90.0
 71
     2
 49
0.5
 62
   256
  6
BYLAYER
 49
-0.5
 62
   256
  6
BYLAYER
  0
ACDBPLACEHOLDER
  5
F
102
{ACAD_REACTORS
330
E
102
}
330
E
  0
SCALE
  5
8CC2
102
{ACAD_REACTORS
330
8CC1
102
}
330
8CC1
100
AcDbScale
 70
     0
300
1:1
140
1.0
141
1.0
290
     1
  0
SCALE
  5
8CC3
102
{ACAD_REACTORS
330
8CC1
102
}
330
8CC1
100
AcDbScale
 70
     0
300
1:2
140
1.0
141
2.0
290
     0
  0
SCALE
  5
8CC4
102
{ACAD_REACTORS
330
8CC1
102
}
330
8CC1
100
AcDbScale
 70
     0
300
1:4
140
1.0
141
4.0
290
     0
  0
SCALE
  5
8CC5
102
{ACAD_REACTORS
330
8CC1
102
}
330
8CC1
100
AcDbScale
 70
     0
300
1:5
140
1.0
141
5.0
290
     0
  0
SCALE
  5
8CC6
102
{ACAD_REACTORS
330
8CC1
102
}
330
8CC1
100
AcDbScale
 70
     0
300
1:8
140
1.0
141
8.0
290
     0
  0
SCALE
  5
8CC7
102
{ACAD_REACTORS
330
8CC1
102
}
330
8CC1
100
AcDbScale
 70
     0
300
1:10
140
1.0
141
10.0
290
     0
  0
SCALE
  5
8CC8
102
{ACAD_REACTORS
330
8CC1
102
}
330
8CC1
100
AcDbScale
 70
     0
300
1:16
140
1.0
141
16.0
290
     0
  0
SCALE
  5
8CC9
102
{ACAD_REACTORS
330
8CC1
102
}
330
8CC1
100
AcDbScale
 70
     0
300
1:20
140
1.0
141
20.0
290
     0
  0
SCALE
  5
8CCA
102
{ACAD_REACTORS
330
8CC1
102
}
330
8CC1
100
AcDbScale
 70
     0
300
1:30
140
1.0
141
30.0
290
     0
  0
SCALE
  5
8CCB
102
{ACAD_REACTORS
330
8CC1
102
}
330
8CC1
100
AcDbScale
 70
     0
300
1:40
140
1.0
141
40.0
290
     0
  0
SCALE
  5
8CCC
102
{ACAD_REACTORS
330
8CC1
102
}
330
8CC1
100
AcDbScale
 70
     0
300
1:50
140
1.0
141
50.0
290
     0
  0
SCALE
  5
8CCD
102
{ACAD_REACTORS
330
8CC1
102
}
330
8CC1
100
AcDbScale
 70
     0
300
1:100
140
1.0
141
100.0
290
     0
  0
SCALE
  5
8CCE
102
{ACAD_REACTORS
330
8CC1
102
}
330
8CC1
100
AcDbScale
 70
     0
300
2:1
140
2.0
141
1.0
290
     0
  0
SCALE
  5
8CCF
102
{ACAD_REACTORS
330
8CC1
102
}
330
8CC1
100
AcDbScale
 70
     0
300
4:1
140
4.0
141
1.0
290
     0
  0
SCALE
  5
8CD0
102
{ACAD_REACTORS
330
8CC1
102
}
330
8CC1
100
AcDbScale
 70
     0
300
8:1
140
8.0
141
1.0
290
     0
  0
SCALE
  5
8CD1
102
{ACAD_REACTORS
330
8CC1
102
}
330
8CC1
100
AcDbScale
 70
     0
300
10:1
140
10.0
141
1.0
290
     0
  0
SCALE
  5
8CD2
102
{ACAD_REACTORS
330
8CC1
102
}
330
8CC1
100
AcDbScale
 70
     0
300
100:1
140
100.0
141
1.0
290
     0
  0
ACDBSECTIONVIEWSTYLE
  5
8CD6
102
{ACAD_REACTORS
330
8CD5
102
}
330
8CD5
100
AcDbModelDocViewStyle
 70
     0
  3
Metric50
290
     1
300
Metric50
 90
        0
100
AcDbSectionViewStyle
 70
     0
 71
     0
 90
      102
 71
     1
340
11
 62
   256
 40
5.0
340
0
340
0
 62
   256
 40
5.0
300
I, O, Q, S, X, Z
 40
10.0
 90
        0
 40
2.5
 90
        0
 71
     2
340
16
 90
       25
 62
   256
340
16
 90
       50
 62
   256
 40
5.0
 40
2.5
 40
5.0
 71
     3
340
11
 62
   256
 40
5.0
 90
        0
 40
15.0
 90
        1
300
%<\AcVar ViewSectionStartId>%-%<\AcVar ViewSectionEndId>% (%<\AcVar ViewScale \f "%sn">%)
 71
     4
 62
   256
 62
   257
300
ANSI31
 40
1.0
 90
        0
290
     0
290
     0
 90
        6
 40
0.0
 40
1.570796326794896
 40
0.2617993877991494
 40
1.308996938995747
 40
-0.2617993877991494
 40
1.832595714594046
  0
TABLESTYLE
  5
8C8E
102
{ACAD_XDICTIONARY
360
8E0D
102
}
102
{ACAD_REACTORS
330
8C8D
102
}
330
8C8D
100
AcDbTableStyle
280
     0
  3
Standard
 70
     0
 71
     0
 40
1.5
 41
1.5
280
     0
281
     0
  7
Standard
140
4.5
170
     2
 62
     0
 63
     7
283
     0
 90
      512
 91
        0
  1

274
    -2
284
     1
 64
     0
275
    -2
285
     1
 65
     0
276
    -2
286
     1
 66
     0
277
    -2
287
     1
 67
     0
278
    -2
288
     1
 68
     0
279
    -2
289
     1
 69
     0
  7
Standard
140
6.0
170
     5
 62
     0
 63
     7
283
     0
 90
      512
 91
        0
  1

274
    -2
284
     1
 64
     0
275
    -2
285
     1
 65
     0
276
    -2
286
     1
 66
     0
277
    -2
287
     1
 67
     0
278
    -2
288
     1
 68
     0
279
    -2
289
     1
 69
     0
  7
Standard
140
4.5
170
     5
 62
     0
 63
     7
283
     0
 90
      512
 91
        0
  1

274
    -2
284
     1
 64
     0
275
    -2
285
     1
 65
     0
276
    -2
286
     1
 66
     0
277
    -2
287
     1
 67
     0
278
    -2
288
     1
 68
     0
279
    -2
289
     1
 69
     0
  0
VISUALSTYLE
  5
8C82
102
{ACAD_REACTORS
330
8C7C
102
}
330
8C7C
100
AcDbVisualStyle
  2
2dWireframe
 70
     4
177
     3
291
     0
 70
    58
 90
        0
176
     1
 90
        2
176
     1
 90
        0
176
     1
 90
        0
176
     1
 40
0.6
176
     1
 40
30.0
176
     1
 62
     7
420
 16777215
176
     1
 90
        1
176
     1
 90
        4
176
     1
 62
     7
176
     1
 62
   257
176
     1
 90
        1
176
     1
 90
        1
176
     1
 40
1.0
176
     1
 90
        0
176
     1
 62
   257
176
     1
 40
1.0
176
     1
 90
        1
176
     1
 90
        6
176
     1
 90
        2
176
     1
 62
     7
176
     1
 90
        5
176
     1
 90
        0
176
     1
 90
        0
176
     1
290
     0
176
     1
 90
        1
176
     1
 40
0.0
176
     1
 90
        0
176
     1
290
     1
176
     1
290
     1
176
     1
290
     0
176
     1
290
     0
176
     1
290
     0
176
     1
290
     0
176
     1
290
     0
176
     1
290
     0
176
     1
290
     0
176
     1
 90
       50
176
     1
 40
0.0
176
     1
 40
1.0
176
     1
 90
        0
176
     1
 62
    18
420
        0
176
     1
 90
       50
176
     1
 90
        3
176
     1
 62
     5
420
      255
176
     1
290
     0
176
     1
 90
       50
176
     1
 90
       50
176
     1
 90
       50
176
     1
290
     0
176
     1
 90
       50
176
     1
 62
   256
176
     0
 40
1.0
176
     0
 90
        2
176
     1
  1
strokes_ogs.tif
176
     1
290
     0
176
     1
 40
1.0
176
     1
 40
1.0
176
     1
  0
VISUALSTYLE
  5
8C84
102
{ACAD_REACTORS
330
8C7C
102
}
330
8C7C
100
AcDbVisualStyle
  2
3D Hidden
 70
     6
177
     3
291
     0
 70
    58
 90
        1
176
     1
 90
        2
176
     1
 90
        2
176
     1
 90
        0
176
     1
 40
0.6
176
     1
 40
30.0
176
     1
 62
     7
420
 16777215
176
     1
 90
        2
176
     1
 90
        2
176
     1
 62
     7
176
     1
 62
   257
176
     1
 90
        2
176
     1
 90
        1
176
     1
 40
40.0
176
     1
 90
        0
176
     1
 62
   257
176
     1
 40
1.0
176
     1
 90
        1
176
     1
 90
        6
176
     1
 90
        2
176
     1
 62
     7
176
     1
 90
        3
176
     1
 90
        0
176
     1
 90
        0
176
     1
290
     0
176
     1
 90
        1
176
     1
 40
0.0
176
     1
 90
        0
176
     1
290
     0
176
     1
290
     1
176
     1
290
     1
176
     1
290
     0
176
     1
290
     0
176
     1
290
     0
176
     1
290
     0
176
     1
290
     0
176
     1
290
     0
176
     1
 90
       50
176
     1
 40
0.0
176
     1
 40
1.0
176
     1
 90
        0
176
     1
 62
    18
420
        0
176
     1
 90
       50
176
     1
 90
        3
176
     1
 62
     5
420
      255
176
     1
290
     0
176
     1
 90
       50
176
     1
 90
       50
176
     1
 90
       50
176
     1
290
     0
176
     1
 90
       50
176
     1
 62
   256
176
     0
 40
1.0
176
     0
 90
        2
176
     1
  1
strokes_ogs.tif
176
     1
290
     0
176
     1
 40
1.0
176
     1
 40
1.0
176
     1
  0
VISUALSTYLE
  5
8C83
102
{ACAD_REACTORS
330
8C7C
102
}
330
8C7C
100
AcDbVisualStyle
  2
3dWireframe
 70
     5
177
     3
291
     0
 70
    58
 90
        0
176
     1
 90
        2
176
     1
 90
        0
176
     1
 90
        0
176
     1
 40
0.6
176
     1
 40
30.0
176
     1
 62
     7
420
 16777215
176
     1
 90
        1
176
     1
 90
        4
176
     1
 62
     7
176
     1
 62
   257
176
     1
 90
        1
176
     1
 90
        1
176
     1
 40
1.0
176
     1
 90
        0
176
     1
 62
   257
176
     1
 40
1.0
176
     1
 90
        1
176
     1
 90
        6
176
     1
 90
        2
176
     1
 62
     7
176
     1
 90
        5
176
     1
 90
        0
176
     1
 90
        0
176
     1
290
     0
176
     1
 90
        1
176
     1
 40
0.0
176
     1
 90
        0
176
     1
290
     0
176
     1
290
     1
176
     1
290
     1
176
     1
290
     0
176
     1
290
     0
176
     1
290
     0
176
     1
290
     0
176
     1
290
     0
176
     1
290
     0
176
     1
 90
       50
176
     1
 40
0.0
176
     1
 40
1.0
176
     1
 90
        0
176
     1
 62
    18
420
        0
176
     1
 90
       50
176
     1
 90
        3
176
     1
 62
     5
420
      255
176
     1
290
     0
176
     1
 90
       50
176
     1
 90
       50
176
     1
 90
       50
176
     1
290
     0
176
     1
 90
       50
176
     1
 62
   256
176
     0
 40
1.0
176
     0
 90
        2
176
     1
  1
strokes_ogs.tif
176
     1
290
     0
176
     1
 40
1.0
176
     1
 40
1.0
176
     1
  0
VISUALSTYLE
  5
8C81
102
{ACAD_REACTORS
330
8C7C
102
}
330
8C7C
100
AcDbVisualStyle
  2
Basic
 70
     7
177
     3
291
     1
 70
    58
 90
        1
176
     1
 90
        0
176
     1
 90
        1
176
     1
 90
        0
176
     1
 40
0.6
176
     1
 40
30.0
176
     1
 62
     7
420
 16777215
176
     1
 90
        0
176
     1
 90
        4
176
     1
 62
     7
176
     1
 62
   257
176
     1
 90
        1
176
     1
 90
        1
176
     1
 40
1.0
176
     1
 90
        8
176
     1
 62
     7
176
     1
 40
1.0
176
     1
 90
        1
176
     1
 90
        6
176
     1
 90
        2
176
     1
 62
     7
176
     1
 90
        5
176
     1
 90
        0
176
     1
 90
        0
176
     1
290
     0
176
     1
 90
        1
176
     1
 40
0.0
176
     1
 90
        0
176
     1
290
     0
176
     1
290
     1
176
     1
290
     1
176
     1
290
     0
176
     1
290
     0
176
     1
290
     0
176
     1
290
     0
176
     1
290
     0
176
     1
290
     0
176
     1
 90
       50
176
     1
 40
0.0
176
     1
 40
1.0
176
     1
 90
        0
176
     1
 62
    18
420
        0
176
     1
 90
       50
176
     1
 90
        3
176
     1
 62
     5
420
      255
176
     1
290
     0
176
     1
 90
       50
176
     1
 90
       50
176
     1
 90
       50
176
     1
290
     0
176
     1
 90
       50
176
     1
 62
   256
176
     0
 40
1.0
176
     0
 90
        2
176
     1
  1
strokes_ogs.tif
176
     1
290
     0
176
     1
 40
1.0
176
     1
 40
1.0
176
     1
  0
VISUALSTYLE
  5
8C88
102
{ACAD_REACTORS
330
8C7C
102
}
330
8C7C
100
AcDbVisualStyle
  2
Brighten
 70
    12
177
     3
291
     1
 70
    58
 90
        2
176
     1
 90
        2
176
     1
 90
        0
176
     1
 90
        0
176
     1
 40
0.6
176
     1
 40
30.0
176
     1
 62
     7
420
 16777215
176
     1
 90
        1
176
     1
 90
        4
176
     1
 62
     7
176
     1
 62
   257
176
     1
 90
        1
176
     1
 90
        1
176
     1
 40
1.0
176
     1
 90
        8
176
     1
 62
     7
176
     1
 40
1.0
176
     1
 90
        1
176
     1
 90
        6
176
     1
 90
        2
176
     1
 62
     7
176
     1
 90
        5
176
     1
 90
        0
176
     1
 90
        0
176
     1
290
     0
176
     1
 90
        1
176
     1
 40
50.0
176
     1
 90
        0
176
     1
290
     0
176
     1
290
     1
176
     1
290
     1
176
     1
290
     0
176
     1
290
     0
176
     1
290
     0
176
     1
290
     0
176
     1
290
     0
176
     1
290
     0
176
     1
 90
       50
176
     1
 40
0.0
176
     1
 40
1.0
176
     1
 90
        0
176
     1
 62
    18
420
        0
176
     1
 90
       50
176
     1
 90
        3
176
     1
 62
     5
420
      255
176
     1
290
     0
176
     1
 90
       50
176
     1
 90
       50
176
     1
 90
       50
176
     1
290
     0
176
     1
 90
       50
176
     1
 62
   256
176
     0
 40
1.0
176
     0
 90
        2
176
     1
  1
strokes_ogs.tif
176
     1
290
     0
176
     1
 40
1.0
176
     1
 40
1.0
176
     1
  0
VISUALSTYLE
  5
8C8C
102
{ACAD_REACTORS
330
8C7C
102
}
330
8C7C
100
AcDbVisualStyle
  2
ColorChange
 70
    16
177
     3
291
     1
 70
    58
 90
        2
176
     1
 90
        2
176
     1
 90
        3
176
     1
 90
        0
176
     1
 40
0.6
176
     1
 40
30.0
176
     1
 62
     8
420
  8421504
176
     1
 90
        1
176
     1
 90
        4
176
     1
 62
     7
176
     1
 62
   257
176
     1
 90
        1
176
     1
 90
        1
176
     1
 40
1.0
176
     1
 90
        8
176
     1
 62
     8
420
  8421504
176
     1
 40
1.0
176
     1
 90
        1
176
     1
 90
        6
176
     1
 90
        2
176
     1
 62
     7
176
     1
 90
        5
176
     1
 90
        0
176
     1
 90
        0
176
     1
290
     0
176
     1
 90
        1
176
     1
 40
0.0
176
     1
 90
        0
176
     1
290
     0
176
     1
290
     1
176
     1
290
     1
176
     1
290
     0
176
     1
290
     0
176
     1
290
     0
176
     1
290
     0
176
     1
290
     0
176
     1
290
     0
176
     1
 90
       50
176
     1
 40
0.0
176
     1
 40
1.0
176
     1
 90
        0
176
     1
 62
    18
420
        0
176
     1
 90
       50
176
     1
 90
        3
176
     1
 62
     5
420
      255
176
     1
290
     0
176
     1
 90
       50
176
     1
 90
       50
176
     1
 90
       50
176
     1
290
     0
176
     1
 90
       50
176
     1
 62
   256
176
     0
 40
1.0
176
     0
 90
        2
176
     1
  1
strokes_ogs.tif
176
     1
290
     0
176
     1
 40
1.0
176
     1
 40
1.0
176
     1
  0
VISUALSTYLE
  5
8C85
102
{ACAD_REACTORS
330
8C7C
102
}
330
8C7C
100
AcDbVisualStyle
  2
Conceptual
 70
     9
177
     3
291
     0
 70
    58
 90
        3
176
     1
 90
        2
176
     1
 90
        0
176
     1
 90
        0
176
     1
 40
0.6
176
     1
 40
30.0
176
     1
 62
     7
420
 16777215
176
     1
 90
        2
176
     1
 90
        2
176
     1
 62
     7
176
     1
 62
   257
176
     1
 90
        1
176
     1
 90
        1
176
     1
 40
40.0
176
     1
 90
        8
176
     1
 62
     7
176
     1
 40
1.0
176
     1
 90
        1
176
     1
 90
        6
176
     1
 90
        2
176
     1
 62
     7
176
     1
 90
        3
176
     1
 90
        0
176
     1
 90
        0
176
     1
290
     0
176
     1
 90
        1
176
     1
 40
0.0
176
     1
 90
        0
176
     1
290
     0
176
     1
290
     1
176
     1
290
     1
176
     1
290
     0
176
     1
290
     0
176
     1
290
     0
176
     1
290
     0
176
     1
290
     0
176
     1
290
     0
176
     1
 90
       50
176
     1
 40
0.0
176
     1
 40
1.0
176
     1
 90
        0
176
     1
 62
    18
420
        0
176
     1
 90
       50
176
     1
 90
        3
176
     1
 62
     5
420
      255
176
     1
290
     0
176
     1
 90
       50
176
     1
 90
       50
176
     1
 90
       50
176
     1
290
     0
176
     1
 90
       50
176
     1
 62
   256
176
     0
 40
1.0
176
     0
 90
        2
176
     1
  1
strokes_ogs.tif
176
     1
290
     0
176
     1
 40
1.0
176
     1
 40
1.0
176
     1
  0
VISUALSTYLE
  5
8C87
102
{ACAD_REACTORS
330
8C7C
102
}
330
8C7C
100
AcDbVisualStyle
  2
Dim
 70
    11
177
     3
291
     1
 70
    58
 90
        2
176
     1
 90
        2
176
     1
 90
        0
176
     1
 90
        0
176
     1
 40
0.6
176
     1
 40
30.0
176
     1
 62
     7
420
 16777215
176
     1
 90
        1
176
     1
 90
        4
176
     1
 62
     7
176
     1
 62
   257
176
     1
 90
        1
176
     1
 90
        1
176
     1
 40
1.0
176
     1
 90
        8
176
     1
 62
     7
176
     1
 40
1.0
176
     1
 90
        1
176
     1
 90
        6
176
     1
 90
        2
176
     1
 62
     7
176
     1
 90
        5
176
     1
 90
        0
176
     1
 90
        0
176
     1
290
     0
176
     1
 90
        1
176
     1
 40
-50.0
176
     1
 90
        0
176
     1
290
     0
176
     1
290
     1
176
     1
290
     1
176
     1
290
     0
176
     1
290
     0
176
     1
290
     0
176
     1
290
     0
176
     1
290
     0
176
     1
290
     0
176
     1
 90
       50
176
     1
 40
0.0
176
     1
 40
1.0
176
     1
 90
        0
176
     1
 62
    18
420
        0
176
     1
 90
       50
176
     1
 90
        3
176
     1
 62
     5
420
      255
176
     1
290
     0
176
     1
 90
       50
176
     1
 90
       50
176
     1
 90
       50
176
     1
290
     0
176
     1
 90
       50
176
     1
 62
   256
176
     0
 40
1.0
176
     0
 90
        2
176
     1
  1
strokes_ogs.tif
176
     1
290
     0
176
     1
 40
1.0
176
     1
 40
1.0
176
     1
  0
VISUALSTYLE
  5
8CC0
102
{ACAD_REACTORS
330
8C7C
102
}
330
8C7C
100
AcDbVisualStyle
  2
EdgeColorOff
 70
    22
177
     3
291
     1
 70
    58
 90
        2
176
     0
 90
        2
176
     0
 90
        0
176
     0
 90
        0
176
     0
 40
0.6
176
     0
 40
30.0
176
     0
 62
     7
420
 16777215
176
     0
 90
        1
176
     0
 90
        4
176
     0
 62
     7
176
     0
 62
   257
176
     0
 90
        1
176
     0
 90
        1
176
     0
 40
1.0
176
     0
 90
        8
176
     2
 62
     7
176
     0
 40
1.0
176
     0
 90
        1
176
     0
 90
        6
176
     0
 90
        2
176
     0
 62
     7
176
     0
 90
        5
176
     0
 90
        0
176
     0
 90
        0
176
     0
290
     0
176
     0
 90
        1
176
     0
 40
0.0
176
     0
 90
        0
176
     0
290
     0
176
     0
290
     1
176
     0
290
     1
176
     0
290
     0
176
     0
290
     0
176
     0
290
     0
176
     0
290
     0
176
     0
290
     0
176
     0
290
     0
176
     0
 90
       50
176
     0
 40
0.0
176
     0
 40
1.0
176
     0
 90
        0
176
     0
 62
    18
420
        0
176
     0
 90
       50
176
     0
 90
        3
176
     0
 62
     5
420
      255
176
     0
290
     0
176
     0
 90
       50
176
     0
 90
       50
176
     0
 90
       50
176
     0
290
     0
176
     0
 90
       50
176
     0
 62
   256
176
     0
 40
1.0
176
     0
 90
        2
176
     0
  1
strokes_ogs.tif
176
     0
290
     0
176
     0
 40
1.0
176
     0
 40
1.0
176
     0
  0
VISUALSTYLE
  5
8C8B
102
{ACAD_REACTORS
330
8C7C
102
}
330
8C7C
100
AcDbVisualStyle
  2
Facepattern
 70
    15
177
     3
291
     1
 70
    58
 90
        2
176
     1
 90
        2
176
     1
 90
        0
176
     1
 90
        0
176
     1
 40
0.6
176
     1
 40
30.0
176
     1
 62
     7
420
 16777215
176
     1
 90
        1
176
     1
 90
        4
176
     1
 62
     7
176
     1
 62
   257
176
     1
 90
        1
176
     1
 90
        1
176
     1
 40
1.0
176
     1
 90
        8
176
     1
 62
     7
176
     1
 40
1.0
176
     1
 90
        1
176
     1
 90
        6
176
     1
 90
        2
176
     1
 62
     7
176
     1
 90
        5
176
     1
 90
        0
176
     1
 90
        0
176
     1
290
     0
176
     1
 90
        1
176
     1
 40
0.0
176
     1
 90
        0
176
     1
290
     0
176
     1
290
     1
176
     1
290
     1
176
     1
290
     0
176
     1
290
     0
176
     1
290
     0
176
     1
290
     0
176
     1
290
     0
176
     1
290
     0
176
     1
 90
       50
176
     1
 40
0.0
176
     1
 40
1.0
176
     1
 90
        0
176
     1
 62
    18
420
        0
176
     1
 90
       50
176
     1
 90
        3
176
     1
 62
     5
420
      255
176
     1
290
     0
176
     1
 90
       50
176
     1
 90
       50
176
     1
 90
       50
176
     1
290
     0
176
     1
 90
       50
176
     1
 62
   256
176
     0
 40
1.0
176
     0
 90
        2
176
     1
  1
strokes_ogs.tif
176
     1
290
     0
176
     1
 40
1.0
176
     1
 40
1.0
176
     1
  0
VISUALSTYLE
  5
8C7D
102
{ACAD_REACTORS
330
8C7C
102
}
330
8C7C
100
AcDbVisualStyle
  2
Flat
 70
     0
177
     3
291
     1
 70
    58
 90
        2
176
     1
 90
        1
176
     1
 90
        1
176
     1
 90
        2
176
     1
 40
0.6
176
     1
 40
30.0
176
     1
 62
     7
420
 16777215
176
     1
 90
        0
176
     1
 90
        4
176
     1
 62
     7
176
     1
 62
   257
176
     1
 90
        1
176
     1
 90
        1
176
     1
 40
1.0
176
     1
 90
        8
176
     1
 62
     7
176
     1
 40
1.0
176
     1
 90
        1
176
     1
 90
        6
176
     1
 90
        2
176
     1
 62
     7
176
     1
 90
        5
176
     1
 90
        0
176
     1
 90
        0
176
     1
290
     0
176
     1
 90
       13
176
     1
 40
0.0
176
     1
 90
        0
176
     1
290
     0
176
     1
290
     1
176
     1
290
     1
176
     1
290
     0
176
     1
290
     0
176
     1
290
     0
176
     1
290
     0
176
     1
290
     0
176
     1
290
     0
176
     1
 90
       50
176
     1
 40
0.0
176
     1
 40
1.0
176
     1
 90
        0
176
     1
 62
    18
420
        0
176
     1
 90
       50
176
     1
 90
        3
176
     1
 62
     5
420
      255
176
     1
290
     0
176
     1
 90
       50
176
     1
 90
       50
176
     1
 90
       50
176
     1
290
     0
176
     1
 90
       50
176
     1
 62
   256
176
     0
 40
1.0
176
     0
 90
        2
176
     1
  1
strokes_ogs.tif
176
     1
290
     0
176
     1
 40
1.0
176
     1
 40
1.0
176
     1
  0
VISUALSTYLE
  5
8C7E
102
{ACAD_REACTORS
330
8C7C
102
}
330
8C7C
100
AcDbVisualStyle
  2
FlatWithEdges
 70
     1
177
     3
291
     1
 70
    58
 90
        2
176
     1
 90
        1
176
     1
 90
        1
176
     1
 90
        2
176
     1
 40
0.6
176
     1
 40
30.0
176
     1
 62
     7
420
 16777215
176
     1
 90
        1
176
     1
 90
        4
176
     1
 62
     7
176
     1
 62
   257
176
     1
 90
        1
176
     1
 90
        1
176
     1
 40
1.0
176
     1
 90
        0
176
     1
 62
   257
176
     1
 40
1.0
176
     1
 90
        1
176
     1
 90
        6
176
     1
 90
        2
176
     1
 62
     7
176
     1
 90
        5
176
     1
 90
        0
176
     1
 90
        0
176
     1
290
     0
176
     1
 90
       13
176
     1
 40
0.0
176
     1
 90
        0
176
     1
290
     0
176
     1
290
     1
176
     1
290
     1
176
     1
290
     0
176
     1
290
     0
176
     1
290
     0
176
     1
290
     0
176
     1
290
     0
176
     1
290
     0
176
     1
 90
       50
176
     1
 40
0.0
176
     1
 40
1.0
176
     1
 90
        0
176
     1
 62
    18
420
        0
176
     1
 90
       50
176
     1
 90
        3
176
     1
 62
     5
420
      255
176
     1
290
     0
176
     1
 90
       50
176
     1
 90
       50
176
     1
 90
       50
176
     1
290
     0
176
     1
 90
       50
176
     1
 62
   256
176
     0
 40
1.0
176
     0
 90
        2
176
     1
  1
strokes_ogs.tif
176
     1
290
     0
176
     1
 40
1.0
176
     1
 40
1.0
176
     1
  0
VISUALSTYLE
  5
8C7F
102
{ACAD_REACTORS
330
8C7C
102
}
330
8C7C
100
AcDbVisualStyle
  2
Gouraud
 70
     2
177
     3
291
     1
 70
    58
 90
        2
176
     1
 90
        2
176
     1
 90
        1
176
     1
 90
        2
176
     1
 40
0.6
176
     1
 40
30.0
176
     1
 62
     7
420
 16777215
176
     1
 90
        0
176
     1
 90
        4
176
     1
 62
     7
176
     1
 62
   257
176
     1
 90
        1
176
     1
 90
        1
176
     1
 40
1.0
176
     1
 90
        0
176
     1
 62
     7
176
     1
 40
1.0
176
     1
 90
        1
176
     1
 90
        6
176
     1
 90
        2
176
     1
 62
     7
176
     1
 90
        5
176
     1
 90
        0
176
     1
 90
        0
176
     1
290
     0
176
     1
 90
       13
176
     1
 40
0.0
176
     1
 90
        0
176
     1
290
     0
176
     1
290
     1
176
     1
290
     1
176
     1
290
     0
176
     1
290
     0
176
     1
290
     0
176
     1
290
     0
176
     1
290
     0
176
     1
290
     0
176
     1
 90
       50
176
     1
 40
0.0
176
     1
 40
1.0
176
     1
 90
        0
176
     1
 62
    18
420
        0
176
     1
 90
       50
176
     1
 90
        3
176
     1
 62
     5
420
      255
176
     1
290
     0
176
     1
 90
       50
176
     1
 90
       50
176
     1
 90
       50
176
     1
290
     0
176
     1
 90
       50
176
     1
 62
   256
176
     0
 40
1.0
176
     0
 90
        2
176
     1
  1
strokes_ogs.tif
176
     1
290
     0
176
     1
 40
1.0
176
     1
 40
1.0
176
     1
  0
VISUALSTYLE
  5
8C80
102
{ACAD_REACTORS
330
8C7C
102
}
330
8C7C
100
AcDbVisualStyle
  2
GouraudWithEdges
 70
     3
177
     3
291
     1
 70
    58
 90
        2
176
     1
 90
        2
176
     1
 90
        1
176
     1
 90
        2
176
     1
 40
0.6
176
     1
 40
30.0
176
     1
 62
     7
420
 16777215
176
     1
 90
        1
176
     1
 90
        4
176
     1
 62
     7
176
     1
 62
   257
176
     1
 90
        1
176
     1
 90
        1
176
     1
 40
1.0
176
     1
 90
        0
176
     1
 62
   257
176
     1
 40
1.0
176
     1
 90
        1
176
     1
 90
        6
176
     1
 90
        2
176
     1
 62
     7
176
     1
 90
        5
176
     1
 90
        0
176
     1
 90
        0
176
     1
290
     0
176
     1
 90
       13
176
     1
 40
0.0
176
     1
 90
        0
176
     1
290
     0
176
     1
290
     1
176
     1
290
     1
176
     1
290
     0
176
     1
290
     0
176
     1
290
     0
176
     1
290
     0
176
     1
290
     0
176
     1
290
     0
176
     1
 90
       50
176
     1
 40
0.0
176
     1
 40
1.0
176
     1
 90
        0
176
     1
 62
    18
420
        0
176
     1
 90
       50
176
     1
 90
        3
176
     1
 62
     5
420
      255
176
     1
290
     0
176
     1
 90
       50
176
     1
 90
       50
176
     1
 90
       50
176
     1
290
     0
176
     1
 90
       50
176
     1
 62
   256
176
     0
 40
1.0
176
     0
 90
        2
176
     1
  1
strokes_ogs.tif
176
     1
290
     0
176
     1
 40
1.0
176
     1
 40
1.0
176
     1
  0
VISUALSTYLE
  5
8CB8
102
{ACAD_REACTORS
330
8C7C
102
}
330
8C7C
100
AcDbVisualStyle
  2
Hidden
 70
     6
177
     3
291
     0
 70
    58
 90
        1
176
     1
 90
        2
176
     1
 90
        2
176
     1
 90
        0
176
     1
 40
0.6
176
     1
 40
30.0
176
     1
 62
     7
420
 16777215
176
     1
 90
        2
176
     1
 90
        2
176
     1
 62
     7
176
     1
 62
   257
176
     1
 90
        2
176
     1
 90
        1
176
     1
 40
40.0
176
     1
 90
        0
176
     1
 62
   257
176
     1
 40
1.0
176
     1
 90
        1
176
     1
 90
        6
176
     1
 90
        2
176
     1
 62
     7
176
     1
 90
        3
176
     1
 90
        0
176
     1
 90
        0
176
     1
290
     0
176
     1
 90
        1
176
     1
 40
0.0
176
     1
 90
        0
176
     1
290
     0
176
     1
290
     1
176
     1
290
     1
176
     1
290
     0
176
     1
290
     0
176
     1
290
     0
176
     1
290
     0
176
     1
290
     0
176
     1
290
     0
176
     1
 90
       50
176
     1
 40
0.0
176
     1
 40
1.0
176
     1
 90
        0
176
     1
 62
    18
420
        0
176
     1
 90
       50
176
     1
 90
        3
176
     1
 62
     5
420
      255
176
     1
290
     0
176
     1
 90
       50
176
     1
 90
       50
176
     1
 90
       50
176
     1
290
     0
176
     1
 90
       50
176
     1
 62
   256
176
     0
 40
1.0
176
     0
 90
        2
176
     1
  1
strokes_ogs.tif
176
     1
290
     0
176
     1
 40
1.0
176
     1
 40
1.0
176
     1
  0
VISUALSTYLE
  5
8CBE
102
{ACAD_REACTORS
330
8C7C
102
}
330
8C7C
100
AcDbVisualStyle
  2
JitterOff
 70
    20
177
     3
291
     1
 70
    58
 90
        2
176
     0
 90
        2
176
     0
 90
        0
176
     0
 90
        0
176
     0
 40
0.6
176
     0
 40
30.0
176
     0
 62
     7
420
 16777215
176
     0
 90
        1
176
     0
 90
        4
176
     0
 62
     7
176
     0
 62
   257
176
     0
 90
        1
176
     0
 90
        1
176
     0
 40
1.0
176
     0
 90
       10
176
     2
 62
     7
176
     0
 40
1.0
176
     0
 90
        1
176
     0
 90
        6
176
     0
 90
        2
176
     0
 62
     7
176
     0
 90
        5
176
     0
 90
        0
176
     0
 90
        0
176
     0
290
     0
176
     0
 90
        1
176
     0
 40
0.0
176
     0
 90
        0
176
     0
290
     0
176
     0
290
     1
176
     0
290
     1
176
     0
290
     0
176
     0
290
     0
176
     0
290
     0
176
     0
290
     0
176
     0
290
     0
176
     0
290
     0
176
     0
 90
       50
176
     0
 40
0.0
176
     0
 40
1.0
176
     0
 90
        0
176
     0
 62
    18
420
        0
176
     0
 90
       50
176
     0
 90
        3
176
     0
 62
     5
420
      255
176
     0
290
     0
176
     0
 90
       50
176
     0
 90
       50
176
     0
 90
       50
176
     0
290
     0
176
     0
 90
       50
176
     0
 62
   256
176
     0
 40
1.0
176
     0
 90
        2
176
     0
  1
strokes_ogs.tif
176
     0
290
     0
176
     0
 40
1.0
176
     0
 40
1.0
176
     0
  0
VISUALSTYLE
  5
8C8A
102
{ACAD_REACTORS
330
8C7C
102
}
330
8C7C
100
AcDbVisualStyle
  2
Linepattern
 70
    14
177
     3
291
     1
 70
    58
 90
        2
176
     1
 90
        2
176
     1
 90
        0
176
     1
 90
        0
176
     1
 40
0.6
176
     1
 40
30.0
176
     1
 62
     7
420
 16777215
176
     1
 90
        1
176
     1
 90
        4
176
     1
 62
     7
176
     1
 62
   257
176
     1
 90
        7
176
     1
 90
        7
176
     1
 40
1.0
176
     1
 90
        8
176
     1
 62
     7
176
     1
 40
1.0
176
     1
 90
        1
176
     1
 90
        6
176
     1
 90
        2
176
     1
 62
     7
176
     1
 90
        5
176
     1
 90
        0
176
     1
 90
        0
176
     1
290
     0
176
     1
 90
        1
176
     1
 40
0.0
176
     1
 90
        0
176
     1
290
     0
176
     1
290
     1
176
     1
290
     1
176
     1
290
     0
176
     1
290
     0
176
     1
290
     0
176
     1
290
     0
176
     1
290
     0
176
     1
290
     0
176
     1
 90
       50
176
     1
 40
0.0
176
     1
 40
1.0
176
     1
 90
        0
176
     1
 62
    18
420
        0
176
     1
 90
       50
176
     1
 90
        3
176
     1
 62
     5
420
      255
176
     1
290
     0
176
     1
 90
       50
176
     1
 90
       50
176
     1
 90
       50
176
     1
290
     0
176
     1
 90
       50
176
     1
 62
   256
176
     0
 40
1.0
176
     0
 90
        2
176
     1
  1
strokes_ogs.tif
176
     1
290
     0
176
     1
 40
1.0
176
     1
 40
1.0
176
     1
  0
VISUALSTYLE
  5
8CBF
102
{ACAD_REACTORS
330
8C7C
102
}
330
8C7C
100
AcDbVisualStyle
  2
OverhangOff
 70
    21
177
     3
291
     1
 70
    58
 90
        2
176
     0
 90
        2
176
     0
 90
        0
176
     0
 90
        0
176
     0
 40
0.6
176
     0
 40
30.0
176
     0
 62
     7
420
 16777215
176
     0
 90
        1
176
     0
 90
        4
176
     0
 62
     7
176
     0
 62
   257
176
     0
 90
        1
176
     0
 90
        1
176
     0
 40
1.0
176
     0
 90
        9
176
     2
 62
     7
176
     0
 40
1.0
176
     0
 90
        1
176
     0
 90
        6
176
     0
 90
        2
176
     0
 62
     7
176
     0
 90
        5
176
     0
 90
        0
176
     0
 90
        0
176
     0
290
     0
176
     0
 90
        1
176
     0
 40
0.0
176
     0
 90
        0
176
     0
290
     0
176
     0
290
     1
176
     0
290
     1
176
     0
290
     0
176
     0
290
     0
176
     0
290
     0
176
     0
290
     0
176
     0
290
     0
176
     0
290
     0
176
     0
 90
       50
176
     0
 40
0.0
176
     0
 40
1.0
176
     0
 90
        0
176
     0
 62
    18
420
        0
176
     0
 90
       50
176
     0
 90
        3
176
     0
 62
     5
420
      255
176
     0
290
     0
176
     0
 90
       50
176
     0
 90
       50
176
     0
 90
       50
176
     0
290
     0
176
     0
 90
       50
176
     0
 62
   256
176
     0
 40
1.0
176
     0
 90
        2
176
     0
  1
strokes_ogs.tif
176
     0
290
     0
176
     0
 40
1.0
176
     0
 40
1.0
176
     0
  0
VISUALSTYLE
  5
8C86
102
{ACAD_REACTORS
330
8C7C
102
}
330
8C7C
100
AcDbVisualStyle
  2
Realistic
 70
     8
177
     3
291
     0
 70
    58
 90
        2
176
     1
 90
        2
176
     1
 90
        0
176
     1
 90
        0
176
     1
 40
0.6
176
     1
 40
30.0
176
     1
 62
     7
420
 16777215
176
     1
 90
        1
176
     1
 90
        0
176
     1
 62
     7
176
     1
 62
   257
176
     1
 90
        1
176
     1
 90
        1
176
     1
 40
1.0
176
     1
 90
        8
176
     1
 62
     8
420
  7895160
176
     1
 40
1.0
176
     1
 90
        1
176
     1
 90
        6
176
     1
 90
        2
176
     1
 62
     7
176
     1
 90
        5
176
     1
 90
        0
176
     1
 90
        0
176
     1
290
     0
176
     1
 90
       13
176
     1
 40
0.0
176
     1
 90
        0
176
     1
290
     0
176
     1
290
     1
176
     1
290
     1
176
     1
290
     0
176
     1
290
     0
176
     1
290
     0
176
     1
290
     0
176
     1
290
     0
176
     1
290
     0
176
     1
 90
       50
176
     1
 40
0.0
176
     1
 40
1.0
176
     1
 90
        0
176
     1
 62
    18
420
        0
176
     1
 90
       50
176
     1
 90
        3
176
     1
 62
     5
420
      255
176
     1
290
     0
176
     1
 90
       50
176
     1
 90
       50
176
     1
 90
       50
176
     1
290
     0
176
     1
 90
       50
176
     1
 62
   256
176
     0
 40
1.0
176
     0
 90
        2
176
     1
  1
strokes_ogs.tif
176
     1
290
     0
176
     1
 40
1.0
176
     1
 40
1.0
176
     1
  0
VISUALSTYLE
  5
8CBD
102
{ACAD_REACTORS
330
8C7C
102
}
330
8C7C
100
AcDbVisualStyle
  2
Shaded
 70
    27
177
     3
291
     0
 70
    58
 90
        2
176
     1
 90
        2
176
     1
 90
        1
176
     1
 90
        2
176
     1
 40
0.6
176
     1
 40
30.0
176
     1
 62
     7
420
 16777215
176
     1
 90
        0
176
     1
 90
        4
176
     1
 62
     7
176
     1
 62
   257
176
     1
 90
        1
176
     1
 90
        1
176
     1
 40
1.0
176
     1
 90
        8
176
     1
 62
   257
176
     1
 40
1.0
176
     1
 90
        1
176
     1
 90
        6
176
     1
 90
        2
176
     1
 62
     8
420
  7895160
176
     1
 90
        3
176
     1
 90
        0
176
     1
 90
        0
176
     1
290
     0
176
     1
 90
        5
176
     1
 40
0.0
176
     1
 90
        0
176
     1
290
     0
176
     1
290
     1
176
     1
290
     1
176
     1
290
     0
176
     1
290
     0
176
     1
290
     0
176
     1
290
     0
176
     1
290
     0
176
     1
290
     0
176
     1
 90
       50
176
     1
 40
0.0
176
     1
 40
1.0
176
     1
 90
        0
176
     1
 62
    18
420
        0
176
     1
 90
       50
176
     1
 90
        3
176
     1
 62
     5
420
      255
176
     1
290
     0
176
     1
 90
       50
176
     1
 90
       50
176
     1
 90
       50
176
     1
290
     0
176
     1
 90
       50
176
     1
 62
   256
176
     0
 40
1.0
176
     0
 90
        2
176
     1
  1
strokes_ogs.tif
176
     1
290
     0
176
     1
 40
1.0
176
     1
 40
1.0
176
     1
  0
VISUALSTYLE
  5
8CBC
102
{ACAD_REACTORS
330
8C7C
102
}
330
8C7C
100
AcDbVisualStyle
  2
Shaded with edges
 70
    26
177
     3
291
     0
 70
    58
 90
        2
176
     1
 90
        2
176
     1
 90
        1
176
     1
 90
        2
176
     1
 40
0.6
176
     1
 40
30.0
176
     1
 62
     7
420
 16777215
176
     1
 90
        1
176
     1
 90
        2
176
     1
 62
     7
176
     1
 62
   257
176
     1
 90
        2
176
     1
 90
        1
176
     1
 40
1.0
176
     1
 90
        8
176
     1
 62
   257
176
     1
 40
1.0
176
     1
 90
        1
176
     1
 90
        6
176
     1
 90
        2
176
     1
 62
     7
176
     1
 90
        3
176
     1
 90
        0
176
     1
 90
        0
176
     1
290
     0
176
     1
 90
        5
176
     1
 40
0.0
176
     1
 90
        0
176
     1
290
     0
176
     1
290
     1
176
     1
290
     1
176
     1
290
     0
176
     1
290
     0
176
     1
290
     0
176
     1
290
     0
176
     1
290
     0
176
     1
290
     0
176
     1
 90
       50
176
     1
 40
0.0
176
     1
 40
1.0
176
     1
 90
        0
176
     1
 62
    18
420
        0
176
     1
 90
       50
176
     1
 90
        3
176
     1
 62
     5
420
      255
176
     1
290
     0
176
     1
 90
       50
176
     1
 90
       50
176
     1
 90
       50
176
     1
290
     0
176
     1
 90
       50
176
     1
 62
   256
176
     0
 40
1.0
176
     0
 90
        2
176
     1
  1
strokes_ogs.tif
176
     1
290
     0
176
     1
 40
1.0
176
     1
 40
1.0
176
     1
  0
VISUALSTYLE
  5
8CB9
102
{ACAD_REACTORS
330
8C7C
102
}
330
8C7C
100
AcDbVisualStyle
  2
Shades of Gray
 70
    23
177
     3
291
     0
 70
    58
 90
        2
176
     1
 90
        2
176
     1
 90
        3
176
     1
 90
        0
176
     1
 40
0.6
176
     1
 40
30.0
176
     1
 62
     7
420
 16777215
176
     1
 90
        2
176
     1
 90
        2
176
     1
 62
     7
176
     1
 62
     7
176
     1
 90
        1
176
     1
 90
        1
176
     1
 40
40.0
176
     1
 90
        8
176
     1
 62
     7
176
     1
 40
1.0
176
     1
 90
        1
176
     1
 90
        6
176
     1
 90
        2
176
     1
 62
     7
176
     1
 90
        3
176
     1
 90
        0
176
     1
 90
        0
176
     1
290
     0
176
     1
 90
        1
176
     1
 40
0.0
176
     1
 90
        0
176
     1
290
     0
176
     1
290
     1
176
     1
290
     1
176
     1
290
     0
176
     1
290
     0
176
     1
290
     0
176
     1
290
     0
176
     1
290
     0
176
     1
290
     0
176
     1
 90
       50
176
     1
 40
0.0
176
     1
 40
1.0
176
     1
 90
        0
176
     1
 62
    18
420
        0
176
     1
 90
       50
176
     1
 90
        3
176
     1
 62
     5
420
      255
176
     1
290
     0
176
     1
 90
       50
176
     1
 90
       50
176
     1
 90
       50
176
     1
290
     0
176
     1
 90
       50
176
     1
 62
   256
176
     0
 40
1.0
176
     0
 90
        2
176
     1
  1
strokes_ogs.tif
176
     1
290
     0
176
     1
 40
1.0
176
     1
 40
1.0
176
     1
  0
VISUALSTYLE
  5
8CBA
102
{ACAD_REACTORS
330
8C7C
102
}
330
8C7C
100
AcDbVisualStyle
  2
Sketchy
 70
    24
177
     3
291
     0
 70
    58
 90
        1
176
     1
 90
        2
176
     1
 90
        2
176
     1
 90
        0
176
     1
 40
0.6
176
     1
 40
30.0
176
     1
 62
     7
420
 16777215
176
     1
 90
        2
176
     1
 90
        2
176
     1
 62
     7
176
     1
 62
     7
176
     1
 90
        1
176
     1
 90
        1
176
     1
 40
40.0
176
     1
 90
       11
176
     1
 62
     7
176
     1
 40
1.0
176
     1
 90
        1
176
     1
 90
        6
176
     1
 90
        2
176
     1
 62
     7
176
     1
 90
        6
176
     1
 90
        0
176
     1
 90
        0
176
     1
290
     0
176
     1
 90
        1
176
     1
 40
0.0
176
     1
 90
        0
176
     1
290
     0
176
     1
290
     1
176
     1
290
     1
176
     1
290
     0
176
     1
290
     0
176
     1
290
     0
176
     1
290
     0
176
     1
290
     0
176
     1
290
     0
176
     1
 90
       50
176
     1
 40
0.0
176
     1
 40
1.0
176
     1
 90
        0
176
     1
 62
    18
420
        0
176
     1
 90
       50
176
     1
 90
        3
176
     1
 62
     5
420
      255
176
     1
290
     0
176
     1
 90
       50
176
     1
 90
       50
176
     1
 90
       50
176
     1
290
     0
176
     1
 90
       50
176
     1
 62
   256
176
     0
 40
1.0
176
     0
 90
        2
176
     1
  1
strokes_ogs.tif
176
     1
290
     0
176
     1
 40
1.0
176
     1
 40
1.0
176
     1
  0
VISUALSTYLE
  5
8C89
102
{ACAD_REACTORS
330
8C7C
102
}
330
8C7C
100
AcDbVisualStyle
  2
Thicken
 70
    13
177
     3
291
     1
 70
    58
 90
        2
176
     1
 90
        2
176
     1
 90
        0
176
     1
 90
        0
176
     1
 40
0.6
176
     1
 40
30.0
176
     1
 62
     7
420
 16777215
176
     1
 90
        1
176
     1
 90
        4
176
     1
 62
     7
176
     1
 62
   257
176
     1
 90
        1
176
     1
 90
        1
176
     1
 40
1.0
176
     1
 90
       12
176
     1
 62
     7
176
     1
 40
1.0
176
     1
 90
        1
176
     1
 90
        6
176
     1
 90
        2
176
     1
 62
     7
176
     1
 90
        5
176
     1
 90
        0
176
     1
 90
        0
176
     1
290
     0
176
     1
 90
        1
176
     1
 40
0.0
176
     1
 90
        0
176
     1
290
     0
176
     1
290
     1
176
     1
290
     1
176
     1
290
     0
176
     1
290
     0
176
     1
290
     0
176
     1
290
     0
176
     1
290
     0
176
     1
290
     0
176
     1
 90
       50
176
     1
 40
0.0
176
     1
 40
1.0
176
     1
 90
        0
176
     1
 62
    18
420
        0
176
     1
 90
       50
176
     1
 90
        3
176
     1
 62
     5
420
      255
176
     1
290
     0
176
     1
 90
       50
176
     1
 90
       50
176
     1
 90
       50
176
     1
290
     0
176
     1
 90
       50
176
     1
 62
   256
176
     0
 40
1.0
176
     0
 90
        2
176
     1
  1
strokes_ogs.tif
176
     1
290
     0
176
     1
 40
1.0
176
     1
 40
1.0
176
     1
  0
VISUALSTYLE
  5
8CB7
102
{ACAD_REACTORS
330
8C7C
102
}
330
8C7C
100
AcDbVisualStyle
  2
Wireframe
 70
     5
177
     3
291
     0
 70
    58
 90
        0
176
     1
 90
        2
176
     1
 90
        0
176
     1
 90
        0
176
     1
 40
0.6
176
     1
 40
30.0
176
     1
 62
     7
420
 16777215
176
     1
 90
        1
176
     1
 90
        4
176
     1
 62
     7
176
     1
 62
   257
176
     1
 90
        1
176
     1
 90
        1
176
     1
 40
1.0
176
     1
 90
        0
176
     1
 62
   257
176
     1
 40
1.0
176
     1
 90
        1
176
     1
 90
        6
176
     1
 90
        2
176
     1
 62
     7
176
     1
 90
        3
176
     1
 90
        0
176
     1
 90
        0
176
     1
290
     0
176
     1
 90
        1
176
     1
 40
0.0
176
     1
 90
        0
176
     1
290
     0
176
     1
290
     1
176
     1
290
     1
176
     1
290
     0
176
     1
290
     0
176
     1
290
     0
176
     1
290
     0
176
     1
290
     0
176
     1
290
     0
176
     1
 90
       50
176
     1
 40
0.0
176
     1
 40
1.0
176
     1
 90
        0
176
     1
 62
    18
420
        0
176
     1
 90
       50
176
     1
 90
        3
176
     1
 62
     5
420
      255
176
     1
290
     0
176
     1
 90
       50
176
     1
 90
       50
176
     1
 90
       50
176
     1
290
     0
176
     1
 90
       50
176
     1
 62
   256
176
     0
 40
1.0
176
     0
 90
        2
176
     1
  1
strokes_ogs.tif
176
     1
290
     0
176
     1
 40
1.0
176
     1
 40
1.0
176
     1
  0
VISUALSTYLE
  5
8CBB
102
{ACAD_REACTORS
330
8C7C
102
}
330
8C7C
100
AcDbVisualStyle
  2
X-Ray
 70
    25
177
     3
291
     0
 70
    58
 90
        2
176
     1
 90
        2
176
     1
 90
        1
176
     1
 90
        1
176
     1
 40
0.5
176
     1
 40
30.0
176
     1
 62
     7
420
 16777215
176
     1
 90
        1
176
     1
 90
        0
176
     1
 62
     7
176
     1
 62
   257
176
     1
 90
        1
176
     1
 90
        1
176
     1
 40
1.0
176
     1
 90
        8
176
     1
 62
     7
176
     1
 40
1.0
176
     1
 90
        1
176
     1
 90
        6
176
     1
 90
        2
176
     1
 62
     7
176
     1
 90
        3
176
     1
 90
        0
176
     1
 90
        0
176
     1
290
     0
176
     1
 90
       13
176
     1
 40
0.0
176
     1
 90
        0
176
     1
290
     0
176
     1
290
     1
176
     1
290
     1
176
     1
290
     0
176
     1
290
     0
176
     1
290
     0
176
     1
290
     0
176
     1
290
     0
176
     1
290
     0
176
     1
 90
       50
176
     1
 40
0.0
176
     1
 40
1.0
176
     1
 90
        0
176
     1
 62
    18
420
        0
176
     1
 90
       50
176
     1
 90
        3
176
     1
 62
     5
420
      255
176
     1
290
     0
176
     1
 90
       50
176
     1
 90
       50
176
     1
 90
       50
176
     1
290
     0
176
     1
 90
       50
176
     1
 62
   256
176
     0
 40
1.0
176
     0
 90
        2
176
     1
  1
strokes_ogs.tif
176
     1
290
     0
176
     1
 40
1.0
176
     1
 40
1.0
176
     1
  0
DICTIONARYVAR
  5
8E09
102
{ACAD_REACTORS
330
5E
102
}
330
5E
100
DictionaryVariables
280
     0
  1
1:1
  0
DICTIONARYVAR
  5
8E05
102
{ACAD_REACTORS
330
5E
102
}
330
5E
100
DictionaryVariables
280
     0
  1
STANDARD
  0
DICTIONARYVAR
  5
8CA1
102
{ACAD_REACTORS
330
5E
102
}
330
5E
100
DictionaryVariables
280
     0
  1
STANDARD
  0
DICTIONARYVAR
  5
8E06
102
{ACAD_REACTORS
330
5E
102
}
330
5E
100
DictionaryVariables
280
     0
  1
Metric50
  0
DICTIONARYVAR
  5
8E07
102
{ACAD_REACTORS
330
5E
102
}
330
5E
100
DictionaryVariables
280
     0
  1
Metric50
  0
DICTIONARYVAR
  5
5F
102
{ACAD_REACTORS
330
5E
102
}
330
5E
100
DictionaryVariables
280
     0
  1
2
  0
DICTIONARYVAR
  5
63
102
{ACAD_REACTORS
330
5E
102
}
330
5E
100
DictionaryVariables
280
     0
  1
1
  0
DICTIONARYVAR
  5
8E0B
102
{ACAD_REACTORS
330
5E
102
}
330
5E
100
DictionaryVariables
280
     0
  1
1
  0
DICTIONARYVAR
  5
8E0C
102
{ACAD_REACTORS
330
5E
102
}
330
5E
100
DictionaryVariables
280
     0
  1
15
  0
DICTIONARYVAR
  5
8E0A
102
{ACAD_REACTORS
330
5E
102
}
330
5E
100
DictionaryVariables
280
     0
  1
0
  0
DICTIONARYVAR
  5
8E08
102
{ACAD_REACTORS
330
5E
102
}
330
5E
100
DictionaryVariables
280
     0
  1
0
  0
DICTIONARYVAR
  5
1CF
102
{ACAD_REACTORS
330
5E
102
}
330
5E
100
DictionaryVariables
280
     0
  1

  0
XRECORD
  5
5389
102
{ACAD_REACTORS
330
5387
102
}
330
5387
100
AcDbXrecord
280
     1
330
0
330
0
330
0
  0
ACAD_PROXY_OBJECT
  5
8CB5
102
{ACAD_REACTORS
330
8CB4
102
}
330
8CB4
100
AcDbProxyObject
 90
      499
 91
      508
 71
    27
 97
        1
 70
     0
162
                 0
161
               224
310
00013FFFD0C4040800000000000004402826564C4F2D52202E20302979
 94
        0
  0
DICTIONARY
  5
8E0D
330
8C8E
100
AcDbDictionary
280
     1
281
     1
  3
ACAD_ROUNDTRIP_2008_TABLESTYLE_CELLSTYLEMAP
360
8E0E
  0
CELLSTYLEMAP
  5
8E0E
102
{ACAD_REACTORS
330
8E0D
102
}
330
8E0D
100
AcDbCellStyleMap
 90
        3
300
CELLSTYLE
  1
TABLEFORMAT_BEGIN
 90
        5
170
     1
 91
        0
 92
    32768
 62
   257
 93
        1
300
CONTENTFORMAT
  1
CONTENTFORMAT_BEGIN
 90
        0
 91
        0
 92
      512
 93
        0
300

 40
0.0
140
1.0
 94
        5
 62
     0
340
11
144
6.0
309
CONTENTFORMAT_END
171
     1
301
MARGIN
  1
CELLMARGIN_BEGIN
 40
1.5
 40
1.5
 40
1.5
 40
1.5
 40
0.18
 40
0.18
309
CELLMARGIN_END
 94
        6
 95
        1
302
GRIDFORMAT
  1
GRIDFORMAT_BEGIN
 90
        0
 91
        1
 62
     0
 92
       -2
340
0
 93
        0
 40
0.045
309
GRIDFORMAT_END
 95
        2
302
GRIDFORMAT
  1
GRIDFORMAT_BEGIN
 90
        0
 91
        1
 62
     0
 92
       -2
340
0
 93
        0
 40
0.045
309
GRIDFORMAT_END
 95
        4
302
GRIDFORMAT
  1
GRIDFORMAT_BEGIN
 90
        0
 91
        1
 62
     0
 92
       -2
340
0
 93
        0
 40
0.045
309
GRIDFORMAT_END
 95
        8
302
GRIDFORMAT
  1
GRIDFORMAT_BEGIN
 90
        0
 91
        1
 62
     0
 92
       -2
340
0
 93
        0
 40
0.045
309
GRIDFORMAT_END
 95
       16
302
GRIDFORMAT
  1
GRIDFORMAT_BEGIN
 90
        0
 91
        1
 62
     0
 92
       -2
340
0
 93
        0
 40
0.045
309
GRIDFORMAT_END
 95
       32
302
GRIDFORMAT
  1
GRIDFORMAT_BEGIN
 90
        0
 91
        1
 62
     0
 92
       -2
340
0
 93
        0
 40
0.045
309
GRIDFORMAT_END
309
TABLEFORMAT_END
  1
CELLSTYLE_BEGIN
 90
        1
 91
        1
300
_TITLE
309
CELLSTYLE_END
300
CELLSTYLE
  1
TABLEFORMAT_BEGIN
 90
        5
170
     1
 91
        0
 92
        0
 62
   257
 93
        1
300
CONTENTFORMAT
  1
CONTENTFORMAT_BEGIN
 90
        0
 91
        0
 92
      512
 93
        0
300

 40
0.0
140
1.0
 94
        5
 62
     0
340
11
144
4.5
309
CONTENTFORMAT_END
171
     1
301
MARGIN
  1
CELLMARGIN_BEGIN
 40
1.5
 40
1.5
 40
1.5
 40
1.5
 40
0.18
 40
0.18
309
CELLMARGIN_END
 94
        6
 95
        1
302
GRIDFORMAT
  1
GRIDFORMAT_BEGIN
 90
        0
 91
        1
 62
     0
 92
       -2
340
0
 93
        0
 40
0.045
309
GRIDFORMAT_END
 95
        2
302
GRIDFORMAT
  1
GRIDFORMAT_BEGIN
 90
        0
 91
        1
 62
     0
 92
       -2
340
0
 93
        0
 40
0.045
309
GRIDFORMAT_END
 95
        4
302
GRIDFORMAT
  1
GRIDFORMAT_BEGIN
 90
        0
 91
        1
 62
     0
 92
       -2
340
0
 93
        0
 40
0.045
309
GRIDFORMAT_END
 95
        8
302
GRIDFORMAT
  1
GRIDFORMAT_BEGIN
 90
        0
 91
        1
 62
     0
 92
       -2
340
0
 93
        0
 40
0.045
309
GRIDFORMAT_END
 95
       16
302
GRIDFORMAT
  1
GRIDFORMAT_BEGIN
 90
        0
 91
        1
 62
     0
 92
       -2
340
0
 93
        0
 40
0.045
309
GRIDFORMAT_END
 95
       32
302
GRIDFORMAT
  1
GRIDFORMAT_BEGIN
 90
        0
 91
        1
 62
     0
 92
       -2
340
0
 93
        0
 40
0.045
309
GRIDFORMAT_END
309
TABLEFORMAT_END
  1
CELLSTYLE_BEGIN
 90
        2
 91
        1
300
_HEADER
309
CELLSTYLE_END
300
CELLSTYLE
  1
TABLEFORMAT_BEGIN
 90
        5
170
     1
 91
        0
 92
        0
 62
   257
 93
        1
300
CONTENTFORMAT
  1
CONTENTFORMAT_BEGIN
 90
        0
 91
        0
 92
      512
 93
        0
300

 40
0.0
140
1.0
 94
        2
 62
     0
340
11
144
4.5
309
CONTENTFORMAT_END
171
     1
301
MARGIN
  1
CELLMARGIN_BEGIN
 40
1.5
 40
1.5
 40
1.5
 40
1.5
 40
0.18
 40
0.18
309
CELLMARGIN_END
 94
        6
 95
        1
302
GRIDFORMAT
  1
GRIDFORMAT_BEGIN
 90
        0
 91
        1
 62
     0
 92
       -2
340
0
 93
        0
 40
0.045
309
GRIDFORMAT_END
 95
        2
302
GRIDFORMAT
  1
GRIDFORMAT_BEGIN
 90
        0
 91
        1
 62
     0
 92
       -2
340
0
 93
        0
 40
0.045
309
GRIDFORMAT_END
 95
        4
302
GRIDFORMAT
  1
GRIDFORMAT_BEGIN
 90
        0
 91
        1
 62
     0
 92
       -2
340
0
 93
        0
 40
0.045
309
GRIDFORMAT_END
 95
        8
302
GRIDFORMAT
  1
GRIDFORMAT_BEGIN
 90
        0
 91
        1
 62
     0
 92
       -2
340
0
 93
        0
 40
0.045
309
GRIDFORMAT_END
 95
       16
302
GRIDFORMAT
  1
GRIDFORMAT_BEGIN
 90
        0
 91
        1
 62
     0
 92
       -2
340
0
 93
        0
 40
0.045
309
GRIDFORMAT_END
 95
       32
302
GRIDFORMAT
  1
GRIDFORMAT_BEGIN
 90
        0
 91
        1
 62
     0
 92
       -2
340
0
 93
        0
 40
0.045
309
GRIDFORMAT_END
309
TABLEFORMAT_END
  1
CELLSTYLE_BEGIN
 90
        3
 91
        2
300
_DATA
309
CELLSTYLE_END
  0
ENDSEC
  0
EOF
