  0
SECTION
  2
HEADER
  9
$ACADVER
  1
AC1032
  9
$ACADMAINTVER
 90
        4
  9
$DWGCODEPAGE
  3
ANSI_1252
  9
$LASTSAVEDBY
  1
Siqi
  9
$REQUIREDVERSIONS
160
                 0
  9
$INSBASE
 10
0.0
 20
0.0
 30
0.0
  9
$EXTMIN
 10
42071.79072704756
 20
2577.221336628567
 30
0.0
  9
$EXTMAX
 10
45262.049329867
 20
5934.606085058194
 30
0.0
  9
$LIMMIN
 10
0.0
 20
0.0
  9
$LIMMAX
 10
420.0
 20
297.0
  9
$ORTHOMODE
 70
     0
  9
$REGENMODE
 70
     1
  9
$FILLMODE
 70
     1
  9
$QTEXTMODE
 70
     0
  9
$MIRRTEXT
 70
     0
  9
$LTSCALE
 40
1.0
  9
$ATTMODE
 70
     1
  9
$TEXTSIZE
 40
2.5
  9
$TRACEWID
 40
1.0
  9
$TEXTSTYLE
  7
Standard
  9
$CLAYER
  8
0
  9
$CELTYPE
  6
ByLayer
  9
$CECOLOR
 62
   256
  9
$CELTSCALE
 40
1.0
  9
$DISPSILH
 70
     0
  9
$DIMSCALE
 40
1.0
  9
$DIMASZ
 40
8.0
  9
$DIMEXO
 40
1.0
  9
$DIMDLI
 40
3.75
  9
$DIMRND
 40
0.0
  9
$DIMDLE
 40
0.0
  9
$DIMEXE
 40
1.25
  9
$DIMTP
 40
0.0
  9
$DIMTM
 40
0.0
  9
$DIMTXT
 40
15.0
  9
$DIMCEN
 40
0.5
  9
$DIMTSZ
 40
0.0
  9
$DIMTOL
 70
     0
  9
$DIMLIM
 70
     0
  9
$DIMTIH
 70
     0
  9
$DIMTOH
 70
     0
  9
$DIMSE1
 70
     0
  9
$DIMSE2
 70
     0
  9
$DIMTAD
 70
     1
  9
$DIMZIN
 70
     8
  9
$DIMBLK
  1

  9
$DIMASO
 70
     1
  9
$DIMSHO
 70
     1
  9
$DIMPOST
  1

  9
$DIMAPOST
  1

  9
$DIMALT
 70
     0
  9
$DIMALTD
 70
     2
  9
$DIMALTF
 40
0.03937007874
  9
$DIMLFAC
 40
1.0
  9
$DIMTOFL
 70
     1
  9
$DIMTVP
 40
0.0
  9
$DIMTIX
 70
     0
  9
$DIMSOXD
 70
     0
  9
$DIMSAH
 70
     0
  9
$DIMBLK1
  1

  9
$DIMBLK2
  1

  9
$DIMSTYLE
  2
ISO-25
  9
$DIMCLRD
 70
     0
  9
$DIMCLRE
 70
     0
  9
$DIMCLRT
 70
     0
  9
$DIMTFAC
 40
1.0
  9
$DIMGAP
 40
3.0
  9
$DIMJUST
 70
     0
  9
$DIMSD1
 70
     0
  9
$DIMSD2
 70
     0
  9
$DIMTOLJ
 70
     0
  9
$DIMTZIN
 70
     8
  9
$DIMALTZ
 70
     0
  9
$DIMALTTZ
 70
     0
  9
$DIMUPT
 70
     0
  9
$DIMDEC
 70
     2
  9
$DIMTDEC
 70
     2
  9
$DIMALTU
 70
     2
  9
$DIMALTTD
 70
     2
  9
$DIMTXSTY
  7
Standard
  9
$DIMAUNIT
 70
     0
  9
$DIMADEC
 70
     2
  9
$DIMALTRND
 40
0.0
  9
$DIMAZIN
 70
     0
  9
$DIMDSEP
 70
    44
  9
$DIMATFIT
 70
     3
  9
$DIMFRAC
 70
     0
  9
$DIMLDRBLK
  1

  9
$DIMLUNIT
 70
     2
  9
$DIMLWD
 70
    -2
  9
$DIMLWE
 70
    -2
  9
$DIMTMOVE
 70
     0
  9
$DIMFXL
 40
1.0
  9
$DIMFXLON
 70
     0
  9
$DIMJOGANG
 40
0.7853981633974483
  9
$DIMTFILL
 70
     0
  9
$DIMTFILLCLR
 70
     0
  9
$DIMARCSYM
 70
     0
  9
$DIMLTYPE
  6

  9
$DIMLTEX1
  6

  9
$DIMLTEX2
  6

  9
$DIMTXTDIRECTION
 70
     0
  9
$LUNITS
 70
     2
  9
$LUPREC
 70
     4
  9
$SKETCHINC
 40
1.0
  9
$FILLETRAD
 40
50.0
  9
$AUNITS
 70
     0
  9
$AUPREC
 70
     0
  9
$MENU
  1
.
  9
$ELEVATION
 40
0.0
  9
$PELEVATION
 40
0.0
  9
$THICKNESS
 40
0.0
  9
$LIMCHECK
 70
     0
  9
$CHAMFERA
 40
0.0
  9
$CHAMFERB
 40
0.0
  9
$CHAMFERC
 40
0.0
  9
$CHAMFERD
 40
0.0
  9
$SKPOLY
 70
     0
  9
$TDCREATE
 40
2453649.060439815
  9
$TDUCREATE
 40
2453649.352115521
  9
$TDUPDATE
 40
2457976.557361111
  9
$TDUUPDATE
 40
2457976.849027778
  9
$TDINDWG
 40
0.8218768981
  9
$TDUSRTIMER
 40
0.8218721991
  9
$USRTIMER
 70
     1
  9
$ANGBASE
 50
0.0
  9
$ANGDIR
 70
     0
  9
$PDMODE
 70
     0
  9
$PDSIZE
 40
0.0
  9
$PLINEWID
 40
0.0
  9
$SPLFRAME
 70
     0
  9
$SPLINETYPE
 70
     6
  9
$SPLINESEGS
 70
     8
  9
$HANDSEED
  5
6CBF
  9
$SURFTAB1
 70
     6
  9
$SURFTAB2
 70
     6
  9
$SURFTYPE
 70
     6
  9
$SURFU
 70
     6
  9
$SURFV
 70
     6
  9
$UCSBASE
  2

  9
$UCSNAME
  2

  9
$UCSORG
 10
20135.92273348905
 20
3420.432723209263
 30
0.0
  9
$UCSXDIR
 10
1.0
 20
0.0
 30
0.0
  9
$UCSYDIR
 10
0.0
 20
1.0
 30
0.0
  9
$UCSORTHOREF
  2

  9
$UCSORTHOVIEW
 70
     0
  9
$UCSORGTOP
 10
0.0
 20
0.0
 30
0.0
  9
$UCSORGBOTTOM
 10
0.0
 20
0.0
 30
0.0
  9
$UCSORGLEFT
 10
0.0
 20
0.0
 30
0.0
  9
$UCSORGRIGHT
 10
0.0
 20
0.0
 30
0.0
  9
$UCSORGFRONT
 10
0.0
 20
0.0
 30
0.0
  9
$UCSORGBACK
 10
0.0
 20
0.0
 30
0.0
  9
$PUCSBASE
  2

  9
$PUCSNAME
  2

  9
$PUCSORG
 10
0.0
 20
0.0
 30
0.0
  9
$PUCSXDIR
 10
1.0
 20
0.0
 30
0.0
  9
$PUCSYDIR
 10
0.0
 20
1.0
 30
0.0
  9
$PUCSORTHOREF
  2

  9
$PUCSORTHOVIEW
 70
     0
  9
$PUCSORGTOP
 10
0.0
 20
0.0
 30
0.0
  9
$PUCSORGBOTTOM
 10
0.0
 20
0.0
 30
0.0
  9
$PUCSORGLEFT
 10
0.0
 20
0.0
 30
0.0
  9
$PUCSORGRIGHT
 10
0.0
 20
0.0
 30
0.0
  9
$PUCSORGFRONT
 10
0.0
 20
0.0
 30
0.0
  9
$PUCSORGBACK
 10
0.0
 20
0.0
 30
0.0
  9
$USERI1
 70
     0
  9
$USERI2
 70
     0
  9
$USERI3
 70
     0
  9
$USERI4
 70
     0
  9
$USERI5
 70
     0
  9
$USERR1
 40
0.0
  9
$USERR2
 40
0.0
  9
$USERR3
 40
0.0
  9
$USERR4
 40
0.0
  9
$USERR5
 40
2.5
  9
$WORLDVIEW
 70
     1
  9
$SHADEDGE
 70
     3
  9
$SHADEDIF
 70
    70
  9
$TILEMODE
 70
     1
  9
$MAXACTVP
 70
    64
  9
$PINSBASE
 10
0.0
 20
0.0
 30
0.0
  9
$PLIMCHECK
 70
     0
  9
$PEXTMIN
 10
0.0
 20
0.0
 30
0.0
  9
$PEXTMAX
 10
0.0
 20
0.0
 30
0.0
  9
$PLIMMIN
 10
0.0
 20
0.0
  9
$PLIMMAX
 10
12.0
 20
9.0
  9
$UNITMODE
 70
     0
  9
$VISRETAIN
 70
     1
  9
$PLINEGEN
 70
     0
  9
$PSLTSCALE
 70
     1
  9
$TREEDEPTH
 70
  3020
  9
$CMLSTYLE
  2
Standard
  9
$CMLJUST
 70
     0
  9
$CMLSCALE
 40
20.0
  9
$PROXYGRAPHICS
 70
     1
  9
$MEASUREMENT
 70
     1
  9
$CELWEIGHT
370
    -1
  9
$ENDCAPS
280
     0
  9
$JOINSTYLE
280
     0
  9
$LWDISPLAY
290
     0
  9
$INSUNITS
 70
     4
  9
$HYPERLINKBASE
  1

  9
$STYLESHEET
  1

  9
$XEDIT
290
     1
  9
$CEPSNTYPE
380
     0
  9
$PSTYLEMODE
290
     1
  9
$FINGERPRINTGUID
  2
{FDEAD578-A652-11D2-9A35-0060089B3A3F}
  9
$VERSIONGUID
  2
{C440F046-D666-BB4E-939F-23DCAE17DCAE}
  9
$EXTNAMES
290
     1
  9
$PSVPSCALE
 40
0.0
  9
$OLESTARTUP
290
     0
  9
$SORTENTS
280
   127
  9
$INDEXCTL
280
     0
  9
$HIDETEXT
280
     1
  9
$XCLIPFRAME
280
     0
  9
$HALOGAP
280
     0
  9
$OBSCOLOR
 70
   257
  9
$OBSLTYPE
280
     0
  9
$INTERSECTIONDISPLAY
280
     0
  9
$INTERSECTIONCOLOR
 70
   257
  9
$DIMASSOC
280
     2
  9
$PROJECTNAME
  1

  9
$CAMERADISPLAY
290
     0
  9
$LENSLENGTH
 40
50.0
  9
$CAMERAHEIGHT
 40
0.0
  9
$STEPSPERSEC
 40
2.0
  9
$STEPSIZE
 40
6.0
  9
$3DDWFPREC
 40
2.0
  9
$PSOLWIDTH
 40
0.25
  9
$PSOLHEIGHT
 40
4.0
  9
$LOFTANG1
 40
1.570796326794896
  9
$LOFTANG2
 40
1.570796326794896
  9
$LOFTMAG1
 40
0.0
  9
$LOFTMAG2
 40
0.0
  9
$LOFTPARAM
 70
     7
  9
$LOFTNORMALS
280
     1
  9
$LATITUDE
 40
37.795
  9
$LONGITUDE
 40
-122.394
  9
$NORTHDIRECTION
 40
0.0
  9
$TIMEZONE
 70
 -8000
  9
$LIGHTGLYPHDISPLAY
280
     1
  9
$TILEMODELIGHTSYNCH
280
     1
  9
$CMATERIAL
347
6217
  9
$SOLIDHIST
280
     1
  9
$SHOWHIST
280
     1
  9
$DWFFRAME
280
     2
  9
$DGNFRAME
280
     0
  9
$REALWORLDSCALE
290
     1
  9
$INTERFERECOLOR
 62
     1
  9
$INTERFEREOBJVS
345
6224
  9
$INTERFEREVPVS
346
6B0B
  9
$CSHADOW
280
     0
  9
$SHADOWPLANELOCATION
 40
0.0
  0
ENDSEC
  0
SECTION
  2
CLASSES
  0
CLASS
  1
ACDBDICTIONARYWDFLT
  2
AcDbDictionaryWithDefault
  3
ObjectDBX Classes
 90
        0
 91
        1
280
     0
281
     0
  0
CLASS
  1
ACDBPLACEHOLDER
  2
AcDbPlaceHolder
  3
ObjectDBX Classes
 90
        0
 91
        1
280
     0
281
     0
  0
CLASS
  1
LAYOUT
  2
AcDbLayout
  3
ObjectDBX Classes
 90
        0
 91
        3
280
     0
281
     0
  0
CLASS
  1
DICTIONARYVAR
  2
AcDbDictionaryVar
  3
ObjectDBX Classes
 90
        0
 91
       12
280
     0
281
     0
  0
CLASS
  1
DIMASSOC
  2
AcDbDimAssoc
  3
"AcDbDimAssoc|Product Desc:     AcDim ARX App For Dimension|Company:          Autodesk, Inc.|WEB Address:      www.autodesk.com"
 90
        0
 91
       24
280
     0
281
     0
  0
CLASS
  1
MATERIAL
  2
AcDbMaterial
  3
ObjectDBX Classes
 90
     1153
 91
        3
280
     0
281
     0
  0
CLASS
  1
VISUALSTYLE
  2
AcDbVisualStyle
  3
ObjectDBX Classes
 90
     4095
 91
       26
280
     0
281
     0
  0
CLASS
  1
TABLESTYLE
  2
AcDbTableStyle
  3
ObjectDBX Classes
 90
     4095
 91
        1
280
     0
281
     0
  0
CLASS
  1
VLO-VL
  2
vlo_VL
  3
VL|AutoLISP based application
 90
      129
 91
        3
280
     0
281
     0
  0
CLASS
  1
SORTENTSTABLE
  2
AcDbSortentsTable
  3
ObjectDBX Classes
 90
        0
 91
        1
280
     0
281
     0
  0
CLASS
  1
SCALE
  2
AcDbScale
  3
ObjectDBX Classes
 90
     1153
 91
       17
280
     0
281
     0
  0
CLASS
  1
MLEADERSTYLE
  2
AcDbMLeaderStyle
  3
ACDB_MLEADERSTYLE_CLASS
 90
     4095
 91
        1
280
     0
281
     0
  0
CLASS
  1
ACDBSECTIONVIEWSTYLE
  2
AcDbSectionViewStyle
  3
ObjectDBX Classes
 90
     1025
 91
        1
280
     0
281
     0
  0
CLASS
  1
ACDBDETAILVIEWSTYLE
  2
AcDbDetailViewStyle
  3
ObjectDBX Classes
 90
     1025
 91
        1
280
     0
281
     0
  0
CLASS
  1
CELLSTYLEMAP
  2
AcDbCellStyleMap
  3
ObjectDBX Classes
 90
     1152
 91
        1
280
     0
281
     0
  0
ENDSEC
  0
SECTION
  2
TABLES
  0
TABLE
  2
VPORT
  5
8
330
0
100
AcDbSymbolTable
 70
     1
  0
VPORT
  5
6215
330
8
100
AcDbSymbolTableRecord
100
AcDbViewportTableRecord
  2
*Active
 70
     0
 10
0.0
 20
0.0
 11
1.0
 21
1.0
 12
42921.80914498142
 22
3186.426386850153
 13
0.0
 23
0.0
 14
10.0
 24
10.0
 15
10.0
 25
10.0
 16
0.0
 26
0.0
 36
1.0
 17
0.0
 27
0.0
 37
0.0
 40
952.4549484925495
 41
1.913595933926302
 42
50.0
 43
0.0
 44
0.0
 50
0.0
 51
0.0
 71
     0
 72
  1000
 73
     1
 74
     3
 75
     0
 76
     0
 77
     0
 78
     0
281
     0
 65
     1
110
20135.92273348905
120
3420.432723209263
130
0.0
111
1.0
121
0.0
131
0.0
112
0.0
122
1.0
132
0.0
 79
     0
146
0.0
348
6220
 60
     3
 61
     5
292
     1
282
     1
141
0.0
142
0.0
 63
   250
421
  3355443
1001
ACAD_NAV_VCDISPLAY
1070
     3
  0
ENDTAB
  0
TABLE
  2
LTYPE
  5
5
330
0
100
AcDbSymbolTable
 70
     4
  0
LTYPE
  5
14
330
5
100
AcDbSymbolTableRecord
100
AcDbLinetypeTableRecord
  2
ByBlock
 70
     0
  3

 72
    65
 73
     0
 40
0.0
  0
LTYPE
  5
15
330
5
100
AcDbSymbolTableRecord
100
AcDbLinetypeTableRecord
  2
ByLayer
 70
     0
  3

 72
    65
 73
     0
 40
0.0
  0
LTYPE
  5
16
330
5
100
AcDbSymbolTableRecord
100
AcDbLinetypeTableRecord
  2
Continuous
 70
     0
  3
Solid line
 72
    65
 73
     0
 40
0.0
  0
LTYPE
  5
8F
330
5
100
AcDbSymbolTableRecord
100
AcDbLinetypeTableRecord
  2
ACAD_ISO02W100
 70
     0
  3
ISO dash __ __ __ __ __ __ __ __ __ __ __ __ __
 72
    65
 73
     2
 40
15.0
 49
12.0
 74
     0
 49
-3.0
 74
     0
  0
LTYPE
  5
2E41
330
5
100
AcDbSymbolTableRecord
100
AcDbLinetypeTableRecord
  2
CENTER
 70
     0
  3
Center ____ _ ____ _ ____ _ ____ _ ____ _ ____
 72
    65
 73
     4
 40
50.8
 49
31.75
 74
     0
 49
-6.349999999999999
 74
     0
 49
6.349999999999999
 74
     0
 49
-6.349999999999999
 74
     0
  0
ENDTAB
  0
TABLE
  2
LAYER
  5
2
102
{ACAD_XDICTIONARY
360
6CB6
102
}
330
0
100
AcDbSymbolTable
 70
     4
  0
LAYER
  5
10
102
{ACAD_XDICTIONARY
360
6C1C
102
}
330
2
100
AcDbSymbolTableRecord
100
AcDbLayerTableRecord
  2
0
 70
     0
 62
     7
  6
Continuous
370
    25
390
F
347
6219
348
0
  0
LAYER
  5
84
102
{ACAD_XDICTIONARY
360
6C1E
102
}
330
2
100
AcDbSymbolTableRecord
100
AcDbLayerTableRecord
  2
base
 70
     0
 62
     4
  6
Continuous
370
    40
390
F
347
6219
348
0
  0
LAYER
  5
1DA
330
2
100
AcDbSymbolTableRecord
100
AcDbLayerTableRecord
  2
Defpoints
 70
     0
 62
     7
  6
Continuous
290
     0
370
    -3
390
F
347
6219
348
0
  0
LAYER
  5
2D93
102
{ACAD_XDICTIONARY
360
6C20
102
}
330
2
100
AcDbSymbolTableRecord
100
AcDbLayerTableRecord
  2
DIM
 70
     0
 62
     7
  6
Continuous
370
     9
390
F
347
6219
348
0
  0
ENDTAB
  0
TABLE
  2
STYLE
  5
3
330
0
100
AcDbSymbolTable
 70
     2
  0
STYLE
  5
11
330
3
100
AcDbSymbolTableRecord
100
AcDbTextStyleTableRecord
  2
Standard
 70
     0
 40
0.0
 41
1.0
 50
0.0
 71
     0
 42
2.5
  3
txt
  4

  0
STYLE
  5
2E40
330
3
100
AcDbSymbolTableRecord
100
AcDbTextStyleTableRecord
  2

 70
     1
 40
0.0
 41
1.0
 50
0.0
 71
     0
 42
2.5
  3
ltypeshp.shx
  4

  0
ENDTAB
  0
TABLE
  2
VIEW
  5
6
330
0
100
AcDbSymbolTable
 70
     1
  0
ENDTAB
  0
TABLE
  2
UCS
  5
7
330
0
100
AcDbSymbolTable
 70
     0
  0
ENDTAB
  0
TABLE
  2
APPID
  5
9
330
0
100
AcDbSymbolTable
 70
     4
  0
APPID
  5
12
330
9
100
AcDbSymbolTableRecord
100
AcDbRegAppTableRecord
  2
ACAD
 70
     0
  0
APPID
  5
64CD
330
9
100
AcDbSymbolTableRecord
100
AcDbRegAppTableRecord
  2
ACAD_EXEMPT_FROM_CAD_STANDARDS
 70
     0
  0
APPID
  5
6B33
330
9
100
AcDbSymbolTableRecord
100
AcDbRegAppTableRecord
  2
AcadAnnoMonitorAlertIconDisabled
 70
     0
  0
APPID
  5
6C22
330
9
100
AcDbSymbolTableRecord
100
AcDbRegAppTableRecord
  2
ACAD_NAV_VCDISPLAY
 70
     0
  0
ENDTAB
  0
TABLE
  2
DIMSTYLE
  5
A
330
0
100
AcDbSymbolTable
 70
     1
100
AcDbDimStyleTable
 71
     1
340
27
  0
DIMSTYLE
105
27
102
{ACAD_REACTORS
330
4A07
330
4A1C
330
4A60
330
4AFF
330
4B0F
330
4B1F
330
4B2F
330
4B99
330
4BC1
330
4BD3
330
4B53
330
5717
330
572F
330
5944
330
595C
330
64F3
330
6503
330
652B
330
6543
330
655B
330
6573
330
658B
330
6629
330
6669
330
6740
330
6758
330
67E9
330
67F9
330
68A7
330
68A4
330
68AA
330
68AD
330
68B0
102
}
330
A
100
AcDbSymbolTableRecord
100
AcDbDimStyleTableRecord
  2
ISO-25
 70
     0
 41
2.0
 42
1.0
 43
3.75
 44
1.25
 73
     0
 74
     0
 77
     1
 78
     8
140
3.0
141
2.5
143
0.03937007874016
147
5.0
171
     3
172
     1
271
     2
272
     2
274
     3
278
    44
283
     0
284
     8
340
11
  0
ENDTAB
  0
TABLE
  2
BLOCK_RECORD
  5
1
330
0
100
AcDbSymbolTable
 70
    34
  0
BLOCK_RECORD
  5
1F
102
{ACAD_XDICTIONARY
360
64D9
102
}
330
1
100
AcDbSymbolTableRecord
100
AcDbBlockTableRecord
  2
*Model_Space
340
22
 70
     0
280
     1
281
     0
  0
BLOCK_RECORD
  5
50
330
1
100
AcDbSymbolTableRecord
100
AcDbBlockTableRecord
  2
*Paper_Space
340
51
 70
     0
280
     1
281
     0
  0
BLOCK_RECORD
  5
55
330
1
100
AcDbSymbolTableRecord
100
AcDbBlockTableRecord
  2
*Paper_Space0
340
56
 70
     0
280
     1
281
     0
  0
BLOCK_RECORD
  5
4A08
330
1
100
AcDbSymbolTableRecord
100
AcDbBlockTableRecord
  2
*D1
340
0
 70
     0
280
     1
281
     0
  0
BLOCK_RECORD
  5
4A1D
330
1
100
AcDbSymbolTableRecord
100
AcDbBlockTableRecord
  2
*D2
340
0
 70
     0
280
     1
281
     0
  0
BLOCK_RECORD
  5
4A61
330
1
100
AcDbSymbolTableRecord
100
AcDbBlockTableRecord
  2
*D3
340
0
 70
     0
280
     1
281
     0
  0
BLOCK_RECORD
  5
4B00
330
1
100
AcDbSymbolTableRecord
100
AcDbBlockTableRecord
  2
*D4
340
0
 70
     0
280
     1
281
     0
  0
BLOCK_RECORD
  5
4B10
330
1
100
AcDbSymbolTableRecord
100
AcDbBlockTableRecord
  2
*D5
340
0
 70
     0
280
     1
281
     0
  0
BLOCK_RECORD
  5
4B20
330
1
100
AcDbSymbolTableRecord
100
AcDbBlockTableRecord
  2
*D6
340
0
 70
     0
280
     1
281
     0
  0
BLOCK_RECORD
  5
4B30
330
1
100
AcDbSymbolTableRecord
100
AcDbBlockTableRecord
  2
*D7
340
0
 70
     0
280
     1
281
     0
  0
BLOCK_RECORD
  5
4B54
330
1
100
AcDbSymbolTableRecord
100
AcDbBlockTableRecord
  2
*D8
340
0
 70
     0
280
     1
281
     0
  0
BLOCK_RECORD
  5
4B9A
330
1
100
AcDbSymbolTableRecord
100
AcDbBlockTableRecord
  2
*D9
340
0
 70
     0
280
     1
281
     0
  0
BLOCK_RECORD
  5
4BC2
330
1
100
AcDbSymbolTableRecord
100
AcDbBlockTableRecord
  2
*D10
340
0
 70
     0
280
     1
281
     0
  0
BLOCK_RECORD
  5
4BD4
330
1
100
AcDbSymbolTableRecord
100
AcDbBlockTableRecord
  2
*D11
340
0
 70
     0
280
     1
281
     0
  0
BLOCK_RECORD
  5
5718
330
1
100
AcDbSymbolTableRecord
100
AcDbBlockTableRecord
  2
*D12
340
0
 70
     0
280
     1
281
     0
  0
BLOCK_RECORD
  5
5730
330
1
100
AcDbSymbolTableRecord
100
AcDbBlockTableRecord
  2
*D13
340
0
 70
     0
280
     1
281
     0
  0
BLOCK_RECORD
  5
5945
330
1
100
AcDbSymbolTableRecord
100
AcDbBlockTableRecord
  2
*D14
340
0
 70
     0
280
     1
281
     0
  0
BLOCK_RECORD
  5
595D
330
1
100
AcDbSymbolTableRecord
100
AcDbBlockTableRecord
  2
*D15
340
0
 70
     0
280
     1
281
     0
  0
BLOCK_RECORD
  5
64F4
330
1
100
AcDbSymbolTableRecord
100
AcDbBlockTableRecord
  2
*D16
340
0
 70
     0
280
     1
281
     0
  0
BLOCK_RECORD
  5
6504
330
1
100
AcDbSymbolTableRecord
100
AcDbBlockTableRecord
  2
*D17
340
0
 70
     0
280
     1
281
     0
  0
BLOCK_RECORD
  5
652C
330
1
100
AcDbSymbolTableRecord
100
AcDbBlockTableRecord
  2
*D18
340
0
 70
     0
280
     1
281
     0
  0
BLOCK_RECORD
  5
6544
330
1
100
AcDbSymbolTableRecord
100
AcDbBlockTableRecord
  2
*D19
340
0
 70
     0
280
     1
281
     0
  0
BLOCK_RECORD
  5
655C
330
1
100
AcDbSymbolTableRecord
100
AcDbBlockTableRecord
  2
*D20
340
0
 70
     0
280
     1
281
     0
  0
BLOCK_RECORD
  5
6574
330
1
100
AcDbSymbolTableRecord
100
AcDbBlockTableRecord
  2
*D21
340
0
 70
     0
280
     1
281
     0
  0
BLOCK_RECORD
  5
658C
330
1
100
AcDbSymbolTableRecord
100
AcDbBlockTableRecord
  2
*D22
340
0
 70
     0
280
     1
281
     0
  0
BLOCK_RECORD
  5
662A
330
1
100
AcDbSymbolTableRecord
100
AcDbBlockTableRecord
  2
*D23
340
0
 70
     0
280
     1
281
     0
  0
BLOCK_RECORD
  5
666C
330
1
100
AcDbSymbolTableRecord
100
AcDbBlockTableRecord
  2
*D24
340
0
 70
     0
280
     1
281
     0
  0
BLOCK_RECORD
  5
6741
330
1
100
AcDbSymbolTableRecord
100
AcDbBlockTableRecord
  2
*D25
340
0
 70
     0
280
     1
281
     0
  0
BLOCK_RECORD
  5
675B
330
1
100
AcDbSymbolTableRecord
100
AcDbBlockTableRecord
  2
*D26
340
0
 70
     0
280
     1
281
     0
  0
BLOCK_RECORD
  5
67EA
330
1
100
AcDbSymbolTableRecord
100
AcDbBlockTableRecord
  2
*D27
340
0
 70
     0
280
     1
281
     0
  0
BLOCK_RECORD
  5
67FA
330
1
100
AcDbSymbolTableRecord
100
AcDbBlockTableRecord
  2
*D28
340
0
 70
     0
280
     1
281
     0
  0
BLOCK_RECORD
  5
68B6
330
1
100
AcDbSymbolTableRecord
100
AcDbBlockTableRecord
  2
*D29
340
0
 70
     0
280
     1
281
     0
  0
BLOCK_RECORD
  5
68C2
330
1
100
AcDbSymbolTableRecord
100
AcDbBlockTableRecord
  2
*D30
340
0
 70
     0
280
     1
281
     0
  0
BLOCK_RECORD
  5
68CE
330
1
100
AcDbSymbolTableRecord
100
AcDbBlockTableRecord
  2
*D31
340
0
 70
     0
280
     1
281
     0
  0
BLOCK_RECORD
  5
68DA
330
1
100
AcDbSymbolTableRecord
100
AcDbBlockTableRecord
  2
*D32
340
0
 70
     0
280
     1
281
     0
  0
BLOCK_RECORD
  5
68E8
330
1
100
AcDbSymbolTableRecord
100
AcDbBlockTableRecord
  2
*D33
340
0
 70
     0
280
     1
281
     0
  0
ENDTAB
  0
ENDSEC
  0
SECTION
  2
BLOCKS
  0
BLOCK
  5
20
330
1F
100
AcDbEntity
  8
0
100
AcDbBlockBegin
  2
*Model_Space
 70
     0
 10
0.0
 20
0.0
 30
0.0
  3
*Model_Space
  1

  0
ENDBLK
  5
21
330
1F
100
AcDbEntity
  8
0
100
AcDbBlockEnd
  0
BLOCK
  5
52
330
50
100
AcDbEntity
 67
     1
  8
0
100
AcDbBlockBegin
  2
*Paper_Space
 70
     0
 10
0.0
 20
0.0
 30
0.0
  3
*Paper_Space
  1

  0
ENDBLK
  5
53
330
50
100
AcDbEntity
 67
     1
  8
0
100
AcDbBlockEnd
  0
BLOCK
  5
57
330
55
100
AcDbEntity
 67
     1
  8
0
100
AcDbBlockBegin
  2
*Paper_Space0
 70
     0
 10
0.0
 20
0.0
 30
0.0
  3
*Paper_Space0
  1

  0
ENDBLK
  5
58
330
55
100
AcDbEntity
 67
     1
  8
0
100
AcDbBlockEnd
  0
BLOCK
  5
4A0E
330
4A08
100
AcDbEntity
  8
0
100
AcDbBlockBegin
  2
*D1
 70
     1
 10
0.0
 20
0.0
 30
0.0
  3
*D1
  1

  0
LINE
  5
6B60
330
4A08
100
AcDbEntity
  8
DIM
 62
     0
440
 16777216
370
    -2
100
AcDbLine
 10
42436.552781687
 20
3739.627002247402
 30
0.0
 11
42352.64316800945
 21
3625.690938016262
 31
0.0
  0
MTEXT
  5
6B61
330
4A08
100
AcDbEntity
  8
DIM
 62
     0
440
 16777216
100
AcDbMText
 10
42388.51535845446
 20
3692.106286036695
 30
0.0
 40
15.0
 41
0.0
 46
0.0
 71
     5
 72
     1
  1
R50{\Ftxt|c134; [1.97"]}
 11
0.5930008033749745
 21
0.805201867357891
 31
0.0
 73
     1
 44
1.0
  0
SOLID
  5
6B62
330
4A08
100
AcDbEntity
  8
DIM
 62
     0
440
 16777216
100
AcDbTrace
 10
42351.56956551964
 20
3626.481605754092
 30
0.0
 11
42353.71677049926
 21
3624.900270278427
 31
0.0
 12
42347.89916158245
 22
3619.249323077398
 32
0.0
 13
42347.89916158245
 23
3619.249323077398
 33
0.0
  0
POINT
  5
6B63
330
4A08
100
AcDbEntity
  8
Defpoints
 62
     0
440
 16777216
100
AcDbPoint
 10
42347.89916158245
 20
3619.249323077398
 30
0.0
  0
POINT
  5
6B64
330
4A08
100
AcDbEntity
  8
Defpoints
 62
     0
440
 16777216
100
AcDbPoint
 10
42377.54920175119
 20
3659.509416445297
 30
0.0
  0
ENDBLK
  5
4A0F
330
4A08
100
AcDbEntity
  8
0
100
AcDbBlockEnd
  0
BLOCK
  5
4A27
330
4A1D
100
AcDbEntity
  8
0
100
AcDbBlockBegin
  2
*D2
 70
     1
 10
0.0
 20
0.0
 30
0.0
  3
*D2
  1

  0
LINE
  5
6B3E
330
4A1D
100
AcDbEntity
  8
DIM
 62
     0
440
 16777216
370
    -2
100
AcDbLine
 10
42289.36171042851
 20
3832.052623883106
 30
0.0
 11
42223.29184386639
 21
3832.052623883106
 31
0.0
  0
LINE
  5
6B3F
330
4A1D
100
AcDbEntity
  8
DIM
 62
     0
440
 16777216
370
    -2
100
AcDbLine
 10
42479.36171042852
 20
3604.052623883103
 30
0.0
 11
42223.29184386639
 21
3604.052623883103
 31
0.0
  0
LINE
  5
6B40
330
4A1D
100
AcDbEntity
  8
DIM
 62
     0
440
 16777216
370
    -2
100
AcDbLine
 10
42224.54184386639
 20
3824.052623883107
 30
0.0
 11
42224.54184386639
 21
3612.052623883103
 31
0.0
  0
SOLID
  5
6B41
330
4A1D
100
AcDbEntity
  8
DIM
 62
     0
440
 16777216
100
AcDbTrace
 10
42223.20851053305
 20
3824.052623883107
 30
0.0
 11
42225.87517719972
 21
3824.052623883107
 31
0.0
 12
42224.54184386639
 22
3832.052623883106
 32
0.0
 13
42224.54184386639
 23
3832.052623883106
 33
0.0
  0
SOLID
  5
6B42
330
4A1D
100
AcDbEntity
  8
DIM
 62
     0
440
 16777216
100
AcDbTrace
 10
42223.20851053305
 20
3612.052623883103
 30
0.0
 11
42225.87517719972
 21
3612.052623883103
 31
0.0
 12
42224.54184386639
 22
3604.052623883103
 32
0.0
 13
42224.54184386639
 23
3604.052623883103
 33
0.0
  0
MTEXT
  5
6B43
330
4A1D
100
AcDbEntity
  8
DIM
 62
     0
440
 16777216
100
AcDbMText
 10
42214.04184386639
 20
3718.052623883091
 30
0.0
 40
15.0
 41
0.0
 46
0.0
 71
     5
 72
     1
  1
228{\Ftxt|c134; [9"]}
 11
0.0000000000000001
 21
1.0
 31
0.0
 73
     1
 44
1.0
  0
POINT
  5
6B44
330
4A1D
100
AcDbEntity
  8
Defpoints
 62
     0
440
 16777216
100
AcDbPoint
 10
42290.36171042851
 20
3832.052623883106
 30
0.0
  0
POINT
  5
6B45
330
4A1D
100
AcDbEntity
  8
Defpoints
 62
     0
440
 16777216
100
AcDbPoint
 10
42480.36171042852
 20
3604.052623883103
 30
0.0
  0
POINT
  5
6B46
330
4A1D
100
AcDbEntity
  8
Defpoints
 62
     0
440
 16777216
100
AcDbPoint
 10
42224.54184386639
 20
3604.052623883103
 30
0.0
  0
ENDBLK
  5
4A28
330
4A1D
100
AcDbEntity
  8
0
100
AcDbBlockEnd
  0
BLOCK
  5
4A71
330
4A61
100
AcDbEntity
  8
0
100
AcDbBlockBegin
  2
*D3
 70
     1
 10
0.0
 20
0.0
 30
0.0
  3
*D3
  1

  0
LINE
  5
67DA
330
4A61
100
AcDbEntity
  8
DIM
 62
     0
440
 16777216
370
    -2
100
AcDbLine
 10
42369.31702755139
 20
3609.872229113881
 30
0.0
 11
42271.11042368798
 21
3615.019019133292
 31
0.0
  0
LINE
  5
67DB
330
4A61
100
AcDbEntity
  8
DIM
 62
     0
440
 16777216
370
    -2
100
AcDbLine
 10
42479.36171042849
 20
3604.052623883099
 30
0.0
 11
42270.82325852206
 21
3604.052623883099
 31
0.0
  0
ARC
  5
67DC
330
4A61
100
AcDbEntity
  8
DIM
 62
     0
440
 16777216
370
    -2
100
AcDbCircle
 10
42480.36171042849
 20
3604.052623883099
 30
0.0
 40
208.2884519064188
100
AcDbArc
 50
172.5976531255178
 51
176.9999999999987
  0
LINE
  5
67DD
330
4A61
100
AcDbEntity
  8
DIM
 62
     0
440
 16777216
370
    -2
100
AcDbLine
 10
42273.80915822616
 20
3630.887719863522
 30
0.0
 11
42279.73562416223
 21
3676.504350619295
 31
0.0
  0
ARC
  5
67DE
330
4A61
100
AcDbEntity
  8
DIM
 62
     0
440
 16777216
370
    -2
100
AcDbCircle
 10
42480.36171042849
 20
3604.052623883099
 30
0.0
 40
208.2884519064188
100
AcDbArc
 50
172.5984653902278
 51
174.7992326951132
  0
ARC
  5
67DF
330
4A61
100
AcDbEntity
  8
DIM
 62
     0
440
 16777216
370
    -2
100
AcDbCircle
 10
42480.36171042849
 20
3604.052623883099
 30
0.0
 40
208.2884519064188
100
AcDbArc
 50
182.2007673048855
 51
184.401534609771
  0
ARC
  5
67E0
330
4A61
100
AcDbEntity
  8
DIM
 62
     0
440
 16777216
370
    -2
100
AcDbCircle
 10
42480.36171042849
 20
3604.052623883099
 30
0.0
 40
208.2884519064188
100
AcDbArc
 50
176.9999999999987
 51
180.0000000000001
  0
SOLID
  5
67E1
330
4A61
100
AcDbEntity
  8
DIM
 62
     0
440
 16777216
100
AcDbTrace
 10
42274.26066399752
 20
3622.83778279036
 30
0.0
 11
42271.60082318643
 21
3623.028460452207
 31
0.0
 12
42272.35871060643
 22
3614.953599187989
 32
0.0
 13
42272.35871060643
 23
3614.953599187989
 33
0.0
  0
SOLID
  5
67E2
330
4A61
100
AcDbEntity
  8
DIM
 62
     0
440
 16777216
100
AcDbTrace
 10
42270.89380417464
 20
3596.028493698456
 30
0.0
 11
42273.55997906411
 21
3596.079704730892
 31
0.0
 12
42272.07325852207
 22
3604.052623883099
 32
0.0
 13
42272.07325852207
 23
3604.052623883099
 33
0.0
  0
MTEXT
  5
67E3
330
4A61
100
AcDbEntity
  8
DIM
 62
     0
440
 16777216
100
AcDbMText
 10
42266.35989939126
 20
3655.048815509427
 30
0.0
 40
15.0
 41
0.0
 46
0.0
 71
     5
 72
     1
  1
2.5%%D
 11
0.1288362160014403
 21
0.9916658859950917
 31
0.0
 73
     1
 44
1.0
  0
POINT
  5
67E4
330
4A61
100
AcDbEntity
  8
Defpoints
 62
     0
440
 16777216
100
AcDbPoint
 10
42272.10498186217
 20
3607.687758601964
 30
0.0
  0
POINT
  5
67E5
330
4A61
100
AcDbEntity
  8
Defpoints
 62
     0
440
 16777216
100
AcDbPoint
 10
42480.36171042849
 20
3604.052623883099
 30
0.0
  0
POINT
  5
67E6
330
4A61
100
AcDbEntity
  8
Defpoints
 62
     0
440
 16777216
100
AcDbPoint
 10
42370.31565708615
 20
3609.819893157637
 30
0.0
  0
POINT
  5
67E7
330
4A61
100
AcDbEntity
  8
Defpoints
 62
     0
440
 16777216
100
AcDbPoint
 10
42480.36171042849
 20
3604.052623883099
 30
0.0
  0
POINT
  5
67E8
330
4A61
100
AcDbEntity
  8
Defpoints
 62
     0
440
 16777216
100
AcDbPoint
 10
42600.36171042849
 20
3604.0526238831
 30
0.0
  0
ENDBLK
  5
4A72
330
4A61
100
AcDbEntity
  8
0
100
AcDbBlockEnd
  0
BLOCK
  5
4B06
330
4B00
100
AcDbEntity
  8
0
100
AcDbBlockBegin
  2
*D4
 70
     1
 10
0.0
 20
0.0
 30
0.0
  3
*D4
  1

  0
LINE
  5
6A5B
330
4B00
100
AcDbEntity
  8
DIM
 62
     0
440
 16777216
370
    -2
100
AcDbLine
 10
42428.9310835295
 20
3192.765331107814
 30
0.0
 11
42323.54986025868
 21
3212.965839443466
 31
0.0
  0
MTEXT
  5
6A5C
330
4B00
100
AcDbEntity
  8
DIM
 62
     0
440
 16777216
100
AcDbMText
 10
42382.53848522174
 20
3212.349491091205
 30
0.0
 40
15.0
 41
0.0
 46
0.0
 71
     5
 72
     1
  1
2-R3000
 11
0.9821188066872675
 21
-0.1882621830086372
 31
0.0
 73
     1
 44
1.0
  0
SOLID
  5
6A5D
330
4B00
100
AcDbEntity
  8
DIM
 62
     0
440
 16777216
100
AcDbTrace
 10
42323.80087650268
 20
3214.275331185715
 30
0.0
 11
42323.29884401465
 21
3211.656347701214
 31
0.0
 12
42315.69290980518
 22
3214.471936907535
 32
0.0
 13
42315.69290980518
 23
3214.471936907535
 33
0.0
  0
POINT
  5
6A5E
330
4B00
100
AcDbEntity
  8
Defpoints
 62
     0
440
 16777216
100
AcDbPoint
 10
42315.69290980518
 20
3214.471936907535
 30
0.0
  0
POINT
  5
6A5F
330
4B00
100
AcDbEntity
  8
Defpoints
 62
     0
440
 16777216
100
AcDbPoint
 10
45262.049329867
 20
2649.685387881618
 30
0.0
  0
ENDBLK
  5
4B07
330
4B00
100
AcDbEntity
  8
0
100
AcDbBlockEnd
  0
BLOCK
  5
4B16
330
4B10
100
AcDbEntity
  8
0
100
AcDbBlockBegin
  2
*D5
 70
     1
 10
0.0
 20
0.0
 30
0.0
  3
*D5
  1

  0
LINE
  5
6A60
330
4B10
100
AcDbEntity
  8
DIM
 62
     0
440
 16777216
370
    -2
100
AcDbLine
 10
42578.65613073612
 20
3066.089588632494
 30
0.0
 11
42592.41049271702
 21
2988.249171920485
 31
0.0
  0
MTEXT
  5
6A61
330
4B10
100
AcDbEntity
  8
DIM
 62
     0
440
 16777216
100
AcDbMText
 10
42594.95558747479
 20
3034.189115124663
 30
0.0
 40
15.0
 41
0.0
 46
0.0
 71
     5
 72
     1
  1
R3000
 11
0.1740039323761508
 21
-0.9847449575994973
 31
0.0
 73
     1
 44
1.0
  0
SOLID
  5
6A62
330
4B10
100
AcDbEntity
  8
DIM
 62
     0
440
 16777216
100
AcDbTrace
 10
42593.72348599383
 20
2988.481177163653
 30
0.0
 11
42591.09749944022
 21
2988.017166677317
 31
0.0
 12
42593.80252417602
 22
2980.371212259688
 32
0.0
 13
42593.80252417602
 23
2980.371212259688
 33
0.0
  0
POINT
  5
6A63
330
4B10
100
AcDbEntity
  8
Defpoints
 62
     0
440
 16777216
100
AcDbPoint
 10
42593.80252417602
 20
2980.371212259688
 30
0.0
  0
POINT
  5
6A64
330
4B10
100
AcDbEntity
  8
Defpoints
 62
     0
440
 16777216
100
AcDbPoint
 10
42071.79072704756
 20
5934.606085058194
 30
0.0
  0
ENDBLK
  5
4B17
330
4B10
100
AcDbEntity
  8
0
100
AcDbBlockEnd
  0
BLOCK
  5
4B26
330
4B20
100
AcDbEntity
  8
0
100
AcDbBlockBegin
  2
*D6
 70
     1
 10
0.0
 20
0.0
 30
0.0
  3
*D6
  1

  0
LINE
  5
6AE4
330
4B20
100
AcDbEntity
  8
DIM
 62
     0
440
 16777216
370
    -2
100
AcDbLine
 10
42580.5004398421
 20
3376.008884296684
 30
0.0
 11
42586.50249283854
 21
3439.726820231775
 31
0.0
  0
MTEXT
  5
6AE5
330
4B20
100
AcDbEntity
  8
DIM
 62
     0
440
 16777216
100
AcDbMText
 10
42572.6726141637
 20
3404.87019308801
 30
0.0
 40
15.0
 41
0.0
 46
0.0
 71
     5
 72
     1
  1
R500
 11
0.0937820780691867
 21
0.9955927489857611
 31
0.0
 73
     1
 44
1.0
  0
SOLID
  5
6AE6
330
4B20
100
AcDbEntity
  8
DIM
 62
     0
440
 16777216
100
AcDbTrace
 10
42585.17503583989
 20
3439.851863002534
 30
0.0
 11
42587.82994983719
 21
3439.601777461016
 31
0.0
 12
42587.25274946309
 22
3447.69156222366
 32
0.0
 13
42587.25274946309
 23
3447.69156222366
 33
0.0
  0
POINT
  5
6AE7
330
4B20
100
AcDbEntity
  8
Defpoints
 62
     0
440
 16777216
100
AcDbPoint
 10
42587.25274946309
 20
3447.69156222366
 30
0.0
  0
POINT
  5
6AE8
330
4B20
100
AcDbEntity
  8
Defpoints
 62
     0
440
 16777216
100
AcDbPoint
 10
42540.3617104285
 20
2949.895187730796
 30
0.0
  0
ENDBLK
  5
4B27
330
4B20
100
AcDbEntity
  8
0
100
AcDbBlockEnd
  0
BLOCK
  5
4B36
330
4B30
100
AcDbEntity
  8
0
100
AcDbBlockBegin
  2
*D7
 70
     1
 10
0.0
 20
0.0
 30
0.0
  3
*D7
  1

  0
LINE
  5
6C17
330
4B30
100
AcDbEntity
  8
DIM
 62
     0
440
 16777216
370
    -2
100
AcDbLine
 10
42429.66394510105
 20
3325.212425100275
 30
0.0
 11
42360.21648455545
 21
3384.788428858217
 31
0.0
  0
MTEXT
  5
6C18
330
4B30
100
AcDbEntity
  8
DIM
 62
     0
440
 16777216
100
AcDbMText
 10
42412.95155831037
 20
3369.852750230803
 30
0.0
 40
15.0
 41
6.019658193745555
 46
0.0
 71
     5
 72
     1
  1
2-R150{\Ftxt|c134; [5.9"]}
 11
0.7589886398427101
 21
-0.6511038662070076
 31
0.0
 73
     1
 44
1.0
  0
SOLID
  5
6C19
330
4B30
100
AcDbEntity
  8
DIM
 62
     0
440
 16777216
100
AcDbTrace
 10
42361.08462304372
 20
3385.800413711339
 30
0.0
 11
42359.34834606717
 21
3383.776444005093
 31
0.0
 12
42354.1445754367
 22
3389.997259787873
 32
0.0
 13
42354.1445754367
 23
3389.997259787873
 33
0.0
  0
POINT
  5
6C1A
330
4B30
100
AcDbEntity
  8
Defpoints
 62
     0
440
 16777216
100
AcDbPoint
 10
42354.1445754367
 20
3389.997259787873
 30
0.0
  0
POINT
  5
6C1B
330
4B30
100
AcDbEntity
  8
Defpoints
 62
     0
440
 16777216
100
AcDbPoint
 10
42467.99287141313
 20
3292.331679856805
 30
0.0
  0
ENDBLK
  5
4B37
330
4B30
100
AcDbEntity
  8
0
100
AcDbBlockEnd
  0
BLOCK
  5
4B5A
330
4B54
100
AcDbEntity
  8
0
100
AcDbBlockBegin
  2
*D8
 70
     1
 10
0.0
 20
0.0
 30
0.0
  3
*D8
  1

  0
LINE
  5
6C36
330
4B54
100
AcDbEntity
  8
DIM
 62
     0
440
 16777216
370
    -2
100
AcDbLine
 10
42466.86871867737
 20
3128.433228705788
 30
0.0
 11
42346.61448735744
 21
3016.921256928516
 31
0.0
  0
MTEXT
  5
6C37
330
4B54
100
AcDbEntity
  8
DIM
 62
     0
440
 16777216
100
AcDbMText
 10
42402.53514705167
 20
3083.096250841347
 30
0.0
 40
15.0
 41
0.0
 46
0.0
 71
     5
 72
     1
  1
2-R89{\Ftxt|c134; [3.5"]}
 11
0.7332575080483164
 21
0.6799510474223665
 31
0.0
 73
     1
 44
1.0
  0
SOLID
  5
6C38
330
4B54
100
AcDbEntity
  8
DIM
 62
     0
440
 16777216
100
AcDbTrace
 10
42345.70788596088
 20
3017.898933605913
 30
0.0
 11
42347.521088754
 21
3015.943580251118
 31
0.0
 12
42340.74842729306
 22
3011.481648549136
 32
0.0
 13
42340.74842729306
 23
3011.481648549136
 33
0.0
  0
POINT
  5
6C39
330
4B54
100
AcDbEntity
  8
Defpoints
 62
     0
440
 16777216
100
AcDbPoint
 10
42340.74842729306
 20
3011.481648549136
 30
0.0
  0
POINT
  5
6C3A
330
4B54
100
AcDbEntity
  8
Defpoints
 62
     0
440
 16777216
100
AcDbPoint
 10
42406.00834550934
 20
3071.997291769705
 30
0.0
  0
ENDBLK
  5
4B5B
330
4B54
100
AcDbEntity
  8
0
100
AcDbBlockEnd
  0
BLOCK
  5
4BA4
330
4B9A
100
AcDbEntity
  8
0
100
AcDbBlockBegin
  2
*D9
 70
     1
 10
0.0
 20
0.0
 30
0.0
  3
*D9
  1

  0
LINE
  5
6BA6
330
4B9A
100
AcDbEntity
  8
DIM
 62
     0
440
 16777216
370
    -2
100
AcDbLine
 10
42601.36171042852
 20
3309.895187730796
 30
0.0
 11
42654.52470186623
 21
3309.895187730796
 31
0.0
  0
LINE
  5
6BA7
330
4B9A
100
AcDbEntity
  8
DIM
 62
     0
440
 16777216
370
    -2
100
AcDbLine
 10
42541.36171042852
 20
3449.895187730797
 30
0.0
 11
42654.52470186623
 21
3449.895187730797
 31
0.0
  0
LINE
  5
6BA8
330
4B9A
100
AcDbEntity
  8
DIM
 62
     0
440
 16777216
370
    -2
100
AcDbLine
 10
42653.27470186623
 20
3317.895187730797
 30
0.0
 11
42653.27470186623
 21
3441.895187730797
 31
0.0
  0
SOLID
  5
6BA9
330
4B9A
100
AcDbEntity
  8
DIM
 62
     0
440
 16777216
100
AcDbTrace
 10
42651.94136853289
 20
3317.895187730797
 30
0.0
 11
42654.60803519957
 21
3317.895187730797
 31
0.0
 12
42653.27470186623
 22
3309.895187730796
 32
0.0
 13
42653.27470186623
 23
3309.895187730796
 33
0.0
  0
SOLID
  5
6BAA
330
4B9A
100
AcDbEntity
  8
DIM
 62
     0
440
 16777216
100
AcDbTrace
 10
42651.94136853289
 20
3441.895187730797
 30
0.0
 11
42654.60803519957
 21
3441.895187730797
 31
0.0
 12
42653.27470186623
 22
3449.895187730797
 32
0.0
 13
42653.27470186623
 23
3449.895187730797
 33
0.0
  0
MTEXT
  5
6BAB
330
4B9A
100
AcDbEntity
  8
DIM
 62
     0
440
 16777216
100
AcDbMText
 10
42642.77470186622
 20
3379.895187730784
 30
0.0
 40
15.0
 41
0.0
 46
0.0
 71
     5
 72
     1
  1
140{\Ftxt|c134; [5.5"]}
 11
0.0000000000000001
 21
1.0
 31
0.0
 73
     1
 44
1.0
  0
POINT
  5
6BAC
330
4B9A
100
AcDbEntity
  8
Defpoints
 62
     0
440
 16777216
100
AcDbPoint
 10
42600.36171042852
 20
3309.895187730796
 30
0.0
  0
POINT
  5
6BAD
330
4B9A
100
AcDbEntity
  8
Defpoints
 62
     0
440
 16777216
100
AcDbPoint
 10
42540.36171042852
 20
3449.895187730797
 30
0.0
  0
POINT
  5
6BAE
330
4B9A
100
AcDbEntity
  8
Defpoints
 62
     0
440
 16777216
100
AcDbPoint
 10
42653.27470186623
 20
3449.895187730797
 30
0.0
  0
ENDBLK
  5
4BA5
330
4B9A
100
AcDbEntity
  8
0
100
AcDbBlockEnd
  0
BLOCK
  5
4BC9
330
4BC2
100
AcDbEntity
  8
0
100
AcDbBlockBegin
  2
*D10
 70
     1
 10
0.0
 20
0.0
 30
0.0
  3
*D10
  1

  0
LINE
  5
6C0B
330
4BC2
100
AcDbEntity
  8
DIM
 62
     0
440
 16777216
370
    -2
100
AcDbLine
 10
42475.52994496297
 20
3558.751265191801
 30
0.0
 11
42483.92623432622
 21
3479.898996242678
 31
0.0
  0
MTEXT
  5
6C0C
330
4BC2
100
AcDbEntity
  8
DIM
 62
     0
440
 16777216
100
AcDbMText
 10
42489.20034273125
 20
3529.534485340886
 30
0.0
 40
15.0
 41
0.0
 46
0.0
 71
     5
 72
     1
  1
R525
 11
0.105882694375761
 21
-0.9943786276020464
 31
0.0
 73
     1
 44
1.0
  0
LINE
  5
6C0D
330
4BC2
100
AcDbEntity
  8
DIM
 62
     0
440
 16777216
370
    -2
100
AcDbLine
 10
42540.36171042849
 20
2949.895187730792
 30
0.0
 11
42484.77329588123
 21
3471.943967221861
 31
0.0
  0
SOLID
  5
6C0E
330
4BC2
100
AcDbEntity
  8
DIM
 62
     0
440
 16777216
100
AcDbTrace
 10
42485.25207249636
 20
3480.040173168512
 30
0.0
 11
42482.60039615608
 21
3479.757819316843
 31
0.0
 12
42484.77329588123
 22
3471.943967221861
 32
0.0
 13
42484.77329588123
 23
3471.943967221861
 33
0.0
  0
POINT
  5
6C0F
330
4BC2
100
AcDbEntity
  8
Defpoints
 62
     0
440
 16777216
100
AcDbPoint
 10
42484.77329588123
 20
3471.943967221861
 30
0.0
  0
POINT
  5
6C10
330
4BC2
100
AcDbEntity
  8
Defpoints
 62
     0
440
 16777216
100
AcDbPoint
 10
42540.36171042849
 20
2949.895187730792
 30
0.0
  0
ENDBLK
  5
4BCA
330
4BC2
100
AcDbEntity
  8
0
100
AcDbBlockEnd
  0
BLOCK
  5
4BDB
330
4BD4
100
AcDbEntity
  8
0
100
AcDbBlockBegin
  2
*D11
 70
     1
 10
0.0
 20
0.0
 30
0.0
  3
*D11
  1

  0
LINE
  5
6C11
330
4BD4
100
AcDbEntity
  8
DIM
 62
     0
440
 16777216
370
    -2
100
AcDbLine
 10
42352.63845540954
 20
3544.791660772227
 30
0.0
 11
42390.89111234739
 21
3458.927033380067
 31
0.0
  0
MTEXT
  5
6C12
330
4BD4
100
AcDbEntity
  8
DIM
 62
     0
440
 16777216
100
AcDbMText
 10
42391.14644134941
 20
3514.87285366274
 30
0.0
 40
15.0
 41
20.51579406566452
 46
0.0
 71
     5
 72
     1
  1
2-R175{\Ftxt|c134; [6.9"]}
 11
0.4069431589133967
 21
-0.9134534828953174
 31
0.0
 73
     1
 44
1.0
  0
LINE
  5
6C13
330
4BD4
100
AcDbEntity
  8
DIM
 62
     0
440
 16777216
370
    -2
100
AcDbLine
 10
42465.36171042856
 20
3291.765046010227
 30
0.0
 11
42394.14665761871
 21
3451.619405516904
 31
0.0
  0
SOLID
  5
6C14
330
4BD4
100
AcDbEntity
  8
DIM
 62
     0
440
 16777216
100
AcDbTrace
 10
42392.10905032459
 20
3459.46962425862
 30
0.0
 11
42389.67317437019
 21
3458.384442501515
 31
0.0
 12
42394.14665761871
 22
3451.619405516904
 32
0.0
 13
42394.14665761871
 23
3451.619405516904
 33
0.0
  0
POINT
  5
6C15
330
4BD4
100
AcDbEntity
  8
Defpoints
 62
     0
440
 16777216
100
AcDbPoint
 10
42394.14665761871
 20
3451.619405516904
 30
0.0
  0
POINT
  5
6C16
330
4BD4
100
AcDbEntity
  8
Defpoints
 62
     0
440
 16777216
100
AcDbPoint
 10
42465.36171042856
 20
3291.765046010227
 30
0.0
  0
ENDBLK
  5
4BDC
330
4BD4
100
AcDbEntity
  8
0
100
AcDbBlockEnd
  0
BLOCK
  5
5722
330
5718
100
AcDbEntity
  8
0
100
AcDbBlockBegin
  2
*D12
 70
     1
 10
0.0
 20
0.0
 30
0.0
  3
*D12
  1

  0
LINE
  5
6BF8
330
5718
100
AcDbEntity
  8
DIM
 62
     0
440
 16777216
370
    -2
100
AcDbLine
 10
42539.36171042852
 20
3449.895187730798
 30
0.0
 11
42249.07346925221
 21
3449.895187730798
 31
0.0
  0
LINE
  5
6BF9
330
5718
100
AcDbEntity
  8
DIM
 62
     0
440
 16777216
370
    -2
100
AcDbLine
 10
42539.36171042851
 20
2979.895187730796
 30
0.0
 11
42249.07346925221
 21
2979.895187730796
 31
0.0
  0
LINE
  5
6BFA
330
5718
100
AcDbEntity
  8
DIM
 62
     0
440
 16777216
370
    -2
100
AcDbLine
 10
42250.32346925221
 20
3441.895187730798
 30
0.0
 11
42250.32346925221
 21
2987.895187730796
 31
0.0
  0
SOLID
  5
6BFB
330
5718
100
AcDbEntity
  8
DIM
 62
     0
440
 16777216
100
AcDbTrace
 10
42248.99013591888
 20
3441.895187730798
 30
0.0
 11
42251.65680258555
 21
3441.895187730798
 31
0.0
 12
42250.32346925221
 22
3449.895187730798
 32
0.0
 13
42250.32346925221
 23
3449.895187730798
 33
0.0
  0
SOLID
  5
6BFC
330
5718
100
AcDbEntity
  8
DIM
 62
     0
440
 16777216
100
AcDbTrace
 10
42248.99013591888
 20
2987.895187730796
 30
0.0
 11
42251.65680258555
 21
2987.895187730796
 31
0.0
 12
42250.32346925221
 22
2979.895187730796
 32
0.0
 13
42250.32346925221
 23
2979.895187730796
 33
0.0
  0
MTEXT
  5
6BFD
330
5718
100
AcDbEntity
  8
DIM
 62
     0
440
 16777216
100
AcDbMText
 10
42239.82346925221
 20
3214.895187730784
 30
0.0
 40
15.0
 41
0.0
 46
0.0
 71
     5
 72
     1
  1
470{\Ftxt|c134; [18.5"]}
 11
0.0000000000000001
 21
1.0
 31
0.0
 73
     1
 44
1.0
  0
POINT
  5
6BFE
330
5718
100
AcDbEntity
  8
Defpoints
 62
     0
440
 16777216
100
AcDbPoint
 10
42540.36171042852
 20
3449.895187730798
 30
0.0
  0
POINT
  5
6BFF
330
5718
100
AcDbEntity
  8
Defpoints
 62
     0
440
 16777216
100
AcDbPoint
 10
42540.36171042852
 20
2979.895187730796
 30
0.0
  0
POINT
  5
6C00
330
5718
100
AcDbEntity
  8
Defpoints
 62
     0
440
 16777216
100
AcDbPoint
 10
42250.32346925221
 20
2979.895187730796
 30
0.0
  0
ENDBLK
  5
5723
330
5718
100
AcDbEntity
  8
0
100
AcDbBlockEnd
  0
BLOCK
  5
573A
330
5730
100
AcDbEntity
  8
0
100
AcDbBlockBegin
  2
*D13
 70
     1
 10
0.0
 20
0.0
 30
0.0
  3
*D13
  1

  0
LINE
  5
6BE6
330
5730
100
AcDbEntity
  8
DIM
 62
     0
440
 16777216
370
    -2
100
AcDbLine
 10
42539.36171042852
 20
3474.895187730797
 30
0.0
 11
42204.09848257499
 21
3474.895187730797
 31
0.0
  0
LINE
  5
6BE7
330
5730
100
AcDbEntity
  8
DIM
 62
     0
440
 16777216
370
    -2
100
AcDbLine
 10
42404.36171042851
 20
2954.895187730795
 30
0.0
 11
42204.09848257499
 21
2954.895187730795
 31
0.0
  0
LINE
  5
6BE8
330
5730
100
AcDbEntity
  8
DIM
 62
     0
440
 16777216
370
    -2
100
AcDbLine
 10
42205.348482575
 20
3466.895187730797
 30
0.0
 11
42205.348482575
 21
2962.895187730795
 31
0.0
  0
SOLID
  5
6BE9
330
5730
100
AcDbEntity
  8
DIM
 62
     0
440
 16777216
100
AcDbTrace
 10
42204.01514924166
 20
3466.895187730797
 30
0.0
 11
42206.68181590833
 21
3466.895187730797
 31
0.0
 12
42205.348482575
 22
3474.895187730797
 32
0.0
 13
42205.348482575
 23
3474.895187730797
 33
0.0
  0
SOLID
  5
6BEA
330
5730
100
AcDbEntity
  8
DIM
 62
     0
440
 16777216
100
AcDbTrace
 10
42204.01514924166
 20
2962.895187730795
 30
0.0
 11
42206.68181590833
 21
2962.895187730795
 31
0.0
 12
42205.348482575
 22
2954.895187730795
 32
0.0
 13
42205.348482575
 23
2954.895187730795
 33
0.0
  0
MTEXT
  5
6BEB
330
5730
100
AcDbEntity
  8
DIM
 62
     0
440
 16777216
100
AcDbMText
 10
42194.84848257499
 20
3214.895187730783
 30
0.0
 40
15.0
 41
0.0
 46
0.0
 71
     5
 72
     1
  1
520{\Ftxt|c134; [20.47"]}
 11
0.0000000000000001
 21
1.0
 31
0.0
 73
     1
 44
1.0
  0
POINT
  5
6BEC
330
5730
100
AcDbEntity
  8
Defpoints
 62
     0
440
 16777216
100
AcDbPoint
 10
42540.36171042852
 20
3474.895187730797
 30
0.0
  0
POINT
  5
6BED
330
5730
100
AcDbEntity
  8
Defpoints
 62
     0
440
 16777216
100
AcDbPoint
 10
42405.36171042851
 20
2954.895187730795
 30
0.0
  0
POINT
  5
6BEE
330
5730
100
AcDbEntity
  8
Defpoints
 62
     0
440
 16777216
100
AcDbPoint
 10
42205.348482575
 20
2954.895187730795
 30
0.0
  0
ENDBLK
  5
573B
330
5730
100
AcDbEntity
  8
0
100
AcDbBlockEnd
  0
BLOCK
  5
594F
330
5945
100
AcDbEntity
  8
0
100
AcDbBlockBegin
  2
*D14
 70
     1
 10
0.0
 20
0.0
 30
0.0
  3
*D14
  1

  0
LINE
  5
6C4F
330
5945
100
AcDbEntity
  8
DIM
 62
     0
440
 16777216
370
    -2
100
AcDbLine
 10
42765.36171042851
 20
3168.895187730795
 30
0.0
 11
42765.36171042851
 21
2907.149928011401
 31
0.0
  0
LINE
  5
6C50
330
5945
100
AcDbEntity
  8
DIM
 62
     0
440
 16777216
370
    -2
100
AcDbLine
 10
42795.3617104285
 20
3163.895187730795
 30
0.0
 11
42795.3617104285
 21
2907.149928011401
 31
0.0
  0
LINE
  5
6C51
330
5945
100
AcDbEntity
  8
DIM
 62
     0
440
 16777216
370
    -2
100
AcDbLine
 10
42773.36171042851
 20
2908.3999280114
 30
0.0
 11
42787.3617104285
 21
2908.3999280114
 31
0.0
  0
LINE
  5
6C52
330
5945
100
AcDbEntity
  8
DIM
 62
     0
440
 16777216
370
    -2
100
AcDbLine
 10
42795.3617104285
 20
2908.3999280114
 30
0.0
 11
42864.3617104285
 21
2908.3999280114
 31
0.0
  0
SOLID
  5
6C53
330
5945
100
AcDbEntity
  8
DIM
 62
     0
440
 16777216
100
AcDbTrace
 10
42773.36171042851
 20
2909.733261344734
 30
0.0
 11
42773.36171042851
 21
2907.066594678067
 31
0.0
 12
42765.36171042851
 22
2908.3999280114
 32
0.0
 13
42765.36171042851
 23
2908.3999280114
 33
0.0
  0
SOLID
  5
6C54
330
5945
100
AcDbEntity
  8
DIM
 62
     0
440
 16777216
100
AcDbTrace
 10
42787.3617104285
 20
2909.733261344734
 30
0.0
 11
42787.3617104285
 21
2907.066594678067
 31
0.0
 12
42795.3617104285
 22
2908.3999280114
 32
0.0
 13
42795.3617104285
 23
2908.3999280114
 33
0.0
  0
MTEXT
  5
6C55
330
5945
100
AcDbEntity
  8
DIM
 62
     0
440
 16777216
100
AcDbMText
 10
42833.8617104285
 20
2931.3999280114
 30
0.0
 40
15.0
 41
7.256590251585294
 46
0.0
 71
     5
 72
     1
  1
30{\Ftxt|c134; [1.2"]}
 73
     1
 44
1.0
  0
POINT
  5
6C56
330
5945
100
AcDbEntity
  8
Defpoints
 62
     0
440
 16777216
100
AcDbPoint
 10
42765.36171042851
 20
3169.895187730795
 30
0.0
  0
POINT
  5
6C57
330
5945
100
AcDbEntity
  8
Defpoints
 62
     0
440
 16777216
100
AcDbPoint
 10
42795.3617104285
 20
3164.895187730795
 30
0.0
  0
POINT
  5
6C58
330
5945
100
AcDbEntity
  8
Defpoints
 62
     0
440
 16777216
100
AcDbPoint
 10
42795.3617104285
 20
2908.3999280114
 30
0.0
  0
ENDBLK
  5
5950
330
5945
100
AcDbEntity
  8
0
100
AcDbBlockEnd
  0
BLOCK
  5
5967
330
595D
100
AcDbEntity
  8
0
100
AcDbBlockBegin
  2
*D15
 70
     1
 10
0.0
 20
0.0
 30
0.0
  3
*D15
  1

  0
LINE
  5
6C86
330
595D
100
AcDbEntity
  8
DIM
 62
     0
440
 16777216
370
    -2
100
AcDbLine
 10
42765.3617104285
 20
3168.895187730795
 30
0.0
 11
42765.3617104285
 21
2884.344842367209
 31
0.0
  0
LINE
  5
6C87
330
595D
100
AcDbEntity
  8
DIM
 62
     0
440
 16777216
370
    -2
100
AcDbLine
 10
42315.3617104285
 20
3168.895187730795
 30
0.0
 11
42315.3617104285
 21
2884.344842367209
 31
0.0
  0
LINE
  5
6C88
330
595D
100
AcDbEntity
  8
DIM
 62
     0
440
 16777216
370
    -2
100
AcDbLine
 10
42757.3617104285
 20
2885.594842367209
 30
0.0
 11
42323.3617104285
 21
2885.594842367209
 31
0.0
  0
SOLID
  5
6C89
330
595D
100
AcDbEntity
  8
DIM
 62
     0
440
 16777216
100
AcDbTrace
 10
42757.3617104285
 20
2886.928175700543
 30
0.0
 11
42757.3617104285
 21
2884.261509033875
 31
0.0
 12
42765.3617104285
 22
2885.594842367209
 32
0.0
 13
42765.3617104285
 23
2885.594842367209
 33
0.0
  0
SOLID
  5
6C8A
330
595D
100
AcDbEntity
  8
DIM
 62
     0
440
 16777216
100
AcDbTrace
 10
42323.3617104285
 20
2886.928175700543
 30
0.0
 11
42323.3617104285
 21
2884.261509033875
 31
0.0
 12
42315.3617104285
 22
2885.594842367209
 32
0.0
 13
42315.3617104285
 23
2885.594842367209
 33
0.0
  0
MTEXT
  5
6C8B
330
595D
100
AcDbEntity
  8
DIM
 62
     0
440
 16777216
100
AcDbMText
 10
42540.3617104285
 20
2896.094842367209
 30
0.0
 40
15.0
 41
0.0
 46
0.0
 71
     5
 72
     1
  1
450{\Ftxt|c134; [17.72"]}
 73
     1
 44
1.0
  0
POINT
  5
6C8C
330
595D
100
AcDbEntity
  8
Defpoints
 62
     0
440
 16777216
100
AcDbPoint
 10
42765.3617104285
 20
3169.895187730795
 30
0.0
  0
POINT
  5
6C8D
330
595D
100
AcDbEntity
  8
Defpoints
 62
     0
440
 16777216
100
AcDbPoint
 10
42315.3617104285
 20
3169.895187730795
 30
0.0
  0
POINT
  5
6C8E
330
595D
100
AcDbEntity
  8
Defpoints
 62
     0
440
 16777216
100
AcDbPoint
 10
42315.3617104285
 20
2885.594842367209
 30
0.0
  0
ENDBLK
  5
5968
330
595D
100
AcDbEntity
  8
0
100
AcDbBlockEnd
  0
BLOCK
  5
64FA
330
64F4
100
AcDbEntity
  8
0
100
AcDbBlockBegin
  2
*D16
 70
     1
 10
0.0
 20
0.0
 30
0.0
  3
*D16
  1

  0
LINE
  5
6C06
330
64F4
100
AcDbEntity
  8
0
 62
     0
440
 16777216
370
    -2
100
AcDbLine
 10
42816.84979197756
 20
3553.010440985443
 30
0.0
 11
42750.15599916376
 21
3419.770289378994
 31
0.0
  0
MTEXT
  5
6C07
330
64F4
100
AcDbEntity
  8
0
 62
     0
440
 16777216
100
AcDbMText
 10
42775.90392630481
 20
3494.667180155171
 30
0.0
 40
15.0
 41
0.0
 46
0.0
 71
     5
 72
     1
  1
R73{\Ftxt|c134; [2.87"]}
 11
0.4476093477436464
 21
0.8942292054124084
 31
0.0
 73
     1
 44
1.0
  0
SOLID
  5
6C08
330
64F4
100
AcDbEntity
  8
0
 62
     0
440
 16777216
100
AcDbTrace
 10
42748.96369355655
 20
3420.36710184265
 30
0.0
 11
42751.34830477099
 21
3419.173476915334
 31
0.0
 12
42746.57512438182
 22
3412.616455735694
 32
0.0
 13
42746.57512438182
 23
3412.616455735694
 33
0.0
  0
POINT
  5
6C09
330
64F4
100
AcDbEntity
  8
Defpoints
 62
     0
440
 16777216
100
AcDbPoint
 10
42746.57512438182
 20
3412.616455735694
 30
0.0
  0
POINT
  5
6C0A
330
64F4
100
AcDbEntity
  8
Defpoints
 62
     0
440
 16777216
100
AcDbPoint
 10
42779.25060676709
 20
3477.895187730792
 30
0.0
  0
ENDBLK
  5
64FB
330
64F4
100
AcDbEntity
  8
0
100
AcDbBlockEnd
  0
BLOCK
  5
650A
330
6504
100
AcDbEntity
  8
0
100
AcDbBlockBegin
  2
*D17
 70
     1
 10
0.0
 20
0.0
 30
0.0
  3
*D17
  1

  0
LINE
  5
6C40
330
6504
100
AcDbEntity
  8
0
 62
     0
440
 16777216
370
    -2
100
AcDbLine
 10
42935.11047445539
 20
3141.194966670973
 30
0.0
 11
42836.23733535722
 21
3001.06519693993
 31
0.0
  0
MTEXT
  5
6C41
330
6504
100
AcDbEntity
  8
0
 62
     0
440
 16777216
100
AcDbMText
 10
42879.40061029533
 20
3080.451872122969
 30
0.0
 40
15.0
 41
0.0
 46
0.0
 71
     5
 72
     1
  1
4-R80{\Ftxt|c134; [3.15"]}
 11
0.5765197615053497
 21
0.8170832054288075
 31
0.0
 73
     1
 44
1.0
  0
SOLID
  5
6C42
330
6504
100
AcDbEntity
  8
0
 62
     0
440
 16777216
100
AcDbTrace
 10
42835.14789108331
 20
3001.833889955269
 30
0.0
 11
42837.32677963113
 21
3000.296503924587
 31
0.0
 12
42831.62517726518
 22
2994.528531296503
 32
0.0
 13
42831.62517726518
 23
2994.528531296503
 33
0.0
  0
POINT
  5
6C43
330
6504
100
AcDbEntity
  8
Defpoints
 62
     0
440
 16777216
100
AcDbPoint
 10
42831.62517726518
 20
2994.528531296503
 30
0.0
  0
POINT
  5
6C44
330
6504
100
AcDbEntity
  8
Defpoints
 62
     0
440
 16777216
100
AcDbPoint
 10
42877.74675818559
 20
3059.895187730799
 30
0.0
  0
ENDBLK
  5
650B
330
6504
100
AcDbEntity
  8
0
100
AcDbBlockEnd
  0
BLOCK
  5
6536
330
652C
100
AcDbEntity
  8
0
100
AcDbBlockBegin
  2
*D18
 70
     1
 10
0.0
 20
0.0
 30
0.0
  3
*D18
  1

  0
LINE
  5
6C74
330
652C
100
AcDbEntity
  8
0
 62
     0
440
 16777216
370
    -2
100
AcDbLine
 10
42795.3617104285
 20
3164.895187730797
 30
0.0
 11
42795.3617104285
 21
2881.380566920991
 31
0.0
  0
LINE
  5
6C75
330
652C
100
AcDbEntity
  8
0
 62
     0
440
 16777216
370
    -2
100
AcDbLine
 10
43139.3617104285
 20
3164.895187730797
 30
0.0
 11
43139.3617104285
 21
2881.380566920991
 31
0.0
  0
LINE
  5
6C76
330
652C
100
AcDbEntity
  8
0
 62
     0
440
 16777216
370
    -2
100
AcDbLine
 10
42803.3617104285
 20
2882.630566920991
 30
0.0
 11
43131.3617104285
 21
2882.630566920991
 31
0.0
  0
SOLID
  5
6C77
330
652C
100
AcDbEntity
  8
0
 62
     0
440
 16777216
100
AcDbTrace
 10
42803.3617104285
 20
2883.963900254324
 30
0.0
 11
42803.3617104285
 21
2881.297233587657
 31
0.0
 12
42795.3617104285
 22
2882.630566920991
 32
0.0
 13
42795.3617104285
 23
2882.630566920991
 33
0.0
  0
SOLID
  5
6C78
330
652C
100
AcDbEntity
  8
0
 62
     0
440
 16777216
100
AcDbTrace
 10
43131.3617104285
 20
2883.963900254324
 30
0.0
 11
43131.3617104285
 21
2881.297233587657
 31
0.0
 12
43139.3617104285
 22
2882.630566920991
 32
0.0
 13
43139.3617104285
 23
2882.630566920991
 33
0.0
  0
MTEXT
  5
6C79
330
652C
100
AcDbEntity
  8
0
 62
     0
440
 16777216
100
AcDbMText
 10
42967.3617104285
 20
2893.130566920991
 30
0.0
 40
15.0
 41
0.0
 46
0.0
 71
     5
 72
     1
  1
344{\Ftxt|c134; [13.54"]}
 73
     1
 44
1.0
  0
POINT
  5
6C7A
330
652C
100
AcDbEntity
  8
Defpoints
 62
     0
440
 16777216
100
AcDbPoint
 10
42795.3617104285
 20
3165.895187730797
 30
0.0
  0
POINT
  5
6C7B
330
652C
100
AcDbEntity
  8
Defpoints
 62
     0
440
 16777216
100
AcDbPoint
 10
43139.3617104285
 20
3165.895187730797
 30
0.0
  0
POINT
  5
6C7C
330
652C
100
AcDbEntity
  8
Defpoints
 62
     0
440
 16777216
100
AcDbPoint
 10
43139.3617104285
 20
2882.630566920991
 30
0.0
  0
ENDBLK
  5
6537
330
652C
100
AcDbEntity
  8
0
100
AcDbBlockEnd
  0
BLOCK
  5
654E
330
6544
100
AcDbEntity
  8
0
100
AcDbBlockBegin
  2
*D19
 70
     1
 10
0.0
 20
0.0
 30
0.0
  3
*D19
  1

  0
LINE
  5
6C62
330
6544
100
AcDbEntity
  8
0
 62
     0
440
 16777216
370
    -2
100
AcDbLine
 10
42968.36171042851
 20
3379.895187730796
 30
0.0
 11
43215.44231467563
 21
3379.895187730796
 31
0.0
  0
LINE
  5
6C63
330
6544
100
AcDbEntity
  8
0
 62
     0
440
 16777216
370
    -2
100
AcDbLine
 10
42968.36171042851
 20
2979.895187730795
 30
0.0
 11
43215.44231467563
 21
2979.895187730795
 31
0.0
  0
LINE
  5
6C64
330
6544
100
AcDbEntity
  8
0
 62
     0
440
 16777216
370
    -2
100
AcDbLine
 10
43214.19231467563
 20
3371.895187730796
 30
0.0
 11
43214.19231467563
 21
2987.895187730795
 31
0.0
  0
SOLID
  5
6C65
330
6544
100
AcDbEntity
  8
0
 62
     0
440
 16777216
100
AcDbTrace
 10
43212.85898134229
 20
3371.895187730796
 30
0.0
 11
43215.52564800897
 21
3371.895187730796
 31
0.0
 12
43214.19231467563
 22
3379.895187730796
 32
0.0
 13
43214.19231467563
 23
3379.895187730796
 33
0.0
  0
SOLID
  5
6C66
330
6544
100
AcDbEntity
  8
0
 62
     0
440
 16777216
100
AcDbTrace
 10
43212.85898134229
 20
2987.895187730795
 30
0.0
 11
43215.52564800897
 21
2987.895187730795
 31
0.0
 12
43214.19231467563
 22
2979.895187730795
 32
0.0
 13
43214.19231467563
 23
2979.895187730795
 33
0.0
  0
MTEXT
  5
6C67
330
6544
100
AcDbEntity
  8
0
 62
     0
440
 16777216
100
AcDbMText
 10
43203.69231467562
 20
3179.895187730782
 30
0.0
 40
15.0
 41
0.0
 46
0.0
 71
     5
 72
     1
  1
400{\Ftxt|c134; [15.75"]}
 11
0.0000000000000001
 21
1.0
 31
0.0
 73
     1
 44
1.0
  0
POINT
  5
6C68
330
6544
100
AcDbEntity
  8
Defpoints
 62
     0
440
 16777216
100
AcDbPoint
 10
42967.36171042851
 20
3379.895187730796
 30
0.0
  0
POINT
  5
6C69
330
6544
100
AcDbEntity
  8
Defpoints
 62
     0
440
 16777216
100
AcDbPoint
 10
42967.36171042851
 20
2979.895187730795
 30
0.0
  0
POINT
  5
6C6A
330
6544
100
AcDbEntity
  8
Defpoints
 62
     0
440
 16777216
100
AcDbPoint
 10
43214.19231467563
 20
2979.895187730795
 30
0.0
  0
ENDBLK
  5
654F
330
6544
100
AcDbEntity
  8
0
100
AcDbBlockEnd
  0
BLOCK
  5
6566
330
655C
100
AcDbEntity
  8
0
100
AcDbBlockBegin
  2
*D20
 70
     1
 10
0.0
 20
0.0
 30
0.0
  3
*D20
  1

  0
LINE
  5
6C98
330
655C
100
AcDbEntity
  8
0
 62
     0
440
 16777216
370
    -2
100
AcDbLine
 10
43002.12524400182
 20
3404.895187730796
 30
0.0
 11
43271.11203435084
 21
3404.895187730796
 31
0.0
  0
LINE
  5
6C99
330
655C
100
AcDbEntity
  8
0
 62
     0
440
 16777216
370
    -2
100
AcDbLine
 10
43002.12524400182
 20
2954.895187730795
 30
0.0
 11
43271.11203435084
 21
2954.895187730795
 31
0.0
  0
LINE
  5
6C9A
330
655C
100
AcDbEntity
  8
0
 62
     0
440
 16777216
370
    -2
100
AcDbLine
 10
43269.86203435083
 20
3396.895187730796
 30
0.0
 11
43269.86203435083
 21
2962.895187730794
 31
0.0
  0
SOLID
  5
6C9B
330
655C
100
AcDbEntity
  8
0
 62
     0
440
 16777216
100
AcDbTrace
 10
43268.5287010175
 20
3396.895187730796
 30
0.0
 11
43271.19536768417
 21
3396.895187730796
 31
0.0
 12
43269.86203435083
 22
3404.895187730796
 32
0.0
 13
43269.86203435083
 23
3404.895187730796
 33
0.0
  0
SOLID
  5
6C9C
330
655C
100
AcDbEntity
  8
0
 62
     0
440
 16777216
100
AcDbTrace
 10
43268.5287010175
 20
2962.895187730794
 30
0.0
 11
43271.19536768417
 21
2962.895187730794
 31
0.0
 12
43269.86203435083
 22
2954.895187730795
 32
0.0
 13
43269.86203435083
 23
2954.895187730795
 33
0.0
  0
MTEXT
  5
6C9D
330
655C
100
AcDbEntity
  8
0
 62
     0
440
 16777216
100
AcDbMText
 10
43259.36203435083
 20
3179.895187730782
 30
0.0
 40
15.0
 41
0.0
 46
0.0
 71
     5
 72
     1
  1
450{\Ftxt|c134; [17.72"]}
 11
0.0000000000000001
 21
1.0
 31
0.0
 73
     1
 44
1.0
  0
POINT
  5
6C9E
330
655C
100
AcDbEntity
  8
Defpoints
 62
     0
440
 16777216
100
AcDbPoint
 10
43001.12524400183
 20
3404.895187730796
 30
0.0
  0
POINT
  5
6C9F
330
655C
100
AcDbEntity
  8
Defpoints
 62
     0
440
 16777216
100
AcDbPoint
 10
43001.12524400183
 20
2954.895187730795
 30
0.0
  0
POINT
  5
6CA0
330
655C
100
AcDbEntity
  8
Defpoints
 62
     0
440
 16777216
100
AcDbPoint
 10
43269.86203435083
 20
2954.895187730795
 30
0.0
  0
ENDBLK
  5
6567
330
655C
100
AcDbEntity
  8
0
100
AcDbBlockEnd
  0
BLOCK
  5
657E
330
6574
100
AcDbEntity
  8
0
100
AcDbBlockBegin
  2
*D21
 70
     1
 10
0.0
 20
0.0
 30
0.0
  3
*D21
  1

  0
LINE
  5
6CAA
330
6574
100
AcDbEntity
  8
0
 62
     0
440
 16777216
370
    -2
100
AcDbLine
 10
42290.36171042849
 20
3236.881625479902
 30
0.0
 11
42290.36171042849
 21
2830.995758948942
 31
0.0
  0
LINE
  5
6CAB
330
6574
100
AcDbEntity
  8
0
 62
     0
440
 16777216
370
    -2
100
AcDbLine
 10
43164.3617104285
 20
3236.881625479955
 30
0.0
 11
43164.3617104285
 21
2830.995758948942
 31
0.0
  0
LINE
  5
6CAC
330
6574
100
AcDbEntity
  8
0
 62
     0
440
 16777216
370
    -2
100
AcDbLine
 10
42298.36171042849
 20
2832.245758948943
 30
0.0
 11
43156.3617104285
 21
2832.245758948943
 31
0.0
  0
SOLID
  5
6CAD
330
6574
100
AcDbEntity
  8
0
 62
     0
440
 16777216
100
AcDbTrace
 10
42298.36171042849
 20
2833.579092282276
 30
0.0
 11
42298.36171042849
 21
2830.912425615609
 31
0.0
 12
42290.36171042849
 22
2832.245758948943
 32
0.0
 13
42290.36171042849
 23
2832.245758948943
 33
0.0
  0
SOLID
  5
6CAE
330
6574
100
AcDbEntity
  8
0
 62
     0
440
 16777216
100
AcDbTrace
 10
43156.3617104285
 20
2833.579092282276
 30
0.0
 11
43156.3617104285
 21
2830.912425615609
 31
0.0
 12
43164.3617104285
 22
2832.245758948943
 32
0.0
 13
43164.3617104285
 23
2832.245758948943
 33
0.0
  0
MTEXT
  5
6CAF
330
6574
100
AcDbEntity
  8
0
 62
     0
440
 16777216
100
AcDbMText
 10
42727.3617104285
 20
2842.745758948942
 30
0.0
 40
15.0
 41
0.0
 46
0.0
 71
     5
 72
     1
  1
874{\Ftxt|c134; [34.41"]}
 73
     1
 44
1.0
  0
POINT
  5
6CB0
330
6574
100
AcDbEntity
  8
Defpoints
 62
     0
440
 16777216
100
AcDbPoint
 10
42290.36171042849
 20
3237.881625479902
 30
0.0
  0
POINT
  5
6CB1
330
6574
100
AcDbEntity
  8
Defpoints
 62
     0
440
 16777216
100
AcDbPoint
 10
43164.3617104285
 20
3237.881625479956
 30
0.0
  0
POINT
  5
6CB2
330
6574
100
AcDbEntity
  8
Defpoints
 62
     0
440
 16777216
100
AcDbPoint
 10
43164.3617104285
 20
2832.245758948943
 30
0.0
  0
ENDBLK
  5
657F
330
6574
100
AcDbEntity
  8
0
100
AcDbBlockEnd
  0
BLOCK
  5
6596
330
658C
100
AcDbEntity
  8
0
100
AcDbBlockBegin
  2
*D22
 70
     1
 10
0.0
 20
0.0
 30
0.0
  3
*D22
  1

  0
LINE
  5
6B94
330
658C
100
AcDbEntity
  8
0
 62
     0
440
 16777216
370
    -2
100
AcDbLine
 10
42946.57783944113
 20
3379.895187730796
 30
0.0
 11
42861.15701019317
 21
3379.895187730796
 31
0.0
  0
LINE
  5
6B95
330
658C
100
AcDbEntity
  8
0
 62
     0
440
 16777216
370
    -2
100
AcDbLine
 10
42876.7467581856
 20
3259.895187730796
 30
0.0
 11
42861.15701019317
 21
3259.895187730796
 31
0.0
  0
LINE
  5
6B96
330
658C
100
AcDbEntity
  8
0
 62
     0
440
 16777216
370
    -2
100
AcDbLine
 10
42862.40701019317
 20
3371.895187730796
 30
0.0
 11
42862.40701019317
 21
3267.895187730796
 31
0.0
  0
SOLID
  5
6B97
330
658C
100
AcDbEntity
  8
0
 62
     0
440
 16777216
100
AcDbTrace
 10
42861.07367685984
 20
3371.895187730796
 30
0.0
 11
42863.7403435265
 21
3371.895187730796
 31
0.0
 12
42862.40701019317
 22
3379.895187730796
 32
0.0
 13
42862.40701019317
 23
3379.895187730796
 33
0.0
  0
SOLID
  5
6B98
330
658C
100
AcDbEntity
  8
0
 62
     0
440
 16777216
100
AcDbTrace
 10
42861.07367685984
 20
3267.895187730796
 30
0.0
 11
42863.7403435265
 21
3267.895187730796
 31
0.0
 12
42862.40701019317
 22
3259.895187730796
 32
0.0
 13
42862.40701019317
 23
3259.895187730796
 33
0.0
  0
MTEXT
  5
6B99
330
658C
100
AcDbEntity
  8
0
 62
     0
440
 16777216
100
AcDbMText
 10
42851.90701019316
 20
3319.895187730782
 30
0.0
 40
15.0
 41
0.0
 46
0.0
 71
     5
 72
     1
  1
120{\Ftxt|c134; [4.7"]}
 11
0.0000000000000001
 21
1.0
 31
0.0
 73
     1
 44
1.0
  0
POINT
  5
6B9A
330
658C
100
AcDbEntity
  8
Defpoints
 62
     0
440
 16777216
100
AcDbPoint
 10
42947.57783944113
 20
3379.895187730796
 30
0.0
  0
POINT
  5
6B9B
330
658C
100
AcDbEntity
  8
Defpoints
 62
     0
440
 16777216
100
AcDbPoint
 10
42877.7467581856
 20
3259.895187730796
 30
0.0
  0
POINT
  5
6B9C
330
658C
100
AcDbEntity
  8
Defpoints
 62
     0
440
 16777216
100
AcDbPoint
 10
42862.40701019317
 20
3259.895187730796
 30
0.0
  0
ENDBLK
  5
6597
330
658C
100
AcDbEntity
  8
0
100
AcDbBlockEnd
  0
BLOCK
  5
6639
330
662A
100
AcDbEntity
  8
0
100
AcDbBlockBegin
  2
*D23
 70
     1
 10
0.0
 20
0.0
 30
0.0
  3
*D23
  1

  0
LINE
  5
663C
330
662A
100
AcDbEntity
  8
0
 62
     0
440
 16777216
370
    -2
100
AcDbLine
 10
42314.50288818161
 20
3805.016638718029
 30
0.0
 11
42314.50288818161
 21
3747.539775298616
 31
0.0
  0
ARC
  5
663D
330
662A
100
AcDbEntity
  8
0
 62
     0
440
 16777216
370
    -2
100
AcDbCircle
 10
42314.50288818161
 20
3824.218483016585
 30
0.0
 40
75.42870771796856
100
AcDbArc
 50
257.8234699963251
 51
270.0000000000051
  0
LINE
  5
663E
330
662A
100
AcDbEntity
  8
0
 62
     0
440
 16777216
370
    -2
100
AcDbLine
 10
42298.59313317866
 20
3750.486741929393
 30
0.0
 11
42238.9654881826
 21
3763.353130397938
 31
0.0
  0
ARC
  5
663F
330
662A
100
AcDbEntity
  8
0
 62
     0
440
 16777216
370
    -2
100
AcDbCircle
 10
42314.50288818161
 20
3824.218483016585
 30
0.0
 40
75.42870771796856
100
AcDbArc
 50
257.8406681280176
 51
263.9203340640114
  0
ARC
  5
6640
330
662A
100
AcDbEntity
  8
0
 62
     0
440
 16777216
370
    -2
100
AcDbCircle
 10
42314.50288818161
 20
3824.218483016585
 30
0.0
 40
75.42870771796856
100
AcDbArc
 50
278.5796659359977
 51
284.6593318719914
  0
ARC
  5
6641
330
662A
100
AcDbEntity
  8
0
 62
     0
440
 16777216
370
    -2
100
AcDbCircle
 10
42314.50288818161
 20
3824.218483016585
 30
0.0
 40
75.42870771796856
100
AcDbArc
 50
270.0000000000051
 51
272.500000000004
  0
SOLID
  5
6642
330
662A
100
AcDbEntity
  8
0
 62
     0
440
 16777216
100
AcDbTrace
 10
42306.5848518557
 20
3750.545474167788
 30
0.0
 11
42306.4434379698
 21
3747.882559744832
 31
0.0
 12
42314.50288818161
 22
3748.789775298617
 32
0.0
 13
42314.50288818161
 23
3748.789775298617
 33
0.0
  0
SOLID
  5
6643
330
662A
100
AcDbEntity
  8
0
 62
     0
440
 16777216
100
AcDbTrace
 10
42325.88439378973
 20
3748.306762909873
 30
0.0
 11
42325.62695980279
 21
3750.960974441284
 31
0.0
 12
42317.79304220203
 22
3748.861566714731
 32
0.0
 13
42317.79304220203
 23
3748.861566714731
 33
0.0
  0
MTEXT
  5
6644
330
662A
100
AcDbEntity
  8
0
 62
     0
440
 16777216
100
AcDbMText
 10
42271.25767239383
 20
3768.405589093234
 30
0.0
 40
15.0
 41
0.0
 46
0.0
 71
     5
 72
     1
  1
2,50\U+00B0
 11
0.9775023769846244
 21
-0.2109244011237417
 31
0.0
 73
     1
 44
1.0
  0
POINT
  5
6645
330
662A
100
AcDbEntity
  8
Defpoints
 62
     0
440
 16777216
100
AcDbPoint
 10
42316.69671093075
 20
3748.821685407217
 30
0.0
  0
POINT
  5
6646
330
662A
100
AcDbEntity
  8
Defpoints
 62
     0
440
 16777216
100
AcDbPoint
 10
42314.3802612533
 20
3827.027101432566
 30
0.0
  0
POINT
  5
6647
330
662A
100
AcDbEntity
  8
Defpoints
 62
     0
440
 16777216
100
AcDbPoint
 10
42314.50288818161
 20
3827.131649778081
 30
0.0
  0
POINT
  5
6648
330
662A
100
AcDbEntity
  8
Defpoints
 62
     0
440
 16777216
100
AcDbPoint
 10
42314.50288818161
 20
3806.016638718029
 30
0.0
  0
POINT
  5
6649
330
662A
100
AcDbEntity
  8
Defpoints
 62
     0
440
 16777216
100
AcDbPoint
 10
42321.86003151704
 20
3655.712196955999
 30
0.0
  0
ENDBLK
  5
663A
330
662A
100
AcDbEntity
  8
0
100
AcDbBlockEnd
  0
BLOCK
  5
667B
330
666C
100
AcDbEntity
  8
0
100
AcDbBlockBegin
  2
*D24
 70
     1
 10
0.0
 20
0.0
 30
0.0
  3
*D24
  1

  0
LINE
  5
666D
330
666C
100
AcDbEntity
  8
0
 62
     0
440
 16777216
370
    -2
100
AcDbLine
 10
42766.2205326754
 20
3805.016638718029
 30
0.0
 11
42766.2205326754
 21
3747.539775298616
 31
0.0
  0
ARC
  5
666E
330
666C
100
AcDbEntity
  8
0
 62
     0
440
 16777216
370
    -2
100
AcDbCircle
 10
42766.22053267541
 20
3824.218483016586
 30
0.0
 40
75.42870771796902
100
AcDbArc
 50
255.323469996316
 51
267.499999999996
  0
LINE
  5
666F
330
666C
100
AcDbEntity
  8
0
 62
     0
440
 16777216
370
    -2
100
AcDbLine
 10
42747.10978685829
 20
3751.250891975655
 30
0.0
 11
42688.10011815046
 21
3766.705955838112
 31
0.0
  0
ARC
  5
6670
330
666C
100
AcDbEntity
  8
0
 62
     0
440
 16777216
370
    -2
100
AcDbCircle
 10
42766.22053267541
 20
3824.218483016586
 30
0.0
 40
75.42870771796902
100
AcDbArc
 50
255.3406681280087
 51
261.4203340640024
  0
ARC
  5
6671
330
666C
100
AcDbEntity
  8
0
 62
     0
440
 16777216
370
    -2
100
AcDbCircle
 10
42766.22053267541
 20
3824.218483016586
 30
0.0
 40
75.42870771796902
100
AcDbArc
 50
276.0796659359885
 51
282.1593318719822
  0
ARC
  5
6672
330
666C
100
AcDbEntity
  8
0
 62
     0
440
 16777216
370
    -2
100
AcDbCircle
 10
42766.22053267541
 20
3824.218483016586
 30
0.0
 40
75.42870771796902
100
AcDbArc
 50
267.499999999996
 51
269.9999999999949
  0
SOLID
  5
6673
330
666C
100
AcDbEntity
  8
0
 62
     0
440
 16777216
100
AcDbTrace
 10
42755.09646105422
 20
3750.960974441284
 30
0.0
 11
42754.83902706727
 21
3748.306762909873
 31
0.0
 12
42762.93037865499
 22
3748.861566714731
 32
0.0
 13
42762.93037865499
 23
3748.861566714731
 33
0.0
  0
SOLID
  5
6674
330
666C
100
AcDbEntity
  8
0
 62
     0
440
 16777216
100
AcDbTrace
 10
42774.27998288722
 20
3747.882559744832
 30
0.0
 11
42774.13856900132
 21
3750.545474167788
 31
0.0
 12
42766.2205326754
 22
3748.789775298616
 32
0.0
 13
42766.2205326754
 23
3748.789775298616
 33
0.0
  0
MTEXT
  5
6675
330
666C
100
AcDbEntity
  8
0
 62
     0
440
 16777216
100
AcDbMText
 10
42720.58195251067
 20
3770.345040420276
 30
0.0
 40
15.0
 41
0.0
 46
0.0
 71
     5
 72
     1
  1
2,50\U+00B0
 11
0.967371618161087
 21
-0.2533617026632083
 31
0.0
 73
     1
 44
1.0
  0
POINT
  5
6676
330
666C
100
AcDbEntity
  8
Defpoints
 62
     0
440
 16777216
100
AcDbPoint
 10
42765.12350527036
 20
3748.797753247674
 30
0.0
  0
POINT
  5
6677
330
666C
100
AcDbEntity
  8
Defpoints
 62
     0
440
 16777216
100
AcDbPoint
 10
42766.34315960372
 20
3827.027101432566
 30
0.0
  0
POINT
  5
6678
330
666C
100
AcDbEntity
  8
Defpoints
 62
     0
440
 16777216
100
AcDbPoint
 10
42766.22053267541
 20
3827.131649778081
 30
0.0
  0
POINT
  5
6679
330
666C
100
AcDbEntity
  8
Defpoints
 62
     0
440
 16777216
100
AcDbPoint
 10
42766.2205326754
 20
3806.016638718029
 30
0.0
  0
POINT
  5
667A
330
666C
100
AcDbEntity
  8
Defpoints
 62
     0
440
 16777216
100
AcDbPoint
 10
42758.86338933998
 20
3655.712196955999
 30
0.0
  0
ENDBLK
  5
667C
330
666C
100
AcDbEntity
  8
0
100
AcDbBlockEnd
  0
BLOCK
  5
674B
330
6741
100
AcDbEntity
  8
0
100
AcDbBlockBegin
  2
*D25
 70
     1
 10
0.0
 20
0.0
 30
0.0
  3
*D25
  1

  0
LINE
  5
6B78
330
6741
100
AcDbEntity
  8
0
 62
     0
440
 16777216
370
    -2
100
AcDbLine
 10
42972.59784339303
 20
3832.052623883104
 30
0.0
 11
43221.65540877124
 21
3832.052623883104
 31
0.0
  0
LINE
  5
6B79
330
6741
100
AcDbEntity
  8
0
 62
     0
440
 16777216
370
    -2
100
AcDbLine
 10
42968.3617104285
 20
3652.052623883103
 30
0.0
 11
43221.65540877124
 21
3652.052623883103
 31
0.0
  0
LINE
  5
6B7A
330
6741
100
AcDbEntity
  8
0
 62
     0
440
 16777216
370
    -2
100
AcDbLine
 10
43220.40540877124
 20
3824.052623883104
 30
0.0
 11
43220.40540877124
 21
3660.052623883103
 31
0.0
  0
SOLID
  5
6B7B
330
6741
100
AcDbEntity
  8
0
 62
     0
440
 16777216
100
AcDbTrace
 10
43219.0720754379
 20
3824.052623883104
 30
0.0
 11
43221.73874210458
 21
3824.052623883104
 31
0.0
 12
43220.40540877124
 22
3832.052623883104
 32
0.0
 13
43220.40540877124
 23
3832.052623883104
 33
0.0
  0
SOLID
  5
6B7C
330
6741
100
AcDbEntity
  8
0
 62
     0
440
 16777216
100
AcDbTrace
 10
43219.0720754379
 20
3660.052623883103
 30
0.0
 11
43221.73874210458
 21
3660.052623883103
 31
0.0
 12
43220.40540877124
 22
3652.052623883103
 32
0.0
 13
43220.40540877124
 23
3652.052623883103
 33
0.0
  0
MTEXT
  5
6B7D
330
6741
100
AcDbEntity
  8
0
 62
     0
440
 16777216
100
AcDbMText
 10
43209.90540877123
 20
3742.05262388309
 30
0.0
 40
15.0
 41
0.0
 46
0.0
 71
     5
 72
     1
  1
180{\Ftxt|c134; [7.09"]}
 11
0.0000000000000001
 21
1.0
 31
0.0
 73
     1
 44
1.0
  0
POINT
  5
6B7E
330
6741
100
AcDbEntity
  8
Defpoints
 62
     0
440
 16777216
100
AcDbPoint
 10
42971.59784339303
 20
3832.052623883104
 30
0.0
  0
POINT
  5
6B7F
330
6741
100
AcDbEntity
  8
Defpoints
 62
     0
440
 16777216
100
AcDbPoint
 10
42967.36171042851
 20
3652.052623883103
 30
0.0
  0
POINT
  5
6B80
330
6741
100
AcDbEntity
  8
Defpoints
 62
     0
440
 16777216
100
AcDbPoint
 10
43220.40540877124
 20
3652.052623883103
 30
0.0
  0
ENDBLK
  5
674C
330
6741
100
AcDbEntity
  8
0
100
AcDbBlockEnd
  0
BLOCK
  5
676A
330
675B
100
AcDbEntity
  8
0
100
AcDbBlockBegin
  2
*D26
 70
     1
 10
0.0
 20
0.0
 30
0.0
  3
*D26
  1

  0
LINE
  5
676C
330
675B
100
AcDbEntity
  8
0
 62
     0
440
 16777216
370
    -2
100
AcDbLine
 10
43140.22053267539
 20
3805.016638718029
 30
0.0
 11
43140.22053267539
 21
3747.539775298616
 31
0.0
  0
ARC
  5
676D
330
675B
100
AcDbEntity
  8
0
 62
     0
440
 16777216
370
    -2
100
AcDbCircle
 10
43140.2205326754
 20
3824.218483016585
 30
0.0
 40
75.42870771796902
100
AcDbArc
 50
255.323469996316
 51
267.499999999996
  0
LINE
  5
676E
330
675B
100
AcDbEntity
  8
0
 62
     0
440
 16777216
370
    -2
100
AcDbLine
 10
43121.10978685828
 20
3751.250891975655
 30
0.0
 11
43062.10011815045
 21
3766.705955838113
 31
0.0
  0
ARC
  5
676F
330
675B
100
AcDbEntity
  8
0
 62
     0
440
 16777216
370
    -2
100
AcDbCircle
 10
43140.2205326754
 20
3824.218483016585
 30
0.0
 40
75.42870771796902
100
AcDbArc
 50
255.3406681280087
 51
261.4203340640024
  0
ARC
  5
6770
330
675B
100
AcDbEntity
  8
0
 62
     0
440
 16777216
370
    -2
100
AcDbCircle
 10
43140.2205326754
 20
3824.218483016585
 30
0.0
 40
75.42870771796902
100
AcDbArc
 50
276.0796659359885
 51
282.1593318719822
  0
ARC
  5
6771
330
675B
100
AcDbEntity
  8
0
 62
     0
440
 16777216
370
    -2
100
AcDbCircle
 10
43140.2205326754
 20
3824.218483016585
 30
0.0
 40
75.42870771796902
100
AcDbArc
 50
267.499999999996
 51
269.9999999999948
  0
SOLID
  5
6772
330
675B
100
AcDbEntity
  8
0
 62
     0
440
 16777216
100
AcDbTrace
 10
43129.09646105421
 20
3750.960974441284
 30
0.0
 11
43128.83902706727
 21
3748.306762909873
 31
0.0
 12
43136.93037865497
 22
3748.861566714731
 32
0.0
 13
43136.93037865497
 23
3748.861566714731
 33
0.0
  0
SOLID
  5
6773
330
675B
100
AcDbEntity
  8
0
 62
     0
440
 16777216
100
AcDbTrace
 10
43148.27998288721
 20
3747.882559744832
 30
0.0
 11
43148.13856900131
 21
3750.545474167789
 31
0.0
 12
43140.22053267539
 22
3748.789775298617
 32
0.0
 13
43140.22053267539
 23
3748.789775298617
 33
0.0
  0
MTEXT
  5
6774
330
675B
100
AcDbEntity
  8
0
 62
     0
440
 16777216
100
AcDbMText
 10
43094.58195251066
 20
3770.345040420277
 30
0.0
 40
15.0
 41
0.0
 46
0.0
 71
     5
 72
     1
  1
2,50\U+00B0
 11
0.967371618161087
 21
-0.2533617026632083
 31
0.0
 73
     1
 44
1.0
  0
POINT
  5
6775
330
675B
100
AcDbEntity
  8
Defpoints
 62
     0
440
 16777216
100
AcDbPoint
 10
43139.12350527036
 20
3748.797753247673
 30
0.0
  0
POINT
  5
6776
330
675B
100
AcDbEntity
  8
Defpoints
 62
     0
440
 16777216
100
AcDbPoint
 10
43140.34315960371
 20
3827.027101432566
 30
0.0
  0
POINT
  5
6777
330
675B
100
AcDbEntity
  8
Defpoints
 62
     0
440
 16777216
100
AcDbPoint
 10
43140.2205326754
 20
3827.131649778083
 30
0.0
  0
POINT
  5
6778
330
675B
100
AcDbEntity
  8
Defpoints
 62
     0
440
 16777216
100
AcDbPoint
 10
43140.2205326754
 20
3806.016638718029
 30
0.0
  0
POINT
  5
6779
330
675B
100
AcDbEntity
  8
Defpoints
 62
     0
440
 16777216
100
AcDbPoint
 10
43132.86338933997
 20
3655.712196955999
 30
0.0
  0
ENDBLK
  5
676B
330
675B
100
AcDbEntity
  8
0
100
AcDbBlockEnd
  0
BLOCK
  5
67F0
330
67EA
100
AcDbEntity
  8
0
100
AcDbBlockBegin
  2
*D27
 70
     1
 10
0.0
 20
0.0
 30
0.0
  3
*D27
  1

  0
LINE
  5
6C01
330
67EA
100
AcDbEntity
  8
0
 62
     0
440
 16777216
370
    -2
100
AcDbLine
 10
42915.26857834731
 20
3781.022232228887
 30
0.0
 11
42823.8500589549
 21
3673.018045679932
 31
0.0
  0
MTEXT
  5
6C02
330
67EA
100
AcDbEntity
  8
0
 62
     0
440
 16777216
100
AcDbMText
 10
42864.12914281227
 20
3736.856967221662
 30
0.0
 40
15.0
 41
0.0
 46
0.0
 71
     5
 72
     1
  1
R50{\Ftxt|c134; [1.97"]}
 11
0.6460672748579911
 21
0.7632804703105989
 31
0.0
 73
     1
 44
1.0
  0
SOLID
  5
6C03
330
67EA
100
AcDbEntity
  8
0
 62
     0
440
 16777216
100
AcDbTrace
 10
42822.83235166115
 20
3673.879468713076
 30
0.0
 11
42824.86776624866
 21
3672.156622646792
 31
0.0
 12
42818.68152075604
 22
3666.91180191745
 32
0.0
 13
42818.68152075604
 23
3666.91180191745
 33
0.0
  0
POINT
  5
6C04
330
67EA
100
AcDbEntity
  8
Defpoints
 62
     0
440
 16777216
100
AcDbPoint
 10
42818.68152075604
 20
3666.91180191745
 30
0.0
  0
POINT
  5
6C05
330
67EA
100
AcDbEntity
  8
Defpoints
 62
     0
440
 16777216
100
AcDbPoint
 10
42850.98488449893
 20
3705.075825432967
 30
0.0
  0
ENDBLK
  5
67F1
330
67EA
100
AcDbEntity
  8
0
100
AcDbBlockEnd
  0
BLOCK
  5
680A
330
67FA
100
AcDbEntity
  8
0
100
AcDbBlockBegin
  2
*D28
 70
     1
 10
0.0
 20
0.0
 30
0.0
  3
*D28
  1

  0
LINE
  5
681D
330
67FA
100
AcDbEntity
  8
0
 62
     0
440
 16777216
370
    -2
100
AcDbLine
 10
43025.36171042849
 20
3650.052623883102
 30
0.0
 11
43154.36597765388
 21
3650.052623883102
 31
0.0
  0
LINE
  5
681E
330
67FA
100
AcDbEntity
  8
0
 62
     0
440
 16777216
370
    -2
100
AcDbLine
 10
43087.35396370495
 20
3655.196684651508
 30
0.0
 11
43154.13962265028
 21
3658.696772724788
 31
0.0
  0
ARC
  5
681F
330
67FA
100
AcDbEntity
  8
0
 62
     0
440
 16777216
370
    -2
100
AcDbCircle
 10
42989.19943705306
 20
3650.052623883102
 30
0.0
 40
163.9165406008285
100
AcDbArc
 50
354.4050991063078
 51
0.0000000000000382
  0
LINE
  5
6820
330
67FA
100
AcDbEntity
  8
0
 62
     0
440
 16777216
370
    -2
100
AcDbLine
 10
43152.33509245748
 20
3634.071690921912
 30
0.0
 11
43147.85035337306
 21
3588.290831216739
 31
0.0
  0
ARC
  5
6821
330
67FA
100
AcDbEntity
  8
0
 62
     0
440
 16777216
370
    -2
100
AcDbCircle
 10
42989.19943705306
 20
3650.052623883102
 30
0.0
 40
163.9165406008285
100
AcDbArc
 50
354.4067665325416
 51
357.2033832662709
  0
ARC
  5
6822
330
67FA
100
AcDbEntity
  8
0
 62
     0
440
 16777216
370
    -2
100
AcDbCircle
 10
42989.19943705306
 20
3650.052623883102
 30
0.0
 40
163.9165406008285
100
AcDbArc
 50
5.796616733729907
 51
8.593233467459107
  0
ARC
  5
6823
330
67FA
100
AcDbEntity
  8
0
 62
     0
440
 16777216
370
    -2
100
AcDbCircle
 10
42989.19943705306
 20
3650.052623883102
 30
0.0
 40
163.9165406008285
100
AcDbArc
 50
0.0000000000000382
 51
3.000000000000703
  0
SOLID
  5
6824
330
67FA
100
AcDbEntity
  8
0
 62
     0
440
 16777216
100
AcDbTrace
 10
43151.58782007385
 20
3642.087543080726
 30
0.0
 11
43154.25369263571
 21
3642.02246931436
 31
0.0
 12
43153.11597765387
 22
3650.052623883102
 32
0.0
 13
43153.11597765387
 23
3650.052623883102
 33
0.0
  0
SOLID
  5
6825
330
67FA
100
AcDbEntity
  8
0
 62
     0
440
 16777216
100
AcDbTrace
 10
43153.60722569669
 20
3666.710045701981
 30
0.0
 11
43150.94841231831
 21
3666.505540127203
 31
0.0
 12
43152.89133573183
 22
3658.631352779484
 32
0.0
 13
43152.89133573183
 23
3658.631352779484
 33
0.0
  0
MTEXT
  5
6826
330
67FA
100
AcDbEntity
  8
0
 62
     0
440
 16777216
100
AcDbMText
 10
43160.54270176102
 20
3610.15757062615
 30
0.0
 40
15.0
 41
0.0
 46
0.0
 71
     5
 72
     1
  1
2.5%%D
 11
-0.0974943279220792
 21
-0.9952360805472347
 31
0.0
 73
     1
 44
1.0
  0
POINT
  5
6827
330
67FA
100
AcDbEntity
  8
Defpoints
 62
     0
440
 16777216
100
AcDbPoint
 10
43153.01612412622
 20
3655.773228651287
 30
0.0
  0
POINT
  5
6828
330
67FA
100
AcDbEntity
  8
Defpoints
 62
     0
440
 16777216
100
AcDbPoint
 10
43086.35533417021
 20
3655.144348695265
 30
0.0
  0
POINT
  5
6829
330
67FA
100
AcDbEntity
  8
Defpoints
 62
     0
440
 16777216
100
AcDbPoint
 10
42910.36171042849
 20
3650.052623883102
 30
0.0
  0
POINT
  5
682A
330
67FA
100
AcDbEntity
  8
Defpoints
 62
     0
440
 16777216
100
AcDbPoint
 10
43024.3617104285
 20
3650.052623883102
 30
0.0
  0
POINT
  5
682B
330
67FA
100
AcDbEntity
  8
Defpoints
 62
     0
440
 16777216
100
AcDbPoint
 10
43027.36171042848
 20
3652.052623883101
 30
0.0
  0
ENDBLK
  5
680B
330
67FA
100
AcDbEntity
  8
0
100
AcDbBlockEnd
  0
BLOCK
  5
68C0
330
68B6
100
AcDbEntity
  8
0
100
AcDbBlockBegin
  2
*D29
 70
     1
 10
0.0
 20
0.0
 30
0.0
  3
*D29
  1

  0
LINE
  5
6A40
330
68B6
100
AcDbEntity
  8
0
 62
     0
440
 16777216
370
    -2
100
AcDbLine
 10
42874.46412022235
 20
2624.535913165095
 30
0.0
 11
42874.46412022235
 21
2653.171444714111
 31
0.0
  0
LINE
  5
6A41
330
68B6
100
AcDbEntity
  8
0
 62
     0
440
 16777216
370
    -2
100
AcDbLine
 10
43062.46412022234
 20
2624.535913165095
 30
0.0
 11
43062.46412022234
 21
2653.171444714111
 31
0.0
  0
LINE
  5
6A42
330
68B6
100
AcDbEntity
  8
0
 62
     0
440
 16777216
370
    -2
100
AcDbLine
 10
42882.46412022235
 20
2651.921444714111
 30
0.0
 11
43054.46412022234
 21
2651.921444714111
 31
0.0
  0
SOLID
  5
6A43
330
68B6
100
AcDbEntity
  8
0
 62
     0
440
 16777216
100
AcDbTrace
 10
42882.46412022235
 20
2653.254778047445
 30
0.0
 11
42882.46412022235
 21
2650.588111380778
 31
0.0
 12
42874.46412022235
 22
2651.921444714111
 32
0.0
 13
42874.46412022235
 23
2651.921444714111
 33
0.0
  0
SOLID
  5
6A44
330
68B6
100
AcDbEntity
  8
0
 62
     0
440
 16777216
100
AcDbTrace
 10
43054.46412022234
 20
2653.254778047445
 30
0.0
 11
43054.46412022234
 21
2650.588111380778
 31
0.0
 12
43062.46412022234
 22
2651.921444714111
 32
0.0
 13
43062.46412022234
 23
2651.921444714111
 33
0.0
  0
MTEXT
  5
6A45
330
68B6
100
AcDbEntity
  8
0
 62
     0
440
 16777216
100
AcDbMText
 10
42968.46412022235
 20
2662.421444714111
 30
0.0
 40
15.0
 41
0.0
 46
0.0
 71
     5
 72
     1
  1
{\Ftxt.shx|c1;%%C}94
 73
     1
 44
1.0
  0
POINT
  5
6A46
330
68B6
100
AcDbEntity
  8
Defpoints
 62
     0
440
 16777216
100
AcDbPoint
 10
42874.46412022235
 20
2623.535913165095
 30
0.0
  0
POINT
  5
6A47
330
68B6
100
AcDbEntity
  8
Defpoints
 62
     0
440
 16777216
100
AcDbPoint
 10
43062.46412022234
 20
2623.535913165095
 30
0.0
  0
POINT
  5
6A48
330
68B6
100
AcDbEntity
  8
Defpoints
 62
     0
440
 16777216
100
AcDbPoint
 10
43062.46412022234
 20
2651.921444714111
 30
0.0
  0
ENDBLK
  5
68C1
330
68B6
100
AcDbEntity
  8
0
100
AcDbBlockEnd
  0
BLOCK
  5
68CC
330
68C2
100
AcDbEntity
  8
0
100
AcDbBlockBegin
  2
*D30
 70
     1
 10
0.0
 20
0.0
 30
0.0
  3
*D30
  1

  0
LINE
  5
6A49
330
68C2
100
AcDbEntity
  8
0
 62
     0
440
 16777216
370
    -2
100
AcDbLine
 10
42854.46412022234
 20
2630.535913165095
 30
0.0
 11
42854.46412022234
 21
2694.192702649154
 31
0.0
  0
LINE
  5
6A4A
330
68C2
100
AcDbEntity
  8
0
 62
     0
440
 16777216
370
    -2
100
AcDbLine
 10
43082.46412022234
 20
2630.535913165095
 30
0.0
 11
43082.46412022234
 21
2694.192702649154
 31
0.0
  0
LINE
  5
6A4B
330
68C2
100
AcDbEntity
  8
0
 62
     0
440
 16777216
370
    -2
100
AcDbLine
 10
42862.46412022234
 20
2692.942702649154
 30
0.0
 11
43074.46412022234
 21
2692.942702649154
 31
0.0
  0
SOLID
  5
6A4C
330
68C2
100
AcDbEntity
  8
0
 62
     0
440
 16777216
100
AcDbTrace
 10
42862.46412022234
 20
2694.276035982487
 30
0.0
 11
42862.46412022234
 21
2691.609369315821
 31
0.0
 12
42854.46412022234
 22
2692.942702649154
 32
0.0
 13
42854.46412022234
 23
2692.942702649154
 33
0.0
  0
SOLID
  5
6A4D
330
68C2
100
AcDbEntity
  8
0
 62
     0
440
 16777216
100
AcDbTrace
 10
43074.46412022234
 20
2694.276035982487
 30
0.0
 11
43074.46412022234
 21
2691.609369315821
 31
0.0
 12
43082.46412022234
 22
2692.942702649154
 32
0.0
 13
43082.46412022234
 23
2692.942702649154
 33
0.0
  0
MTEXT
  5
6A4E
330
68C2
100
AcDbEntity
  8
0
 62
     0
440
 16777216
100
AcDbMText
 10
42968.46412022234
 20
2703.442702649154
 30
0.0
 40
15.0
 41
0.0
 46
0.0
 71
     5
 72
     1
  1
{\Ftxt.shx|c1;%%C}114
 73
     1
 44
1.0
  0
POINT
  5
6A4F
330
68C2
100
AcDbEntity
  8
Defpoints
 62
     0
440
 16777216
100
AcDbPoint
 10
42854.46412022234
 20
2629.535913165095
 30
0.0
  0
POINT
  5
6A50
330
68C2
100
AcDbEntity
  8
Defpoints
 62
     0
440
 16777216
100
AcDbPoint
 10
43082.46412022234
 20
2629.535913165095
 30
0.0
  0
POINT
  5
6A51
330
68C2
100
AcDbEntity
  8
Defpoints
 62
     0
440
 16777216
100
AcDbPoint
 10
43082.46412022234
 20
2692.942702649154
 30
0.0
  0
ENDBLK
  5
68CD
330
68C2
100
AcDbEntity
  8
0
100
AcDbBlockEnd
  0
BLOCK
  5
68D8
330
68CE
100
AcDbEntity
  8
0
100
AcDbBlockBegin
  2
*D31
 70
     1
 10
0.0
 20
0.0
 30
0.0
  3
*D31
  1

  0
LINE
  5
6A52
330
68CE
100
AcDbEntity
  8
0
 62
     0
440
 16777216
370
    -2
100
AcDbLine
 10
42848.46412022235
 20
2634.535913165095
 30
0.0
 11
42848.46412022235
 21
2577.304669961901
 31
0.0
  0
LINE
  5
6A53
330
68CE
100
AcDbEntity
  8
0
 62
     0
440
 16777216
370
    -2
100
AcDbLine
 10
43088.46412022233
 20
2634.535913165095
 30
0.0
 11
43088.46412022233
 21
2577.304669961901
 31
0.0
  0
LINE
  5
6A54
330
68CE
100
AcDbEntity
  8
0
 62
     0
440
 16777216
370
    -2
100
AcDbLine
 10
42856.46412022235
 20
2578.554669961901
 30
0.0
 11
43080.46412022233
 21
2578.554669961901
 31
0.0
  0
SOLID
  5
6A55
330
68CE
100
AcDbEntity
  8
0
 62
     0
440
 16777216
100
AcDbTrace
 10
42856.46412022235
 20
2579.888003295235
 30
0.0
 11
42856.46412022235
 21
2577.221336628567
 31
0.0
 12
42848.46412022235
 22
2578.554669961901
 32
0.0
 13
42848.46412022235
 23
2578.554669961901
 33
0.0
  0
SOLID
  5
6A56
330
68CE
100
AcDbEntity
  8
0
 62
     0
440
 16777216
100
AcDbTrace
 10
43080.46412022233
 20
2579.888003295235
 30
0.0
 11
43080.46412022233
 21
2577.221336628567
 31
0.0
 12
43088.46412022233
 22
2578.554669961901
 32
0.0
 13
43088.46412022233
 23
2578.554669961901
 33
0.0
  0
MTEXT
  5
6A57
330
68CE
100
AcDbEntity
  8
0
 62
     0
440
 16777216
100
AcDbMText
 10
42968.46412022234
 20
2589.054669961901
 30
0.0
 40
15.0
 41
0.0
 46
0.0
 71
     5
 72
     1
  1
%%C120
 73
     1
 44
1.0
  0
POINT
  5
6A58
330
68CE
100
AcDbEntity
  8
Defpoints
 62
     0
440
 16777216
100
AcDbPoint
 10
42848.46412022235
 20
2635.535913165095
 30
0.0
  0
POINT
  5
6A59
330
68CE
100
AcDbEntity
  8
Defpoints
 62
     0
440
 16777216
100
AcDbPoint
 10
43088.46412022233
 20
2635.535913165095
 30
0.0
  0
POINT
  5
6A5A
330
68CE
100
AcDbEntity
  8
Defpoints
 62
     0
440
 16777216
100
AcDbPoint
 10
43088.46412022233
 20
2578.554669961901
 30
0.0
  0
ENDBLK
  5
68D9
330
68CE
100
AcDbEntity
  8
0
100
AcDbBlockEnd
  0
BLOCK
  5
68E6
330
68DA
100
AcDbEntity
  8
0
100
AcDbBlockBegin
  2
*D32
 70
     1
 10
0.0
 20
0.0
 30
0.0
  3
*D32
  1

  0
LINE
  5
6A2A
330
68DA
100
AcDbEntity
  8
0
 62
     0
440
 16777216
370
    -2
100
AcDbLine
 10
42847.46412022236
 20
2635.535913165095
 30
0.0
 11
42777.72134273285
 21
2635.535913165095
 31
0.0
  0
LINE
  5
6A2B
330
68DA
100
AcDbEntity
  8
0
 62
     0
440
 16777216
370
    -2
100
AcDbLine
 10
42853.46412022234
 20
2629.535913165095
 30
0.0
 11
42777.72134273285
 21
2629.535913165095
 31
0.0
  0
LINE
  5
6A2C
330
68DA
100
AcDbEntity
  8
0
 62
     0
440
 16777216
370
    -2
100
AcDbLine
 10
42778.97134273285
 20
2621.535913165095
 30
0.0
 11
42778.97134273285
 21
2613.535913165095
 31
0.0
  0
LINE
  5
6A2D
330
68DA
100
AcDbEntity
  8
0
 62
     0
440
 16777216
370
    -2
100
AcDbLine
 10
42778.97134273285
 20
2643.535913165095
 30
0.0
 11
42778.97134273285
 21
2695.849305407552
 31
0.0
  0
LINE
  5
6A2E
330
68DA
100
AcDbEntity
  8
0
 62
     0
440
 16777216
370
    -2
100
AcDbLine
 10
42778.97134273285
 20
2629.535913165095
 30
0.0
 11
42778.97134273285
 21
2635.535913165095
 31
0.0
  0
SOLID
  5
6A2F
330
68DA
100
AcDbEntity
  8
0
 62
     0
440
 16777216
100
AcDbTrace
 10
42777.63800939951
 20
2621.535913165095
 30
0.0
 11
42780.30467606619
 21
2621.535913165095
 31
0.0
 12
42778.97134273285
 22
2629.535913165095
 32
0.0
 13
42778.97134273285
 23
2629.535913165095
 33
0.0
  0
SOLID
  5
6A30
330
68DA
100
AcDbEntity
  8
0
 62
     0
440
 16777216
100
AcDbTrace
 10
42777.63800939951
 20
2643.535913165095
 30
0.0
 11
42780.30467606619
 21
2643.535913165095
 31
0.0
 12
42778.97134273285
 22
2635.535913165095
 32
0.0
 13
42778.97134273285
 23
2635.535913165095
 33
0.0
  0
MTEXT
  5
6A31
330
68DA
100
AcDbEntity
  8
0
 62
     0
440
 16777216
100
AcDbMText
 10
42768.47134273285
 20
2687.849305407559
 30
0.0
 40
15.0
 41
0.0
 46
0.0
 71
     5
 72
     1
  1
3
 11
0.0000000000000001
 21
1.0
 31
0.0
 73
     1
 44
1.0
  0
POINT
  5
6A32
330
68DA
100
AcDbEntity
  8
Defpoints
 62
     0
440
 16777216
100
AcDbPoint
 10
42848.46412022235
 20
2635.535913165095
 30
0.0
  0
POINT
  5
6A33
330
68DA
100
AcDbEntity
  8
Defpoints
 62
     0
440
 16777216
100
AcDbPoint
 10
42854.46412022234
 20
2629.535913165095
 30
0.0
  0
POINT
  5
6A34
330
68DA
100
AcDbEntity
  8
Defpoints
 62
     0
440
 16777216
100
AcDbPoint
 10
42778.97134273285
 20
2629.535913165095
 30
0.0
  0
ENDBLK
  5
68E7
330
68DA
100
AcDbEntity
  8
0
100
AcDbBlockEnd
  0
BLOCK
  5
68F4
330
68E8
100
AcDbEntity
  8
0
100
AcDbBlockBegin
  2
*D33
 70
     1
 10
0.0
 20
0.0
 30
0.0
  3
*D33
  1

  0
LINE
  5
6A35
330
68E8
100
AcDbEntity
  8
0
 62
     0
440
 16777216
370
    -2
100
AcDbLine
 10
42873.46412022236
 20
2623.535913165095
 30
0.0
 11
42722.55080394065
 21
2623.535913165095
 31
0.0
  0
LINE
  5
6A36
330
68E8
100
AcDbEntity
  8
0
 62
     0
440
 16777216
370
    -2
100
AcDbLine
 10
42847.46412022236
 20
2635.535913165095
 30
0.0
 11
42722.55080394065
 21
2635.535913165095
 31
0.0
  0
LINE
  5
6A37
330
68E8
100
AcDbEntity
  8
0
 62
     0
440
 16777216
370
    -2
100
AcDbLine
 10
42723.80080394065
 20
2615.535913165095
 30
0.0
 11
42723.80080394065
 21
2607.535913165095
 31
0.0
  0
LINE
  5
6A38
330
68E8
100
AcDbEntity
  8
0
 62
     0
440
 16777216
370
    -2
100
AcDbLine
 10
42723.80080394065
 20
2643.535913165095
 30
0.0
 11
42723.80080394065
 21
2667.535913165095
 31
0.0
  0
LINE
  5
6A39
330
68E8
100
AcDbEntity
  8
0
 62
     0
440
 16777216
370
    -2
100
AcDbLine
 10
42723.80080394065
 20
2623.535913165095
 30
0.0
 11
42723.80080394065
 21
2635.535913165095
 31
0.0
  0
SOLID
  5
6A3A
330
68E8
100
AcDbEntity
  8
0
 62
     0
440
 16777216
100
AcDbTrace
 10
42722.46747060732
 20
2615.535913165095
 30
0.0
 11
42725.13413727399
 21
2615.535913165095
 31
0.0
 12
42723.80080394065
 22
2623.535913165095
 32
0.0
 13
42723.80080394065
 23
2623.535913165095
 33
0.0
  0
SOLID
  5
6A3B
330
68E8
100
AcDbEntity
  8
0
 62
     0
440
 16777216
100
AcDbTrace
 10
42722.46747060732
 20
2643.535913165095
 30
0.0
 11
42725.13413727399
 21
2643.535913165095
 31
0.0
 12
42723.80080394065
 22
2635.535913165095
 32
0.0
 13
42723.80080394065
 23
2635.535913165095
 33
0.0
  0
MTEXT
  5
6A3C
330
68E8
100
AcDbEntity
  8
0
 62
     0
440
 16777216
100
AcDbMText
 10
42713.30080394065
 20
2659.535913165102
 30
0.0
 40
15.0
 41
0.0
 46
0.0
 71
     5
 72
     1
  1
6
 11
0.0000000000000001
 21
1.0
 31
0.0
 73
     1
 44
1.0
  0
POINT
  5
6A3D
330
68E8
100
AcDbEntity
  8
Defpoints
 62
     0
440
 16777216
100
AcDbPoint
 10
42874.46412022235
 20
2623.535913165095
 30
0.0
  0
POINT
  5
6A3E
330
68E8
100
AcDbEntity
  8
Defpoints
 62
     0
440
 16777216
100
AcDbPoint
 10
42848.46412022235
 20
2635.535913165095
 30
0.0
  0
POINT
  5
6A3F
330
68E8
100
AcDbEntity
  8
Defpoints
 62
     0
440
 16777216
100
AcDbPoint
 10
42723.80080394065
 20
2635.535913165095
 30
0.0
  0
ENDBLK
  5
68F5
330
68E8
100
AcDbEntity
  8
0
100
AcDbBlockEnd
  0
ENDSEC
  0
SECTION
  2
ENTITIES
  0
LINE
  5
4772
102
{ACAD_REACTORS
330
6757
102
}
330
1F
100
AcDbEntity
  8
base
100
AcDbLine
 10
42290.36171042849
 20
3832.052623883101
 30
0.0
 11
43164.36171042851
 21
3832.052623883102
 31
0.0
  0
LINE
  5
4774
102
{ACAD_REACTORS
330
4A33
102
}
330
1F
100
AcDbEntity
  8
base
100
AcDbLine
 10
42290.36171042849
 20
3832.052623883105
 30
0.0
 11
42290.36171042849
 21
3830.852623883105
 31
0.0
  0
LINE
  5
4777
330
1F
100
AcDbEntity
  8
base
100
AcDbLine
 10
42290.36171042849
 20
3830.852623883105
 30
0.0
 11
42310.38406836697
 21
3830.852623883105
 31
0.0
  0
LINE
  5
4778
330
1F
100
AcDbEntity
  8
base
100
AcDbLine
 10
42315.36177386141
 20
3832.057469524836
 30
0.0
 11
42322.98004381921
 21
3657.570400527097
 31
0.0
  0
LINE
  5
477C
330
1F
100
AcDbEntity
  8
base
100
AcDbLine
 10
42770.16854098514
 20
3830.852623883101
 30
0.0
 11
42790.38379336881
 21
3830.852623883101
 31
0.0
  0
LINE
  5
477D
102
{ACAD_REACTORS
330
4A83
102
}
330
1F
100
AcDbEntity
  8
base
100
AcDbLine
 10
42370.31565708615
 20
3609.819893157638
 30
0.0
 11
42480.3617104285
 21
3604.052623883101
 31
0.0
  0
LINE
  5
477E
330
1F
100
AcDbEntity
  8
base
100
AcDbLine
 10
42370.25285393866
 20
3608.621537715932
 30
0.0
 11
42479.97006172805
 21
3602.871502506553
 31
0.0
  0
LINE
  5
477F
330
1F
100
AcDbEntity
  8
base
100
AcDbLine
 10
42585.36171042851
 20
3599.052623883102
 30
0.0
 11
42585.36171042851
 21
3597.8526238831
 31
0.0
  0
LINE
  5
4780
330
1F
100
AcDbEntity
  8
base
100
AcDbLine
 10
42600.36171042851
 20
3604.052623883101
 30
0.0
 11
42597.36171042851
 21
3602.052623883101
 31
0.0
  0
LINE
  5
4781
330
1F
100
AcDbEntity
  8
base
100
AcDbLine
 10
42597.36171042851
 20
3602.052623883101
 30
0.0
 11
42585.36171042851
 21
3599.052623883101
 31
0.0
  0
LINE
  5
4782
330
1F
100
AcDbEntity
  8
base
100
AcDbLine
 10
42600.75335912897
 20
3602.871502506553
 30
0.0
 11
42597.85440360251
 21
3600.938865488916
 31
0.0
  0
LINE
  5
4783
330
1F
100
AcDbEntity
  8
base
100
AcDbLine
 10
42597.85440360251
 20
3600.938865488916
 30
0.0
 11
42585.50943717925
 21
3597.8526238831
 31
0.0
  0
LINE
  5
4784
330
1F
100
AcDbEntity
  8
base
100
AcDbLine
 10
42482.8690172545
 20
3600.938865488916
 30
0.0
 11
42495.21398367775
 21
3597.8526238831
 31
0.0
  0
LINE
  5
4785
330
1F
100
AcDbEntity
  8
base
100
AcDbLine
 10
42479.97006172805
 20
3602.871502506553
 30
0.0
 11
42482.8690172545
 21
3600.938865488916
 31
0.0
  0
LINE
  5
4786
330
1F
100
AcDbEntity
  8
base
100
AcDbLine
 10
42483.36171042851
 20
3602.052623883101
 30
0.0
 11
42495.3617104285
 21
3599.052623883101
 31
0.0
  0
LINE
  5
4787
330
1F
100
AcDbEntity
  8
base
100
AcDbLine
 10
42480.3617104285
 20
3604.052623883101
 30
0.0
 11
42483.36171042851
 21
3602.052623883101
 31
0.0
  0
LINE
  5
4788
330
1F
100
AcDbEntity
  8
base
100
AcDbLine
 10
42483.36171042851
 20
3602.052623883101
 30
0.0
 11
42597.36171042851
 21
3602.052623883101
 31
0.0
  0
LINE
  5
4789
330
1F
100
AcDbEntity
  8
base
100
AcDbLine
 10
42495.3617104285
 20
3599.052623883102
 30
0.0
 11
42495.3617104285
 21
3597.8526238831
 31
0.0
  0
LINE
  5
478A
330
1F
100
AcDbEntity
  8
base
100
AcDbLine
 10
42495.3617104285
 20
3599.052623883102
 30
0.0
 11
42585.36171042851
 21
3599.0526238831
 31
0.0
  0
LINE
  5
478B
330
1F
100
AcDbEntity
  8
base
100
AcDbLine
 10
42495.21398367775
 20
3597.8526238831
 30
0.0
 11
42585.50943717926
 21
3597.852623883102
 31
0.0
  0
LINE
  5
478C
102
{ACAD_REACTORS
330
4A33
330
4A83
102
}
330
1F
100
AcDbEntity
  8
base
100
AcDbLine
 10
42480.3617104285
 20
3604.052623883101
 30
0.0
 11
42600.36171042851
 21
3604.052623883101
 31
0.0
  0
LINE
  5
478D
330
1F
100
AcDbEntity
  8
base
100
AcDbLine
 10
42705.85382006547
 20
3608.379584265862
 30
0.0
 11
42600.75335912897
 21
3602.871502506553
 31
0.0
  0
LINE
  5
478E
330
1F
100
AcDbEntity
  8
base
100
AcDbLine
 10
42705.79101691798
 20
3609.577939707566
 30
0.0
 11
42600.36171042851
 21
3604.052623883101
 31
0.0
  0
LINE
  5
480D
330
1F
100
AcDbEntity
  8
DIM
  6
CENTER
100
AcDbLine
 10
42540.36171042851
 20
3639.350450224989
 30
0.0
 11
42540.36171042851
 21
3560.685423155567
 31
0.0
  0
LINE
  5
480E
330
1F
100
AcDbEntity
  8
DIM
  6
CENTER
100
AcDbLine
 10
42780.27616717698
 20
3866.150450224989
 30
0.0
 11
42780.27616717698
 21
3787.485423155567
 31
0.0
  0
LINE
  5
49AD
102
{ACAD_REACTORS
330
5746
330
6572
102
}
330
1F
100
AcDbEntity
  8
base
100
AcDbLine
 10
42405.3617104285
 20
2954.895187730794
 30
0.0
 11
43059.3617104285
 21
2954.895187730794
 31
0.0
  0
LINE
  5
49CF
102
{ACAD_REACTORS
330
595B
330
5973
102
}
330
1F
100
AcDbEntity
  8
DIM
  6
CENTER
100
AcDbLine
 10
42315.3617104285
 20
3169.895187730795
 30
0.0
 11
42765.3617104285
 21
3169.895187730795
 31
0.0
  0
LINE
  5
49D0
102
{ACAD_REACTORS
330
572E
102
}
330
1F
100
AcDbEntity
  8
DIM
  6
CENTER
100
AcDbLine
 10
42540.3617104285
 20
3449.895187730795
 30
0.0
 11
42540.3617104285
 21
2979.895187730795
 31
0.0
  0
LWPOLYLINE
  5
49DC
102
{ACAD_REACTORS
330
4B2E
330
4BB0
330
4B62
330
572E
330
595B
102
}
330
1F
100
AcDbEntity
  8
base
100
AcDbPolyline
 90
        8
 70
     1
 43
0.0
 10
42436.97765469221
 20
3439.090176482231
 42
0.3423998441630685
 10
42318.13135357019
 20
3298.775705758168
 42
0.0191548602831943
 10
42317.0586892133
 20
3069.00419223672
 42
0.3910272455906019
 10
42401.90066791478
 20
2983.092134524593
 42
0.0230891428791713
 10
42678.82275294224
 20
2983.092134524593
 42
0.3910272455905975
 10
42763.66473164371
 20
3069.004192236719
 42
0.019154860283194
 10
42762.59206728681
 20
3298.775705758167
 42
0.3423998441630674
 10
42643.74576616479
 20
3439.090176482229
 42
0.1045133233709371
  0
CIRCLE
  5
49DF
330
1F
100
AcDbEntity
  8
base
100
AcDbCircle
 10
42540.36171042851
 20
3309.895187730795
 30
0.0
 40
60.0
  0
CIRCLE
  5
49E0
330
1F
100
AcDbEntity
  8
base
100
AcDbCircle
 10
42540.36171042851
 20
3309.895187730795
 30
0.0
 40
45.0
  0
CIRCLE
  5
49E1
330
1F
100
AcDbEntity
  8
base
100
AcDbCircle
 10
42540.36171042851
 20
3309.895187730795
 30
0.0
 40
57.0
  0
LINE
  5
49E2
102
{ACAD_REACTORS
330
4BB0
102
}
330
1F
100
AcDbEntity
  8
DIM
  6
CENTER
100
AcDbLine
 10
42600.36171042851
 20
3309.895187730795
 30
0.0
 11
42480.3617104285
 21
3309.895187730795
 31
0.0
  0
LINE
  5
49E5
102
{ACAD_REACTORS
330
658A
102
}
330
1F
100
AcDbEntity
  8
base
100
AcDbLine
 10
42290.36171042849
 20
3069.895187730794
 30
0.0
 11
42290.36171042849
 21
3291.765046010227
 31
0.0
  0
ARC
  5
49EA
330
1F
100
AcDbEntity
  8
base
100
AcDbCircle
 10
42405.3617104285
 20
3069.895187730795
 30
0.0
 40
115.0
100
AcDbArc
 50
180.0
 51
270.0
  0
ARC
  5
49EE
102
{ACAD_REACTORS
330
5746
102
}
330
1F
100
AcDbEntity
  8
base
100
AcDbCircle
 10
42540.36171042851
 20
2949.895187730795
 30
0.0
 40
525.0
100
AcDbArc
 50
77.62637488380987
 51
102.3736251161901
  0
ARC
  5
49EF
330
1F
100
AcDbEntity
  8
base
100
AcDbCircle
 10
42465.36171042849
 20
3291.76504601022
 30
0.0
 40
175.0
100
AcDbArc
 50
102.3736251161882
 51
179.9999999999984
  0
ARC
  5
49F0
330
1F
100
AcDbEntity
  8
base
100
AcDbCircle
 10
42615.36171042851
 20
3291.76504601022
 30
0.0
 40
175.0
100
AcDbArc
 50
48.63585511921311
 51
77.62637488381177
  0
LINE
  5
4A01
330
1F
100
AcDbEntity
  8
base
100
AcDbLine
 10
42765.36171042851
 20
3832.430270702822
 30
0.0
 11
42765.36171042851
 21
3832.052623883105
 31
0.0
  0
DIMENSION
  5
4A07
330
1F
100
AcDbEntity
  8
DIM
100
AcDbDimension
280
     0
  2
*D1
 10
42377.54920175119
 20
3659.509416445297
 30
0.0
 11
42396.96997806172
 21
3685.879777601258
 31
0.0
 70
   164
  1
<>{\Ftxt|c134; [1.97"]}
 71
     5
 42
50.00000000000728
 73
     0
 74
     0
 75
     0
  3
ISO-25
100
AcDbRadialDimension
 15
42347.89916158245
 25
3619.249323077398
 35
0.0
 40
0.0
1001
ACAD
1000
DSTYLE
1002
{
1070
    41
1040
8.0
1070
   140
1040
15.0
1070
   141
1040
0.5
1070
   143
1040
0.03937007874
1070
   147
1040
3.0
1070
   171
1070
     2
1070
   179
1070
     2
1070
   274
1070
     2
1070
   279
1070
     1
1070
   288
1070
     1
1002
}
  0
DIMENSION
  5
4A1C
102
{ACAD_XDICTIONARY
360
4A29
102
}
102
{ACAD_REACTORS
330
4A33
102
}
330
1F
100
AcDbEntity
  8
DIM
100
AcDbDimension
280
     0
  2
*D2
 10
42224.54184386639
 20
3604.052623883103
 30
0.0
 11
42214.04184386639
 21
3718.052623883091
 31
0.0
 70
    32
  1
<>{\Ftxt|c134; [9"]}
 71
     5
 42
228.0000000000041
 73
     0
 74
     0
 75
     0
  3
ISO-25
100
AcDbAlignedDimension
 13
42290.36171042849
 23
3832.052623883105
 33
0.0
 14
42480.3617104285
 24
3604.052623883101
 34
0.0
 50
90.0
100
AcDbRotatedDimension
1001
ACAD
1000
DSTYLE
1002
{
1070
    41
1040
8.0
1070
   140
1040
15.0
1070
   141
1040
0.5
1070
   143
1040
0.03937007874
1070
   147
1040
3.0
1070
   171
1070
     2
1070
   179
1070
     2
1070
   274
1070
     2
1002
}
  0
LINE
  5
4A34
102
{ACAD_REACTORS
330
664A
102
}
330
1F
100
AcDbEntity
  8
DIM
100
AcDbLine
 10
42314.50288818161
 20
3827.131649778081
 30
0.0
 11
42314.50288818161
 21
3806.016638718029
 31
0.0
  0
DIMENSION
  5
4A60
102
{ACAD_XDICTIONARY
360
4A73
102
}
102
{ACAD_REACTORS
330
4A83
102
}
330
1F
100
AcDbEntity
  8
DIM
100
AcDbDimension
280
     0
  2
*D3
 10
42600.36171042851
 20
3604.052623883101
 30
0.0
 11
42266.35989939125
 21
3655.048815509423
 31
0.0
 70
    34
  1
2.5%%D
 71
     5
 42
0.0523598775598535
 73
     0
 74
     0
 75
     0
  3
ISO-25
100
AcDb2LineAngularDimension
 13
42370.31565708615
 23
3609.819893157638
 33
0.0
 14
42480.3617104285
 24
3604.052623883101
 34
0.0
 15
42480.3617104285
 25
3604.052623883101
 35
0.0
 16
42272.10498186217
 26
3607.687758601964
 36
0.0
1001
ACAD
1000
DSTYLE
1002
{
1070
    41
1040
8.0
1070
   140
1040
15.0
1070
   141
1040
0.5
1070
   143
1040
0.03937007874
1070
   147
1040
3.0
1070
   171
1070
     2
1070
   179
1070
     2
1070
   274
1070
     2
1002
}
  0
DIMENSION
  5
4AFF
330
1F
100
AcDbEntity
  8
DIM
 62
     0
100
AcDbDimension
280
     0
  2
*D4
 10
45262.049329867
 20
2649.685387881618
 30
0.0
 11
42380.56173230015
 21
3202.037243620988
 31
0.0
 70
   164
  1
2-<>
 71
     5
 42
3000.000000000029
 73
     0
 74
     0
 75
     0
  3
ISO-25
100
AcDbRadialDimension
 15
42315.69290980518
 25
3214.471936907535
 35
0.0
 40
0.0
1001
ACAD
1000
DSTYLE
1002
{
1070
    41
1040
8.0
1070
   140
1040
15.0
1070
   141
1040
0.5
1070
   143
1040
0.03937007874
1070
   147
1040
3.0
1070
   171
1070
     2
1070
   179
1070
     2
1070
   274
1070
     2
1070
   288
1070
     1
1002
}
  0
DIMENSION
  5
4B0F
330
1F
100
AcDbEntity
  8
DIM
 62
     0
100
AcDbDimension
280
     0
  2
*D5
 10
42071.79072704756
 20
5934.606085058194
 30
0.0
 11
42584.61576542
 21
3032.362073834713
 31
0.0
 70
   164
 71
     5
 42
3000.000000000015
 73
     0
 74
     0
 75
     0
  3
ISO-25
100
AcDbRadialDimension
 15
42593.80252417602
 25
2980.371212259688
 35
0.0
 40
0.0
1001
ACAD
1000
DSTYLE
1002
{
1070
    41
1040
8.0
1070
   140
1040
15.0
1070
   141
1040
0.5
1070
   143
1040
0.03937007874
1070
   147
1040
3.0
1070
   171
1070
     2
1070
   179
1070
     2
1070
   274
1070
     2
1070
   288
1070
     1
1002
}
  0
DIMENSION
  5
4B1F
102
{ACAD_XDICTIONARY
360
4B28
102
}
102
{ACAD_REACTORS
330
4B2E
102
}
330
1F
100
AcDbEntity
  8
DIM
100
AcDbDimension
280
     0
  2
*D6
 10
42540.3617104285
 20
2949.895187730796
 30
0.0
 11
42583.12633802804
 21
3403.885481268285
 31
0.0
 70
   164
 71
     5
 42
499.9999999999845
 73
     0
 74
     0
 75
     0
  3
ISO-25
100
AcDbRadialDimension
 15
42587.25274946309
 25
3447.69156222366
 35
0.0
 40
0.0
1001
ACAD
1000
DSTYLE
1002
{
1070
    41
1040
8.0
1070
   140
1040
15.0
1070
   141
1040
0.5
1070
   143
1040
0.03937007874
1070
   147
1040
3.0
1070
   171
1070
     2
1070
   179
1070
     2
1070
   274
1070
     2
1070
   288
1070
     1
1002
}
  0
DIMENSION
  5
4B2F
330
1F
100
AcDbEntity
  8
DIM
100
AcDbDimension
280
     0
  2
*D7
 10
42467.99287141313
 20
3292.331679856805
 30
0.0
 11
42397.97616938762
 21
3352.396011514422
 31
0.0
 70
   164
  1
2-<>{\Ftxt|c134; [5.9"]}
 71
     5
 42
150.0000000000254
 73
     0
 74
     0
 75
     0
  3
ISO-25
100
AcDbRadialDimension
 15
42354.1445754367
 25
3389.997259787873
 35
0.0
 40
0.0
1001
ACAD
1000
DSTYLE
1002
{
1070
    41
1040
8.0
1070
   140
1040
15.0
1070
   141
1040
0.5
1070
   143
1040
0.03937007874
1070
   147
1040
3.0
1070
   171
1070
     2
1070
   179
1070
     2
1070
   274
1070
     2
1070
   288
1070
     1
1002
}
  0
DIMENSION
  5
4B53
102
{ACAD_XDICTIONARY
360
4B5C
102
}
102
{ACAD_REACTORS
330
4B62
102
}
330
1F
100
AcDbEntity
  8
DIM
100
AcDbDimension
280
     0
  2
*D8
 10
42406.00834550934
 20
3071.997291769705
 30
0.0
 11
42409.6746330496
 21
3075.397047006842
 31
0.0
 70
   164
  1
2-<>{\Ftxt|c134; [3.5"]}
 71
     5
 42
88.9999999999709
 73
     0
 74
     0
 75
     0
  3
ISO-25
100
AcDbRadialDimension
 15
42340.74842729306
 25
3011.481648549136
 35
0.0
 40
0.0
1001
ACAD
1000
DSTYLE
1002
{
1070
    41
1040
8.0
1070
   140
1040
15.0
1070
   141
1040
0.5
1070
   143
1040
0.03937007874
1070
   147
1040
3.0
1070
   171
1070
     2
1070
   179
1070
     2
1070
   274
1070
     2
1070
   288
1070
     1
1002
}
  0
LINE
  5
4B81
330
1F
100
AcDbEntity
  8
DIM
100
AcDbLine
 10
42428.9310835295
 20
3192.765331107811
 30
0.0
 11
42410.42771819837
 21
3182.049898960642
 31
0.0
  0
LINE
  5
4B82
330
1F
100
AcDbEntity
  8
DIM
100
AcDbLine
 10
42410.42771819837
 20
3182.049898960642
 30
0.0
 11
42485.97386688993
 21
3169.895187730794
 31
0.0
  0
LINE
  5
4B97
330
1F
100
AcDbEntity
  8
DIM
100
AcDbLine
 10
42578.6561307361
 20
3066.089588632492
 30
0.0
 11
42564.87366361281
 21
3060.389014115208
 31
0.0
  0
LINE
  5
4B98
330
1F
100
AcDbEntity
  8
DIM
100
AcDbLine
 10
42564.87366361281
 20
3060.389014115208
 30
0.0
 11
42540.3617104285
 21
3201.003404432881
 31
0.0
  0
DIMENSION
  5
4B99
102
{ACAD_XDICTIONARY
360
4BA6
102
}
102
{ACAD_REACTORS
330
4BB0
102
}
330
1F
100
AcDbEntity
  8
DIM
100
AcDbDimension
280
     0
  2
*D9
 10
42653.27470186623
 20
3449.895187730797
 30
0.0
 11
42642.77470186622
 21
3379.895187730784
 31
0.0
 70
    32
  1
<>{\Ftxt|c134; [5.5"]}
 71
     5
 42
140.0000000000004
 73
     0
 74
     0
 75
     0
  3
ISO-25
100
AcDbAlignedDimension
 13
42600.36171042851
 23
3309.895187730795
 33
0.0
 14
42540.36171042851
 24
3449.895187730795
 34
0.0
 50
90.0
100
AcDbRotatedDimension
1001
ACAD
1000
DSTYLE
1002
{
1070
    41
1040
8.0
1070
   140
1040
15.0
1070
   141
1040
0.5
1070
   143
1040
0.03937007874
1070
   147
1040
3.0
1070
   171
1070
     2
1070
   179
1070
     2
1070
   274
1070
     2
1002
}
  0
DIMENSION
  5
4BC1
330
1F
100
AcDbEntity
  8
DIM
100
AcDbDimension
280
     0
  2
*D10
 10
42540.36171042849
 20
2949.895187730792
 30
0.0
 11
42478.75936714143
 21
3528.422717049941
 31
0.0
 70
   164
 71
     5
 42
524.9999999999941
 73
     0
 74
     0
 75
     0
  3
ISO-25
100
AcDbRadialDimension
 15
42484.77329588123
 25
3471.943967221861
 35
0.0
 40
0.0
1001
ACAD
1000
DSTYLE
1002
{
1070
    41
1040
8.0
1070
   140
1040
15.0
1070
   141
1040
0.5
1070
   143
1040
0.03937007874
1070
   147
1040
3.0
1070
   171
1070
     2
1070
   179
1070
     2
1070
   274
1070
     2
1070
   288
1070
     1
1002
}
  0
DIMENSION
  5
4BD3
330
1F
100
AcDbEntity
  8
DIM
100
AcDbDimension
280
     0
  2
*D11
 10
42465.36171042856
 20
3291.765046010227
 30
0.0
 11
42391.14644134941
 21
3514.87285366274
 31
0.0
 70
    36
  1
2-<>{\Ftxt|c134; [6.9"]}
 71
     5
 42
175.0
 73
     0
 74
     0
 75
     0
  3
ISO-25
100
AcDbRadialDimension
 15
42394.14665761871
 25
3451.619405516904
 35
0.0
 40
0.0
1001
ACAD
1000
DSTYLE
1002
{
1070
    41
1040
8.0
1070
   140
1040
15.0
1070
   141
1040
0.5
1070
   143
1040
0.03937007874
1070
   147
1040
3.0
1070
   171
1070
     2
1070
   179
1070
     2
1070
   274
1070
     2
1070
   288
1070
     1
1002
}
  0
DIMENSION
  5
5717
102
{ACAD_XDICTIONARY
360
5724
102
}
102
{ACAD_REACTORS
330
572E
102
}
330
1F
100
AcDbEntity
  8
DIM
100
AcDbDimension
280
     0
  2
*D12
 10
42250.32346925221
 20
2979.895187730796
 30
0.0
 11
42239.82346925221
 21
3214.895187730784
 31
0.0
 70
    32
  1
<>{\Ftxt|c134; [18.5"]}
 71
     5
 42
470.0000000000009
 73
     0
 74
     0
 75
     0
  3
ISO-25
100
AcDbAlignedDimension
 13
42540.36171042851
 23
3449.895187730795
 33
0.0
 14
42540.3617104285
 24
2979.895187730795
 34
0.0
 50
90.0
100
AcDbRotatedDimension
1001
ACAD
1000
DSTYLE
1002
{
1070
    41
1040
8.0
1070
   140
1040
15.0
1070
   141
1040
0.5
1070
   143
1040
0.03937007874
1070
   147
1040
3.0
1070
   171
1070
     2
1070
   179
1070
     2
1070
   274
1070
     2
1002
}
  0
DIMENSION
  5
572F
102
{ACAD_XDICTIONARY
360
573C
102
}
102
{ACAD_REACTORS
330
5746
102
}
330
1F
100
AcDbEntity
  8
DIM
100
AcDbDimension
280
     0
  2
*D13
 10
42205.348482575
 20
2954.895187730795
 30
0.0
 11
42194.84848257499
 21
3214.895187730783
 31
0.0
 70
    32
  1
<>{\Ftxt|c134; [20.47"]}
 71
     5
 42
520.0000000000013
 73
     0
 74
     0
 75
     0
  3
ISO-25
100
AcDbAlignedDimension
 13
42540.36171042851
 23
3474.895187730795
 33
0.0
 14
42405.3617104285
 24
2954.895187730794
 34
0.0
 50
90.0
100
AcDbRotatedDimension
1001
ACAD
1000
DSTYLE
1002
{
1070
    41
1040
8.0
1070
   140
1040
15.0
1070
   141
1040
0.5
1070
   143
1040
0.03937007874
1070
   147
1040
3.0
1070
   171
1070
     2
1070
   179
1070
     2
1070
   274
1070
     2
1002
}
  0
DIMENSION
  5
5944
102
{ACAD_XDICTIONARY
360
5951
102
}
102
{ACAD_REACTORS
330
595B
102
}
330
1F
100
AcDbEntity
  8
DIM
100
AcDbDimension
280
     0
  2
*D14
 10
42795.3617104285
 20
2908.3999280114
 30
0.0
 11
42833.8617104285
 21
2931.3999280114
 31
0.0
 70
    32
  1
<>{\Ftxt|c134; [1.2"]}
 71
     5
 42
29.99999999999273
 73
     0
 74
     0
 75
     0
  3
ISO-25
100
AcDbAlignedDimension
 13
42765.36171042851
 23
3169.895187730795
 33
0.0
 14
42795.3617104285
 24
3164.895187730795
 34
0.0
100
AcDbRotatedDimension
1001
ACAD
1000
DSTYLE
1002
{
1070
    41
1040
8.0
1070
   140
1040
15.0
1070
   141
1040
0.5
1070
   143
1040
0.03937007874
1070
   147
1040
3.0
1070
   171
1070
     2
1070
   179
1070
     2
1070
   274
1070
     2
1002
}
  0
DIMENSION
  5
595C
102
{ACAD_XDICTIONARY
360
5969
102
}
102
{ACAD_REACTORS
330
5973
102
}
330
1F
100
AcDbEntity
  8
DIM
100
AcDbDimension
280
     0
  2
*D15
 10
42315.3617104285
 20
2885.594842367209
 30
0.0
 11
42540.3617104285
 21
2896.094842367209
 31
0.0
 70
    32
  1
<>{\Ftxt|c134; [17.72"]}
 71
     5
 42
450.0
 73
     0
 74
     0
 75
     0
  3
ISO-25
100
AcDbAlignedDimension
 13
42765.3617104285
 23
3169.895187730795
 33
0.0
 14
42315.3617104285
 24
3169.895187730795
 34
0.0
100
AcDbRotatedDimension
1001
ACAD
1000
DSTYLE
1002
{
1070
    41
1040
8.0
1070
   140
1040
15.0
1070
   141
1040
0.5
1070
   143
1040
0.03937007874
1070
   147
1040
3.0
1070
   171
1070
     2
1070
   179
1070
     2
1070
   274
1070
     2
1002
}
  0
LINE
  5
64E0
102
{ACAD_REACTORS
330
655A
330
65A2
102
}
330
1F
100
AcDbEntity
  8
base
100
AcDbLine
 10
42877.74675818559
 20
3379.895187730794
 30
0.0
 11
43056.97666267141
 21
3379.895187730794
 31
0.0
  0
LINE
  5
64E1
102
{ACAD_REACTORS
330
655A
102
}
330
1F
100
AcDbEntity
  8
base
100
AcDbLine
 10
43056.97666267141
 20
2979.895187730794
 30
0.0
 11
42877.74675818559
 21
2979.895187730793
 31
0.0
  0
LINE
  5
64E2
102
{ACAD_REACTORS
330
6542
102
}
330
1F
100
AcDbEntity
  8
0
100
AcDbLine
 10
42795.3617104285
 20
3165.895187730797
 30
0.0
 11
43139.3617104285
 21
3165.895187730797
 31
0.0
  0
ARC
  5
64E3
330
1F
100
AcDbEntity
  8
base
100
AcDbCircle
 10
45895.36171042849
 20
3179.895187730795
 30
0.0
 40
3100.0
100
AcDbArc
 50
177.7227469902972
 51
182.2772530097028
  0
ARC
  5
64E4
102
{ACAD_REACTORS
330
6512
102
}
330
1F
100
AcDbEntity
  8
base
100
AcDbCircle
 10
42877.74675818559
 20
3059.895187730794
 30
0.0
 40
80.0
100
AcDbArc
 50
182.2772530097028
 51
270.0
  0
ARC
  5
64E5
330
1F
100
AcDbEntity
  8
base
100
AcDbCircle
 10
42877.74675818559
 20
3299.895187730794
 30
0.0
 40
80.0
100
AcDbArc
 50
90.0
 51
177.7227469902972
  0
ARC
  5
64E6
330
1F
100
AcDbEntity
  8
base
100
AcDbCircle
 10
40039.3617104285
 20
3179.895187730795
 30
0.0
 40
3100.0
100
AcDbArc
 50
357.7227469903135
 51
2.277253009686487
  0
ARC
  5
64E7
330
1F
100
AcDbEntity
  8
base
100
AcDbCircle
 10
43056.97666267141
 20
3059.895187730794
 30
0.0
 40
80.0
100
AcDbArc
 50
270.0
 51
357.7227469903135
  0
ARC
  5
64E8
330
1F
100
AcDbEntity
  8
base
100
AcDbCircle
 10
43056.97666267141
 20
3299.895187730794
 30
0.0
 40
80.0
100
AcDbArc
 50
2.277253009686487
 51
90.0
  0
LINE
  5
64EA
102
{ACAD_REACTORS
330
6572
102
}
330
1F
100
AcDbEntity
  8
base
100
AcDbLine
 10
42779.25060676709
 20
3404.895187730794
 30
0.0
 11
43059.36171042849
 21
3404.895187730794
 31
0.0
  0
ARC
  5
64F2
330
1F
100
AcDbEntity
  8
base
100
AcDbCircle
 10
42779.25060676709
 20
3477.895187730793
 30
0.0
 40
73.0
100
AcDbArc
 50
228.6358551192152
 51
270.0
  0
DIMENSION
  5
64F3
330
1F
100
AcDbEntity
  8
0
100
AcDbDimension
280
     0
  2
*D16
 10
42779.25060676709
 20
3477.895187730792
 30
0.0
 11
42785.29333296164
 21
3489.967282003862
 31
0.0
 70
   164
  1
<>{\Ftxt|c134; [2.87"]}
 71
     5
 42
72.99999999998909
 73
     0
 74
     0
 75
     0
  3
ISO-25
100
AcDbRadialDimension
 15
42746.57512438182
 25
3412.616455735694
 35
0.0
 40
0.0
1001
ACAD
1000
DSTYLE
1002
{
1070
    41
1040
8.0
1070
   140
1040
15.0
1070
   141
1040
0.5
1070
   143
1040
0.03937007874
1070
   147
1040
3.0
1070
   171
1070
     2
1070
   179
1070
     2
1070
   274
1070
     2
1070
   288
1070
     1
1002
}
  0
DIMENSION
  5
6503
102
{ACAD_XDICTIONARY
360
650C
102
}
102
{ACAD_REACTORS
330
6512
102
}
330
1F
100
AcDbEntity
  8
0
100
AcDbDimension
280
     0
  2
*D17
 10
42877.74675818559
 20
3059.895187730799
 30
0.0
 11
42887.97998395233
 21
3074.398414627165
 31
0.0
 70
   164
  1
4-<>{\Ftxt|c134; [3.15"]}
 71
     5
 42
79.99999999998909
 73
     0
 74
     0
 75
     0
  3
ISO-25
100
AcDbRadialDimension
 15
42831.62517726518
 25
2994.528531296503
 35
0.0
 40
0.0
1001
ACAD
1000
DSTYLE
1002
{
1070
    41
1040
8.0
1070
   140
1040
15.0
1070
   141
1040
0.5
1070
   143
1040
0.03937007874
1070
   147
1040
3.0
1070
   171
1070
     2
1070
   179
1070
     2
1070
   274
1070
     2
1070
   288
1070
     1
1002
}
  0
LINE
  5
6518
102
{ACAD_REACTORS
330
658A
102
}
330
1F
100
AcDbEntity
  8
base
100
AcDbLine
 10
43164.36171042851
 20
3059.895187730797
 30
0.0
 11
43164.36171042849
 21
3299.895187730794
 31
0.0
  0
ARC
  5
6519
330
1F
100
AcDbEntity
  8
base
100
AcDbCircle
 10
43059.36171042849
 20
3299.895187730794
 30
0.0
 40
105.0
100
AcDbArc
 50
0.0
 51
90.0
  0
ARC
  5
651A
330
1F
100
AcDbEntity
  8
base
100
AcDbCircle
 10
43059.3617104285
 20
3059.895187730794
 30
0.0
 40
105.0
100
AcDbArc
 50
270.0
 51
0.0000000000016284
  0
LINE
  5
651B
102
{ACAD_REACTORS
330
65A2
102
}
330
1F
100
AcDbEntity
  8
DIM
  6
CENTER
100
AcDbLine
 10
42877.74675818559
 20
3259.895187730794
 30
0.0
 11
43056.97666267141
 21
3259.895187730794
 31
0.0
  0
LINE
  5
651C
330
1F
100
AcDbEntity
  8
DIM
  6
CENTER
100
AcDbLine
 10
42967.36171042849
 20
3399.895187730794
 30
0.0
 11
42967.36171042849
 21
2929.895187730794
 31
0.0
  0
CIRCLE
  5
651D
330
1F
100
AcDbEntity
  8
base
100
AcDbCircle
 10
42967.3617104285
 20
3259.895187730794
 30
0.0
 40
60.0
  0
CIRCLE
  5
651E
330
1F
100
AcDbEntity
  8
base
100
AcDbCircle
 10
42967.3617104285
 20
3259.895187730794
 30
0.0
 40
45.0
  0
CIRCLE
  5
651F
330
1F
100
AcDbEntity
  8
base
100
AcDbCircle
 10
42967.3617104285
 20
3259.895187730794
 30
0.0
 40
57.0
  0
DIMENSION
  5
652B
102
{ACAD_XDICTIONARY
360
6538
102
}
102
{ACAD_REACTORS
330
6542
102
}
330
1F
100
AcDbEntity
  8
0
100
AcDbDimension
280
     0
  2
*D18
 10
43139.3617104285
 20
2882.630566920991
 30
0.0
 11
42967.3617104285
 21
2893.130566920991
 31
0.0
 70
    32
  1
<>{\Ftxt|c134; [13.54"]}
 71
     5
 42
344.0
 73
     0
 74
     0
 75
     0
  3
ISO-25
100
AcDbAlignedDimension
 13
42795.3617104285
 23
3165.895187730797
 33
0.0
 14
43139.3617104285
 24
3165.895187730797
 34
0.0
100
AcDbRotatedDimension
1001
ACAD
1000
DSTYLE
1002
{
1070
    41
1040
8.0
1070
   140
1040
15.0
1070
   141
1040
0.5
1070
   143
1040
0.03937007874
1070
   147
1040
3.0
1070
   171
1070
     2
1070
   179
1070
     2
1070
   274
1070
     2
1002
}
  0
DIMENSION
  5
6543
102
{ACAD_XDICTIONARY
360
6550
102
}
102
{ACAD_REACTORS
330
655A
102
}
330
1F
100
AcDbEntity
  8
0
100
AcDbDimension
280
     0
  2
*D19
 10
43214.19231467563
 20
2979.895187730795
 30
0.0
 11
43203.69231467562
 21
3179.895187730782
 31
0.0
 70
    32
  1
<>{\Ftxt|c134; [15.75"]}
 71
     5
 42
400.0
 73
     0
 74
     0
 75
     0
  3
ISO-25
100
AcDbAlignedDimension
 13
42967.3617104285
 23
3379.895187730794
 33
0.0
 14
42967.3617104285
 24
2979.895187730794
 34
0.0
 50
90.0
100
AcDbRotatedDimension
1001
ACAD
1000
DSTYLE
1002
{
1070
    41
1040
8.0
1070
   140
1040
15.0
1070
   141
1040
0.5
1070
   143
1040
0.03937007874
1070
   147
1040
3.0
1070
   171
1070
     2
1070
   179
1070
     2
1070
   274
1070
     2
1002
}
  0
DIMENSION
  5
655B
102
{ACAD_XDICTIONARY
360
6568
102
}
102
{ACAD_REACTORS
330
6572
102
}
330
1F
100
AcDbEntity
  8
0
100
AcDbDimension
280
     0
  2
*D20
 10
43269.86203435083
 20
2954.895187730795
 30
0.0
 11
43259.36203435083
 21
3179.895187730782
 31
0.0
 70
    32
  1
<>{\Ftxt|c134; [17.72"]}
 71
     5
 42
450.0000000000004
 73
     0
 74
     0
 75
     0
  3
ISO-25
100
AcDbAlignedDimension
 13
43001.12524400181
 23
3404.895187730794
 33
0.0
 14
43001.12524400181
 24
2954.895187730794
 34
0.0
 50
90.0
100
AcDbRotatedDimension
1001
ACAD
1000
DSTYLE
1002
{
1070
    41
1040
8.0
1070
   140
1040
15.0
1070
   141
1040
0.5
1070
   143
1040
0.03937007874
1070
   147
1040
3.0
1070
   171
1070
     2
1070
   179
1070
     2
1070
   274
1070
     2
1002
}
  0
DIMENSION
  5
6573
102
{ACAD_XDICTIONARY
360
6580
102
}
102
{ACAD_REACTORS
330
658A
102
}
330
1F
100
AcDbEntity
  8
0
100
AcDbDimension
280
     0
  2
*D21
 10
43164.3617104285
 20
2832.245758948943
 30
0.0
 11
42727.3617104285
 21
2842.745758948942
 31
0.0
 70
    32
  1
<>{\Ftxt|c134; [34.41"]}
 71
     5
 42
874.0
 73
     0
 74
     0
 75
     0
  3
ISO-25
100
AcDbAlignedDimension
 13
42290.36171042849
 23
3237.881625479902
 33
0.0
 14
43164.3617104285
 24
3237.881625479956
 34
0.0
100
AcDbRotatedDimension
1001
ACAD
1000
DSTYLE
1002
{
1070
    41
1040
8.0
1070
   140
1040
15.0
1070
   141
1040
0.5
1070
   143
1040
0.03937007874
1070
   147
1040
3.0
1070
   171
1070
     2
1070
   179
1070
     2
1070
   274
1070
     2
1002
}
  0
DIMENSION
  5
658B
102
{ACAD_XDICTIONARY
360
6598
102
}
102
{ACAD_REACTORS
330
65A2
102
}
330
1F
100
AcDbEntity
  8
0
100
AcDbDimension
280
     0
  2
*D22
 10
42862.40701019317
 20
3259.895187730796
 30
0.0
 11
42851.90701019316
 21
3319.895187730782
 31
0.0
 70
    32
  1
<>{\Ftxt|c134; [4.7"]}
 71
     5
 42
120.0
 73
     0
 74
     0
 75
     0
  3
ISO-25
100
AcDbAlignedDimension
 13
42947.57783944112
 23
3379.895187730794
 33
0.0
 14
42877.74675818559
 24
3259.895187730794
 34
0.0
 50
90.0
100
AcDbRotatedDimension
1001
ACAD
1000
DSTYLE
1002
{
1070
    41
1040
8.0
1070
   140
1040
15.0
1070
   141
1040
0.5
1070
   143
1040
0.03937007874
1070
   147
1040
3.0
1070
   171
1070
     2
1070
   179
1070
     2
1070
   274
1070
     2
1002
}
  0
LINE
  5
65A3
330
1F
100
AcDbEntity
  8
DIM
  6
CENTER
100
AcDbLine
 10
42540.36171042851
 20
3853.331549635849
 30
0.0
 11
42540.36171042851
 21
3560.685423155567
 31
0.0
  0
LINE
  5
6625
330
1F
100
AcDbEntity
  8
0
100
AcDbLine
 10
43139.3617104285
 20
3830.852623883105
 30
0.0
 11
43139.3617104285
 21
3832.052623883102
 31
0.0
  0
LINE
  5
6626
102
{ACAD_REACTORS
330
664A
102
}
330
1F
100
AcDbEntity
  8
base
100
AcDbLine
 10
42314.3802612533
 20
3827.027101432566
 30
0.0
 11
42321.86003151704
 21
3655.712196955999
 31
0.0
  0
ARC
  5
6627
330
1F
100
AcDbEntity
  8
base
100
AcDbCircle
 10
42310.38406836697
 20
3826.852623883104
 30
0.0
 40
4.0
100
AcDbArc
 50
2.500000000004068
 51
90.0
  0
ARC
  5
6628
330
1F
100
AcDbEntity
  8
base
100
AcDbCircle
 10
42310.38406836697
 20
3826.852623883104
 30
0.0
 40
5.2
100
AcDbArc
 50
2.500000000004068
 51
90.0
  0
DIMENSION
  5
6629
102
{ACAD_XDICTIONARY
360
663B
102
}
102
{ACAD_REACTORS
330
664A
102
}
330
1F
100
AcDbEntity
  8
0
100
AcDbDimension
280
     0
  2
*D23
 10
42321.86003151704
 20
3655.712196955999
 30
0.0
 11
42271.25767239383
 21
3768.405589093234
 31
0.0
 70
    34
 71
     5
 42
0.0436332312998387
 73
     0
 74
     0
 75
     0
  3
ISO-25
100
AcDb2LineAngularDimension
 13
42314.50288818161
 23
3827.131649778081
 33
0.0
 14
42314.50288818161
 24
3806.016638718029
 34
0.0
 15
42314.3802612533
 25
3827.027101432566
 35
0.0
 16
42316.69671093075
 26
3748.821685407217
 36
0.0
1001
ACAD
1000
DSTYLE
1002
{
1070
    41
1040
8.0
1070
   140
1040
15.0
1070
   141
1040
0.5
1070
   143
1040
0.03937007874
1070
   147
1040
3.0
1070
   171
1070
     2
1070
   179
1070
     2
1070
   274
1070
     2
1002
}
  0
ARC
  5
6650
330
1F
100
AcDbEntity
  8
base
100
AcDbCircle
 10
42372.9324548983
 20
3659.751369895367
 30
0.0
 40
50.0
100
AcDbArc
 50
182.500000000004
 51
266.9999999999995
  0
ARC
  5
6660
330
1F
100
AcDbEntity
  8
base
100
AcDbCircle
 10
42372.9324548983
 20
3659.751369895367
 30
0.0
 40
51.2
100
AcDbArc
 50
182.500000000004
 51
266.9999999999995
  0
LINE
  5
6661
330
1F
100
AcDbEntity
  8
base
100
AcDbLine
 10
42765.3616469956
 20
3832.057469524836
 30
0.0
 11
42757.7433770378
 21
3657.570400527097
 31
0.0
  0
ARC
  5
6662
330
1F
100
AcDbEntity
  8
base
100
AcDbCircle
 10
42707.7909659587
 20
3659.751369895367
 30
0.0
 40
50.0
100
AcDbArc
 50
272.9999999995893
 51
357.499999999991
  0
ARC
  5
6663
330
1F
100
AcDbEntity
  8
base
100
AcDbCircle
 10
42707.7909659587
 20
3659.751369895367
 30
0.0
 40
51.2
100
AcDbArc
 50
272.9999999995893
 51
357.499999999991
  0
LINE
  5
6664
102
{ACAD_REACTORS
330
666B
102
}
330
1F
100
AcDbEntity
  8
base
100
AcDbLine
 10
42766.34315960372
 20
3827.027101432566
 30
0.0
 11
42758.86338933998
 21
3655.712196955999
 31
0.0
  0
ARC
  5
6665
330
1F
100
AcDbEntity
  8
base
100
AcDbCircle
 10
42770.33935249004
 20
3826.852623883104
 30
0.0
 40
4.0
100
AcDbArc
 50
90.0
 51
177.4999999999909
  0
ARC
  5
6666
330
1F
100
AcDbEntity
  8
base
100
AcDbCircle
 10
42770.33935249004
 20
3826.852623883104
 30
0.0
 40
5.2
100
AcDbArc
 50
90.0
 51
177.4999999999909
  0
LINE
  5
6667
330
1F
100
AcDbEntity
  8
base
100
AcDbLine
 10
42710.40776377085
 20
3609.819893157638
 30
0.0
 11
42600.36171042851
 21
3604.052623883101
 31
0.0
  0
LINE
  5
6668
330
1F
100
AcDbEntity
  8
base
100
AcDbLine
 10
42710.47056691834
 20
3608.621537715932
 30
0.0
 11
42600.75335912897
 21
3602.871502506553
 31
0.0
  0
DIMENSION
  5
6669
102
{ACAD_XDICTIONARY
360
666A
102
}
102
{ACAD_REACTORS
330
666B
102
}
330
1F
100
AcDbEntity
  8
0
100
AcDbDimension
280
     0
  2
*D24
 10
42758.86338933998
 20
3655.712196955999
 30
0.0
 11
42720.58195251068
 21
3770.345040420277
 31
0.0
 70
    34
 71
     5
 42
0.0436332312998378
 73
     0
 74
     0
 75
     0
  3
ISO-25
100
AcDb2LineAngularDimension
 13
42766.2205326754
 23
3827.131649778081
 33
0.0
 14
42766.2205326754
 24
3806.016638718029
 34
0.0
 15
42766.34315960372
 25
3827.027101432566
 35
0.0
 16
42765.12350527036
 26
3748.797753247674
 36
0.0
1001
ACAD
1000
DSTYLE
1002
{
1070
    41
1040
8.0
1070
   140
1040
15.0
1070
   141
1040
0.5
1070
   143
1040
0.03937007874
1070
   147
1040
3.0
1070
   171
1070
     2
1070
   179
1070
     2
1070
   274
1070
     2
1002
}
  0
LINE
  5
667D
330
1F
100
AcDbEntity
  8
base
100
AcDbLine
 10
42795.39311192762
 20
3832.057469524836
 30
0.0
 11
42801.03247341983
 21
3702.894856064724
 31
0.0
  0
LINE
  5
667E
330
1F
100
AcDbEntity
  8
base
100
AcDbLine
 10
42794.4115993195
 20
3827.027101432566
 30
0.0
 11
42799.83361555392
 21
3702.842512799884
 31
0.0
  0
ARC
  5
667F
330
1F
100
AcDbEntity
  8
base
100
AcDbCircle
 10
42790.41540643317
 20
3826.852623883104
 30
0.0
 40
4.0
100
AcDbArc
 50
2.500000000004058
 51
90.0
  0
ARC
  5
6680
330
1F
100
AcDbEntity
  8
base
100
AcDbCircle
 10
42790.41540643317
 20
3826.852623883104
 30
0.0
 40
5.2
100
AcDbArc
 50
2.500000000004058
 51
90.0
  0
LINE
  5
6682
330
1F
100
AcDbEntity
  8
base
100
AcDbLine
 10
42848.36808668678
 20
3655.144348695266
 30
0.0
 11
42907.36171042849
 21
3652.052623883101
 31
0.0
  0
LINE
  5
6684
330
1F
100
AcDbEntity
  8
base
100
AcDbLine
 10
43012.36171042849
 20
3647.052623883102
 30
0.0
 11
43012.36171042849
 21
3645.852623883101
 31
0.0
  0
LINE
  5
6685
330
1F
100
AcDbEntity
  8
base
100
AcDbLine
 10
43027.36171042849
 20
3652.052623883101
 30
0.0
 11
43024.36171042849
 21
3650.052623883102
 31
0.0
  0
LINE
  5
6686
330
1F
100
AcDbEntity
  8
base
100
AcDbLine
 10
43024.36171042849
 20
3650.052623883102
 30
0.0
 11
43012.36171042849
 21
3647.052623883102
 31
0.0
  0
LINE
  5
6687
330
1F
100
AcDbEntity
  8
base
100
AcDbLine
 10
43027.75335912895
 20
3650.871502506554
 30
0.0
 11
43024.8544036025
 21
3648.938865488916
 31
0.0
  0
LINE
  5
6688
330
1F
100
AcDbEntity
  8
base
100
AcDbLine
 10
43024.8544036025
 20
3648.938865488916
 30
0.0
 11
43012.50943717924
 21
3645.852623883101
 31
0.0
  0
LINE
  5
6689
330
1F
100
AcDbEntity
  8
base
100
AcDbLine
 10
42909.86901725449
 20
3648.938865488916
 30
0.0
 11
42922.21398367774
 21
3645.852623883101
 31
0.0
  0
LINE
  5
668A
330
1F
100
AcDbEntity
  8
base
100
AcDbLine
 10
42906.97006172803
 20
3650.871502506554
 30
0.0
 11
42909.86901725449
 21
3648.938865488916
 31
0.0
  0
LINE
  5
668B
330
1F
100
AcDbEntity
  8
base
100
AcDbLine
 10
42910.36171042849
 20
3650.052623883102
 30
0.0
 11
42922.36171042849
 21
3647.052623883102
 31
0.0
  0
LINE
  5
668C
330
1F
100
AcDbEntity
  8
base
100
AcDbLine
 10
42907.36171042849
 20
3652.052623883101
 30
0.0
 11
42910.36171042849
 21
3650.052623883102
 31
0.0
  0
LINE
  5
668D
102
{ACAD_REACTORS
330
681C
102
}
330
1F
100
AcDbEntity
  8
base
100
AcDbLine
 10
42910.36171042849
 20
3650.052623883102
 30
0.0
 11
43024.36171042849
 21
3650.052623883102
 31
0.0
  0
LINE
  5
668E
330
1F
100
AcDbEntity
  8
base
100
AcDbLine
 10
42922.36171042849
 20
3647.052623883102
 30
0.0
 11
42922.36171042849
 21
3645.852623883101
 31
0.0
  0
LINE
  5
668F
330
1F
100
AcDbEntity
  8
base
100
AcDbLine
 10
42922.36171042849
 20
3647.052623883102
 30
0.0
 11
43012.36171042849
 21
3647.052623883101
 31
0.0
  0
LINE
  5
6690
330
1F
100
AcDbEntity
  8
base
100
AcDbLine
 10
42922.21398367774
 20
3645.852623883101
 30
0.0
 11
43012.50943717925
 21
3645.852623883102
 31
0.0
  0
LINE
  5
6691
102
{ACAD_REACTORS
330
6757
102
}
330
1F
100
AcDbEntity
  8
base
100
AcDbLine
 10
42907.36171042849
 20
3652.052623883101
 30
0.0
 11
43027.36171042849
 21
3652.052623883101
 31
0.0
  0
LINE
  5
6692
330
1F
100
AcDbEntity
  8
base
100
AcDbLine
 10
43086.41813731769
 20
3653.945993253559
 30
0.0
 11
43027.75335912895
 21
3650.871502506554
 31
0.0
  0
LINE
  5
6694
330
1F
100
AcDbEntity
  8
DIM
  6
CENTER
100
AcDbLine
 10
42967.36171042849
 20
3687.35045022499
 30
0.0
 11
42967.36171042849
 21
3608.685423155567
 31
0.0
  0
LINE
  5
669B
330
1F
100
AcDbEntity
  8
DIM
  6
CENTER
100
AcDbLine
 10
42967.36171042849
 20
3850.331871995433
 30
0.0
 11
42967.36171042849
 21
3608.685423155567
 31
0.0
  0
LINE
  5
66A1
102
{ACAD_REACTORS
330
681C
102
}
330
1F
100
AcDbEntity
  8
base
100
AcDbLine
 10
43086.3553341702
 20
3655.144348695265
 30
0.0
 11
43027.36171042849
 21
3652.052623883101
 31
0.0
  0
LINE
  5
6732
330
1F
100
AcDbEntity
  8
base
100
AcDbLine
 10
43139.33030892936
 20
3832.057469524836
 30
0.0
 11
43133.69094743715
 21
3702.894856064722
 31
0.0
  0
LINE
  5
6733
330
1F
100
AcDbEntity
  8
base
100
AcDbLine
 10
43140.31182153748
 20
3827.027101432566
 30
0.0
 11
43134.88980530306
 21
3702.842512799883
 31
0.0
  0
ARC
  5
6734
330
1F
100
AcDbEntity
  8
base
100
AcDbCircle
 10
43144.3080144238
 20
3826.852623883104
 30
0.0
 40
4.0
100
AcDbArc
 50
90.0
 51
177.4999999999909
  0
ARC
  5
6735
330
1F
100
AcDbEntity
  8
base
100
AcDbCircle
 10
43144.3080144238
 20
3826.852623883104
 30
0.0
 40
5.2
100
AcDbArc
 50
90.0
 51
177.4999999999909
  0
LINE
  5
6736
330
1F
100
AcDbEntity
  8
0
100
AcDbLine
 10
43164.36171042851
 20
3830.852623883105
 30
0.0
 11
43164.36171042851
 21
3832.052623883102
 31
0.0
  0
LINE
  5
6737
330
1F
100
AcDbEntity
  8
0
100
AcDbLine
 10
43144.3080144238
 20
3830.852623883105
 30
0.0
 11
43164.36171042851
 21
3830.852623883104
 31
0.0
  0
ARC
  5
6738
330
1F
100
AcDbEntity
  8
base
100
AcDbCircle
 10
43083.73853635806
 20
3705.075825432993
 30
0.0
 40
50.0
100
AcDbArc
 50
273.0000000000009
 51
357.4999999999952
  0
ARC
  5
6739
330
1F
100
AcDbEntity
  8
base
100
AcDbCircle
 10
42850.98488449893
 20
3705.075825432994
 30
0.0
 40
50.0
100
AcDbArc
 50
182.5000000000047
 51
266.9999999999991
  0
ARC
  5
673A
330
1F
100
AcDbEntity
  8
base
100
AcDbCircle
 10
43083.73853635806
 20
3705.075825432993
 30
0.0
 40
51.2
100
AcDbArc
 50
273.0000000000009
 51
357.4999999999952
  0
ARC
  5
673B
330
1F
100
AcDbEntity
  8
base
100
AcDbCircle
 10
42850.98488449893
 20
3705.075825432994
 30
0.0
 40
51.2
100
AcDbArc
 50
182.5000000000047
 51
266.9999999999991
  0
LINE
  5
673D
330
1F
100
AcDbEntity
  8
base
100
AcDbLine
 10
42848.30528353929
 20
3653.945993253559
 30
0.0
 11
42906.97006172803
 21
3650.871502506554
 31
0.0
  0
LINE
  5
673E
330
1F
100
AcDbEntity
  8
base
100
AcDbLine
 10
43086.41813731769
 20
3653.94599325356
 30
0.0
 11
43027.75335912895
 21
3650.871502506554
 31
0.0
  0
DIMENSION
  5
6740
102
{ACAD_XDICTIONARY
360
674D
102
}
102
{ACAD_REACTORS
330
6757
102
}
330
1F
100
AcDbEntity
  8
0
100
AcDbDimension
280
     0
  2
*D25
 10
43220.40540877124
 20
3652.052623883103
 30
0.0
 11
43209.90540877123
 21
3742.05262388309
 31
0.0
 70
    32
  1
<>{\Ftxt|c134; [7.09"]}
 71
     5
 42
180.0000000000004
 73
     0
 74
     0
 75
     0
  3
ISO-25
100
AcDbAlignedDimension
 13
42971.59784339301
 23
3832.052623883102
 33
0.0
 14
42967.36171042849
 24
3652.052623883101
 34
0.0
 50
90.0
100
AcDbRotatedDimension
1001
ACAD
1000
DSTYLE
1002
{
1070
    41
1040
8.0
1070
   140
1040
15.0
1070
   141
1040
0.5
1070
   143
1040
0.03937007874
1070
   147
1040
3.0
1070
   171
1070
     2
1070
   179
1070
     2
1070
   274
1070
     2
1002
}
  0
DIMENSION
  5
6758
330
1F
100
AcDbEntity
  8
0
100
AcDbDimension
280
     0
  2
*D26
 10
43132.86338933996
 20
3655.712196955999
 30
0.0
 11
43094.58195251066
 21
3770.345040420278
 31
0.0
 70
    34
 71
     5
 42
0.0436332312998369
 73
     0
 74
     0
 75
     0
  3
ISO-25
100
AcDb2LineAngularDimension
 13
43140.22053267539
 23
3827.131649778081
 33
0.0
 14
43140.22053267539
 24
3806.016638718029
 34
0.0
 15
43140.3431596037
 25
3827.027101432566
 35
0.0
 16
43139.12350527036
 26
3748.797753247673
 36
0.0
1001
ACAD
1000
DSTYLE
1002
{
1070
    41
1040
8.0
1070
   140
1040
15.0
1070
   141
1040
0.5
1070
   143
1040
0.03937007874
1070
   147
1040
3.0
1070
   171
1070
     2
1070
   179
1070
     2
1070
   274
1070
     2
1002
}
  0
DIMENSION
  5
67E9
330
1F
100
AcDbEntity
  8
0
100
AcDbDimension
280
     0
  2
*D27
 10
42850.98488449893
 20
3705.075825432967
 30
0.0
 11
42872.14358775054
 21
3730.073260835652
 31
0.0
 70
   164
  1
<>{\Ftxt|c134; [1.97"]}
 71
     5
 42
49.99999999998545
 73
     0
 74
     0
 75
     0
  3
ISO-25
100
AcDbRadialDimension
 15
42818.68152075604
 25
3666.91180191745
 35
0.0
 40
0.0
1001
ACAD
1000
DSTYLE
1002
{
1070
    41
1040
8.0
1070
   140
1040
15.0
1070
   141
1040
0.5
1070
   143
1040
0.03937007874
1070
   147
1040
3.0
1070
   171
1070
     2
1070
   179
1070
     2
1070
   274
1070
     2
1070
   279
1070
     1
1070
   288
1070
     1
1002
}
  0
DIMENSION
  5
67F9
102
{ACAD_XDICTIONARY
360
680C
102
}
102
{ACAD_REACTORS
330
681C
102
}
330
1F
100
AcDbEntity
  8
0
100
AcDbDimension
280
     0
  2
*D28
 10
43027.36171042849
 20
3652.052623883101
 30
0.0
 11
43160.54270176103
 21
3610.157570626144
 31
0.0
 70
    34
  1
2.5%%D
 71
     5
 42
0.0523598775598415
 73
     0
 74
     0
 75
     0
  3
ISO-25
100
AcDb2LineAngularDimension
 13
42910.36171042849
 23
3650.052623883102
 33
0.0
 14
43024.36171042849
 24
3650.052623883102
 34
0.0
 15
43086.3553341702
 25
3655.144348695265
 35
0.0
 16
43153.01612412622
 26
3655.773228651287
 36
0.0
1001
ACAD
1000
DSTYLE
1002
{
1070
    41
1040
8.0
1070
   140
1040
15.0
1070
   141
1040
0.5
1070
   143
1040
0.03937007874
1070
   147
1040
3.0
1070
   171
1070
     2
1070
   179
1070
     2
1070
   274
1070
     2
1002
}
  0
LINE
  5
6893
330
1F
100
AcDbEntity
  8
base
 62
     0
100
AcDbLine
 10
42874.46412022234
 20
2623.535913165095
 30
0.0
 11
42854.46412022234
 21
2629.535913165095
 31
0.0
  0
LINE
  5
6894
102
{ACAD_REACTORS
330
68AC
330
68AF
330
68B2
102
}
330
1F
100
AcDbEntity
  8
base
 62
     0
100
AcDbLine
 10
42854.46412022234
 20
2629.535913165095
 30
0.0
 11
42848.46412022235
 21
2635.535913165095
 31
0.0
  0
LINE
  5
6895
330
1F
100
AcDbEntity
  8
base
 62
     0
100
AcDbLine
 10
42853.19492166871
 20
2627.410999169055
 30
0.0
 11
42847.42701303955
 21
2633.1789077982
 31
0.0
  0
LINE
  5
6896
330
1F
100
AcDbEntity
  8
base
 62
     0
100
AcDbLine
 10
42874.11187501521
 20
2621.135913165095
 30
0.0
 11
42853.19492166871
 21
2627.410999169055
 31
0.0
  0
LINE
  5
6897
330
1F
100
AcDbEntity
  8
base
 62
     0
100
AcDbLine
 10
43062.81636542947
 20
2621.135913165095
 30
0.0
 11
42874.11187501521
 21
2621.135913165095
 31
0.0
  0
LINE
  5
6898
330
1F
100
AcDbEntity
  8
base
 62
     0
100
AcDbLine
 10
43062.81636542947
 20
2621.135913165095
 30
0.0
 11
43083.73331877597
 21
2627.410999169055
 31
0.0
  0
LINE
  5
6899
330
1F
100
AcDbEntity
  8
base
 62
     0
100
AcDbLine
 10
43083.73331877597
 20
2627.410999169055
 30
0.0
 11
43089.50122740513
 21
2633.1789077982
 31
0.0
  0
LINE
  5
689A
102
{ACAD_REACTORS
330
68A9
330
68AC
102
}
330
1F
100
AcDbEntity
  8
base
 62
     0
100
AcDbLine
 10
43082.46412022234
 20
2629.535913165095
 30
0.0
 11
43088.46412022233
 21
2635.535913165095
 31
0.0
  0
LINE
  5
689B
330
1F
100
AcDbEntity
  8
base
 62
     0
100
AcDbLine
 10
43062.46412022234
 20
2623.535913165095
 30
0.0
 11
43082.46412022234
 21
2629.535913165095
 31
0.0
  0
LINE
  5
689C
102
{ACAD_REACTORS
330
68A6
330
68B2
102
}
330
1F
100
AcDbEntity
  8
base
 62
     0
100
AcDbLine
 10
43062.46412022234
 20
2623.535913165095
 30
0.0
 11
42874.46412022235
 21
2623.535913165095
 31
0.0
  0
LINE
  5
689D
102
{ACAD_REACTORS
330
68A9
330
68AF
102
}
330
1F
100
AcDbEntity
  8
base
 62
     0
100
AcDbLine
 10
43082.46412022234
 20
2629.535913165095
 30
0.0
 11
42854.46412022234
 21
2629.535913165095
 31
0.0
  0
LINE
  5
689E
330
1F
100
AcDbEntity
  8
DIM
  6
CENTER
 62
     0
100
AcDbLine
 10
42968.46412022234
 20
2647.749344763062
 30
0.0
 11
42968.46412022234
 21
2604.789669840226
 31
0.0
  0
LINE
  5
689F
330
1F
100
AcDbEntity
  8
base
 62
     0
100
AcDbLine
 10
43088.46412022234
 20
2635.535913165095
 30
0.0
 11
42848.46412022235
 21
2635.535913165095
 31
0.0
  0
LINE
  5
68A0
330
1F
100
AcDbEntity
  8
base
 62
     0
100
AcDbLine
 10
43089.50122740513
 20
2633.178907798201
 30
0.0
 11
43124.6478471332
 21
2634.713442355576
 31
0.0
  0
LINE
  5
68A1
330
1F
100
AcDbEntity
  8
base
 62
     0
100
AcDbLine
 10
43088.46412022233
 20
2635.535913165095
 30
0.0
 11
43123.79016629685
 21
2637.078281645936
 31
0.0
  0
LINE
  5
68A2
330
1F
100
AcDbEntity
  8
base
 62
     0
100
AcDbLine
 10
42848.46412022235
 20
2635.535913165095
 30
0.0
 11
42813.13807414783
 21
2637.078281645938
 31
0.0
  0
LINE
  5
68A3
330
1F
100
AcDbEntity
  8
base
 62
     0
100
AcDbLine
 10
42847.42701303955
 20
2633.178907798201
 30
0.0
 11
42812.28039331148
 21
2634.713442355576
 31
0.0
  0
DIMENSION
  5
68A4
102
{ACAD_XDICTIONARY
360
68A5
102
}
102
{ACAD_REACTORS
330
68A6
102
}
330
1F
100
AcDbEntity
  8
0
100
AcDbDimension
280
     0
  2
*D29
 10
43062.46412022234
 20
2651.921444714111
 30
0.0
 11
42968.46412022235
 21
2662.421444714111
 31
0.0
 70
    32
  1
{\Ftxt.shx|c1;%%C}94
 71
     5
 42
187.9999999999854
 73
     0
 74
     0
 75
     0
  3
ISO-25
100
AcDbAlignedDimension
 13
42874.46412022235
 23
2623.535913165095
 33
0.0
 14
43062.46412022234
 24
2623.535913165095
 34
0.0
100
AcDbRotatedDimension
1001
ACAD
1000
DSTYLE
1002
{
1070
    41
1040
8.0
1070
   140
1040
15.0
1070
   141
1040
0.5
1070
   143
1040
0.03937007874
1070
   147
1040
3.0
1070
   171
1070
     2
1070
   179
1070
     2
1070
   274
1070
     2
1002
}
  0
DIMENSION
  5
68A7
102
{ACAD_XDICTIONARY
360
68A8
102
}
102
{ACAD_REACTORS
330
68A9
102
}
330
1F
100
AcDbEntity
  8
0
100
AcDbDimension
280
     0
  2
*D30
 10
43082.46412022234
 20
2692.942702649154
 30
0.0
 11
42968.46412022234
 21
2703.442702649154
 31
0.0
 70
    32
  1
{\Ftxt.shx|c1;%%C}114
 71
     5
 42
228.0
 73
     0
 74
     0
 75
     0
  3
ISO-25
100
AcDbAlignedDimension
 13
42854.46412022234
 23
2629.535913165095
 33
0.0
 14
43082.46412022234
 24
2629.535913165095
 34
0.0
100
AcDbRotatedDimension
1001
ACAD
1000
DSTYLE
1002
{
1070
    41
1040
8.0
1070
   140
1040
15.0
1070
   141
1040
0.5
1070
   143
1040
0.03937007874
1070
   147
1040
3.0
1070
   171
1070
     2
1070
   179
1070
     2
1070
   274
1070
     2
1002
}
  0
DIMENSION
  5
68AA
102
{ACAD_XDICTIONARY
360
68AB
102
}
102
{ACAD_REACTORS
330
68AC
102
}
330
1F
100
AcDbEntity
  8
0
100
AcDbDimension
280
     0
  2
*D31
 10
43088.46412022233
 20
2578.554669961901
 30
0.0
 11
42968.46412022234
 21
2589.054669961901
 31
0.0
 70
    32
  1
%%C120
 71
     5
 42
239.9999999999709
 73
     0
 74
     0
 75
     0
  3
ISO-25
100
AcDbAlignedDimension
 13
42848.46412022235
 23
2635.535913165095
 33
0.0
 14
43088.46412022233
 24
2635.535913165095
 34
0.0
100
AcDbRotatedDimension
1001
ACAD
1000
DSTYLE
1002
{
1070
    41
1040
8.0
1070
   140
1040
15.0
1070
   141
1040
0.5
1070
   143
1040
0.03937007874
1070
   147
1040
3.0
1070
   171
1070
     2
1070
   179
1070
     2
1070
   274
1070
     2
1002
}
  0
DIMENSION
  5
68AD
102
{ACAD_XDICTIONARY
360
68AE
102
}
102
{ACAD_REACTORS
330
68AF
102
}
330
1F
100
AcDbEntity
  8
0
100
AcDbDimension
280
     0
  2
*D32
 10
42778.97134273285
 20
2629.535913165095
 30
0.0
 11
42778.97134273285
 21
2687.849305407559
 31
0.0
 70
   160
  1
3
 71
     5
 42
6.0
 73
     0
 74
     0
 75
     0
  3
ISO-25
100
AcDbAlignedDimension
 13
42848.46412022235
 23
2635.535913165095
 33
0.0
 14
42854.46412022234
 24
2629.535913165095
 34
0.0
 50
90.0
100
AcDbRotatedDimension
1001
ACAD
1000
DSTYLE
1002
{
1070
    41
1040
8.0
1070
   140
1040
15.0
1070
   141
1040
0.5
1070
   143
1040
0.03937007874
1070
   147
1040
3.0
1070
   171
1070
     2
1070
   179
1070
     2
1070
   274
1070
     2
1002
}
  0
DIMENSION
  5
68B0
102
{ACAD_XDICTIONARY
360
68B1
102
}
102
{ACAD_REACTORS
330
68B2
102
}
330
1F
100
AcDbEntity
  8
0
100
AcDbDimension
280
     0
  2
*D33
 10
42723.80080394065
 20
2635.535913165095
 30
0.0
 11
42713.30080394065
 21
2659.535913165102
 31
0.0
 70
    32
  1
6
 71
     5
 42
12.0
 73
     0
 74
     0
 75
     0
  3
ISO-25
100
AcDbAlignedDimension
 13
42874.46412022235
 23
2623.535913165095
 33
0.0
 14
42848.46412022235
 24
2635.535913165095
 34
0.0
 50
90.0
100
AcDbRotatedDimension
1001
ACAD
1000
DSTYLE
1002
{
1070
    41
1040
8.0
1070
   140
1040
15.0
1070
   141
1040
0.5
1070
   143
1040
0.03937007874
1070
   147
1040
3.0
1070
   171
1070
     2
1070
   179
1070
     2
1070
   274
1070
     2
1002
}
  0
ENDSEC
  0
SECTION
  2
OBJECTS
  0
DICTIONARY
  5
C
330
0
100
AcDbDictionary
281
     1
  3
ACAD_CIP_PREVIOUS_PRODUCT_INFO
350
6B32
  3
ACAD_COLOR
350
6B
  3
ACAD_DETAILVIEWSTYLE
350
6B2B
  3
ACAD_GROUP
350
D
  3
ACAD_LAYOUT
350
1A
  3
ACAD_MATERIAL
350
6A
  3
ACAD_MLEADERSTYLE
350
6B27
  3
ACAD_MLINESTYLE
350
17
  3
ACAD_PLOTSETTINGS
350
19
  3
ACAD_PLOTSTYLENAME
350
E
  3
ACAD_SCALELIST
350
6B15
  3
ACAD_SECTIONVIEWSTYLE
350
6B29
  3
ACAD_TABLESTYLE
350
622B
  3
ACAD_VISUALSTYLE
350
621A
  3
AcadDim
350
1BCC
  3
ACDB_RECOMPOSE_DATA
350
6CBE
  3
AcDbVariableDictionary
350
5E
  3
lxx_dict
350
6233
  0
DICTIONARY
  5
6CB6
330
2
100
AcDbDictionary
280
     1
281
     1
  3
ACAD_LAYERSTATES
360
6CB7
  0
DICTIONARY
  5
6C1C
330
10
100
AcDbDictionary
280
     1
281
     1
  3
ADSK_XREC_LAYER_RECONCILED
360
6C1D
  0
DICTIONARY
  5
6C1E
330
84
100
AcDbDictionary
280
     1
281
     1
  3
ADSK_XREC_LAYER_RECONCILED
360
6C1F
  0
DICTIONARY
  5
6C20
330
2D93
100
AcDbDictionary
280
     1
281
     1
  3
ADSK_XREC_LAYER_RECONCILED
360
6C21
  0
DICTIONARY
  5
64D9
330
1F
100
AcDbDictionary
280
     1
281
     1
  3
ACAD_SORTENTS
360
64DA
  0
DICTIONARY
  5
4A29
330
4A1C
100
AcDbDictionary
280
     1
281
     1
  3
ACAD_DIMASSOC
360
4A33
  0
DICTIONARY
  5
4A73
330
4A60
100
AcDbDictionary
280
     1
281
     1
  3
ACAD_DIMASSOC
360
4A83
  0
DICTIONARY
  5
4B28
330
4B1F
100
AcDbDictionary
280
     1
281
     1
  3
ACAD_DIMASSOC
360
4B2E
  0
DICTIONARY
  5
4B5C
330
4B53
100
AcDbDictionary
280
     1
281
     1
  3
ACAD_DIMASSOC
360
4B62
  0
DICTIONARY
  5
4BA6
330
4B99
100
AcDbDictionary
280
     1
281
     1
  3
ACAD_DIMASSOC
360
4BB0
  0
DICTIONARY
  5
5724
330
5717
100
AcDbDictionary
280
     1
281
     1
  3
ACAD_DIMASSOC
360
572E
  0
DICTIONARY
  5
573C
330
572F
100
AcDbDictionary
280
     1
281
     1
  3
ACAD_DIMASSOC
360
5746
  0
DICTIONARY
  5
5951
330
5944
100
AcDbDictionary
280
     1
281
     1
  3
ACAD_DIMASSOC
360
595B
  0
DICTIONARY
  5
5969
330
595C
100
AcDbDictionary
280
     1
281
     1
  3
ACAD_DIMASSOC
360
5973
  0
DICTIONARY
  5
650C
330
6503
100
AcDbDictionary
280
     1
281
     1
  3
ACAD_DIMASSOC
360
6512
  0
DICTIONARY
  5
6538
330
652B
100
AcDbDictionary
280
     1
281
     1
  3
ACAD_DIMASSOC
360
6542
  0
DICTIONARY
  5
6550
330
6543
100
AcDbDictionary
280
     1
281
     1
  3
ACAD_DIMASSOC
360
655A
  0
DICTIONARY
  5
6568
330
655B
100
AcDbDictionary
280
     1
281
     1
  3
ACAD_DIMASSOC
360
6572
  0
DICTIONARY
  5
6580
330
6573
100
AcDbDictionary
280
     1
281
     1
  3
ACAD_DIMASSOC
360
658A
  0
DICTIONARY
  5
6598
330
658B
100
AcDbDictionary
280
     1
281
     1
  3
ACAD_DIMASSOC
360
65A2
  0
DICTIONARY
  5
663B
330
6629
100
AcDbDictionary
280
     1
281
     1
  3
ACAD_DIMASSOC
360
664A
  0
DICTIONARY
  5
666A
330
6669
100
AcDbDictionary
280
     1
281
     1
  3
ACAD_DIMASSOC
360
666B
  0
DICTIONARY
  5
674D
330
6740
100
AcDbDictionary
280
     1
281
     1
  3
ACAD_DIMASSOC
360
6757
  0
DICTIONARY
  5
680C
330
67F9
100
AcDbDictionary
280
     1
281
     1
  3
ACAD_DIMASSOC
360
681C
  0
DICTIONARY
  5
68A5
330
68A4
100
AcDbDictionary
280
     1
281
     1
  3
ACAD_DIMASSOC
360
68A6
  0
DICTIONARY
  5
68A8
330
68A7
100
AcDbDictionary
280
     1
281
     1
  3
ACAD_DIMASSOC
360
68A9
  0
DICTIONARY
  5
68AB
330
68AA
100
AcDbDictionary
280
     1
281
     1
  3
ACAD_DIMASSOC
360
68AC
  0
DICTIONARY
  5
68AE
330
68AD
100
AcDbDictionary
280
     1
281
     1
  3
ACAD_DIMASSOC
360
68AF
  0
DICTIONARY
  5
68B1
330
68B0
100
AcDbDictionary
280
     1
281
     1
  3
ACAD_DIMASSOC
360
68B2
  0
XRECORD
  5
6B32
102
{ACAD_REACTORS
330
C
102
}
330
C
100
AcDbXrecord
280
     1
300
ACDLT
300
2018
300

  0
DICTIONARY
  5
6B
102
{ACAD_REACTORS
330
C
102
}
330
C
100
AcDbDictionary
281
     1
  0
DICTIONARY
  5
6B2B
102
{ACAD_REACTORS
330
C
102
}
330
C
100
AcDbDictionary
281
     1
  3
Metric50
350
6B2C
  0
DICTIONARY
  5
D
102
{ACAD_REACTORS
330
C
102
}
330
C
100
AcDbDictionary
281
     1
  0
DICTIONARY
  5
1A
102
{ACAD_REACTORS
330
C
102
}
330
C
100
AcDbDictionary
281
     1
  3
Layout1
350
51
  3
Layout2
350
56
  3
Model
350
22
  0
DICTIONARY
  5
6A
102
{ACAD_REACTORS
330
C
102
}
330
C
100
AcDbDictionary
281
     1
  3
ByBlock
350
6218
  3
ByLayer
350
6217
  3
Global
350
6219
  0
DICTIONARY
  5
6B27
102
{ACAD_REACTORS
330
C
102
}
330
C
100
AcDbDictionary
281
     1
  3
Standard
350
6B28
  0
DICTIONARY
  5
17
102
{ACAD_REACTORS
330
C
102
}
330
C
100
AcDbDictionary
281
     1
  3
Standard
350
18
  0
DICTIONARY
  5
19
102
{ACAD_REACTORS
330
C
102
}
330
C
100
AcDbDictionary
281
     1
  0
ACDBDICTIONARYWDFLT
  5
E
102
{ACAD_REACTORS
330
C
102
}
330
C
100
AcDbDictionary
281
     1
  3
Normal
350
F
100
AcDbDictionaryWithDefault
340
F
  0
DICTIONARY
  5
6B15
102
{ACAD_REACTORS
330
C
102
}
330
C
100
AcDbDictionary
281
     1
  3
A0
350
6B16
  3
A1
350
6B17
  3
A2
350
6B18
  3
A3
350
6B19
  3
A4
350
6B1A
  3
A5
350
6B1B
  3
A6
350
6B1C
  3
A7
350
6B1D
  3
A8
350
6B1E
  3
A9
350
6B1F
  3
B0
350
6B20
  3
B1
350
6B21
  3
B2
350
6B22
  3
B3
350
6B23
  3
B4
350
6B24
  3
B5
350
6B25
  3
B6
350
6B26
  0
DICTIONARY
  5
6B29
102
{ACAD_REACTORS
330
C
102
}
330
C
100
AcDbDictionary
281
     1
  3
Metric50
350
6B2A
  0
DICTIONARY
  5
622B
102
{ACAD_REACTORS
330
C
102
}
330
C
100
AcDbDictionary
281
     1
  3
Standard
350
622C
  0
DICTIONARY
  5
621A
102
{ACAD_REACTORS
330
C
102
}
330
C
100
AcDbDictionary
281
     1
  3
2dWireframe
350
6220
  3
3D Hidden
350
6222
  3
3dWireframe
350
6221
  3
Basic
350
621F
  3
Brighten
350
6226
  3
ColorChange
350
622A
  3
Conceptual
350
6223
  3
Dim
350
6225
  3
EdgeColorOff
350
6B14
  3
Facepattern
350
6229
  3
Flat
350
621B
  3
FlatWithEdges
350
621C
  3
Gouraud
350
621D
  3
GouraudWithEdges
350
621E
  3
Hidden
350
6B0C
  3
JitterOff
350
6B12
  3
Linepattern
350
6228
  3
OverhangOff
350
6B13
  3
Realistic
350
6224
  3
Shaded
350
6B11
  3
Shaded with edges
350
6B10
  3
Shades of Gray
350
6B0D
  3
Sketchy
350
6B0E
  3
Thicken
350
6227
  3
Wireframe
350
6B0B
  3
X-Ray
350
6B0F
  0
XRECORD
  5
1BCC
102
{ACAD_REACTORS
330
C
102
}
330
C
100
AcDbXrecord
280
     1
 90
   990106
  3

 60
     0
 61
     0
 62
     1
 63
     3
 64
     0
 65
     0
 66
     0
 67
     3
 68
     1
 69
     0
 70
     0
 71
     0
 72
     0
 40
0.0
170
     0
340
0
  0
XRECORD
  5
6CBE
102
{ACAD_REACTORS
330
C
102
}
330
C
100
AcDbXrecord
280
     1
 90
        1
330
622C
  0
DICTIONARY
  5
5E
102
{ACAD_REACTORS
330
C
102
}
330
C
100
AcDbDictionary
281
     1
  3
CANNOSCALE
350
6C27
  3
CMLEADERSTYLE
350
6C23
  3
CTABLESTYLE
350
652A
  3
CVIEWDETAILSTYLE
350
6C24
  3
CVIEWSECTIONSTYLE
350
6C25
  3
DIMASSOC
350
5F
  3
HIDETEXT
350
63
  3
LAYEREVAL
350
6C29
  3
LAYERNOTIFY
350
6C2A
  3
LIGHTINGUNITS
350
6C28
  3
MSLTSCALE
350
6C26
  3
PROJECTNAME
350
1CF
  0
DICTIONARY
  5
6233
102
{ACAD_REACTORS
330
C
102
}
330
C
100
AcDbDictionary
281
     1
  3
lxx_dimth
350
6234
  0
DICTIONARY
  5
6CB7
102
{ACAD_REACTORS
330
6CB6
102
}
330
6CB6
100
AcDbDictionary
281
     1
  0
XRECORD
  5
6C1D
102
{ACAD_REACTORS
330
6C1C
102
}
330
6C1C
100
AcDbXrecord
280
     1
290
     1
  0
XRECORD
  5
6C1F
102
{ACAD_REACTORS
330
6C1E
102
}
330
6C1E
100
AcDbXrecord
280
     1
290
     1
  0
XRECORD
  5
6C21
102
{ACAD_REACTORS
330
6C20
102
}
330
6C20
100
AcDbXrecord
280
     1
290
     1
  0
SORTENTSTABLE
  5
64DA
102
{ACAD_REACTORS
330
64D9
102
}
330
64D9
100
AcDbSortentsTable
330
1F
331
49CF
  5
49EA
331
4AFF
  5
4B99
331
667D
  5
667E
331
6685
  5
6689
331
49D0
  5
49EE
331
4777
  5
4778
331
49DC
  5
49EF
331
658B
  5
65B0
331
668A
  5
668E
331
668E
  5
6692
331
6692
  5
669D
331
49E0
  5
49F9
331
477F
  5
4785
331
4783
  5
4789
331
4787
  5
478D
331
651A
  5
49E5
331
65A3
  5
6624
331
651E
  5
658B
331
64E1
  5
64F2
331
4B81
  5
4C2C
331
64E5
  5
651A
331
6661
  5
6662
331
6665
  5
6666
331
478A
  5
480E
331
478E
  5
49DF
331
480E
  5
49E1
331
4A07
  5
4B81
331
4B2F
  5
4C2A
331
6626
  5
477F
331
64E8
  5
651D
331
4B98
  5
4C2F
331
5944
  5
64E7
331
6668
  5
6669
331
6735
  5
673D
331
6739
  5
667F
331
673D
  5
6687
331
595C
  5
64E8
331
6680
  5
6684
331
6684
  5
6688
331
4772
  5
4772
331
49DF
  5
49F0
331
4B0F
  5
4BC1
331
4BC1
  5
4C31
331
6689
  5
668D
331
668D
  5
6691
331
6691
  5
669C
331
477E
  5
4784
331
4782
  5
4788
331
4786
  5
478C
331
49EF
  5
4A04
331
4B1F
  5
4BD3
331
6519
  5
6543
331
651D
  5
6573
331
64E0
  5
64E9
331
64E4
  5
6519
331
6650
  5
477D
331
66A1
  5
6734
331
6660
  5
477E
331
6664
  5
6665
331
4789
  5
480D
331
478D
  5
49DC
331
480D
  5
49E0
331
6625
  5
6660
331
6629
  5
6661
331
64F3
  5
651E
331
4B97
  5
4C2E
331
6734
  5
673C
331
6738
  5
6735
331
49AD
  5
49E2
331
6503
  5
651F
331
667F
  5
6683
331
6687
  5
668B
331
4B53
  5
4C2B
331
572F
  5
581A
331
6688
  5
668C
331
668C
  5
6690
331
6690
  5
669B
331
6694
  5
669E
331
49E2
  5
49FC
331
477D
  5
4783
331
49EA
  5
4A01
331
4781
  5
4787
331
49EE
  5
4A03
331
4785
  5
478B
331
6518
  5
652B
331
64E3
  5
6518
331
651C
  5
655B
331
64E7
  5
651C
331
6663
  5
6664
331
6667
  5
6668
331
4788
  5
478E
331
478C
  5
49D0
331
4A01
  5
4B2F
331
4A60
  5
4B98
331
6573
  5
65AD
331
64EA
  5
64EC
331
6628
  5
4781
331
5717
  5
5816
331
64F2
  5
4AFF
331
6733
  5
673A
331
6737
  5
673F
331
673B
  5
6680
331
6543
  5
65A7
331
667E
  5
6681
331
6682
  5
6685
331
6686
  5
668A
331
4A1C
  5
4B82
331
4774
  5
4777
331
668B
  5
668F
331
668F
  5
6693
331
4778
  5
477C
331
49E1
  5
49FA
331
49E5
  5
49FF
331
477C
  5
4782
331
4780
  5
4786
331
4784
  5
478A
331
4A34
  5
4B97
331
655B
  5
65AA
331
651B
  5
64EA
331
4BD3
  5
4C32
331
651F
  5
65A3
331
64E2
  5
6503
331
652B
  5
65A4
331
4B82
  5
4C2D
331
64E6
  5
651B
331
669B
  5
669F
331
6662
  5
6663
331
6666
  5
6667
331
478B
  5
49AD
331
49F0
  5
4A05
331
6627
  5
4780
331
4B99
  5
4C30
331
6732
  5
6739
331
6669
  5
667D
331
6736
  5
673E
331
673A
  5
6736
331
673E
  5
6738
  0
DIMASSOC
  5
4A33
102
{ACAD_REACTORS
330
4A29
102
}
330
4A29
100
AcDbDimAssoc
330
4A1C
 90
        3
 70
     0
 71
     0
  1
AcDbOsnapPointRef
 72
    13
331
4774
 73
     2
 91
        0
 40
0.0
 10
0.0
 20
0.0
 30
2.000000000000000E+50
 75
     0
  1
AcDbOsnapPointRef
 72
    13
331
478C
 73
     2
 91
        0
 40
0.0
 10
0.0
 20
0.0
 30
2.000000000000000E+50
 75
     0
  0
DIMASSOC
  5
4A83
102
{ACAD_REACTORS
330
4A73
102
}
330
4A73
100
AcDbDimAssoc
330
4A60
 90
       15
 70
     0
 71
     0
  1
AcDbOsnapPointRef
 72
    13
331
477D
 73
     2
 91
        0
 40
0.0
 10
0.0
 20
0.0
 30
2.000000000000000E+50
 75
     0
  1
AcDbOsnapPointRef
 72
     1
331
477D
 73
     2
 91
        0
 40
1.0
 10
0.0
 20
0.0
 30
2.000000000000000E+50
 75
     0
  1
AcDbOsnapPointRef
 72
    13
331
478C
 73
     2
 91
        0
 40
0.0
 10
0.0
 20
0.0
 30
2.000000000000000E+50
 75
     0
  1
AcDbOsnapPointRef
 72
     1
331
478C
 73
     2
 91
        0
 40
1.0
 10
0.0
 20
0.0
 30
2.000000000000000E+50
 75
     0
  0
DIMASSOC
  5
4B2E
102
{ACAD_REACTORS
330
4B28
102
}
330
4B28
100
AcDbDimAssoc
330
4B1F
 90
        2
 70
     0
 71
     0
  1
AcDbOsnapPointRef
 72
     3
331
49DC
 73
     2
 91
        8
 40
0.0
 10
0.0
 20
0.0
 30
0.0
 75
     0
  0
DIMASSOC
  5
4B62
102
{ACAD_REACTORS
330
4B5C
102
}
330
4B5C
100
AcDbDimAssoc
330
4B53
 90
        2
 70
     0
 71
     0
  1
AcDbOsnapPointRef
 72
     3
331
49DC
 73
     2
 91
        3
 40
0.0
 10
0.0
 20
0.0
 30
0.0
 75
     0
  0
DIMASSOC
  5
4BB0
102
{ACAD_REACTORS
330
4BA6
102
}
330
4BA6
100
AcDbDimAssoc
330
4B99
 90
        3
 70
     0
 71
     0
  1
AcDbOsnapPointRef
 72
    13
331
49E2
 73
     2
 91
        0
 40
0.0
 10
0.0
 20
0.0
 30
2.000000000000000E+50
 75
     0
  1
AcDbOsnapPointRef
 72
     2
331
49DC
 73
     2
 91
        8
 40
1.570796326794882
 10
0.0
 20
0.0
 30
0.0
 75
     0
  0
DIMASSOC
  5
572E
102
{ACAD_REACTORS
330
5724
102
}
330
5724
100
AcDbDimAssoc
330
5717
 90
        3
 70
     0
 71
     0
  1
AcDbOsnapPointRef
 72
     2
331
49DC
 73
     2
 91
        8
 40
1.570796326794882
 10
0.0
 20
0.0
 30
0.0
 75
     0
  1
AcDbOsnapPointRef
 72
     1
331
49D0
 73
     2
 91
        0
 40
1.0
 10
0.0
 20
0.0
 30
2.000000000000000E+50
 75
     0
  0
DIMASSOC
  5
5746
102
{ACAD_REACTORS
330
573C
102
}
330
573C
100
AcDbDimAssoc
330
572F
 90
        3
 70
     0
 71
     0
  1
AcDbOsnapPointRef
 72
     2
331
49EE
 73
     2
 91
        0
 40
1.570796326794896
 10
0.0
 20
0.0
 30
0.0
 75
     0
  1
AcDbOsnapPointRef
 72
    13
331
49AD
 73
     2
 91
        0
 40
0.0
 10
0.0
 20
0.0
 30
2.000000000000000E+50
 75
     0
  0
DIMASSOC
  5
595B
102
{ACAD_REACTORS
330
5951
102
}
330
5951
100
AcDbDimAssoc
330
5944
 90
        1
 70
     0
 71
     0
  1
AcDbOsnapPointRef
 72
     6
331
49CF
 73
     2
 91
        0
 40
1.0
 10
0.0
 20
0.0
 30
0.0
332
49DC
 74
     2
 92
        6
 75
     0
  0
DIMASSOC
  5
5973
102
{ACAD_REACTORS
330
5969
102
}
330
5969
100
AcDbDimAssoc
330
595C
 90
        3
 70
     0
 71
     0
  1
AcDbOsnapPointRef
 72
     1
331
49CF
 73
     2
 91
        0
 40
1.0
 10
0.0
 20
0.0
 30
2.000000000000000E+50
 75
     0
  1
AcDbOsnapPointRef
 72
    13
331
49CF
 73
     2
 91
        0
 40
0.0
 10
0.0
 20
0.0
 30
2.000000000000000E+50
 75
     0
  0
DIMASSOC
  5
6512
102
{ACAD_REACTORS
330
650C
102
}
330
650C
100
AcDbDimAssoc
330
6503
 90
        2
 70
     0
 71
     0
  1
AcDbOsnapPointRef
 72
     3
331
64E4
 73
     2
 91
        0
 40
0.0
 10
0.0
 20
0.0
 30
0.0
 75
     0
  0
DIMASSOC
  5
6542
102
{ACAD_REACTORS
330
6538
102
}
330
6538
100
AcDbDimAssoc
330
652B
 90
        3
 70
     0
 71
     0
  1
AcDbOsnapPointRef
 72
    13
331
64E2
 73
     2
 91
        0
 40
0.0
 10
0.0
 20
0.0
 30
2.000000000000000E+50
 75
     0
  1
AcDbOsnapPointRef
 72
     1
331
64E2
 73
     2
 91
        0
 40
1.0
 10
0.0
 20
0.0
 30
2.000000000000000E+50
 75
     0
  0
DIMASSOC
  5
655A
102
{ACAD_REACTORS
330
6550
102
}
330
6550
100
AcDbDimAssoc
330
6543
 90
        3
 70
     0
 71
     0
  1
AcDbOsnapPointRef
 72
     2
331
64E0
 73
     2
 91
        0
 40
0.5
 10
0.0
 20
0.0
 30
0.0
 75
     0
  1
AcDbOsnapPointRef
 72
     8
331
64E1
 73
     2
 91
        0
 40
0.5
 10
0.0
 20
0.0
 30
0.0
 75
     1
  1
AcDbOsnapPointRef
 72
     2
331
64E0
 73
     2
 91
        0
 40
0.5
 10
0.0
 20
0.0
 30
0.0
 75
     0
  0
DIMASSOC
  5
6572
102
{ACAD_REACTORS
330
6568
102
}
330
6568
100
AcDbDimAssoc
330
655B
 90
        3
 70
     0
 71
     0
  1
AcDbOsnapPointRef
 72
    10
331
64EA
 73
     2
 91
        0
 40
0.7920951163111459
 10
0.0
 20
0.0
 30
0.0
 75
     0
  1
AcDbOsnapPointRef
 72
     8
331
49AD
 73
     2
 91
        0
 40
0.9109534152497053
 10
0.0
 20
0.0
 30
0.0
 75
     1
  1
AcDbOsnapPointRef
 72
    10
331
64EA
 73
     2
 91
        0
 40
0.7920951163111459
 10
0.0
 20
0.0
 30
0.0
 75
     0
  0
DIMASSOC
  5
658A
102
{ACAD_REACTORS
330
6580
102
}
330
6580
100
AcDbDimAssoc
330
6573
 90
        3
 70
     0
 71
     0
  1
AcDbOsnapPointRef
 72
    10
331
49E5
 73
     2
 91
        0
 40
0.7571395188684824
 10
0.0
 20
0.0
 30
0.0
 75
     0
  1
AcDbOsnapPointRef
 72
     8
331
6518
 73
     2
 91
        0
 40
0.7416101572881681
 10
0.0
 20
0.0
 30
0.0
 75
     1
  1
AcDbOsnapPointRef
 72
    10
331
49E5
 73
     2
 91
        0
 40
0.7571395188684824
 10
0.0
 20
0.0
 30
0.0
 75
     0
  0
DIMASSOC
  5
65A2
102
{ACAD_REACTORS
330
6598
102
}
330
6598
100
AcDbDimAssoc
330
658B
 90
        3
 70
     0
 71
     0
  1
AcDbOsnapPointRef
 72
     8
331
64E0
 73
     2
 91
        0
 40
0.3896173546253938
 10
0.0
 20
0.0
 30
0.0
 75
     1
  1
AcDbOsnapPointRef
 72
     0
 40
0.0
 10
42947.57783944112
 20
3494.076437311829
 30
0.0
 75
     0
  1
AcDbOsnapPointRef
 72
    13
331
651B
 73
     2
 91
        0
 40
0.0
 10
0.0
 20
0.0
 30
2.000000000000000E+50
 75
     0
  0
DIMASSOC
  5
664A
102
{ACAD_REACTORS
330
663B
102
}
330
663B
100
AcDbDimAssoc
330
6629
 90
       15
 70
     0
 71
     0
  1
AcDbOsnapPointRef
 72
    13
331
4A34
 73
     2
 91
        0
 40
0.0
 10
0.0
 20
0.0
 30
2.000000000000000E+50
 75
     0
  1
AcDbOsnapPointRef
 72
     1
331
4A34
 73
     2
 91
        0
 40
1.0
 10
0.0
 20
0.0
 30
2.000000000000000E+50
 75
     0
  1
AcDbOsnapPointRef
 72
    13
331
6626
 73
     2
 91
        0
 40
0.0
 10
0.0
 20
0.0
 30
2.000000000000000E+50
 75
     0
  1
AcDbOsnapPointRef
 72
     1
331
6626
 73
     2
 91
        0
 40
0.9999999999999998
 10
0.0
 20
0.0
 30
2.000000000000000E+50
 75
     0
  0
DIMASSOC
  5
666B
102
{ACAD_REACTORS
330
666A
102
}
330
666A
100
AcDbDimAssoc
330
6669
 90
       12
 70
     0
 71
     0
  1
AcDbOsnapPointRef
 72
    13
331
6664
 73
     2
 91
        0
 40
0.0
 10
0.0
 20
0.0
 30
2.000000000000000E+50
 75
     0
  1
AcDbOsnapPointRef
 72
     1
331
6664
 73
     2
 91
        0
 40
0.9999999999999998
 10
0.0
 20
0.0
 30
2.000000000000000E+50
 75
     0
  0
DIMASSOC
  5
6757
102
{ACAD_REACTORS
330
674D
102
}
330
674D
100
AcDbDimAssoc
330
6740
 90
        3
 70
     0
 71
     0
  1
AcDbOsnapPointRef
 72
    10
331
4772
 73
     2
 91
        0
 40
0.7794463763895908
 10
0.0
 20
0.0
 30
0.0
 75
     0
  1
AcDbOsnapPointRef
 72
     2
331
6691
 73
     2
 91
        0
 40
0.5
 10
0.0
 20
0.0
 30
0.0
 75
     0
  0
DIMASSOC
  5
681C
102
{ACAD_REACTORS
330
680C
102
}
330
680C
100
AcDbDimAssoc
330
67F9
 90
       15
 70
     0
 71
     0
  1
AcDbOsnapPointRef
 72
    13
331
668D
 73
     2
 91
        0
 40
0.0
 10
0.0
 20
0.0
 30
2.000000000000000E+50
 75
     0
  1
AcDbOsnapPointRef
 72
     1
331
668D
 73
     2
 91
        0
 40
1.0
 10
0.0
 20
0.0
 30
2.000000000000000E+50
 75
     0
  1
AcDbOsnapPointRef
 72
    13
331
66A1
 73
     2
 91
        0
 40
0.0
 10
0.0
 20
0.0
 30
2.000000000000000E+50
 75
     0
  1
AcDbOsnapPointRef
 72
     1
331
66A1
 73
     2
 91
        0
 40
1.0
 10
0.0
 20
0.0
 30
2.000000000000000E+50
 75
     0
  0
DIMASSOC
  5
68A6
102
{ACAD_REACTORS
330
68A5
102
}
330
68A5
100
AcDbDimAssoc
330
68A4
 90
        3
 70
     0
 71
     0
  1
AcDbOsnapPointRef
 72
     1
331
689C
 73
     2
 91
        0
 40
1.0
 10
0.0
 20
0.0
 30
2.000000000000000E+50
 75
     0
  1
AcDbOsnapPointRef
 72
    13
331
689C
 73
     2
 91
        0
 40
0.0
 10
0.0
 20
0.0
 30
2.000000000000000E+50
 75
     0
  0
DIMASSOC
  5
68A9
102
{ACAD_REACTORS
330
68A8
102
}
330
68A8
100
AcDbDimAssoc
330
68A7
 90
        3
 70
     0
 71
     0
  1
AcDbOsnapPointRef
 72
     1
331
689D
 73
     2
 91
        0
 40
1.0
 10
0.0
 20
0.0
 30
2.000000000000000E+50
 75
     0
  1
AcDbOsnapPointRef
 72
    13
331
689A
 73
     2
 91
        0
 40
0.0
 10
0.0
 20
0.0
 30
2.000000000000000E+50
 75
     0
  0
DIMASSOC
  5
68AC
102
{ACAD_REACTORS
330
68AB
102
}
330
68AB
100
AcDbDimAssoc
330
68AA
 90
        3
 70
     0
 71
     0
  1
AcDbOsnapPointRef
 72
     1
331
6894
 73
     2
 91
        0
 40
1.0
 10
0.0
 20
0.0
 30
2.000000000000000E+50
 75
     0
  1
AcDbOsnapPointRef
 72
     1
331
689A
 73
     2
 91
        0
 40
1.0
 10
0.0
 20
0.0
 30
2.000000000000000E+50
 75
     0
  0
DIMASSOC
  5
68AF
102
{ACAD_REACTORS
330
68AE
102
}
330
68AE
100
AcDbDimAssoc
330
68AD
 90
        3
 70
     0
 71
     0
  1
AcDbOsnapPointRef
 72
     1
331
6894
 73
     2
 91
        0
 40
1.0
 10
0.0
 20
0.0
 30
2.000000000000000E+50
 75
     0
  1
AcDbOsnapPointRef
 72
     1
331
689D
 73
     2
 91
        0
 40
1.0
 10
0.0
 20
0.0
 30
2.000000000000000E+50
 75
     0
  0
DIMASSOC
  5
68B2
102
{ACAD_REACTORS
330
68B1
102
}
330
68B1
100
AcDbDimAssoc
330
68B0
 90
        3
 70
     0
 71
     0
  1
AcDbOsnapPointRef
 72
     1
331
689C
 73
     2
 91
        0
 40
1.0
 10
0.0
 20
0.0
 30
2.000000000000000E+50
 75
     0
  1
AcDbOsnapPointRef
 72
     1
331
6894
 73
     2
 91
        0
 40
1.0
 10
0.0
 20
0.0
 30
2.000000000000000E+50
 75
     0
  0
ACDBDETAILVIEWSTYLE
  5
6B2C
102
{ACAD_REACTORS
330
6B2B
102
}
330
6B2B
100
AcDbModelDocViewStyle
 70
     0
  3
Metric50
290
     1
300
Metric50
 90
        0
100
AcDbDetailViewStyle
 70
     0
 71
     0
 90
        3
 71
     1
340
11
 62
   256
 40
5.0
340
0
 62
   256
 40
5.0
300

 40
0.0
280
     1
 71
     2
340
16
 90
       25
 62
   256
 71
     3
340
11
 62
   256
 40
5.0
 90
        0
 40
15.0
 90
        1
300
%<\AcVar ViewDetailId>% (%<\AcVar ViewScale \f "%sn">%)
 71
     4
340
16
 90
       25
 62
   256
340
16
 90
       25
 62
   256
280
     0
  0
LAYOUT
  5
51
102
{ACAD_REACTORS
330
1A
102
}
330
1A
100
AcDbPlotSettings
  1

  2
None
  4

  6

 40
0.0
 41
0.0
 42
0.0
 43
0.0
 44
0.0
 45
0.0
 46
0.0
 47
0.0
 48
0.0
 49
0.0
140
0.0
141
0.0
142
1.0
143
1.0
 70
   688
 72
     0
 73
     0
 74
     5
  7

 75
    16
147
1.0
 76
     0
 77
     2
 78
   300
148
0.0
149
0.0
100
AcDbLayout
  1
Layout1
 70
     1
 71
     1
 10
0.0
 20
0.0
 11
12.0
 21
9.0
 12
0.0
 22
0.0
 32
0.0
 14
0.0
 24
0.0
 34
0.0
 15
0.0
 25
0.0
 35
0.0
146
0.0
 13
0.0
 23
0.0
 33
0.0
 16
1.0
 26
0.0
 36
0.0
 17
0.0
 27
1.0
 37
0.0
 76
     0
330
50
  0
LAYOUT
  5
56
102
{ACAD_REACTORS
330
1A
102
}
330
1A
100
AcDbPlotSettings
  1

  2
None
  4

  6

 40
0.0
 41
0.0
 42
0.0
 43
0.0
 44
0.0
 45
0.0
 46
0.0
 47
0.0
 48
0.0
 49
0.0
140
0.0
141
0.0
142
1.0
143
1.0
 70
   688
 72
     0
 73
     0
 74
     5
  7

 75
    16
147
1.0
 76
     0
 77
     2
 78
   300
148
0.0
149
0.0
100
AcDbLayout
  1
Layout2
 70
     1
 71
     2
 10
0.0
 20
0.0
 11
12.0
 21
9.0
 12
0.0
 22
0.0
 32
0.0
 14
0.0
 24
0.0
 34
0.0
 15
0.0
 25
0.0
 35
0.0
146
0.0
 13
0.0
 23
0.0
 33
0.0
 16
1.0
 26
0.0
 36
0.0
 17
0.0
 27
1.0
 37
0.0
 76
     0
330
55
  0
LAYOUT
  5
22
102
{ACAD_REACTORS
330
1A
102
}
330
1A
100
AcDbPlotSettings
  1

  2
EPSON ME 1
  4
A4
  6

 40
3.757083177566528
 41
13.28207111358642
 42
3.757080078125
 43
3.757080078125
 44
209.9733276367187
 45
296.9683227539062
 46
0.0
 47
12.96
 48
34167.55329059125
 49
2986.939479498671
140
35146.46947682305
141
4215.069274257515
142
1.0
143
4.835129045526885
 70
 11956
 72
     1
 73
     0
 74
     4
  7

 75
     0
147
0.2068197126869092
 76
     0
 77
     2
 78
   180
148
-34167.55329059125
149
-2986.939479498671
100
AcDbLayout
  1
Model
 70
     1
 71
     0
 10
0.0
 20
0.0
 11
12.0
 21
9.0
 12
0.0
 22
0.0
 32
0.0
 14
0.0
 24
0.0
 34
0.0
 15
0.0
 25
0.0
 35
0.0
146
0.0
 13
0.0
 23
0.0
 33
0.0
 16
1.0
 26
0.0
 36
0.0
 17
0.0
 27
1.0
 37
0.0
 76
     0
330
1F
331
6215
  0
MATERIAL
  5
6218
102
{ACAD_REACTORS
330
6A
102
}
330
6A
100
AcDbMaterial
  1
ByBlock
 73
     1
 78
     1
172
     1
176
     1
270
     1
274
     1
 94
       63
  0
MATERIAL
  5
6217
102
{ACAD_REACTORS
330
6A
102
}
330
6A
100
AcDbMaterial
  1
ByLayer
 73
     1
 78
     1
172
     1
176
     1
270
     1
274
     1
 94
       63
  0
MATERIAL
  5
6219
102
{ACAD_REACTORS
330
6A
102
}
330
6A
100
AcDbMaterial
  1
Global
 73
     1
 78
     1
172
     1
176
     1
270
     1
274
     1
 94
       63
  0
MLEADERSTYLE
  5
6B28
102
{ACAD_REACTORS
330
6B27
102
}
330
6B27
100
AcDbMLeaderStyle
179
     2
170
     2
171
     1
172
     0
 90
        2
 40
0.0
 41
0.0
173
     1
 91
-1056964608
340
14
 92
       -2
290
     1
 42
2.0
291
     1
 43
0.36
  3
Standard
 44
4.0
300

342
11
174
     1
178
     6
175
     1
176
     0
 93
-1056964608
 45
4.0
292
     0
297
     0
 46
4.0
 94
-1056964608
 47
1.0
 49
1.0
140
1.0
293
     1
141
0.0
294
     1
177
     0
142
1.0
295
     1
296
     0
143
0.125
271
     0
272
     9
273
     9
298
     1
  0
MLINESTYLE
  5
18
102
{ACAD_REACTORS
330
17
102
}
330
17
100
AcDbMlineStyle
  2
STANDARD
 70
     0
  3

 62
   256
 51
90.0
 52
90.0
 71
     2
 49
0.5
 62
   256
  6
BYLAYER
 49
-0.5
 62
   256
  6
BYLAYER
  0
ACDBPLACEHOLDER
  5
F
102
{ACAD_REACTORS
330
E
102
}
330
E
  0
SCALE
  5
6B16
102
{ACAD_REACTORS
330
6B15
102
}
330
6B15
100
AcDbScale
 70
     0
300
1:1
140
1.0
141
1.0
290
     1
  0
SCALE
  5
6B17
102
{ACAD_REACTORS
330
6B15
102
}
330
6B15
100
AcDbScale
 70
     0
300
1:2
140
1.0
141
2.0
290
     0
  0
SCALE
  5
6B18
102
{ACAD_REACTORS
330
6B15
102
}
330
6B15
100
AcDbScale
 70
     0
300
1:4
140
1.0
141
4.0
290
     0
  0
SCALE
  5
6B19
102
{ACAD_REACTORS
330
6B15
102
}
330
6B15
100
AcDbScale
 70
     0
300
1:5
140
1.0
141
5.0
290
     0
  0
SCALE
  5
6B1A
102
{ACAD_REACTORS
330
6B15
102
}
330
6B15
100
AcDbScale
 70
     0
300
1:8
140
1.0
141
8.0
290
     0
  0
SCALE
  5
6B1B
102
{ACAD_REACTORS
330
6B15
102
}
330
6B15
100
AcDbScale
 70
     0
300
1:10
140
1.0
141
10.0
290
     0
  0
SCALE
  5
6B1C
102
{ACAD_REACTORS
330
6B15
102
}
330
6B15
100
AcDbScale
 70
     0
300
1:16
140
1.0
141
16.0
290
     0
  0
SCALE
  5
6B1D
102
{ACAD_REACTORS
330
6B15
102
}
330
6B15
100
AcDbScale
 70
     0
300
1:20
140
1.0
141
20.0
290
     0
  0
SCALE
  5
6B1E
102
{ACAD_REACTORS
330
6B15
102
}
330
6B15
100
AcDbScale
 70
     0
300
1:30
140
1.0
141
30.0
290
     0
  0
SCALE
  5
6B1F
102
{ACAD_REACTORS
330
6B15
102
}
330
6B15
100
AcDbScale
 70
     0
300
1:40
140
1.0
141
40.0
290
     0
  0
SCALE
  5
6B20
102
{ACAD_REACTORS
330
6B15
102
}
330
6B15
100
AcDbScale
 70
     0
300
1:50
140
1.0
141
50.0
290
     0
  0
SCALE
  5
6B21
102
{ACAD_REACTORS
330
6B15
102
}
330
6B15
100
AcDbScale
 70
     0
300
1:100
140
1.0
141
100.0
290
     0
  0
SCALE
  5
6B22
102
{ACAD_REACTORS
330
6B15
102
}
330
6B15
100
AcDbScale
 70
     0
300
2:1
140
2.0
141
1.0
290
     0
  0
SCALE
  5
6B23
102
{ACAD_REACTORS
330
6B15
102
}
330
6B15
100
AcDbScale
 70
     0
300
4:1
140
4.0
141
1.0
290
     0
  0
SCALE
  5
6B24
102
{ACAD_REACTORS
330
6B15
102
}
330
6B15
100
AcDbScale
 70
     0
300
8:1
140
8.0
141
1.0
290
     0
  0
SCALE
  5
6B25
102
{ACAD_REACTORS
330
6B15
102
}
330
6B15
100
AcDbScale
 70
     0
300
10:1
140
10.0
141
1.0
290
     0
  0
SCALE
  5
6B26
102
{ACAD_REACTORS
330
6B15
102
}
330
6B15
100
AcDbScale
 70
     0
300
100:1
140
100.0
141
1.0
290
     0
  0
ACDBSECTIONVIEWSTYLE
  5
6B2A
102
{ACAD_REACTORS
330
6B29
102
}
330
6B29
100
AcDbModelDocViewStyle
 70
     0
  3
Metric50
290
     1
300
Metric50
 90
        0
100
AcDbSectionViewStyle
 70
     0
 71
     0
 90
      102
 71
     1
340
11
 62
   256
 40
5.0
340
0
340
0
 62
   256
 40
5.0
300
I, O, Q, S, X, Z
 40
10.0
 90
        0
 40
2.5
 90
        0
 71
     2
340
16
 90
       25
 62
   256
340
16
 90
       50
 62
   256
 40
5.0
 40
2.5
 40
5.0
 71
     3
340
11
 62
   256
 40
5.0
 90
        0
 40
15.0
 90
        1
300
%<\AcVar ViewSectionStartId>%-%<\AcVar ViewSectionEndId>% (%<\AcVar ViewScale \f "%sn">%)
 71
     4
 62
   256
 62
   257
300
ANSI31
 40
1.0
 90
        0
290
     0
290
     0
 90
        6
 40
0.0
 40
1.570796326794896
 40
0.2617993877991494
 40
1.308996938995747
 40
-0.2617993877991494
 40
1.832595714594046
  0
TABLESTYLE
  5
622C
102
{ACAD_XDICTIONARY
360
6CBC
102
}
102
{ACAD_REACTORS
330
622B
102
}
330
622B
100
AcDbTableStyle
280
     0
  3
Standard
 70
     0
 71
     0
 40
1.5
 41
1.5
280
     0
281
     0
  7
Standard
140
4.5
170
     2
 62
     0
 63
     7
283
     0
 90
      512
 91
        0
  1

274
    -2
284
     1
 64
     0
275
    -2
285
     1
 65
     0
276
    -2
286
     1
 66
     0
277
    -2
287
     1
 67
     0
278
    -2
288
     1
 68
     0
279
    -2
289
     1
 69
     0
  7
Standard
140
6.0
170
     5
 62
     0
 63
     7
283
     0
 90
      512
 91
        0
  1

274
    -2
284
     1
 64
     0
275
    -2
285
     1
 65
     0
276
    -2
286
     1
 66
     0
277
    -2
287
     1
 67
     0
278
    -2
288
     1
 68
     0
279
    -2
289
     1
 69
     0
  7
Standard
140
4.5
170
     5
 62
     0
 63
     7
283
     0
 90
      512
 91
        0
  1

274
    -2
284
     1
 64
     0
275
    -2
285
     1
 65
     0
276
    -2
286
     1
 66
     0
277
    -2
287
     1
 67
     0
278
    -2
288
     1
 68
     0
279
    -2
289
     1
 69
     0
  0
VISUALSTYLE
  5
6220
102
{ACAD_REACTORS
330
621A
102
}
330
621A
100
AcDbVisualStyle
  2
2dWireframe
 70
     4
177
     3
291
     0
 70
    58
 90
        0
176
     1
 90
        2
176
     1
 90
        0
176
     1
 90
        0
176
     1
 40
0.6
176
     1
 40
30.0
176
     1
 62
     7
420
 16777215
176
     1
 90
        1
176
     1
 90
        4
176
     1
 62
     7
176
     1
 62
   257
176
     1
 90
        1
176
     1
 90
        1
176
     1
 40
1.0
176
     1
 90
        0
176
     1
 62
   257
176
     1
 40
1.0
176
     1
 90
        1
176
     1
 90
        6
176
     1
 90
        2
176
     1
 62
     7
176
     1
 90
        5
176
     1
 90
        0
176
     1
 90
        0
176
     1
290
     0
176
     1
 90
        1
176
     1
 40
0.0
176
     1
 90
        0
176
     1
290
     1
176
     1
290
     1
176
     1
290
     0
176
     1
290
     0
176
     1
290
     0
176
     1
290
     0
176
     1
290
     0
176
     1
290
     0
176
     1
290
     0
176
     1
 90
       50
176
     1
 40
0.0
176
     1
 40
1.0
176
     1
 90
        0
176
     1
 62
    18
420
        0
176
     1
 90
       50
176
     1
 90
        3
176
     1
 62
     5
420
      255
176
     1
290
     0
176
     1
 90
       50
176
     1
 90
       50
176
     1
 90
       50
176
     1
290
     0
176
     1
 90
       50
176
     1
 62
   256
176
     0
 40
1.0
176
     0
 90
        2
176
     1
  1
strokes_ogs.tif
176
     1
290
     0
176
     1
 40
1.0
176
     1
 40
1.0
176
     1
  0
VISUALSTYLE
  5
6222
102
{ACAD_REACTORS
330
621A
102
}
330
621A
100
AcDbVisualStyle
  2
3D Hidden
 70
     6
177
     3
291
     0
 70
    58
 90
        1
176
     1
 90
        2
176
     1
 90
        2
176
     1
 90
        0
176
     1
 40
0.6
176
     1
 40
30.0
176
     1
 62
     7
420
 16777215
176
     1
 90
        2
176
     1
 90
        2
176
     1
 62
     7
176
     1
 62
   257
176
     1
 90
        2
176
     1
 90
        1
176
     1
 40
40.0
176
     1
 90
        0
176
     1
 62
   257
176
     1
 40
1.0
176
     1
 90
        1
176
     1
 90
        6
176
     1
 90
        2
176
     1
 62
     7
176
     1
 90
        3
176
     1
 90
        0
176
     1
 90
        0
176
     1
290
     0
176
     1
 90
        1
176
     1
 40
0.0
176
     1
 90
        0
176
     1
290
     0
176
     1
290
     1
176
     1
290
     1
176
     1
290
     0
176
     1
290
     0
176
     1
290
     0
176
     1
290
     0
176
     1
290
     0
176
     1
290
     0
176
     1
 90
       50
176
     1
 40
0.0
176
     1
 40
1.0
176
     1
 90
        0
176
     1
 62
    18
420
        0
176
     1
 90
       50
176
     1
 90
        3
176
     1
 62
     5
420
      255
176
     1
290
     0
176
     1
 90
       50
176
     1
 90
       50
176
     1
 90
       50
176
     1
290
     0
176
     1
 90
       50
176
     1
 62
   256
176
     0
 40
1.0
176
     0
 90
        2
176
     1
  1
strokes_ogs.tif
176
     1
290
     0
176
     1
 40
1.0
176
     1
 40
1.0
176
     1
  0
VISUALSTYLE
  5
6221
102
{ACAD_REACTORS
330
621A
102
}
330
621A
100
AcDbVisualStyle
  2
3dWireframe
 70
     5
177
     3
291
     0
 70
    58
 90
        0
176
     1
 90
        2
176
     1
 90
        0
176
     1
 90
        0
176
     1
 40
0.6
176
     1
 40
30.0
176
     1
 62
     7
420
 16777215
176
     1
 90
        1
176
     1
 90
        4
176
     1
 62
     7
176
     1
 62
   257
176
     1
 90
        1
176
     1
 90
        1
176
     1
 40
1.0
176
     1
 90
        0
176
     1
 62
   257
176
     1
 40
1.0
176
     1
 90
        1
176
     1
 90
        6
176
     1
 90
        2
176
     1
 62
     7
176
     1
 90
        5
176
     1
 90
        0
176
     1
 90
        0
176
     1
290
     0
176
     1
 90
        1
176
     1
 40
0.0
176
     1
 90
        0
176
     1
290
     0
176
     1
290
     1
176
     1
290
     1
176
     1
290
     0
176
     1
290
     0
176
     1
290
     0
176
     1
290
     0
176
     1
290
     0
176
     1
290
     0
176
     1
 90
       50
176
     1
 40
0.0
176
     1
 40
1.0
176
     1
 90
        0
176
     1
 62
    18
420
        0
176
     1
 90
       50
176
     1
 90
        3
176
     1
 62
     5
420
      255
176
     1
290
     0
176
     1
 90
       50
176
     1
 90
       50
176
     1
 90
       50
176
     1
290
     0
176
     1
 90
       50
176
     1
 62
   256
176
     0
 40
1.0
176
     0
 90
        2
176
     1
  1
strokes_ogs.tif
176
     1
290
     0
176
     1
 40
1.0
176
     1
 40
1.0
176
     1
  0
VISUALSTYLE
  5
621F
102
{ACAD_REACTORS
330
621A
102
}
330
621A
100
AcDbVisualStyle
  2
Basic
 70
     7
177
     3
291
     1
 70
    58
 90
        1
176
     1
 90
        0
176
     1
 90
        1
176
     1
 90
        0
176
     1
 40
0.6
176
     1
 40
30.0
176
     1
 62
     7
420
 16777215
176
     1
 90
        0
176
     1
 90
        4
176
     1
 62
     7
176
     1
 62
   257
176
     1
 90
        1
176
     1
 90
        1
176
     1
 40
1.0
176
     1
 90
        8
176
     1
 62
     7
176
     1
 40
1.0
176
     1
 90
        1
176
     1
 90
        6
176
     1
 90
        2
176
     1
 62
     7
176
     1
 90
        5
176
     1
 90
        0
176
     1
 90
        0
176
     1
290
     0
176
     1
 90
        1
176
     1
 40
0.0
176
     1
 90
        0
176
     1
290
     0
176
     1
290
     1
176
     1
290
     1
176
     1
290
     0
176
     1
290
     0
176
     1
290
     0
176
     1
290
     0
176
     1
290
     0
176
     1
290
     0
176
     1
 90
       50
176
     1
 40
0.0
176
     1
 40
1.0
176
     1
 90
        0
176
     1
 62
    18
420
        0
176
     1
 90
       50
176
     1
 90
        3
176
     1
 62
     5
420
      255
176
     1
290
     0
176
     1
 90
       50
176
     1
 90
       50
176
     1
 90
       50
176
     1
290
     0
176
     1
 90
       50
176
     1
 62
   256
176
     0
 40
1.0
176
     0
 90
        2
176
     1
  1
strokes_ogs.tif
176
     1
290
     0
176
     1
 40
1.0
176
     1
 40
1.0
176
     1
  0
VISUALSTYLE
  5
6226
102
{ACAD_REACTORS
330
621A
102
}
330
621A
100
AcDbVisualStyle
  2
Brighten
 70
    12
177
     3
291
     1
 70
    58
 90
        2
176
     1
 90
        2
176
     1
 90
        0
176
     1
 90
        0
176
     1
 40
0.6
176
     1
 40
30.0
176
     1
 62
     7
420
 16777215
176
     1
 90
        1
176
     1
 90
        4
176
     1
 62
     7
176
     1
 62
   257
176
     1
 90
        1
176
     1
 90
        1
176
     1
 40
1.0
176
     1
 90
        8
176
     1
 62
     7
176
     1
 40
1.0
176
     1
 90
        1
176
     1
 90
        6
176
     1
 90
        2
176
     1
 62
     7
176
     1
 90
        5
176
     1
 90
        0
176
     1
 90
        0
176
     1
290
     0
176
     1
 90
        1
176
     1
 40
50.0
176
     1
 90
        0
176
     1
290
     0
176
     1
290
     1
176
     1
290
     1
176
     1
290
     0
176
     1
290
     0
176
     1
290
     0
176
     1
290
     0
176
     1
290
     0
176
     1
290
     0
176
     1
 90
       50
176
     1
 40
0.0
176
     1
 40
1.0
176
     1
 90
        0
176
     1
 62
    18
420
        0
176
     1
 90
       50
176
     1
 90
        3
176
     1
 62
     5
420
      255
176
     1
290
     0
176
     1
 90
       50
176
     1
 90
       50
176
     1
 90
       50
176
     1
290
     0
176
     1
 90
       50
176
     1
 62
   256
176
     0
 40
1.0
176
     0
 90
        2
176
     1
  1
strokes_ogs.tif
176
     1
290
     0
176
     1
 40
1.0
176
     1
 40
1.0
176
     1
  0
VISUALSTYLE
  5
622A
102
{ACAD_REACTORS
330
621A
102
}
330
621A
100
AcDbVisualStyle
  2
ColorChange
 70
    16
177
     3
291
     1
 70
    58
 90
        2
176
     1
 90
        2
176
     1
 90
        3
176
     1
 90
        0
176
     1
 40
0.6
176
     1
 40
30.0
176
     1
 62
     8
420
  8421504
176
     1
 90
        1
176
     1
 90
        4
176
     1
 62
     7
176
     1
 62
   257
176
     1
 90
        1
176
     1
 90
        1
176
     1
 40
1.0
176
     1
 90
        8
176
     1
 62
     8
420
  8421504
176
     1
 40
1.0
176
     1
 90
        1
176
     1
 90
        6
176
     1
 90
        2
176
     1
 62
     7
176
     1
 90
        5
176
     1
 90
        0
176
     1
 90
        0
176
     1
290
     0
176
     1
 90
        1
176
     1
 40
0.0
176
     1
 90
        0
176
     1
290
     0
176
     1
290
     1
176
     1
290
     1
176
     1
290
     0
176
     1
290
     0
176
     1
290
     0
176
     1
290
     0
176
     1
290
     0
176
     1
290
     0
176
     1
 90
       50
176
     1
 40
0.0
176
     1
 40
1.0
176
     1
 90
        0
176
     1
 62
    18
420
        0
176
     1
 90
       50
176
     1
 90
        3
176
     1
 62
     5
420
      255
176
     1
290
     0
176
     1
 90
       50
176
     1
 90
       50
176
     1
 90
       50
176
     1
290
     0
176
     1
 90
       50
176
     1
 62
   256
176
     0
 40
1.0
176
     0
 90
        2
176
     1
  1
strokes_ogs.tif
176
     1
290
     0
176
     1
 40
1.0
176
     1
 40
1.0
176
     1
  0
VISUALSTYLE
  5
6223
102
{ACAD_REACTORS
330
621A
102
}
330
621A
100
AcDbVisualStyle
  2
Conceptual
 70
     9
177
     3
291
     0
 70
    58
 90
        3
176
     1
 90
        2
176
     1
 90
        0
176
     1
 90
        0
176
     1
 40
0.6
176
     1
 40
30.0
176
     1
 62
     7
420
 16777215
176
     1
 90
        2
176
     1
 90
        2
176
     1
 62
     7
176
     1
 62
   257
176
     1
 90
        1
176
     1
 90
        1
176
     1
 40
40.0
176
     1
 90
        8
176
     1
 62
     7
176
     1
 40
1.0
176
     1
 90
        1
176
     1
 90
        6
176
     1
 90
        2
176
     1
 62
     7
176
     1
 90
        3
176
     1
 90
        0
176
     1
 90
        0
176
     1
290
     0
176
     1
 90
        1
176
     1
 40
0.0
176
     1
 90
        0
176
     1
290
     0
176
     1
290
     1
176
     1
290
     1
176
     1
290
     0
176
     1
290
     0
176
     1
290
     0
176
     1
290
     0
176
     1
290
     0
176
     1
290
     0
176
     1
 90
       50
176
     1
 40
0.0
176
     1
 40
1.0
176
     1
 90
        0
176
     1
 62
    18
420
        0
176
     1
 90
       50
176
     1
 90
        3
176
     1
 62
     5
420
      255
176
     1
290
     0
176
     1
 90
       50
176
     1
 90
       50
176
     1
 90
       50
176
     1
290
     0
176
     1
 90
       50
176
     1
 62
   256
176
     0
 40
1.0
176
     0
 90
        2
176
     1
  1
strokes_ogs.tif
176
     1
290
     0
176
     1
 40
1.0
176
     1
 40
1.0
176
     1
  0
VISUALSTYLE
  5
6225
102
{ACAD_REACTORS
330
621A
102
}
330
621A
100
AcDbVisualStyle
  2
Dim
 70
    11
177
     3
291
     1
 70
    58
 90
        2
176
     1
 90
        2
176
     1
 90
        0
176
     1
 90
        0
176
     1
 40
0.6
176
     1
 40
30.0
176
     1
 62
     7
420
 16777215
176
     1
 90
        1
176
     1
 90
        4
176
     1
 62
     7
176
     1
 62
   257
176
     1
 90
        1
176
     1
 90
        1
176
     1
 40
1.0
176
     1
 90
        8
176
     1
 62
     7
176
     1
 40
1.0
176
     1
 90
        1
176
     1
 90
        6
176
     1
 90
        2
176
     1
 62
     7
176
     1
 90
        5
176
     1
 90
        0
176
     1
 90
        0
176
     1
290
     0
176
     1
 90
        1
176
     1
 40
-50.0
176
     1
 90
        0
176
     1
290
     0
176
     1
290
     1
176
     1
290
     1
176
     1
290
     0
176
     1
290
     0
176
     1
290
     0
176
     1
290
     0
176
     1
290
     0
176
     1
290
     0
176
     1
 90
       50
176
     1
 40
0.0
176
     1
 40
1.0
176
     1
 90
        0
176
     1
 62
    18
420
        0
176
     1
 90
       50
176
     1
 90
        3
176
     1
 62
     5
420
      255
176
     1
290
     0
176
     1
 90
       50
176
     1
 90
       50
176
     1
 90
       50
176
     1
290
     0
176
     1
 90
       50
176
     1
 62
   256
176
     0
 40
1.0
176
     0
 90
        2
176
     1
  1
strokes_ogs.tif
176
     1
290
     0
176
     1
 40
1.0
176
     1
 40
1.0
176
     1
  0
VISUALSTYLE
  5
6B14
102
{ACAD_REACTORS
330
621A
102
}
330
621A
100
AcDbVisualStyle
  2
EdgeColorOff
 70
    22
177
     3
291
     1
 70
    58
 90
        2
176
     0
 90
        2
176
     0
 90
        0
176
     0
 90
        0
176
     0
 40
0.6
176
     0
 40
30.0
176
     0
 62
     7
420
 16777215
176
     0
 90
        1
176
     0
 90
        4
176
     0
 62
     7
176
     0
 62
   257
176
     0
 90
        1
176
     0
 90
        1
176
     0
 40
1.0
176
     0
 90
        8
176
     2
 62
     7
176
     0
 40
1.0
176
     0
 90
        1
176
     0
 90
        6
176
     0
 90
        2
176
     0
 62
     7
176
     0
 90
        5
176
     0
 90
        0
176
     0
 90
        0
176
     0
290
     0
176
     0
 90
        1
176
     0
 40
0.0
176
     0
 90
        0
176
     0
290
     0
176
     0
290
     1
176
     0
290
     1
176
     0
290
     0
176
     0
290
     0
176
     0
290
     0
176
     0
290
     0
176
     0
290
     0
176
     0
290
     0
176
     0
 90
       50
176
     0
 40
0.0
176
     0
 40
1.0
176
     0
 90
        0
176
     0
 62
    18
420
        0
176
     0
 90
       50
176
     0
 90
        3
176
     0
 62
     5
420
      255
176
     0
290
     0
176
     0
 90
       50
176
     0
 90
       50
176
     0
 90
       50
176
     0
290
     0
176
     0
 90
       50
176
     0
 62
   256
176
     0
 40
1.0
176
     0
 90
        2
176
     0
  1
strokes_ogs.tif
176
     0
290
     0
176
     0
 40
1.0
176
     0
 40
1.0
176
     0
  0
VISUALSTYLE
  5
6229
102
{ACAD_REACTORS
330
621A
102
}
330
621A
100
AcDbVisualStyle
  2
Facepattern
 70
    15
177
     3
291
     1
 70
    58
 90
        2
176
     1
 90
        2
176
     1
 90
        0
176
     1
 90
        0
176
     1
 40
0.6
176
     1
 40
30.0
176
     1
 62
     7
420
 16777215
176
     1
 90
        1
176
     1
 90
        4
176
     1
 62
     7
176
     1
 62
   257
176
     1
 90
        1
176
     1
 90
        1
176
     1
 40
1.0
176
     1
 90
        8
176
     1
 62
     7
176
     1
 40
1.0
176
     1
 90
        1
176
     1
 90
        6
176
     1
 90
        2
176
     1
 62
     7
176
     1
 90
        5
176
     1
 90
        0
176
     1
 90
        0
176
     1
290
     0
176
     1
 90
        1
176
     1
 40
0.0
176
     1
 90
        0
176
     1
290
     0
176
     1
290
     1
176
     1
290
     1
176
     1
290
     0
176
     1
290
     0
176
     1
290
     0
176
     1
290
     0
176
     1
290
     0
176
     1
290
     0
176
     1
 90
       50
176
     1
 40
0.0
176
     1
 40
1.0
176
     1
 90
        0
176
     1
 62
    18
420
        0
176
     1
 90
       50
176
     1
 90
        3
176
     1
 62
     5
420
      255
176
     1
290
     0
176
     1
 90
       50
176
     1
 90
       50
176
     1
 90
       50
176
     1
290
     0
176
     1
 90
       50
176
     1
 62
   256
176
     0
 40
1.0
176
     0
 90
        2
176
     1
  1
strokes_ogs.tif
176
     1
290
     0
176
     1
 40
1.0
176
     1
 40
1.0
176
     1
  0
VISUALSTYLE
  5
621B
102
{ACAD_REACTORS
330
621A
102
}
330
621A
100
AcDbVisualStyle
  2
Flat
 70
     0
177
     3
291
     1
 70
    58
 90
        2
176
     1
 90
        1
176
     1
 90
        1
176
     1
 90
        2
176
     1
 40
0.6
176
     1
 40
30.0
176
     1
 62
     7
420
 16777215
176
     1
 90
        0
176
     1
 90
        4
176
     1
 62
     7
176
     1
 62
   257
176
     1
 90
        1
176
     1
 90
        1
176
     1
 40
1.0
176
     1
 90
        8
176
     1
 62
     7
176
     1
 40
1.0
176
     1
 90
        1
176
     1
 90
        6
176
     1
 90
        2
176
     1
 62
     7
176
     1
 90
        5
176
     1
 90
        0
176
     1
 90
        0
176
     1
290
     0
176
     1
 90
       13
176
     1
 40
0.0
176
     1
 90
        0
176
     1
290
     0
176
     1
290
     1
176
     1
290
     1
176
     1
290
     0
176
     1
290
     0
176
     1
290
     0
176
     1
290
     0
176
     1
290
     0
176
     1
290
     0
176
     1
 90
       50
176
     1
 40
0.0
176
     1
 40
1.0
176
     1
 90
        0
176
     1
 62
    18
420
        0
176
     1
 90
       50
176
     1
 90
        3
176
     1
 62
     5
420
      255
176
     1
290
     0
176
     1
 90
       50
176
     1
 90
       50
176
     1
 90
       50
176
     1
290
     0
176
     1
 90
       50
176
     1
 62
   256
176
     0
 40
1.0
176
     0
 90
        2
176
     1
  1
strokes_ogs.tif
176
     1
290
     0
176
     1
 40
1.0
176
     1
 40
1.0
176
     1
  0
VISUALSTYLE
  5
621C
102
{ACAD_REACTORS
330
621A
102
}
330
621A
100
AcDbVisualStyle
  2
FlatWithEdges
 70
     1
177
     3
291
     1
 70
    58
 90
        2
176
     1
 90
        1
176
     1
 90
        1
176
     1
 90
        2
176
     1
 40
0.6
176
     1
 40
30.0
176
     1
 62
     7
420
 16777215
176
     1
 90
        1
176
     1
 90
        4
176
     1
 62
     7
176
     1
 62
   257
176
     1
 90
        1
176
     1
 90
        1
176
     1
 40
1.0
176
     1
 90
        0
176
     1
 62
   257
176
     1
 40
1.0
176
     1
 90
        1
176
     1
 90
        6
176
     1
 90
        2
176
     1
 62
     7
176
     1
 90
        5
176
     1
 90
        0
176
     1
 90
        0
176
     1
290
     0
176
     1
 90
       13
176
     1
 40
0.0
176
     1
 90
        0
176
     1
290
     0
176
     1
290
     1
176
     1
290
     1
176
     1
290
     0
176
     1
290
     0
176
     1
290
     0
176
     1
290
     0
176
     1
290
     0
176
     1
290
     0
176
     1
 90
       50
176
     1
 40
0.0
176
     1
 40
1.0
176
     1
 90
        0
176
     1
 62
    18
420
        0
176
     1
 90
       50
176
     1
 90
        3
176
     1
 62
     5
420
      255
176
     1
290
     0
176
     1
 90
       50
176
     1
 90
       50
176
     1
 90
       50
176
     1
290
     0
176
     1
 90
       50
176
     1
 62
   256
176
     0
 40
1.0
176
     0
 90
        2
176
     1
  1
strokes_ogs.tif
176
     1
290
     0
176
     1
 40
1.0
176
     1
 40
1.0
176
     1
  0
VISUALSTYLE
  5
621D
102
{ACAD_REACTORS
330
621A
102
}
330
621A
100
AcDbVisualStyle
  2
Gouraud
 70
     2
177
     3
291
     1
 70
    58
 90
        2
176
     1
 90
        2
176
     1
 90
        1
176
     1
 90
        2
176
     1
 40
0.6
176
     1
 40
30.0
176
     1
 62
     7
420
 16777215
176
     1
 90
        0
176
     1
 90
        4
176
     1
 62
     7
176
     1
 62
   257
176
     1
 90
        1
176
     1
 90
        1
176
     1
 40
1.0
176
     1
 90
        0
176
     1
 62
     7
176
     1
 40
1.0
176
     1
 90
        1
176
     1
 90
        6
176
     1
 90
        2
176
     1
 62
     7
176
     1
 90
        5
176
     1
 90
        0
176
     1
 90
        0
176
     1
290
     0
176
     1
 90
       13
176
     1
 40
0.0
176
     1
 90
        0
176
     1
290
     0
176
     1
290
     1
176
     1
290
     1
176
     1
290
     0
176
     1
290
     0
176
     1
290
     0
176
     1
290
     0
176
     1
290
     0
176
     1
290
     0
176
     1
 90
       50
176
     1
 40
0.0
176
     1
 40
1.0
176
     1
 90
        0
176
     1
 62
    18
420
        0
176
     1
 90
       50
176
     1
 90
        3
176
     1
 62
     5
420
      255
176
     1
290
     0
176
     1
 90
       50
176
     1
 90
       50
176
     1
 90
       50
176
     1
290
     0
176
     1
 90
       50
176
     1
 62
   256
176
     0
 40
1.0
176
     0
 90
        2
176
     1
  1
strokes_ogs.tif
176
     1
290
     0
176
     1
 40
1.0
176
     1
 40
1.0
176
     1
  0
VISUALSTYLE
  5
621E
102
{ACAD_REACTORS
330
621A
102
}
330
621A
100
AcDbVisualStyle
  2
GouraudWithEdges
 70
     3
177
     3
291
     1
 70
    58
 90
        2
176
     1
 90
        2
176
     1
 90
        1
176
     1
 90
        2
176
     1
 40
0.6
176
     1
 40
30.0
176
     1
 62
     7
420
 16777215
176
     1
 90
        1
176
     1
 90
        4
176
     1
 62
     7
176
     1
 62
   257
176
     1
 90
        1
176
     1
 90
        1
176
     1
 40
1.0
176
     1
 90
        0
176
     1
 62
   257
176
     1
 40
1.0
176
     1
 90
        1
176
     1
 90
        6
176
     1
 90
        2
176
     1
 62
     7
176
     1
 90
        5
176
     1
 90
        0
176
     1
 90
        0
176
     1
290
     0
176
     1
 90
       13
176
     1
 40
0.0
176
     1
 90
        0
176
     1
290
     0
176
     1
290
     1
176
     1
290
     1
176
     1
290
     0
176
     1
290
     0
176
     1
290
     0
176
     1
290
     0
176
     1
290
     0
176
     1
290
     0
176
     1
 90
       50
176
     1
 40
0.0
176
     1
 40
1.0
176
     1
 90
        0
176
     1
 62
    18
420
        0
176
     1
 90
       50
176
     1
 90
        3
176
     1
 62
     5
420
      255
176
     1
290
     0
176
     1
 90
       50
176
     1
 90
       50
176
     1
 90
       50
176
     1
290
     0
176
     1
 90
       50
176
     1
 62
   256
176
     0
 40
1.0
176
     0
 90
        2
176
     1
  1
strokes_ogs.tif
176
     1
290
     0
176
     1
 40
1.0
176
     1
 40
1.0
176
     1
  0
VISUALSTYLE
  5
6B0C
102
{ACAD_REACTORS
330
621A
102
}
330
621A
100
AcDbVisualStyle
  2
Hidden
 70
     6
177
     3
291
     0
 70
    58
 90
        1
176
     1
 90
        2
176
     1
 90
        2
176
     1
 90
        0
176
     1
 40
0.6
176
     1
 40
30.0
176
     1
 62
     7
420
 16777215
176
     1
 90
        2
176
     1
 90
        2
176
     1
 62
     7
176
     1
 62
   257
176
     1
 90
        2
176
     1
 90
        1
176
     1
 40
40.0
176
     1
 90
        0
176
     1
 62
   257
176
     1
 40
1.0
176
     1
 90
        1
176
     1
 90
        6
176
     1
 90
        2
176
     1
 62
     7
176
     1
 90
        3
176
     1
 90
        0
176
     1
 90
        0
176
     1
290
     0
176
     1
 90
        1
176
     1
 40
0.0
176
     1
 90
        0
176
     1
290
     0
176
     1
290
     1
176
     1
290
     1
176
     1
290
     0
176
     1
290
     0
176
     1
290
     0
176
     1
290
     0
176
     1
290
     0
176
     1
290
     0
176
     1
 90
       50
176
     1
 40
0.0
176
     1
 40
1.0
176
     1
 90
        0
176
     1
 62
    18
420
        0
176
     1
 90
       50
176
     1
 90
        3
176
     1
 62
     5
420
      255
176
     1
290
     0
176
     1
 90
       50
176
     1
 90
       50
176
     1
 90
       50
176
     1
290
     0
176
     1
 90
       50
176
     1
 62
   256
176
     0
 40
1.0
176
     0
 90
        2
176
     1
  1
strokes_ogs.tif
176
     1
290
     0
176
     1
 40
1.0
176
     1
 40
1.0
176
     1
  0
VISUALSTYLE
  5
6B12
102
{ACAD_REACTORS
330
621A
102
}
330
621A
100
AcDbVisualStyle
  2
JitterOff
 70
    20
177
     3
291
     1
 70
    58
 90
        2
176
     0
 90
        2
176
     0
 90
        0
176
     0
 90
        0
176
     0
 40
0.6
176
     0
 40
30.0
176
     0
 62
     7
420
 16777215
176
     0
 90
        1
176
     0
 90
        4
176
     0
 62
     7
176
     0
 62
   257
176
     0
 90
        1
176
     0
 90
        1
176
     0
 40
1.0
176
     0
 90
       10
176
     2
 62
     7
176
     0
 40
1.0
176
     0
 90
        1
176
     0
 90
        6
176
     0
 90
        2
176
     0
 62
     7
176
     0
 90
        5
176
     0
 90
        0
176
     0
 90
        0
176
     0
290
     0
176
     0
 90
        1
176
     0
 40
0.0
176
     0
 90
        0
176
     0
290
     0
176
     0
290
     1
176
     0
290
     1
176
     0
290
     0
176
     0
290
     0
176
     0
290
     0
176
     0
290
     0
176
     0
290
     0
176
     0
290
     0
176
     0
 90
       50
176
     0
 40
0.0
176
     0
 40
1.0
176
     0
 90
        0
176
     0
 62
    18
420
        0
176
     0
 90
       50
176
     0
 90
        3
176
     0
 62
     5
420
      255
176
     0
290
     0
176
     0
 90
       50
176
     0
 90
       50
176
     0
 90
       50
176
     0
290
     0
176
     0
 90
       50
176
     0
 62
   256
176
     0
 40
1.0
176
     0
 90
        2
176
     0
  1
strokes_ogs.tif
176
     0
290
     0
176
     0
 40
1.0
176
     0
 40
1.0
176
     0
  0
VISUALSTYLE
  5
6228
102
{ACAD_REACTORS
330
621A
102
}
330
621A
100
AcDbVisualStyle
  2
Linepattern
 70
    14
177
     3
291
     1
 70
    58
 90
        2
176
     1
 90
        2
176
     1
 90
        0
176
     1
 90
        0
176
     1
 40
0.6
176
     1
 40
30.0
176
     1
 62
     7
420
 16777215
176
     1
 90
        1
176
     1
 90
        4
176
     1
 62
     7
176
     1
 62
   257
176
     1
 90
        7
176
     1
 90
        7
176
     1
 40
1.0
176
     1
 90
        8
176
     1
 62
     7
176
     1
 40
1.0
176
     1
 90
        1
176
     1
 90
        6
176
     1
 90
        2
176
     1
 62
     7
176
     1
 90
        5
176
     1
 90
        0
176
     1
 90
        0
176
     1
290
     0
176
     1
 90
        1
176
     1
 40
0.0
176
     1
 90
        0
176
     1
290
     0
176
     1
290
     1
176
     1
290
     1
176
     1
290
     0
176
     1
290
     0
176
     1
290
     0
176
     1
290
     0
176
     1
290
     0
176
     1
290
     0
176
     1
 90
       50
176
     1
 40
0.0
176
     1
 40
1.0
176
     1
 90
        0
176
     1
 62
    18
420
        0
176
     1
 90
       50
176
     1
 90
        3
176
     1
 62
     5
420
      255
176
     1
290
     0
176
     1
 90
       50
176
     1
 90
       50
176
     1
 90
       50
176
     1
290
     0
176
     1
 90
       50
176
     1
 62
   256
176
     0
 40
1.0
176
     0
 90
        2
176
     1
  1
strokes_ogs.tif
176
     1
290
     0
176
     1
 40
1.0
176
     1
 40
1.0
176
     1
  0
VISUALSTYLE
  5
6B13
102
{ACAD_REACTORS
330
621A
102
}
330
621A
100
AcDbVisualStyle
  2
OverhangOff
 70
    21
177
     3
291
     1
 70
    58
 90
        2
176
     0
 90
        2
176
     0
 90
        0
176
     0
 90
        0
176
     0
 40
0.6
176
     0
 40
30.0
176
     0
 62
     7
420
 16777215
176
     0
 90
        1
176
     0
 90
        4
176
     0
 62
     7
176
     0
 62
   257
176
     0
 90
        1
176
     0
 90
        1
176
     0
 40
1.0
176
     0
 90
        9
176
     2
 62
     7
176
     0
 40
1.0
176
     0
 90
        1
176
     0
 90
        6
176
     0
 90
        2
176
     0
 62
     7
176
     0
 90
        5
176
     0
 90
        0
176
     0
 90
        0
176
     0
290
     0
176
     0
 90
        1
176
     0
 40
0.0
176
     0
 90
        0
176
     0
290
     0
176
     0
290
     1
176
     0
290
     1
176
     0
290
     0
176
     0
290
     0
176
     0
290
     0
176
     0
290
     0
176
     0
290
     0
176
     0
290
     0
176
     0
 90
       50
176
     0
 40
0.0
176
     0
 40
1.0
176
     0
 90
        0
176
     0
 62
    18
420
        0
176
     0
 90
       50
176
     0
 90
        3
176
     0
 62
     5
420
      255
176
     0
290
     0
176
     0
 90
       50
176
     0
 90
       50
176
     0
 90
       50
176
     0
290
     0
176
     0
 90
       50
176
     0
 62
   256
176
     0
 40
1.0
176
     0
 90
        2
176
     0
  1
strokes_ogs.tif
176
     0
290
     0
176
     0
 40
1.0
176
     0
 40
1.0
176
     0
  0
VISUALSTYLE
  5
6224
102
{ACAD_REACTORS
330
621A
102
}
330
621A
100
AcDbVisualStyle
  2
Realistic
 70
     8
177
     3
291
     0
 70
    58
 90
        2
176
     1
 90
        2
176
     1
 90
        0
176
     1
 90
        0
176
     1
 40
0.6
176
     1
 40
30.0
176
     1
 62
     7
420
 16777215
176
     1
 90
        1
176
     1
 90
        0
176
     1
 62
     7
176
     1
 62
   257
176
     1
 90
        1
176
     1
 90
        1
176
     1
 40
1.0
176
     1
 90
        8
176
     1
 62
     8
420
  7895160
176
     1
 40
1.0
176
     1
 90
        1
176
     1
 90
        6
176
     1
 90
        2
176
     1
 62
     7
176
     1
 90
        5
176
     1
 90
        0
176
     1
 90
        0
176
     1
290
     0
176
     1
 90
       13
176
     1
 40
0.0
176
     1
 90
        0
176
     1
290
     0
176
     1
290
     1
176
     1
290
     1
176
     1
290
     0
176
     1
290
     0
176
     1
290
     0
176
     1
290
     0
176
     1
290
     0
176
     1
290
     0
176
     1
 90
       50
176
     1
 40
0.0
176
     1
 40
1.0
176
     1
 90
        0
176
     1
 62
    18
420
        0
176
     1
 90
       50
176
     1
 90
        3
176
     1
 62
     5
420
      255
176
     1
290
     0
176
     1
 90
       50
176
     1
 90
       50
176
     1
 90
       50
176
     1
290
     0
176
     1
 90
       50
176
     1
 62
   256
176
     0
 40
1.0
176
     0
 90
        2
176
     1
  1
strokes_ogs.tif
176
     1
290
     0
176
     1
 40
1.0
176
     1
 40
1.0
176
     1
  0
VISUALSTYLE
  5
6B11
102
{ACAD_REACTORS
330
621A
102
}
330
621A
100
AcDbVisualStyle
  2
Shaded
 70
    27
177
     3
291
     0
 70
    58
 90
        2
176
     1
 90
        2
176
     1
 90
        1
176
     1
 90
        2
176
     1
 40
0.6
176
     1
 40
30.0
176
     1
 62
     7
420
 16777215
176
     1
 90
        0
176
     1
 90
        4
176
     1
 62
     7
176
     1
 62
   257
176
     1
 90
        1
176
     1
 90
        1
176
     1
 40
1.0
176
     1
 90
        8
176
     1
 62
   257
176
     1
 40
1.0
176
     1
 90
        1
176
     1
 90
        6
176
     1
 90
        2
176
     1
 62
     8
420
  7895160
176
     1
 90
        3
176
     1
 90
        0
176
     1
 90
        0
176
     1
290
     0
176
     1
 90
        5
176
     1
 40
0.0
176
     1
 90
        0
176
     1
290
     0
176
     1
290
     1
176
     1
290
     1
176
     1
290
     0
176
     1
290
     0
176
     1
290
     0
176
     1
290
     0
176
     1
290
     0
176
     1
290
     0
176
     1
 90
       50
176
     1
 40
0.0
176
     1
 40
1.0
176
     1
 90
        0
176
     1
 62
    18
420
        0
176
     1
 90
       50
176
     1
 90
        3
176
     1
 62
     5
420
      255
176
     1
290
     0
176
     1
 90
       50
176
     1
 90
       50
176
     1
 90
       50
176
     1
290
     0
176
     1
 90
       50
176
     1
 62
   256
176
     0
 40
1.0
176
     0
 90
        2
176
     1
  1
strokes_ogs.tif
176
     1
290
     0
176
     1
 40
1.0
176
     1
 40
1.0
176
     1
  0
VISUALSTYLE
  5
6B10
102
{ACAD_REACTORS
330
621A
102
}
330
621A
100
AcDbVisualStyle
  2
Shaded with edges
 70
    26
177
     3
291
     0
 70
    58
 90
        2
176
     1
 90
        2
176
     1
 90
        1
176
     1
 90
        2
176
     1
 40
0.6
176
     1
 40
30.0
176
     1
 62
     7
420
 16777215
176
     1
 90
        1
176
     1
 90
        2
176
     1
 62
     7
176
     1
 62
   257
176
     1
 90
        2
176
     1
 90
        1
176
     1
 40
1.0
176
     1
 90
        8
176
     1
 62
   257
176
     1
 40
1.0
176
     1
 90
        1
176
     1
 90
        6
176
     1
 90
        2
176
     1
 62
     7
176
     1
 90
        3
176
     1
 90
        0
176
     1
 90
        0
176
     1
290
     0
176
     1
 90
        5
176
     1
 40
0.0
176
     1
 90
        0
176
     1
290
     0
176
     1
290
     1
176
     1
290
     1
176
     1
290
     0
176
     1
290
     0
176
     1
290
     0
176
     1
290
     0
176
     1
290
     0
176
     1
290
     0
176
     1
 90
       50
176
     1
 40
0.0
176
     1
 40
1.0
176
     1
 90
        0
176
     1
 62
    18
420
        0
176
     1
 90
       50
176
     1
 90
        3
176
     1
 62
     5
420
      255
176
     1
290
     0
176
     1
 90
       50
176
     1
 90
       50
176
     1
 90
       50
176
     1
290
     0
176
     1
 90
       50
176
     1
 62
   256
176
     0
 40
1.0
176
     0
 90
        2
176
     1
  1
strokes_ogs.tif
176
     1
290
     0
176
     1
 40
1.0
176
     1
 40
1.0
176
     1
  0
VISUALSTYLE
  5
6B0D
102
{ACAD_REACTORS
330
621A
102
}
330
621A
100
AcDbVisualStyle
  2
Shades of Gray
 70
    23
177
     3
291
     0
 70
    58
 90
        2
176
     1
 90
        2
176
     1
 90
        3
176
     1
 90
        0
176
     1
 40
0.6
176
     1
 40
30.0
176
     1
 62
     7
420
 16777215
176
     1
 90
        2
176
     1
 90
        2
176
     1
 62
     7
176
     1
 62
     7
176
     1
 90
        1
176
     1
 90
        1
176
     1
 40
40.0
176
     1
 90
        8
176
     1
 62
     7
176
     1
 40
1.0
176
     1
 90
        1
176
     1
 90
        6
176
     1
 90
        2
176
     1
 62
     7
176
     1
 90
        3
176
     1
 90
        0
176
     1
 90
        0
176
     1
290
     0
176
     1
 90
        1
176
     1
 40
0.0
176
     1
 90
        0
176
     1
290
     0
176
     1
290
     1
176
     1
290
     1
176
     1
290
     0
176
     1
290
     0
176
     1
290
     0
176
     1
290
     0
176
     1
290
     0
176
     1
290
     0
176
     1
 90
       50
176
     1
 40
0.0
176
     1
 40
1.0
176
     1
 90
        0
176
     1
 62
    18
420
        0
176
     1
 90
       50
176
     1
 90
        3
176
     1
 62
     5
420
      255
176
     1
290
     0
176
     1
 90
       50
176
     1
 90
       50
176
     1
 90
       50
176
     1
290
     0
176
     1
 90
       50
176
     1
 62
   256
176
     0
 40
1.0
176
     0
 90
        2
176
     1
  1
strokes_ogs.tif
176
     1
290
     0
176
     1
 40
1.0
176
     1
 40
1.0
176
     1
  0
VISUALSTYLE
  5
6B0E
102
{ACAD_REACTORS
330
621A
102
}
330
621A
100
AcDbVisualStyle
  2
Sketchy
 70
    24
177
     3
291
     0
 70
    58
 90
        1
176
     1
 90
        2
176
     1
 90
        2
176
     1
 90
        0
176
     1
 40
0.6
176
     1
 40
30.0
176
     1
 62
     7
420
 16777215
176
     1
 90
        2
176
     1
 90
        2
176
     1
 62
     7
176
     1
 62
     7
176
     1
 90
        1
176
     1
 90
        1
176
     1
 40
40.0
176
     1
 90
       11
176
     1
 62
     7
176
     1
 40
1.0
176
     1
 90
        1
176
     1
 90
        6
176
     1
 90
        2
176
     1
 62
     7
176
     1
 90
        6
176
     1
 90
        0
176
     1
 90
        0
176
     1
290
     0
176
     1
 90
        1
176
     1
 40
0.0
176
     1
 90
        0
176
     1
290
     0
176
     1
290
     1
176
     1
290
     1
176
     1
290
     0
176
     1
290
     0
176
     1
290
     0
176
     1
290
     0
176
     1
290
     0
176
     1
290
     0
176
     1
 90
       50
176
     1
 40
0.0
176
     1
 40
1.0
176
     1
 90
        0
176
     1
 62
    18
420
        0
176
     1
 90
       50
176
     1
 90
        3
176
     1
 62
     5
420
      255
176
     1
290
     0
176
     1
 90
       50
176
     1
 90
       50
176
     1
 90
       50
176
     1
290
     0
176
     1
 90
       50
176
     1
 62
   256
176
     0
 40
1.0
176
     0
 90
        2
176
     1
  1
strokes_ogs.tif
176
     1
290
     0
176
     1
 40
1.0
176
     1
 40
1.0
176
     1
  0
VISUALSTYLE
  5
6227
102
{ACAD_REACTORS
330
621A
102
}
330
621A
100
AcDbVisualStyle
  2
Thicken
 70
    13
177
     3
291
     1
 70
    58
 90
        2
176
     1
 90
        2
176
     1
 90
        0
176
     1
 90
        0
176
     1
 40
0.6
176
     1
 40
30.0
176
     1
 62
     7
420
 16777215
176
     1
 90
        1
176
     1
 90
        4
176
     1
 62
     7
176
     1
 62
   257
176
     1
 90
        1
176
     1
 90
        1
176
     1
 40
1.0
176
     1
 90
       12
176
     1
 62
     7
176
     1
 40
1.0
176
     1
 90
        1
176
     1
 90
        6
176
     1
 90
        2
176
     1
 62
     7
176
     1
 90
        5
176
     1
 90
        0
176
     1
 90
        0
176
     1
290
     0
176
     1
 90
        1
176
     1
 40
0.0
176
     1
 90
        0
176
     1
290
     0
176
     1
290
     1
176
     1
290
     1
176
     1
290
     0
176
     1
290
     0
176
     1
290
     0
176
     1
290
     0
176
     1
290
     0
176
     1
290
     0
176
     1
 90
       50
176
     1
 40
0.0
176
     1
 40
1.0
176
     1
 90
        0
176
     1
 62
    18
420
        0
176
     1
 90
       50
176
     1
 90
        3
176
     1
 62
     5
420
      255
176
     1
290
     0
176
     1
 90
       50
176
     1
 90
       50
176
     1
 90
       50
176
     1
290
     0
176
     1
 90
       50
176
     1
 62
   256
176
     0
 40
1.0
176
     0
 90
        2
176
     1
  1
strokes_ogs.tif
176
     1
290
     0
176
     1
 40
1.0
176
     1
 40
1.0
176
     1
  0
VISUALSTYLE
  5
6B0B
102
{ACAD_REACTORS
330
621A
102
}
330
621A
100
AcDbVisualStyle
  2
Wireframe
 70
     5
177
     3
291
     0
 70
    58
 90
        0
176
     1
 90
        2
176
     1
 90
        0
176
     1
 90
        0
176
     1
 40
0.6
176
     1
 40
30.0
176
     1
 62
     7
420
 16777215
176
     1
 90
        1
176
     1
 90
        4
176
     1
 62
     7
176
     1
 62
   257
176
     1
 90
        1
176
     1
 90
        1
176
     1
 40
1.0
176
     1
 90
        0
176
     1
 62
   257
176
     1
 40
1.0
176
     1
 90
        1
176
     1
 90
        6
176
     1
 90
        2
176
     1
 62
     7
176
     1
 90
        3
176
     1
 90
        0
176
     1
 90
        0
176
     1
290
     0
176
     1
 90
        1
176
     1
 40
0.0
176
     1
 90
        0
176
     1
290
     0
176
     1
290
     1
176
     1
290
     1
176
     1
290
     0
176
     1
290
     0
176
     1
290
     0
176
     1
290
     0
176
     1
290
     0
176
     1
290
     0
176
     1
 90
       50
176
     1
 40
0.0
176
     1
 40
1.0
176
     1
 90
        0
176
     1
 62
    18
420
        0
176
     1
 90
       50
176
     1
 90
        3
176
     1
 62
     5
420
      255
176
     1
290
     0
176
     1
 90
       50
176
     1
 90
       50
176
     1
 90
       50
176
     1
290
     0
176
     1
 90
       50
176
     1
 62
   256
176
     0
 40
1.0
176
     0
 90
        2
176
     1
  1
strokes_ogs.tif
176
     1
290
     0
176
     1
 40
1.0
176
     1
 40
1.0
176
     1
  0
VISUALSTYLE
  5
6B0F
102
{ACAD_REACTORS
330
621A
102
}
330
621A
100
AcDbVisualStyle
  2
X-Ray
 70
    25
177
     3
291
     0
 70
    58
 90
        2
176
     1
 90
        2
176
     1
 90
        1
176
     1
 90
        1
176
     1
 40
0.5
176
     1
 40
30.0
176
     1
 62
     7
420
 16777215
176
     1
 90
        1
176
     1
 90
        0
176
     1
 62
     7
176
     1
 62
   257
176
     1
 90
        1
176
     1
 90
        1
176
     1
 40
1.0
176
     1
 90
        8
176
     1
 62
     7
176
     1
 40
1.0
176
     1
 90
        1
176
     1
 90
        6
176
     1
 90
        2
176
     1
 62
     7
176
     1
 90
        3
176
     1
 90
        0
176
     1
 90
        0
176
     1
290
     0
176
     1
 90
       13
176
     1
 40
0.0
176
     1
 90
        0
176
     1
290
     0
176
     1
290
     1
176
     1
290
     1
176
     1
290
     0
176
     1
290
     0
176
     1
290
     0
176
     1
290
     0
176
     1
290
     0
176
     1
290
     0
176
     1
 90
       50
176
     1
 40
0.0
176
     1
 40
1.0
176
     1
 90
        0
176
     1
 62
    18
420
        0
176
     1
 90
       50
176
     1
 90
        3
176
     1
 62
     5
420
      255
176
     1
290
     0
176
     1
 90
       50
176
     1
 90
       50
176
     1
 90
       50
176
     1
290
     0
176
     1
 90
       50
176
     1
 62
   256
176
     0
 40
1.0
176
     0
 90
        2
176
     1
  1
strokes_ogs.tif
176
     1
290
     0
176
     1
 40
1.0
176
     1
 40
1.0
176
     1
  0
DICTIONARYVAR
  5
6C27
102
{ACAD_REACTORS
330
5E
102
}
330
5E
100
DictionaryVariables
280
     0
  1
1:1
  0
DICTIONARYVAR
  5
6C23
102
{ACAD_REACTORS
330
5E
102
}
330
5E
100
DictionaryVariables
280
     0
  1
STANDARD
  0
DICTIONARYVAR
  5
652A
102
{ACAD_REACTORS
330
5E
102
}
330
5E
100
DictionaryVariables
280
     0
  1
STANDARD
  0
DICTIONARYVAR
  5
6C24
102
{ACAD_REACTORS
330
5E
102
}
330
5E
100
DictionaryVariables
280
     0
  1
Metric50
  0
DICTIONARYVAR
  5
6C25
102
{ACAD_REACTORS
330
5E
102
}
330
5E
100
DictionaryVariables
280
     0
  1
Metric50
  0
DICTIONARYVAR
  5
5F
102
{ACAD_REACTORS
330
5E
102
}
330
5E
100
DictionaryVariables
280
     0
  1
2
  0
DICTIONARYVAR
  5
63
102
{ACAD_REACTORS
330
5E
102
}
330
5E
100
DictionaryVariables
280
     0
  1
1
  0
DICTIONARYVAR
  5
6C29
102
{ACAD_REACTORS
330
5E
102
}
330
5E
100
DictionaryVariables
280
     0
  1
1
  0
DICTIONARYVAR
  5
6C2A
102
{ACAD_REACTORS
330
5E
102
}
330
5E
100
DictionaryVariables
280
     0
  1
15
  0
DICTIONARYVAR
  5
6C28
102
{ACAD_REACTORS
330
5E
102
}
330
5E
100
DictionaryVariables
280
     0
  1
0
  0
DICTIONARYVAR
  5
6C26
102
{ACAD_REACTORS
330
5E
102
}
330
5E
100
DictionaryVariables
280
     0
  1
0
  0
DICTIONARYVAR
  5
1CF
102
{ACAD_REACTORS
330
5E
102
}
330
5E
100
DictionaryVariables
280
     0
  1

  0
ACAD_PROXY_OBJECT
  5
6234
102
{ACAD_REACTORS
330
6233
102
}
330
6233
100
AcDbProxyObject
 90
      499
 91
      508
 71
    27
 97
        1
 70
     0
162
                 0
161
               224
310
00013FFFD0C4040800000000000004402826564C4F2D52202E20302900
 94
        0
  0
DICTIONARY
  5
6CBC
330
622C
100
AcDbDictionary
280
     1
281
     1
  3
ACAD_ROUNDTRIP_2008_TABLESTYLE_CELLSTYLEMAP
360
6CBD
  0
CELLSTYLEMAP
  5
6CBD
102
{ACAD_REACTORS
330
6CBC
102
}
330
6CBC
100
AcDbCellStyleMap
 90
        3
300
CELLSTYLE
  1
TABLEFORMAT_BEGIN
 90
        5
170
     1
 91
        0
 92
    32768
 62
   257
 93
        1
300
CONTENTFORMAT
  1
CONTENTFORMAT_BEGIN
 90
        0
 91
        0
 92
      512
 93
        0
300

 40
0.0
140
1.0
 94
        5
 62
     0
340
11
144
6.0
309
CONTENTFORMAT_END
171
     1
301
MARGIN
  1
CELLMARGIN_BEGIN
 40
1.5
 40
1.5
 40
1.5
 40
1.5
 40
0.18
 40
0.18
309
CELLMARGIN_END
 94
        6
 95
        1
302
GRIDFORMAT
  1
GRIDFORMAT_BEGIN
 90
        0
 91
        1
 62
     0
 92
       -2
340
0
 93
        0
 40
0.045
309
GRIDFORMAT_END
 95
        2
302
GRIDFORMAT
  1
GRIDFORMAT_BEGIN
 90
        0
 91
        1
 62
     0
 92
       -2
340
0
 93
        0
 40
0.045
309
GRIDFORMAT_END
 95
        4
302
GRIDFORMAT
  1
GRIDFORMAT_BEGIN
 90
        0
 91
        1
 62
     0
 92
       -2
340
0
 93
        0
 40
0.045
309
GRIDFORMAT_END
 95
        8
302
GRIDFORMAT
  1
GRIDFORMAT_BEGIN
 90
        0
 91
        1
 62
     0
 92
       -2
340
0
 93
        0
 40
0.045
309
GRIDFORMAT_END
 95
       16
302
GRIDFORMAT
  1
GRIDFORMAT_BEGIN
 90
        0
 91
        1
 62
     0
 92
       -2
340
0
 93
        0
 40
0.045
309
GRIDFORMAT_END
 95
       32
302
GRIDFORMAT
  1
GRIDFORMAT_BEGIN
 90
        0
 91
        1
 62
     0
 92
       -2
340
0
 93
        0
 40
0.045
309
GRIDFORMAT_END
309
TABLEFORMAT_END
  1
CELLSTYLE_BEGIN
 90
        1
 91
        1
300
_TITLE
309
CELLSTYLE_END
300
CELLSTYLE
  1
TABLEFORMAT_BEGIN
 90
        5
170
     1
 91
        0
 92
        0
 62
   257
 93
        1
300
CONTENTFORMAT
  1
CONTENTFORMAT_BEGIN
 90
        0
 91
        0
 92
      512
 93
        0
300

 40
0.0
140
1.0
 94
        5
 62
     0
340
11
144
4.5
309
CONTENTFORMAT_END
171
     1
301
MARGIN
  1
CELLMARGIN_BEGIN
 40
1.5
 40
1.5
 40
1.5
 40
1.5
 40
0.18
 40
0.18
309
CELLMARGIN_END
 94
        6
 95
        1
302
GRIDFORMAT
  1
GRIDFORMAT_BEGIN
 90
        0
 91
        1
 62
     0
 92
       -2
340
0
 93
        0
 40
0.045
309
GRIDFORMAT_END
 95
        2
302
GRIDFORMAT
  1
GRIDFORMAT_BEGIN
 90
        0
 91
        1
 62
     0
 92
       -2
340
0
 93
        0
 40
0.045
309
GRIDFORMAT_END
 95
        4
302
GRIDFORMAT
  1
GRIDFORMAT_BEGIN
 90
        0
 91
        1
 62
     0
 92
       -2
340
0
 93
        0
 40
0.045
309
GRIDFORMAT_END
 95
        8
302
GRIDFORMAT
  1
GRIDFORMAT_BEGIN
 90
        0
 91
        1
 62
     0
 92
       -2
340
0
 93
        0
 40
0.045
309
GRIDFORMAT_END
 95
       16
302
GRIDFORMAT
  1
GRIDFORMAT_BEGIN
 90
        0
 91
        1
 62
     0
 92
       -2
340
0
 93
        0
 40
0.045
309
GRIDFORMAT_END
 95
       32
302
GRIDFORMAT
  1
GRIDFORMAT_BEGIN
 90
        0
 91
        1
 62
     0
 92
       -2
340
0
 93
        0
 40
0.045
309
GRIDFORMAT_END
309
TABLEFORMAT_END
  1
CELLSTYLE_BEGIN
 90
        2
 91
        1
300
_HEADER
309
CELLSTYLE_END
300
CELLSTYLE
  1
TABLEFORMAT_BEGIN
 90
        5
170
     1
 91
        0
 92
        0
 62
   257
 93
        1
300
CONTENTFORMAT
  1
CONTENTFORMAT_BEGIN
 90
        0
 91
        0
 92
      512
 93
        0
300

 40
0.0
140
1.0
 94
        2
 62
     0
340
11
144
4.5
309
CONTENTFORMAT_END
171
     1
301
MARGIN
  1
CELLMARGIN_BEGIN
 40
1.5
 40
1.5
 40
1.5
 40
1.5
 40
0.18
 40
0.18
309
CELLMARGIN_END
 94
        6
 95
        1
302
GRIDFORMAT
  1
GRIDFORMAT_BEGIN
 90
        0
 91
        1
 62
     0
 92
       -2
340
0
 93
        0
 40
0.045
309
GRIDFORMAT_END
 95
        2
302
GRIDFORMAT
  1
GRIDFORMAT_BEGIN
 90
        0
 91
        1
 62
     0
 92
       -2
340
0
 93
        0
 40
0.045
309
GRIDFORMAT_END
 95
        4
302
GRIDFORMAT
  1
GRIDFORMAT_BEGIN
 90
        0
 91
        1
 62
     0
 92
       -2
340
0
 93
        0
 40
0.045
309
GRIDFORMAT_END
 95
        8
302
GRIDFORMAT
  1
GRIDFORMAT_BEGIN
 90
        0
 91
        1
 62
     0
 92
       -2
340
0
 93
        0
 40
0.045
309
GRIDFORMAT_END
 95
       16
302
GRIDFORMAT
  1
GRIDFORMAT_BEGIN
 90
        0
 91
        1
 62
     0
 92
       -2
340
0
 93
        0
 40
0.045
309
GRIDFORMAT_END
 95
       32
302
GRIDFORMAT
  1
GRIDFORMAT_BEGIN
 90
        0
 91
        1
 62
     0
 92
       -2
340
0
 93
        0
 40
0.045
309
GRIDFORMAT_END
309
TABLEFORMAT_END
  1
CELLSTYLE_BEGIN
 90
        3
 91
        2
300
_DATA
309
CELLSTYLE_END
  0
ENDSEC
  0
SECTION
  2
ACDSDATA
 70
     2
 71
     8
  0
ACDSSCHEMA
 90
        0
  1
AcDb_Thumbnail_Schema
  2
AcDbDs::ID
280
    10
 91
        8
  2
Thumbnail_Data
280
    15
 91
        0
101
ACDSRECORD
 95
        0
 90
        1
  2
AcDbDs::TreatedAsObjectData
280
     1
291
     1
101
ACDSRECORD
 95
        0
 90
        2
  2
AcDbDs::Legacy
280
     1
291
     1
101
ACDSRECORD
  1
AcDbDs::ID
 90
        3
  2
AcDs:Indexable
280
     1
291
     1
101
ACDSRECORD
  1
AcDbDs::ID
 90
        4
  2
AcDbDs::HandleAttribute
280
     7
282
     1
  0
ACDSSCHEMA
 90
        1
  1
AcDbDs::TreatedAsObjectDataSchema
  2
AcDbDs::TreatedAsObjectData
280
     1
 91
        0
  0
ACDSSCHEMA
 90
        2
  1
AcDbDs::LegacySchema
  2
AcDbDs::Legacy
280
     1
 91
        0
  0
ACDSSCHEMA
 90
        3
  1
AcDbDs::IndexedPropertySchema
  2
AcDs:Indexable
280
     1
 91
        0
  0
ACDSSCHEMA
 90
        4
  1
AcDbDs::HandleAttributeSchema
  2
AcDbDs::HandleAttribute
280
     7
 91
        1
284
     1
  0
ACDSRECORD
 90
        0
  2
AcDbDs::ID
280
    10
320
22
  2
Thumbnail_Data
280
    15
 94
     2351
310
89504E470D0A1A0A0000000D494844520000010000000085080300000083A6D68B00000300504C5445212830FFFFFF2128300000000000000000000000000000000000000000000000000000330000660000990000CC0000FF0033000033330033660033990033CC0033FF0066000066330066660066990066CC0066FF0099
310
000099330099660099990099CC0099FF00CC0000CC3300CC6600CC9900CCCC00CCFF00FF0000FF3300FF6600FF9900FFCC00FFFF3300003300333300663300993300CC3300FF3333003333333333663333993333CC3333FF3366003366333366663366993366CC3366FF3399003399333399663399993399CC3399FF33CC00
310
33CC3333CC6633CC9933CCCC33CCFF33FF0033FF3333FF6633FF9933FFCC33FFFF6600006600336600666600996600CC6600FF6633006633336633666633996633CC6633FF6666006666336666666666996666CC6666FF6699006699336699666699996699CC6699FF66CC0066CC3366CC6666CC9966CCCC66CCFF66FF0066
310
FF3366FF6666FF9966FFCC66FFFF9900009900339900669900999900CC9900FF9933009933339933669933999933CC9933FF9966009966339966669966999966CC9966FF9999009999339999669999999999CC9999FF99CC0099CC3399CC6699CC9999CCCC99CCFF99FF0099FF3399FF6699FF9999FFCC99FFFFCC0000CC00
310
33CC0066CC0099CC00CCCC00FFCC3300CC3333CC3366CC3399CC33CCCC33FFCC6600CC6633CC6666CC6699CC66CCCC66FFCC9900CC9933CC9966CC9999CC99CCCC99FFCCCC00CCCC33CCCC66CCCC99CCCCCCCCCCFFCCFF00CCFF33CCFF66CCFF99CCFFCCCCFFFFFF0000FF0033FF0066FF0099FF00CCFF00FFFF3300FF3333
310
FF3366FF3399FF33CCFF33FFFF6600FF6633FF6666FF6699FF66CCFF66FFFF9900FF9933FF9966FF9999FF99CCFF99FFFFCC00FFCC33FFCC66FFCC99FFCCCCFFCCFFFFFF00FFFF33FFFF66FFFF99FFFFCCFFFFFF0000000D0D0D1A1A1A2828283535354343435050505D5D5D6B6B6B787878868686939393A1A1A1AEAEAEBB
310
BBBBC9C9C9D6D6D6E4E4E4F1F1F1FFFFFF0000000000000000000000000000000000000000000000000000000000002E4550F1000005EA4944415478DAED9C59B2E3200C45B521ED7F65F7BFD31EB00462729287705075A55E3A38B18E358018888A82EDE525DB3B66F9CE6C9B95EDDAF02757AEE5B3FDF55BE5AFFF969C00
310
CE779CD7BF06008A46246810070068BF53BA0180D9F8AFD7D79D00F22068A840DBFCCB323F07A0E95A0F0084056C2640FD00B8A27F0900C60310F7B7196BAF12CC741BC0680231008211C22B4AD4D5770F200A4B67E8AEA532CE34EC7481B1005A248AE4B1BC7D03345C5009F011804F3F017240E0638DFA7FD905001A0660
310
2659007E54D7AEE11A9E414945E610A79B00CC8F0059008D417D7EEB87D6A207001E00607F8842E70E0078440C880B153D00F0885401E828D003E01149E078FEE8560BF41C00A47D60A671CDC74668411B745DF6907EA034811F8B00A72A77662C30A1A9F7C8E34220DA3EF9FFA65EFF9A31025400FCD7F62C85854F040845
310
63CA08885B8E205C422098B21388AC21BC9EBA6816CD736AD798B9138C4C0DE3BF56D2F1A19B8759CED078D63E40C602768D847D43550A4275E4B4926355013D05001F4E60B6BB0040303A4DE60900769D5EAF55001031A034A93C1780431F829A30CD59C07505E1C33346830004FD5554D700E2BC9FF6110C41EB3A993FB5
310
A404C0A93F4505816B8C6400206EFF2989CAC178C204B0E9A56B421500746F7A3C83602400167A4A0D4D00C975858156CF2AB1E1008E857290A33B24AFBAE7C349473276E5D405E2EB1C00E0CB0B0E0B903795BA6D123CAF7749C738552B260072018045454476FBD2D1B07EC8ACFF6E001013180F40DD50E497BCAD849208
310
60F51F4424AD0388083803B027FDD062D31CCA0F221D391A4934009026E705406CE2620D71A892B05900E12895B40220F60AE03482AB3AA000C43A72A47F0B00F5930E019C7ECE2A01B25D00981F00DB5D9ACDF10D00C9AD720140AEE7EB0E005B6D1A872D4C665027A2424159665E0700CC7BDCFA00B02CC0EADA1BE691A6
310
509700B61AB8DD88A905803201B5003F4DA13E00E8E107174675D202F2E3D81C8034857A01A04A3C2500471E4479206F033893865F00D404600F04C5C93113005F636C8B800317386B5F4500DB368ADAC6101B003B06D0EE02D77090DA0084D194AE04EEEFBC59401B80EABEB0B823D06701A2DAFE8759504E8D95015CE382
310
5E008D3100A1BBFDD7004E0BC07700346401B5730FC35CE00050DA367B0B80E807700B00380060DDC41B00B890423D00A00B4061B0731FC06EF89914EACD021041F80800A2F26810A382A01E0BA820F8510BA0420AE5A42C336C6E30CD029FB380FCB5435D40CF775B00680080D169507D1CCD8F561ECE741650CF027DC278
310
07C0B020081103507617341C2202EE86E6280D7E04409F052099A1FCF33408FA2A80F29E430F00CA2E20A360C53F4D00107C4B00C6A5C13200C8077303406DD7A9770062DFC4B7018CA8075401C8A562B7005C8BED66B400B54AE84897E805009A18403C1EEC0680760097ABB901008AC783BD0080EAC6ABA169B06E016942
310
E80160ADB69D060052656FB9C0C400125F44ADB36800A04901988BB63B011815A56900D88BD6AF99343401A0D90070B87B5B4744E78FA6437B09206E361B00BA0D206344F300289CA90A2A1150169034CA43634F008ECD3277001CFBC6D0B94ED01180FD6E0A5DD17600662F620E00FA74E00E001C1289B9583CBB56D81380
310
6366AC0AC06AC31401A05600ECAE1FC0150096095C8B20A0A6BBCA0098DC01D08B3D73001245C42A9F7D8E15D40080AF32831F0B60CA23C88CD839DA6341E5E2AAD6DF453F40CD0B84DDD099CD9FE9E9B2FAEB72CB6973BBC6904C0B8F00D079884AE9EC71BD44F8CEE9F2035C20BEFBDC7A40347C5DC7C1ECCC64D5191D00
310
C885810F0260B17E70248086E3A4AD2050D8218EA9768FB73EBE4E0BB0CB29D96B9C9CBC80F7AD6F0120E348D69F0310F65DFF2C806346E527015C5BECA8FD144EFF00CE2346C5A90268C8AACF03701E389C3D36CC9C5D0B1781F4B91CD30080B0000AFF5A010478407C58AD47006FCA9DAF7005E0D77E790158001680B76E
310
4346BE2BD9FD1600BAFA48B743BA1700E384962C59B264C992254B962C59B264C992254B1E27284C277D5DFE012DDD18986C91D1840000000049454E44AE426082
  0
ENDSEC
  0
EOF
