  0
SECTION
  2
HEADER
  9
$ACADVER
  1
AC1032
  9
$ACADMAINTVER
 90
        4
  9
$DWGCODEPAGE
  3
ANSI_1252
  9
$LASTSAVEDBY
  1
Siqi
  9
$REQUIREDVERSIONS
160
                 0
  9
$INSBASE
 10
0.0
 20
0.0
 30
0.0
  9
$EXTMIN
 10
34046.28361398958
 20
2318.231195314151
 30
0.0
  9
$EXTMAX
 10
38015.81370230637
 20
4668.131995316048
 30
0.0
  9
$LIMMIN
 10
0.0
 20
0.0
  9
$LIMMAX
 10
420.0
 20
297.0
  9
$ORTHOMODE
 70
     0
  9
$REGENMODE
 70
     1
  9
$FILLMODE
 70
     1
  9
$QTEXTMODE
 70
     0
  9
$MIRRTEXT
 70
     0
  9
$LTSCALE
 40
1.0
  9
$ATTMODE
 70
     1
  9
$TEXTSIZE
 40
2.5
  9
$TRACEWID
 40
1.0
  9
$TEXTSTYLE
  7
Standard
  9
$CLAYER
  8
DIM
  9
$CELTYPE
  6
ByLayer
  9
$CECOLOR
 62
   256
  9
$CELTSCALE
 40
1.0
  9
$DISPSILH
 70
     0
  9
$DIMSCALE
 40
1.0
  9
$DIMASZ
 40
10.0
  9
$DIMEXO
 40
1.0
  9
$DIMDLI
 40
3.75
  9
$DIMRND
 40
0.0
  9
$DIMDLE
 40
0.0
  9
$DIMEXE
 40
1.25
  9
$DIMTP
 40
0.0
  9
$DIMTM
 40
0.0
  9
$DIMTXT
 40
20.0
  9
$DIMCEN
 40
2.5
  9
$DIMTSZ
 40
0.0
  9
$DIMTOL
 70
     0
  9
$DIMLIM
 70
     0
  9
$DIMTIH
 70
     0
  9
$DIMTOH
 70
     0
  9
$DIMSE1
 70
     0
  9
$DIMSE2
 70
     0
  9
$DIMTAD
 70
     1
  9
$DIMZIN
 70
     8
  9
$DIMBLK
  1

  9
$DIMASO
 70
     1
  9
$DIMSHO
 70
     1
  9
$DIMPOST
  1

  9
$DIMAPOST
  1

  9
$DIMALT
 70
     0
  9
$DIMALTD
 70
     3
  9
$DIMALTF
 40
0.03937007874016
  9
$DIMLFAC
 40
1.0
  9
$DIMTOFL
 70
     1
  9
$DIMTVP
 40
0.0
  9
$DIMTIX
 70
     0
  9
$DIMSOXD
 70
     0
  9
$DIMSAH
 70
     0
  9
$DIMBLK1
  1

  9
$DIMBLK2
  1

  9
$DIMSTYLE
  2
1
  9
$DIMCLRD
 70
     0
  9
$DIMCLRE
 70
     0
  9
$DIMCLRT
 70
     0
  9
$DIMTFAC
 40
1.0
  9
$DIMGAP
 40
5.0
  9
$DIMJUST
 70
     0
  9
$DIMSD1
 70
     0
  9
$DIMSD2
 70
     0
  9
$DIMTOLJ
 70
     0
  9
$DIMTZIN
 70
     8
  9
$DIMALTZ
 70
     0
  9
$DIMALTTZ
 70
     0
  9
$DIMUPT
 70
     0
  9
$DIMDEC
 70
     2
  9
$DIMTDEC
 70
     2
  9
$DIMALTU
 70
     2
  9
$DIMALTTD
 70
     3
  9
$DIMTXSTY
  7
Standard
  9
$DIMAUNIT
 70
     0
  9
$DIMADEC
 70
     0
  9
$DIMALTRND
 40
0.0
  9
$DIMAZIN
 70
     0
  9
$DIMDSEP
 70
    44
  9
$DIMATFIT
 70
     3
  9
$DIMFRAC
 70
     0
  9
$DIMLDRBLK
  1

  9
$DIMLUNIT
 70
     2
  9
$DIMLWD
 70
    -2
  9
$DIMLWE
 70
    -2
  9
$DIMTMOVE
 70
     0
  9
$DIMFXL
 40
1.0
  9
$DIMFXLON
 70
     0
  9
$DIMJOGANG
 40
0.7853981633974483
  9
$DIMTFILL
 70
     0
  9
$DIMTFILLCLR
 70
     0
  9
$DIMARCSYM
 70
     0
  9
$DIMLTYPE
  6

  9
$DIMLTEX1
  6

  9
$DIMLTEX2
  6

  9
$DIMTXTDIRECTION
 70
     0
  9
$LUNITS
 70
     2
  9
$LUPREC
 70
     4
  9
$SKETCHINC
 40
1.0
  9
$FILLETRAD
 40
0.0
  9
$AUNITS
 70
     0
  9
$AUPREC
 70
     0
  9
$MENU
  1
.
  9
$ELEVATION
 40
0.0
  9
$PELEVATION
 40
0.0
  9
$THICKNESS
 40
0.0
  9
$LIMCHECK
 70
     0
  9
$CHAMFERA
 40
150.0
  9
$CHAMFERB
 40
150.0
  9
$CHAMFERC
 40
0.0
  9
$CHAMFERD
 40
0.0
  9
$SKPOLY
 70
     0
  9
$TDCREATE
 40
2453649.060439815
  9
$TDUCREATE
 40
2453649.352115521
  9
$TDUPDATE
 40
2457970.695694444
  9
$TDUUPDATE
 40
2457970.987361111
  9
$TDINDWG
 40
1.4974146181
  9
$TDUSRTIMER
 40
1.4974099190
  9
$USRTIMER
 70
     1
  9
$ANGBASE
 50
0.0
  9
$ANGDIR
 70
     0
  9
$PDMODE
 70
     0
  9
$PDSIZE
 40
0.0
  9
$PLINEWID
 40
0.0
  9
$SPLFRAME
 70
     0
  9
$SPLINETYPE
 70
     6
  9
$SPLINESEGS
 70
     8
  9
$HANDSEED
  5
68B4
  9
$SURFTAB1
 70
     6
  9
$SURFTAB2
 70
     6
  9
$SURFTYPE
 70
     6
  9
$SURFU
 70
     6
  9
$SURFV
 70
     6
  9
$UCSBASE
  2

  9
$UCSNAME
  2

  9
$UCSORG
 10
20135.92273348905
 20
3420.432723209263
 30
0.0
  9
$UCSXDIR
 10
1.0
 20
0.0
 30
0.0
  9
$UCSYDIR
 10
0.0
 20
1.0
 30
0.0
  9
$UCSORTHOREF
  2

  9
$UCSORTHOVIEW
 70
     0
  9
$UCSORGTOP
 10
0.0
 20
0.0
 30
0.0
  9
$UCSORGBOTTOM
 10
0.0
 20
0.0
 30
0.0
  9
$UCSORGLEFT
 10
0.0
 20
0.0
 30
0.0
  9
$UCSORGRIGHT
 10
0.0
 20
0.0
 30
0.0
  9
$UCSORGFRONT
 10
0.0
 20
0.0
 30
0.0
  9
$UCSORGBACK
 10
0.0
 20
0.0
 30
0.0
  9
$PUCSBASE
  2

  9
$PUCSNAME
  2

  9
$PUCSORG
 10
0.0
 20
0.0
 30
0.0
  9
$PUCSXDIR
 10
1.0
 20
0.0
 30
0.0
  9
$PUCSYDIR
 10
0.0
 20
1.0
 30
0.0
  9
$PUCSORTHOREF
  2

  9
$PUCSORTHOVIEW
 70
     0
  9
$PUCSORGTOP
 10
0.0
 20
0.0
 30
0.0
  9
$PUCSORGBOTTOM
 10
0.0
 20
0.0
 30
0.0
  9
$PUCSORGLEFT
 10
0.0
 20
0.0
 30
0.0
  9
$PUCSORGRIGHT
 10
0.0
 20
0.0
 30
0.0
  9
$PUCSORGFRONT
 10
0.0
 20
0.0
 30
0.0
  9
$PUCSORGBACK
 10
0.0
 20
0.0
 30
0.0
  9
$USERI1
 70
     0
  9
$USERI2
 70
     0
  9
$USERI3
 70
     0
  9
$USERI4
 70
     0
  9
$USERI5
 70
     0
  9
$USERR1
 40
0.0
  9
$USERR2
 40
0.0
  9
$USERR3
 40
0.0
  9
$USERR4
 40
0.0
  9
$USERR5
 40
2.5
  9
$WORLDVIEW
 70
     1
  9
$SHADEDGE
 70
     3
  9
$SHADEDIF
 70
    70
  9
$TILEMODE
 70
     1
  9
$MAXACTVP
 70
    64
  9
$PINSBASE
 10
0.0
 20
0.0
 30
0.0
  9
$PLIMCHECK
 70
     0
  9
$PEXTMIN
 10
0.0
 20
0.0
 30
0.0
  9
$PEXTMAX
 10
0.0
 20
0.0
 30
0.0
  9
$PLIMMIN
 10
0.0
 20
0.0
  9
$PLIMMAX
 10
12.0
 20
9.0
  9
$UNITMODE
 70
     0
  9
$VISRETAIN
 70
     1
  9
$PLINEGEN
 70
     0
  9
$PSLTSCALE
 70
     1
  9
$TREEDEPTH
 70
  3020
  9
$CMLSTYLE
  2
Standard
  9
$CMLJUST
 70
     0
  9
$CMLSCALE
 40
20.0
  9
$PROXYGRAPHICS
 70
     1
  9
$MEASUREMENT
 70
     1
  9
$CELWEIGHT
370
     5
  9
$ENDCAPS
280
     0
  9
$JOINSTYLE
280
     0
  9
$LWDISPLAY
290
     0
  9
$INSUNITS
 70
     4
  9
$HYPERLINKBASE
  1

  9
$STYLESHEET
  1
monochrome.ctb
  9
$XEDIT
290
     1
  9
$CEPSNTYPE
380
     0
  9
$PSTYLEMODE
290
     1
  9
$FINGERPRINTGUID
  2
{FDEAD578-A652-11D2-9A35-0060089B3A3F}
  9
$VERSIONGUID
  2
{AC06353D-2E52-B845-B208-552141F99E42}
  9
$EXTNAMES
290
     1
  9
$PSVPSCALE
 40
0.0
  9
$OLESTARTUP
290
     0
  9
$SORTENTS
280
   127
  9
$INDEXCTL
280
     0
  9
$HIDETEXT
280
     1
  9
$XCLIPFRAME
280
     0
  9
$HALOGAP
280
     0
  9
$OBSCOLOR
 70
   257
  9
$OBSLTYPE
280
     0
  9
$INTERSECTIONDISPLAY
280
     0
  9
$INTERSECTIONCOLOR
 70
   257
  9
$DIMASSOC
280
     2
  9
$PROJECTNAME
  1

  9
$CAMERADISPLAY
290
     0
  9
$LENSLENGTH
 40
50.0
  9
$CAMERAHEIGHT
 40
0.0
  9
$STEPSPERSEC
 40
2.0
  9
$STEPSIZE
 40
6.0
  9
$3DDWFPREC
 40
2.0
  9
$PSOLWIDTH
 40
0.25
  9
$PSOLHEIGHT
 40
4.0
  9
$LOFTANG1
 40
1.570796326794896
  9
$LOFTANG2
 40
1.570796326794896
  9
$LOFTMAG1
 40
0.0
  9
$LOFTMAG2
 40
0.0
  9
$LOFTPARAM
 70
     7
  9
$LOFTNORMALS
280
     1
  9
$LATITUDE
 40
37.795
  9
$LONGITUDE
 40
-122.394
  9
$NORTHDIRECTION
 40
0.0
  9
$TIMEZONE
 70
 -8000
  9
$LIGHTGLYPHDISPLAY
280
     1
  9
$TILEMODELIGHTSYNCH
280
     1
  9
$CMATERIAL
347
661F
  9
$SOLIDHIST
280
     1
  9
$SHOWHIST
280
     1
  9
$DWFFRAME
280
     2
  9
$DGNFRAME
280
     0
  9
$REALWORLDSCALE
290
     1
  9
$INTERFERECOLOR
 62
     1
  9
$INTERFEREOBJVS
345
662C
  9
$INTERFEREVPVS
346
6866
  9
$CSHADOW
280
     0
  9
$SHADOWPLANELOCATION
 40
0.0
  0
ENDSEC
  0
SECTION
  2
CLASSES
  0
CLASS
  1
ACDBDICTIONARYWDFLT
  2
AcDbDictionaryWithDefault
  3
ObjectDBX Classes
 90
        0
 91
        1
280
     0
281
     0
  0
CLASS
  1
ACDBPLACEHOLDER
  2
AcDbPlaceHolder
  3
ObjectDBX Classes
 90
        0
 91
        1
280
     0
281
     0
  0
CLASS
  1
LAYOUT
  2
AcDbLayout
  3
ObjectDBX Classes
 90
        0
 91
        3
280
     0
281
     0
  0
CLASS
  1
DICTIONARYVAR
  2
AcDbDictionaryVar
  3
ObjectDBX Classes
 90
        0
 91
       20
280
     0
281
     0
  0
CLASS
  1
DIMASSOC
  2
AcDbDimAssoc
  3
"AcDbDimAssoc|Product Desc:     AcDim ARX App For Dimension|Company:          Autodesk, Inc.|WEB Address:      www.autodesk.com"
 90
        0
 91
       40
280
     0
281
     0
  0
CLASS
  1
MATERIAL
  2
AcDbMaterial
  3
ObjectDBX Classes
 90
     1153
 91
        3
280
     0
281
     0
  0
CLASS
  1
VISUALSTYLE
  2
AcDbVisualStyle
  3
ObjectDBX Classes
 90
     4095
 91
       26
280
     0
281
     0
  0
CLASS
  1
TABLESTYLE
  2
AcDbTableStyle
  3
ObjectDBX Classes
 90
     4095
 91
        1
280
     0
281
     0
  0
CLASS
  1
VLO-VL
  2
vlo_VL
  3
VL|AutoLISP based application
 90
      129
 91
        2
280
     0
281
     0
  0
CLASS
  1
SORTENTSTABLE
  2
AcDbSortentsTable
  3
ObjectDBX Classes
 90
        0
 91
        1
280
     0
281
     0
  0
CLASS
  1
SCALE
  2
AcDbScale
  3
ObjectDBX Classes
 90
     1153
 91
       17
280
     0
281
     0
  0
CLASS
  1
MLEADERSTYLE
  2
AcDbMLeaderStyle
  3
ACDB_MLEADERSTYLE_CLASS
 90
     4095
 91
        1
280
     0
281
     0
  0
CLASS
  1
ACDBSECTIONVIEWSTYLE
  2
AcDbSectionViewStyle
  3
ObjectDBX Classes
 90
     1025
 91
        1
280
     0
281
     0
  0
CLASS
  1
ACDBDETAILVIEWSTYLE
  2
AcDbDetailViewStyle
  3
ObjectDBX Classes
 90
     1025
 91
        1
280
     0
281
     0
  0
CLASS
  1
CELLSTYLEMAP
  2
AcDbCellStyleMap
  3
ObjectDBX Classes
 90
     1152
 91
        1
280
     0
281
     0
  0
ENDSEC
  0
SECTION
  2
TABLES
  0
TABLE
  2
VPORT
  5
8
330
0
100
AcDbSymbolTable
 70
     1
  0
VPORT
  5
661D
330
8
100
AcDbSymbolTableRecord
100
AcDbViewportTableRecord
  2
*Active
 70
     0
 10
0.0
 20
0.0
 11
1.0
 21
1.0
 12
38789.68648622548
 22
2996.088571227274
 13
0.0
 23
0.0
 14
10.0
 24
10.0
 15
10.0
 25
10.0
 16
0.0
 26
0.0
 36
1.0
 17
0.0
 27
0.0
 37
0.0
 40
4280.250999043459
 41
2.283154121863799
 42
50.0
 43
0.0
 44
0.0
 50
0.0
 51
0.0
 71
     0
 72
  1000
 73
     1
 74
     3
 75
     0
 76
     0
 77
     0
 78
     0
281
     0
 65
     1
110
20135.92273348905
120
3420.432723209263
130
0.0
111
1.0
121
0.0
131
0.0
112
0.0
122
1.0
132
0.0
 79
     0
146
0.0
348
6628
 60
     3
 61
     5
292
     1
282
     1
141
0.0
142
0.0
 63
   250
421
  3355443
1001
ACAD_NAV_VCDISPLAY
1070
     3
  0
ENDTAB
  0
TABLE
  2
LTYPE
  5
5
330
0
100
AcDbSymbolTable
 70
     3
  0
LTYPE
  5
14
330
5
100
AcDbSymbolTableRecord
100
AcDbLinetypeTableRecord
  2
ByBlock
 70
     0
  3

 72
    65
 73
     0
 40
0.0
  0
LTYPE
  5
15
330
5
100
AcDbSymbolTableRecord
100
AcDbLinetypeTableRecord
  2
ByLayer
 70
     0
  3

 72
    65
 73
     0
 40
0.0
  0
LTYPE
  5
16
330
5
100
AcDbSymbolTableRecord
100
AcDbLinetypeTableRecord
  2
Continuous
 70
     0
  3
Solid line
 72
    65
 73
     0
 40
0.0
  0
LTYPE
  5
8F
330
5
100
AcDbSymbolTableRecord
100
AcDbLinetypeTableRecord
  2
ACAD_ISO02W100
 70
     0
  3
ISO dash __ __ __ __ __ __ __ __ __ __ __ __ __
 72
    65
 73
     2
 40
15.0
 49
12.0
 74
     0
 49
-3.0
 74
     0
  0
LTYPE
  5
2E41
330
5
100
AcDbSymbolTableRecord
100
AcDbLinetypeTableRecord
  2
CENTER
 70
     0
  3
Center ____ _ ____ _ ____ _ ____ _ ____ _ ____
 72
    65
 73
     4
 40
50.8
 49
31.75
 74
     0
 49
-6.349999999999999
 74
     0
 49
6.349999999999999
 74
     0
 49
-6.349999999999999
 74
     0
  0
ENDTAB
  0
TABLE
  2
LAYER
  5
2
330
0
100
AcDbSymbolTable
 70
     9
  0
LAYER
  5
10
102
{ACAD_XDICTIONARY
360
6890
102
}
330
2
100
AcDbSymbolTableRecord
100
AcDbLayerTableRecord
  2
0
 70
     0
 62
     7
  6
Continuous
370
    25
390
F
347
6621
348
0
  0
LAYER
  5
84
102
{ACAD_XDICTIONARY
360
6892
102
}
330
2
100
AcDbSymbolTableRecord
100
AcDbLayerTableRecord
  2
base
 70
     0
 62
     4
  6
Continuous
370
    40
390
F
347
6621
348
0
  0
LAYER
  5
1DA
330
2
100
AcDbSymbolTableRecord
100
AcDbLayerTableRecord
  2
Defpoints
 70
     0
 62
     7
  6
Continuous
290
     0
370
    -3
390
F
347
6621
348
0
  0
LAYER
  5
2D93
102
{ACAD_XDICTIONARY
360
6894
102
}
330
2
100
AcDbSymbolTableRecord
100
AcDbLayerTableRecord
  2
DIM
 70
     0
 62
     7
  6
Continuous
370
     9
390
F
347
6621
348
0
  0
LAYER
  5
4796
102
{ACAD_XDICTIONARY
360
6896
102
}
330
2
100
AcDbSymbolTableRecord
100
AcDbLayerTableRecord
  2
1上模架
 70
     0
 62
     3
  6
Continuous
370
    40
390
F
347
6621
348
0
1001
AcadStringInfo
1000
MIFCodePage
1070
     5
  0
LAYER
  5
4797
102
{ACAD_XDICTIONARY
360
6898
102
}
330
2
100
AcDbSymbolTableRecord
100
AcDbLayerTableRecord
  2
1dim
 70
     0
 62
     7
  6
Continuous
370
    13
390
F
347
6621
348
0
  0
LAYER
  5
4798
102
{ACAD_XDICTIONARY
360
689A
102
}
330
2
100
AcDbSymbolTableRecord
100
AcDbLayerTableRecord
  2
2dim
 70
     0
 62
     7
  6
Continuous
370
    13
390
F
347
6621
348
0
  0
LAYER
  5
4799
102
{ACAD_XDICTIONARY
360
689C
102
}
330
2
100
AcDbSymbolTableRecord
100
AcDbLayerTableRecord
  2
2上模板
 70
     0
 62
     1
  6
Continuous
370
    40
390
F
347
6621
348
0
1001
AcadStringInfo
1000
MIFCodePage
1070
     5
  0
LAYER
  5
5DB3
102
{ACAD_XDICTIONARY
360
689E
102
}
330
2
100
AcDbSymbolTableRecord
100
AcDbLayerTableRecord
  2
3筋板
 70
     0
 62
     6
  6
Continuous
370
    20
390
F
347
6621
348
0
1001
AcadStringInfo
1000
MIFCodePage
1070
     5
  0
ENDTAB
  0
TABLE
  2
STYLE
  5
3
330
0
100
AcDbSymbolTable
 70
     2
  0
STYLE
  5
11
330
3
100
AcDbSymbolTableRecord
100
AcDbTextStyleTableRecord
  2
Standard
 70
     0
 40
0.0
 41
1.0
 50
0.0
 71
     0
 42
2.5
  3
txt
  4

  0
STYLE
  5
2E40
330
3
100
AcDbSymbolTableRecord
100
AcDbTextStyleTableRecord
  2

 70
     1
 40
0.0
 41
1.0
 50
0.0
 71
     0
 42
2.5
  3
ltypeshp.shx
  4

  0
ENDTAB
  0
TABLE
  2
VIEW
  5
6
330
0
100
AcDbSymbolTable
 70
     0
  0
ENDTAB
  0
TABLE
  2
UCS
  5
7
330
0
100
AcDbSymbolTable
 70
     0
  0
ENDTAB
  0
TABLE
  2
APPID
  5
9
330
0
100
AcDbSymbolTable
 70
     3
  0
APPID
  5
12
330
9
100
AcDbSymbolTableRecord
100
AcDbRegAppTableRecord
  2
ACAD
 70
     0
  0
APPID
  5
6889
330
9
100
AcDbSymbolTableRecord
100
AcDbRegAppTableRecord
  2
AcadStringInfo
 70
     0
  0
APPID
  5
68A0
330
9
100
AcDbSymbolTableRecord
100
AcDbRegAppTableRecord
  2
ACAD_NAV_VCDISPLAY
 70
     0
  0
ENDTAB
  0
TABLE
  2
DIMSTYLE
  5
A
330
0
100
AcDbSymbolTable
 70
     2
100
AcDbDimStyleTable
 71
     2
340
483C
340
27
  0
DIMSTYLE
105
27
102
{ACAD_REACTORS
330
44B5
330
44B2
330
44AF
330
44AC
330
44A9
330
44A6
330
4524
330
4521
330
451E
330
451B
330
4518
330
4512
330
44F8
330
458E
330
458B
330
4588
330
4545
330
4531
330
452E
330
452D
330
452A
330
4527
330
66C6
330
66E0
330
66E6
330
66E9
330
66EC
330
66EF
330
66F2
330
66F5
330
66F8
330
66FB
330
66FC
330
66FF
330
6713
330
6720
330
6723
330
6726
330
6674
330
6677
330
667A
330
667D
330
6680
330
6683
102
}
330
A
100
AcDbSymbolTableRecord
100
AcDbDimStyleTableRecord
  2
ISO-25
 70
     0
 41
2.0
 42
1.0
 43
3.75
 44
1.25
 73
     0
 74
     0
 77
     1
 78
     8
140
3.0
141
2.5
143
0.03937007874016
147
5.0
171
     3
172
     1
271
     2
272
     2
274
     3
278
    44
283
     0
284
     8
340
11
  0
DIMSTYLE
105
483C
330
A
100
AcDbSymbolTableRecord
100
AcDbDimStyleTableRecord
  2
1
 70
     0
 41
10.0
 42
1.0
 43
3.75
 44
1.25
 73
     0
 74
     0
 77
     1
 78
     8
140
20.0
141
2.5
143
0.03937007874016
147
5.0
171
     3
172
     1
271
     2
272
     2
274
     3
278
    44
283
     0
284
     8
340
11
  0
ENDTAB
  0
TABLE
  2
BLOCK_RECORD
  5
1
330
0
100
AcDbSymbolTable
 70
   152
  0
BLOCK_RECORD
  5
1F
102
{ACAD_XDICTIONARY
360
663E
102
}
330
1
100
AcDbSymbolTableRecord
100
AcDbBlockTableRecord
  2
*Model_Space
340
22
 70
     0
280
     1
281
     0
  0
BLOCK_RECORD
  5
50
330
1
100
AcDbSymbolTableRecord
100
AcDbBlockTableRecord
  2
*Paper_Space
340
51
 70
     0
280
     1
281
     0
  0
BLOCK_RECORD
  5
55
330
1
100
AcDbSymbolTableRecord
100
AcDbBlockTableRecord
  2
*Paper_Space0
340
56
 70
     0
280
     1
281
     0
  0
BLOCK_RECORD
  5
4598
330
1
100
AcDbSymbolTableRecord
100
AcDbBlockTableRecord
  2
*D23
340
0
 70
     0
280
     1
281
     0
  0
BLOCK_RECORD
  5
45A4
330
1
100
AcDbSymbolTableRecord
100
AcDbBlockTableRecord
  2
*D24
340
0
 70
     0
280
     1
281
     0
  0
BLOCK_RECORD
  5
45B1
330
1
100
AcDbSymbolTableRecord
100
AcDbBlockTableRecord
  2
*D25
340
0
 70
     0
280
     1
281
     0
  0
BLOCK_RECORD
  5
45BD
330
1
100
AcDbSymbolTableRecord
100
AcDbBlockTableRecord
  2
*D26
340
0
 70
     0
280
     1
281
     0
  0
BLOCK_RECORD
  5
45C5
330
1
100
AcDbSymbolTableRecord
100
AcDbBlockTableRecord
  2
*D27
340
0
 70
     0
280
     1
281
     0
  0
BLOCK_RECORD
  5
45D7
330
1
100
AcDbSymbolTableRecord
100
AcDbBlockTableRecord
  2
*D28
340
0
 70
     0
280
     1
281
     0
  0
BLOCK_RECORD
  5
45E3
330
1
100
AcDbSymbolTableRecord
100
AcDbBlockTableRecord
  2
*D29
340
0
 70
     0
280
     1
281
     0
  0
BLOCK_RECORD
  5
45F5
330
1
100
AcDbSymbolTableRecord
100
AcDbBlockTableRecord
  2
*D30
340
0
 70
     0
280
     1
281
     0
  0
BLOCK_RECORD
  5
45FD
330
1
100
AcDbSymbolTableRecord
100
AcDbBlockTableRecord
  2
*D31
340
0
 70
     0
280
     1
281
     0
  0
BLOCK_RECORD
  5
4609
330
1
100
AcDbSymbolTableRecord
100
AcDbBlockTableRecord
  2
*D32
340
0
 70
     0
280
     1
281
     0
  0
BLOCK_RECORD
  5
4615
330
1
100
AcDbSymbolTableRecord
100
AcDbBlockTableRecord
  2
*D33
340
0
 70
     0
280
     1
281
     0
  0
BLOCK_RECORD
  5
4621
330
1
100
AcDbSymbolTableRecord
100
AcDbBlockTableRecord
  2
*D34
340
0
 70
     0
280
     1
281
     0
  0
BLOCK_RECORD
  5
462E
330
1
100
AcDbSymbolTableRecord
100
AcDbBlockTableRecord
  2
*D35
340
0
 70
     0
280
     1
281
     0
  0
BLOCK_RECORD
  5
463B
330
1
100
AcDbSymbolTableRecord
100
AcDbBlockTableRecord
  2
*D36
340
0
 70
     0
280
     1
281
     0
  0
BLOCK_RECORD
  5
4643
330
1
100
AcDbSymbolTableRecord
100
AcDbBlockTableRecord
  2
*D37
340
0
 70
     0
280
     1
281
     0
  0
BLOCK_RECORD
  5
4655
330
1
100
AcDbSymbolTableRecord
100
AcDbBlockTableRecord
  2
*D38
340
0
 70
     0
280
     1
281
     0
  0
BLOCK_RECORD
  5
4661
330
1
100
AcDbSymbolTableRecord
100
AcDbBlockTableRecord
  2
*D39
340
0
 70
     0
280
     1
281
     0
  0
BLOCK_RECORD
  5
466D
330
1
100
AcDbSymbolTableRecord
100
AcDbBlockTableRecord
  2
*D40
340
0
 70
     0
280
     1
281
     0
  0
BLOCK_RECORD
  5
467B
330
1
100
AcDbSymbolTableRecord
100
AcDbBlockTableRecord
  2
*D41
340
0
 70
     0
280
     1
281
     0
  0
BLOCK_RECORD
  5
4687
330
1
100
AcDbSymbolTableRecord
100
AcDbBlockTableRecord
  2
*D42
340
0
 70
     0
280
     1
281
     0
  0
BLOCK_RECORD
  5
469D
330
1
100
AcDbSymbolTableRecord
100
AcDbBlockTableRecord
  2
*D43
340
0
 70
     0
280
     1
281
     0
  0
BLOCK_RECORD
  5
46A9
330
1
100
AcDbSymbolTableRecord
100
AcDbBlockTableRecord
  2
*D44
340
0
 70
     0
280
     1
281
     0
  0
BLOCK_RECORD
  5
6730
330
1
100
AcDbSymbolTableRecord
100
AcDbBlockTableRecord
  2
*D130
340
0
 70
     0
280
     1
281
     0
  0
BLOCK_RECORD
  5
673D
330
1
100
AcDbSymbolTableRecord
100
AcDbBlockTableRecord
  2
*D131
340
0
 70
     0
280
     1
281
     0
  0
BLOCK_RECORD
  5
6749
330
1
100
AcDbSymbolTableRecord
100
AcDbBlockTableRecord
  2
*D132
340
0
 70
     0
280
     1
281
     0
  0
BLOCK_RECORD
  5
6752
330
1
100
AcDbSymbolTableRecord
100
AcDbBlockTableRecord
  2
*D133
340
0
 70
     0
280
     1
281
     0
  0
BLOCK_RECORD
  5
675A
330
1
100
AcDbSymbolTableRecord
100
AcDbBlockTableRecord
  2
*D134
340
0
 70
     0
280
     1
281
     0
  0
BLOCK_RECORD
  5
6767
330
1
100
AcDbSymbolTableRecord
100
AcDbBlockTableRecord
  2
*D135
340
0
 70
     0
280
     1
281
     0
  0
BLOCK_RECORD
  5
6774
330
1
100
AcDbSymbolTableRecord
100
AcDbBlockTableRecord
  2
*D136
340
0
 70
     0
280
     1
281
     0
  0
BLOCK_RECORD
  5
6780
330
1
100
AcDbSymbolTableRecord
100
AcDbBlockTableRecord
  2
*D137
340
0
 70
     0
280
     1
281
     0
  0
BLOCK_RECORD
  5
678C
330
1
100
AcDbSymbolTableRecord
100
AcDbBlockTableRecord
  2
*D138
340
0
 70
     0
280
     1
281
     0
  0
BLOCK_RECORD
  5
6798
330
1
100
AcDbSymbolTableRecord
100
AcDbBlockTableRecord
  2
*D139
340
0
 70
     0
280
     1
281
     0
  0
BLOCK_RECORD
  5
67A4
330
1
100
AcDbSymbolTableRecord
100
AcDbBlockTableRecord
  2
*D140
340
0
 70
     0
280
     1
281
     0
  0
BLOCK_RECORD
  5
67BA
330
1
100
AcDbSymbolTableRecord
100
AcDbBlockTableRecord
  2
*D141
340
0
 70
     0
280
     1
281
     0
  0
BLOCK_RECORD
  5
67C6
330
1
100
AcDbSymbolTableRecord
100
AcDbBlockTableRecord
  2
*D142
340
0
 70
     0
280
     1
281
     0
  0
BLOCK_RECORD
  5
67D2
330
1
100
AcDbSymbolTableRecord
100
AcDbBlockTableRecord
  2
*D143
340
0
 70
     0
280
     1
281
     0
  0
BLOCK_RECORD
  5
67E0
330
1
100
AcDbSymbolTableRecord
100
AcDbBlockTableRecord
  2
*D144
340
0
 70
     0
280
     1
281
     0
  0
BLOCK_RECORD
  5
67EC
330
1
100
AcDbSymbolTableRecord
100
AcDbBlockTableRecord
  2
*D145
340
0
 70
     0
280
     1
281
     0
  0
BLOCK_RECORD
  5
6801
330
1
100
AcDbSymbolTableRecord
100
AcDbBlockTableRecord
  2
*D146
340
0
 70
     0
280
     1
281
     0
  0
BLOCK_RECORD
  5
6809
330
1
100
AcDbSymbolTableRecord
100
AcDbBlockTableRecord
  2
*D147
340
0
 70
     0
280
     1
281
     0
  0
BLOCK_RECORD
  5
681B
330
1
100
AcDbSymbolTableRecord
100
AcDbBlockTableRecord
  2
*D148
340
0
 70
     0
280
     1
281
     0
  0
BLOCK_RECORD
  5
6827
330
1
100
AcDbSymbolTableRecord
100
AcDbBlockTableRecord
  2
*D149
340
0
 70
     0
280
     1
281
     0
  0
BLOCK_RECORD
  5
6839
330
1
100
AcDbSymbolTableRecord
100
AcDbBlockTableRecord
  2
*D150
340
0
 70
     0
280
     1
281
     0
  0
BLOCK_RECORD
  5
6841
330
1
100
AcDbSymbolTableRecord
100
AcDbBlockTableRecord
  2
*D151
340
0
 70
     0
280
     1
281
     0
  0
ENDTAB
  0
ENDSEC
  0
SECTION
  2
BLOCKS
  0
BLOCK
  5
20
330
1F
100
AcDbEntity
  8
0
100
AcDbBlockBegin
  2
*Model_Space
 70
     0
 10
0.0
 20
0.0
 30
0.0
  3
*Model_Space
  1

  0
ENDBLK
  5
21
330
1F
100
AcDbEntity
  8
0
100
AcDbBlockEnd
  0
BLOCK
  5
52
330
50
100
AcDbEntity
 67
     1
  8
0
100
AcDbBlockBegin
  2
*Paper_Space
 70
     0
 10
0.0
 20
0.0
 30
0.0
  3
*Paper_Space
  1

  0
ENDBLK
  5
53
330
50
100
AcDbEntity
 67
     1
  8
0
100
AcDbBlockEnd
  0
BLOCK
  5
57
330
55
100
AcDbEntity
 67
     1
  8
0
100
AcDbBlockBegin
  2
*Paper_Space0
 70
     0
 10
0.0
 20
0.0
 30
0.0
  3
*Paper_Space0
  1

  0
ENDBLK
  5
58
330
55
100
AcDbEntity
 67
     1
  8
0
100
AcDbBlockEnd
  0
BLOCK
  5
45A2
330
4598
100
AcDbEntity
  8
0
100
AcDbBlockBegin
  2
*D23
 70
     1
 10
0.0
 20
0.0
 30
0.0
  3
*D23
  1

  0
LINE
  5
665C
330
4598
100
AcDbEntity
  8
DIM
 62
     0
440
 16777216
370
    -2
100
AcDbLine
 10
37205.97165263606
 20
2940.099895380172
 30
0.0
 11
37205.97165263606
 21
2887.219869377674
 31
0.0
  0
LINE
  5
665D
330
4598
100
AcDbEntity
  8
DIM
 62
     0
440
 16777216
370
    -2
100
AcDbLine
 10
37381.97165263607
 20
2940.69989538017
 30
0.0
 11
37381.97165263607
 21
2887.219869377674
 31
0.0
  0
LINE
  5
665E
330
4598
100
AcDbEntity
  8
DIM
 62
     0
440
 16777216
370
    -2
100
AcDbLine
 10
37213.97165263606
 20
2888.469869377674
 30
0.0
 11
37373.97165263606
 21
2888.469869377674
 31
0.0
  0
SOLID
  5
665F
330
4598
100
AcDbEntity
  8
DIM
 62
     0
440
 16777216
370
     5
100
AcDbTrace
 10
37213.97165263606
 20
2889.803202711008
 30
0.0
 11
37213.97165263606
 21
2887.13653604434
 31
0.0
 12
37205.97165263606
 22
2888.469869377674
 32
0.0
 13
37205.97165263606
 23
2888.469869377674
 33
0.0
  0
SOLID
  5
6660
330
4598
100
AcDbEntity
  8
DIM
 62
     0
440
 16777216
370
     5
100
AcDbTrace
 10
37373.97165263606
 20
2889.803202711008
 30
0.0
 11
37373.97165263606
 21
2887.13653604434
 31
0.0
 12
37381.97165263607
 22
2888.469869377674
 32
0.0
 13
37381.97165263607
 23
2888.469869377674
 33
0.0
  0
MTEXT
  5
6661
330
4598
100
AcDbEntity
  8
DIM
 62
     0
440
 16777216
100
AcDbMText
 10
37293.97165263606
 20
2900.469869377674
 30
0.0
 40
18.0
 41
0.0
 46
0.0
 71
     5
 72
     1
  1
%%C90[3.46]
 73
     1
 44
1.0
  0
POINT
  5
6662
330
4598
100
AcDbEntity
  8
Defpoints
 62
     0
440
 16777216
370
     5
100
AcDbPoint
 10
37205.97165263606
 20
2941.099895380171
 30
0.0
  0
POINT
  5
6663
330
4598
100
AcDbEntity
  8
Defpoints
 62
     0
440
 16777216
370
     5
100
AcDbPoint
 10
37381.97165263607
 20
2941.69989538017
 30
0.0
  0
POINT
  5
6664
330
4598
100
AcDbEntity
  8
Defpoints
 62
     0
440
 16777216
370
     5
100
AcDbPoint
 10
37381.97165263607
 20
2888.469869377674
 30
0.0
  0
ENDBLK
  5
45A3
330
4598
100
AcDbEntity
  8
0
100
AcDbBlockEnd
  0
BLOCK
  5
45AF
330
45A4
100
AcDbEntity
  8
0
100
AcDbBlockBegin
  2
*D24
 70
     1
 10
0.0
 20
0.0
 30
0.0
  3
*D24
  1

  0
LINE
  5
46C7
330
45A4
100
AcDbEntity
  8
DIM
 62
     0
440
 16777216
370
    -2
100
AcDbLine
 10
37265.20294048064
 20
3843.459312372019
 30
0.0
 11
37265.20294048064
 21
3897.53851583416
 31
0.0
  0
LINE
  5
46C8
330
45A4
100
AcDbEntity
  8
DIM
 62
     0
440
 16777216
370
    -2
100
AcDbLine
 10
37234.20294048064
 20
3843.519329096423
 30
0.0
 11
37234.20294048064
 21
3897.53851583416
 31
0.0
  0
LINE
  5
46C9
330
45A4
100
AcDbEntity
  8
DIM
 62
     0
440
 16777216
370
    -2
100
AcDbLine
 10
37257.20294048064
 20
3896.28851583416
 30
0.0
 11
37242.20294048064
 21
3896.28851583416
 31
0.0
  0
LINE
  5
46CA
330
45A4
100
AcDbEntity
  8
DIM
 62
     0
440
 16777216
370
    -2
100
AcDbLine
 10
37234.20294048064
 20
3896.28851583416
 30
0.0
 11
37097.20294048064
 21
3896.28851583416
 31
0.0
  0
SOLID
  5
46CB
330
45A4
100
AcDbEntity
  8
DIM
 62
     0
440
 16777216
100
AcDbTrace
 10
37257.20294048064
 20
3897.621849167494
 30
0.0
 11
37257.20294048064
 21
3894.955182500826
 31
0.0
 12
37265.20294048064
 22
3896.28851583416
 32
0.0
 13
37265.20294048064
 23
3896.28851583416
 33
0.0
  0
SOLID
  5
46CC
330
45A4
100
AcDbEntity
  8
DIM
 62
     0
440
 16777216
100
AcDbTrace
 10
37242.20294048064
 20
3897.621849167494
 30
0.0
 11
37242.20294048064
 21
3894.955182500826
 31
0.0
 12
37234.20294048064
 22
3896.28851583416
 32
0.0
 13
37234.20294048064
 23
3896.28851583416
 33
0.0
  0
MTEXT
  5
46CD
330
45A4
100
AcDbEntity
  8
DIM
 62
     0
440
 16777216
100
AcDbMText
 10
37161.70294048064
 20
3909.78851583416
 30
0.0
 40
18.0
 41
0.0
 46
0.0
 71
     5
 72
     1
  1
31 [1,22]
 73
     1
 44
1.0
  0
POINT
  5
46CE
330
45A4
100
AcDbEntity
  8
Defpoints
 62
     0
440
 16777216
100
AcDbPoint
 10
37265.20294048064
 20
3842.459312372019
 30
0.0
  0
POINT
  5
46CF
330
45A4
100
AcDbEntity
  8
Defpoints
 62
     0
440
 16777216
100
AcDbPoint
 10
37234.20294048064
 20
3842.519329096424
 30
0.0
  0
POINT
  5
46D0
330
45A4
100
AcDbEntity
  8
Defpoints
 62
     0
440
 16777216
100
AcDbPoint
 10
37234.20294048064
 20
3896.28851583416
 30
0.0
  0
ENDBLK
  5
45B0
330
45A4
100
AcDbEntity
  8
0
100
AcDbBlockEnd
  0
BLOCK
  5
45BB
330
45B1
100
AcDbEntity
  8
0
100
AcDbBlockBegin
  2
*D25
 70
     1
 10
0.0
 20
0.0
 30
0.0
  3
*D25
  1

  0
LINE
  5
471D
330
45B1
100
AcDbEntity
  8
DIM
 62
     0
440
 16777216
370
    -2
100
AcDbLine
 10
37655.70294048064
 20
4436.00798021425
 30
0.0
 11
37699.04385247746
 21
4436.00798021425
 31
0.0
  0
LINE
  5
471E
330
45B1
100
AcDbEntity
  8
DIM
 62
     0
440
 16777216
370
    -2
100
AcDbLine
 10
37506.20294048064
 20
4182.00798021425
 30
0.0
 11
37699.04385247746
 21
4182.00798021425
 31
0.0
  0
LINE
  5
471F
330
45B1
100
AcDbEntity
  8
DIM
 62
     0
440
 16777216
370
    -2
100
AcDbLine
 10
37697.79385247747
 20
4428.00798021425
 30
0.0
 11
37697.79385247747
 21
4190.007980214249
 31
0.0
  0
SOLID
  5
4720
330
45B1
100
AcDbEntity
  8
DIM
 62
     0
440
 16777216
100
AcDbTrace
 10
37696.46051914413
 20
4428.00798021425
 30
0.0
 11
37699.1271858108
 21
4428.00798021425
 31
0.0
 12
37697.79385247747
 22
4436.00798021425
 32
0.0
 13
37697.79385247747
 23
4436.00798021425
 33
0.0
  0
SOLID
  5
4721
330
45B1
100
AcDbEntity
  8
DIM
 62
     0
440
 16777216
100
AcDbTrace
 10
37696.46051914413
 20
4190.007980214249
 30
0.0
 11
37699.1271858108
 21
4190.007980214249
 31
0.0
 12
37697.79385247747
 22
4182.00798021425
 32
0.0
 13
37697.79385247747
 23
4182.00798021425
 33
0.0
  0
MTEXT
  5
4722
330
45B1
100
AcDbEntity
  8
DIM
 62
     0
440
 16777216
100
AcDbMText
 10
37684.29385247747
 20
4309.007980214255
 30
0.0
 40
18.0
 41
0.0
 46
0.0
 71
     5
 72
     1
  1
254 [10,00]
 11
0.0000000000000001
 21
1.0
 31
0.0
 73
     1
 44
1.0
  0
POINT
  5
4723
330
45B1
100
AcDbEntity
  8
Defpoints
 62
     0
440
 16777216
100
AcDbPoint
 10
37654.70294048064
 20
4436.00798021425
 30
0.0
  0
POINT
  5
4724
330
45B1
100
AcDbEntity
  8
Defpoints
 62
     0
440
 16777216
100
AcDbPoint
 10
37505.20294048064
 20
4182.00798021425
 30
0.0
  0
POINT
  5
4725
330
45B1
100
AcDbEntity
  8
Defpoints
 62
     0
440
 16777216
100
AcDbPoint
 10
37697.79385247747
 20
4182.00798021425
 30
0.0
  0
ENDBLK
  5
45BC
330
45B1
100
AcDbEntity
  8
0
100
AcDbBlockEnd
  0
BLOCK
  5
45C3
330
45BD
100
AcDbEntity
  8
0
100
AcDbBlockBegin
  2
*D26
 70
     1
 10
0.0
 20
0.0
 30
0.0
  3
*D26
  1

  0
LINE
  5
4762
330
45BD
100
AcDbEntity
  8
DIM
 62
     0
440
 16777216
370
    -2
100
AcDbLine
 10
37478.49792135239
 20
4327.241411041046
 30
0.0
 11
37605.51346886416
 21
4205.409351671245
 31
0.0
  0
MTEXT
  5
4763
330
45BD
100
AcDbEntity
  8
DIM
 62
     0
440
 16777216
100
AcDbMText
 10
37548.46405085512
 20
4278.836961633919
 30
0.0
 40
18.0
 41
0.0
 46
0.0
 71
     5
 72
     1
  1
R50 [R1,97]
 11
0.7216792472259727
 21
-0.6922276100556474
 31
0.0
 73
     1
 44
1.0
  0
SOLID
  5
4764
330
45BD
100
AcDbEntity
  8
DIM
 62
     0
440
 16777216
100
AcDbTrace
 10
37606.4364390109
 20
4206.371590667546
 30
0.0
 11
37604.59049871742
 21
4204.447112674944
 31
0.0
 12
37611.28690284197
 22
4199.871530790802
 32
0.0
 13
37611.28690284197
 23
4199.871530790802
 33
0.0
  0
POINT
  5
4765
330
45BD
100
AcDbEntity
  8
Defpoints
 62
     0
440
 16777216
100
AcDbPoint
 10
37611.28690284197
 20
4199.871530790802
 30
0.0
  0
POINT
  5
4766
330
45BD
100
AcDbEntity
  8
Defpoints
 62
     0
440
 16777216
100
AcDbPoint
 10
37575.20294048064
 20
4234.48291129361
 30
0.0
  0
ENDBLK
  5
45C4
330
45BD
100
AcDbEntity
  8
0
100
AcDbBlockEnd
  0
BLOCK
  5
45D5
330
45C5
100
AcDbEntity
  8
0
100
AcDbBlockBegin
  2
*D27
 70
     1
 10
0.0
 20
0.0
 30
0.0
  3
*D27
  1

  0
LINE
  5
472B
330
45C5
100
AcDbEntity
  8
DIM
 62
     0
440
 16777216
370
    -2
100
AcDbLine
 10
37506.20294048065
 20
4182.00798021425
 30
0.0
 11
37667.18075901694
 21
4182.007980214251
 31
0.0
  0
LINE
  5
472C
330
45C5
100
AcDbEntity
  8
DIM
 62
     0
440
 16777216
370
    -2
100
AcDbLine
 10
37577.94730614278
 20
4184.548269439361
 30
0.0
 11
37667.08208650639
 21
4187.660924558135
 31
0.0
  0
ARC
  5
472D
330
45C5
100
AcDbEntity
  8
DIM
 62
     0
440
 16777216
370
    -2
100
AcDbCircle
 10
37505.20294048064
 20
4182.00798021425
 30
0.0
 40
160.727818536304
100
AcDbArc
 50
354.2940094407653
 51
0.0000000000002163
  0
LINE
  5
472E
330
45C5
100
AcDbEntity
  8
DIM
 62
     0
440
 16777216
370
    -2
100
AcDbLine
 10
37665.13438163085
 20
4166.02781178401
 30
0.0
 11
37657.67759758946
 21
4091.399423272933
 31
0.0
  0
ARC
  5
472F
330
45C5
100
AcDbEntity
  8
DIM
 62
     0
440
 16777216
370
    -2
100
AcDbCircle
 10
37505.20294048064
 20
4182.00798021425
 30
0.0
 40
160.727818536304
100
AcDbArc
 50
354.295778185562
 51
357.1478890927811
  0
ARC
  5
4730
330
45C5
100
AcDbEntity
  8
DIM
 62
     0
440
 16777216
370
    -2
100
AcDbCircle
 10
37505.20294048064
 20
4182.00798021425
 30
0.0
 40
160.727818536304
100
AcDbArc
 50
4.852110907218479
 51
7.704221814437604
  0
ARC
  5
4731
330
45C5
100
AcDbEntity
  8
DIM
 62
     0
440
 16777216
370
    -2
100
AcDbCircle
 10
37505.20294048064
 20
4182.00798021425
 30
0.0
 40
160.727818536304
100
AcDbArc
 50
0.0000000000002163
 51
1.999999999999341
  0
SOLID
  5
4732
330
45C5
100
AcDbEntity
  8
DIM
 62
     0
440
 16777216
100
AcDbTrace
 10
37664.3987443027
 20
4174.043640398982
 30
0.0
 11
37667.06458503814
 21
4173.977275616806
 31
0.0
 12
37665.93075901695
 22
4182.007980214251
 32
0.0
 13
37665.93075901695
 23
4182.007980214251
 33
0.0
  0
SOLID
  5
4733
330
45C5
100
AcDbEntity
  8
DIM
 62
     0
440
 16777216
100
AcDbTrace
 10
37666.68571574902
 20
4195.682682653932
 30
0.0
 11
37664.02381506921
 21
4195.523321799432
 31
0.0
 12
37665.83284797261
 22
4187.617300187256
 32
0.0
 13
37665.83284797261
 23
4187.617300187256
 33
0.0
  0
MTEXT
  5
4734
330
45C5
100
AcDbEntity
  8
DIM
 62
     0
440
 16777216
100
AcDbMText
 10
37674.83909954215
 20
4127.371396401017
 30
0.0
 40
18.0
 41
0.0
 46
0.0
 71
     5
 72
     1
  1
2,00°
 11
-0.0994237872184606
 21
-0.9950451801476846
 31
0.0
 73
     1
 44
1.0
  0
POINT
  5
4735
330
45C5
100
AcDbEntity
  8
Defpoints
 62
     0
440
 16777216
100
AcDbPoint
 10
37665.88724054237
 20
4185.747948811869
 30
0.0
  0
POINT
  5
4736
330
45C5
100
AcDbEntity
  8
Defpoints
 62
     0
440
 16777216
100
AcDbPoint
 10
37505.20294048064
 20
4182.00798021425
 30
0.0
  0
POINT
  5
4737
330
45C5
100
AcDbEntity
  8
Defpoints
 62
     0
440
 16777216
100
AcDbPoint
 10
37505.20294048064
 20
4182.00798021425
 30
0.0
  0
POINT
  5
4738
330
45C5
100
AcDbEntity
  8
Defpoints
 62
     0
440
 16777216
100
AcDbPoint
 10
37576.94791531577
 20
4184.513369942659
 30
0.0
  0
POINT
  5
4739
330
45C5
100
AcDbEntity
  8
Defpoints
 62
     0
440
 16777216
100
AcDbPoint
 10
37385.20294048064
 20
4182.00798021425
 30
0.0
  0
ENDBLK
  5
45D6
330
45C5
100
AcDbEntity
  8
0
100
AcDbBlockEnd
  0
BLOCK
  5
45E1
330
45D7
100
AcDbEntity
  8
0
100
AcDbBlockBegin
  2
*D28
 70
     1
 10
0.0
 20
0.0
 30
0.0
  3
*D28
  1

  0
LINE
  5
473A
330
45D7
100
AcDbEntity
  8
DIM
 62
     0
440
 16777216
370
    -2
100
AcDbLine
 10
36859.70294048065
 20
4436.00798021425
 30
0.0
 11
36796.12268397316
 21
4436.00798021425
 31
0.0
  0
LINE
  5
473B
330
45D7
100
AcDbEntity
  8
DIM
 62
     0
440
 16777216
370
    -2
100
AcDbLine
 10
37001.20294048064
 20
4233.007980214249
 30
0.0
 11
36796.12268397316
 21
4233.007980214249
 31
0.0
  0
LINE
  5
473C
330
45D7
100
AcDbEntity
  8
DIM
 62
     0
440
 16777216
370
    -2
100
AcDbLine
 10
36797.37268397316
 20
4428.00798021425
 30
0.0
 11
36797.37268397316
 21
4241.007980214249
 31
0.0
  0
SOLID
  5
473D
330
45D7
100
AcDbEntity
  8
DIM
 62
     0
440
 16777216
100
AcDbTrace
 10
36796.03935063982
 20
4428.00798021425
 30
0.0
 11
36798.70601730649
 21
4428.00798021425
 31
0.0
 12
36797.37268397316
 22
4436.00798021425
 32
0.0
 13
36797.37268397316
 23
4436.00798021425
 33
0.0
  0
SOLID
  5
473E
330
45D7
100
AcDbEntity
  8
DIM
 62
     0
440
 16777216
100
AcDbTrace
 10
36796.03935063982
 20
4241.007980214249
 30
0.0
 11
36798.70601730649
 21
4241.007980214249
 31
0.0
 12
36797.37268397316
 22
4233.007980214249
 32
0.0
 13
36797.37268397316
 23
4233.007980214249
 33
0.0
  0
MTEXT
  5
473F
330
45D7
100
AcDbEntity
  8
DIM
 62
     0
440
 16777216
100
AcDbMText
 10
36783.87268397315
 20
4334.507980214256
 30
0.0
 40
18.0
 41
0.0
 46
0.0
 71
     5
 72
     1
  1
203 [7,99]
 11
0.0000000000000001
 21
1.0
 31
0.0
 73
     1
 44
1.0
  0
POINT
  5
4740
330
45D7
100
AcDbEntity
  8
Defpoints
 62
     0
440
 16777216
100
AcDbPoint
 10
36860.70294048064
 20
4436.00798021425
 30
0.0
  0
POINT
  5
4741
330
45D7
100
AcDbEntity
  8
Defpoints
 62
     0
440
 16777216
100
AcDbPoint
 10
37002.20294048064
 20
4233.007980214249
 30
0.0
  0
POINT
  5
4742
330
45D7
100
AcDbEntity
  8
Defpoints
 62
     0
440
 16777216
100
AcDbPoint
 10
36797.37268397316
 20
4233.007980214249
 30
0.0
  0
ENDBLK
  5
45E2
330
45D7
100
AcDbEntity
  8
0
100
AcDbBlockEnd
  0
BLOCK
  5
45F3
330
45E3
100
AcDbEntity
  8
0
100
AcDbBlockBegin
  2
*D29
 70
     1
 10
0.0
 20
0.0
 30
0.0
  3
*D29
  1

  0
LINE
  5
4743
330
45E3
100
AcDbEntity
  8
DIM
 62
     0
440
 16777216
370
    -2
100
AcDbLine
 10
36937.45857481848
 20
4235.268903283428
 30
0.0
 11
36835.70425863573
 21
4238.822242303636
 31
0.0
  0
LINE
  5
4744
330
45E3
100
AcDbEntity
  8
DIM
 62
     0
440
 16777216
370
    -2
100
AcDbLine
 10
37001.20294048062
 20
4233.007980214249
 30
0.0
 11
36835.60277031345
 21
4233.00798021425
 31
0.0
  0
ARC
  5
4745
330
45E3
100
AcDbEntity
  8
DIM
 62
     0
440
 16777216
370
    -2
100
AcDbCircle
 10
37002.20294048067
 20
4233.007980214249
 30
0.0
 40
165.3501701672285
100
AcDbArc
 50
172.4536464541049
 51
178.0000000000005
  0
LINE
  5
4746
330
45E3
100
AcDbEntity
  8
DIM
 62
     0
440
 16777216
370
    -2
100
AcDbLine
 10
36838.28487832842
 20
4254.723128718909
 30
0.0
 11
36848.13449708721
 21
4329.073549096377
 31
0.0
  0
ARC
  5
4747
330
45E3
100
AcDbEntity
  8
DIM
 62
     0
440
 16777216
370
    -2
100
AcDbCircle
 10
37002.20294048067
 20
4233.007980214249
 30
0.0
 40
165.3501701672285
100
AcDbArc
 50
172.4552708465768
 51
175.2276354232887
  0
ARC
  5
4748
330
45E3
100
AcDbEntity
  8
DIM
 62
     0
440
 16777216
370
    -2
100
AcDbCircle
 10
37002.20294048067
 20
4233.007980214249
 30
0.0
 40
165.3501701672285
100
AcDbArc
 50
182.7723645767117
 51
185.5447291534235
  0
ARC
  5
4749
330
45E3
100
AcDbEntity
  8
DIM
 62
     0
440
 16777216
370
    -2
100
AcDbCircle
 10
37002.20294048067
 20
4233.007980214249
 30
0.0
 40
165.3501701672285
100
AcDbArc
 50
178.0000000000005
 51
179.9999999999999
  0
SOLID
  5
474A
330
45E3
100
AcDbEntity
  8
DIM
 62
     0
440
 16777216
100
AcDbTrace
 10
36838.7570276924
 20
4246.685896568972
 30
0.0
 11
36836.0950167551
 21
4246.843404920389
 31
0.0
 12
36836.9534971695
 22
4238.778617932758
 32
0.0
 13
36836.9534971695
 23
4238.778617932758
 33
0.0
  0
SOLID
  5
474B
330
45E3
100
AcDbEntity
  8
DIM
 62
     0
440
 16777216
100
AcDbTrace
 10
36835.71335585524
 20
4224.978066611341
 30
0.0
 11
36838.37924212959
 21
4225.042576170998
 31
0.0
 12
36836.85277031345
 22
4233.007980214249
 32
0.0
 13
36836.85277031345
 23
4233.007980214249
 33
0.0
  0
MTEXT
  5
474C
330
45E3
100
AcDbEntity
  8
DIM
 62
     0
440
 16777216
100
AcDbMText
 10
36829.82661203988
 20
4293.671270284232
 30
0.0
 40
18.0
 41
0.0
 46
0.0
 71
     5
 72
     1
  1
2,00°
 11
0.131328250117298
 21
0.9913389383662524
 31
0.0
 73
     1
 44
1.0
  0
POINT
  5
474D
330
45E3
100
AcDbEntity
  8
Defpoints
 62
     0
440
 16777216
100
AcDbPoint
 10
36836.86396319654
 20
4234.931873394451
 30
0.0
  0
POINT
  5
474E
330
45E3
100
AcDbEntity
  8
Defpoints
 62
     0
440
 16777216
100
AcDbPoint
 10
37122.20294048063
 20
4233.007980214249
 30
0.0
  0
POINT
  5
474F
330
45E3
100
AcDbEntity
  8
Defpoints
 62
     0
440
 16777216
100
AcDbPoint
 10
37002.20294048066
 20
4233.007980214249
 30
0.0
  0
POINT
  5
4750
330
45E3
100
AcDbEntity
  8
Defpoints
 62
     0
440
 16777216
100
AcDbPoint
 10
36938.4579656455
 20
4235.234003786726
 30
0.0
  0
POINT
  5
4751
330
45E3
100
AcDbEntity
  8
Defpoints
 62
     0
440
 16777216
100
AcDbPoint
 10
37002.20294048063
 20
4233.007980214249
 30
0.0
  0
ENDBLK
  5
45F4
330
45E3
100
AcDbEntity
  8
0
100
AcDbBlockEnd
  0
BLOCK
  5
45FB
330
45F5
100
AcDbEntity
  8
0
100
AcDbBlockBegin
  2
*D30
 70
     1
 10
0.0
 20
0.0
 30
0.0
  3
*D30
  1

  0
LINE
  5
4767
330
45F5
100
AcDbEntity
  8
DIM
 62
     0
440
 16777216
370
    -2
100
AcDbLine
 10
37087.81140723524
 20
4378.28776677919
 30
0.0
 11
37214.41521209486
 21
4256.027893578411
 31
0.0
  0
MTEXT
  5
4768
330
45F5
100
AcDbEntity
  8
DIM
 62
     0
440
 16777216
100
AcDbMText
 10
37157.61383846489
 20
4329.647550965204
 30
0.0
 40
18.0
 41
0.0
 46
0.0
 71
     5
 72
     1
  1
R50 [R1,97]
 11
0.7193398003386819
 21
-0.6946583704589655
 31
0.0
 73
     1
 44
1.0
  0
SOLID
  5
4769
330
45F5
100
AcDbEntity
  8
DIM
 62
     0
440
 16777216
100
AcDbTrace
 10
37215.34142325547
 20
4256.987013312195
 30
0.0
 11
37213.48900093425
 21
4255.068773844628
 31
0.0
 12
37220.16993049757
 22
4250.470626614741
 32
0.0
 13
37220.16993049757
 23
4250.470626614741
 33
0.0
  0
POINT
  5
476A
330
45F5
100
AcDbEntity
  8
Defpoints
 62
     0
440
 16777216
100
AcDbPoint
 10
37220.16993049757
 20
4250.470626614741
 30
0.0
  0
POINT
  5
476B
330
45F5
100
AcDbEntity
  8
Defpoints
 62
     0
440
 16777216
100
AcDbPoint
 10
37184.20294048064
 20
4285.203545137675
 30
0.0
  0
ENDBLK
  5
45FC
330
45F5
100
AcDbEntity
  8
0
100
AcDbBlockEnd
  0
BLOCK
  5
4607
330
45FD
100
AcDbEntity
  8
0
100
AcDbBlockBegin
  2
*D31
 70
     1
 10
0.0
 20
0.0
 30
0.0
  3
*D31
  1

  0
LINE
  5
46E3
330
45FD
100
AcDbEntity
  8
DIM
 62
     0
440
 16777216
370
    -2
100
AcDbLine
 10
37543.70294048064
 20
3769.091486841608
 30
0.0
 11
37844.07595701375
 21
3769.091486841608
 31
0.0
  0
LINE
  5
46E4
330
45FD
100
AcDbEntity
  8
DIM
 62
     0
440
 16777216
370
    -2
100
AcDbLine
 10
37543.70294048064
 20
3240.091486841611
 30
0.0
 11
37844.07595701375
 21
3240.091486841611
 31
0.0
  0
LINE
  5
46E5
330
45FD
100
AcDbEntity
  8
DIM
 62
     0
440
 16777216
370
    -2
100
AcDbLine
 10
37842.82595701375
 20
3761.091486841607
 30
0.0
 11
37842.82595701375
 21
3248.091486841611
 31
0.0
  0
SOLID
  5
46E6
330
45FD
100
AcDbEntity
  8
DIM
 62
     0
440
 16777216
100
AcDbTrace
 10
37841.49262368041
 20
3761.091486841607
 30
0.0
 11
37844.15929034708
 21
3761.091486841607
 31
0.0
 12
37842.82595701375
 22
3769.091486841608
 32
0.0
 13
37842.82595701375
 23
3769.091486841608
 33
0.0
  0
SOLID
  5
46E7
330
45FD
100
AcDbEntity
  8
DIM
 62
     0
440
 16777216
100
AcDbTrace
 10
37841.49262368041
 20
3248.091486841611
 30
0.0
 11
37844.15929034708
 21
3248.091486841611
 31
0.0
 12
37842.82595701375
 22
3240.091486841611
 32
0.0
 13
37842.82595701375
 23
3240.091486841611
 33
0.0
  0
MTEXT
  5
46E8
330
45FD
100
AcDbEntity
  8
DIM
 62
     0
440
 16777216
100
AcDbMText
 10
37829.32595701375
 20
3504.591486841615
 30
0.0
 40
18.0
 41
0.0
 46
0.0
 71
     5
 72
     1
  1
529 [20,83]
 11
0.0000000000000001
 21
1.0
 31
0.0
 73
     1
 44
1.0
  0
POINT
  5
46E9
330
45FD
100
AcDbEntity
  8
Defpoints
 62
     0
440
 16777216
100
AcDbPoint
 10
37542.70294048064
 20
3769.091486841608
 30
0.0
  0
POINT
  5
46EA
330
45FD
100
AcDbEntity
  8
Defpoints
 62
     0
440
 16777216
100
AcDbPoint
 10
37542.70294048064
 20
3240.091486841611
 30
0.0
  0
POINT
  5
46EB
330
45FD
100
AcDbEntity
  8
Defpoints
 62
     0
440
 16777216
100
AcDbPoint
 10
37842.82595701375
 20
3240.091486841611
 30
0.0
  0
ENDBLK
  5
4608
330
45FD
100
AcDbEntity
  8
0
100
AcDbBlockEnd
  0
BLOCK
  5
4613
330
4609
100
AcDbEntity
  8
0
100
AcDbBlockBegin
  2
*D32
 70
     1
 10
0.0
 20
0.0
 30
0.0
  3
*D32
  1

  0
LINE
  5
46EC
330
4609
100
AcDbEntity
  8
DIM
 62
     0
440
 16777216
370
    -2
100
AcDbLine
 10
36971.70294048064
 20
3699.091486841608
 30
0.0
 11
36709.43741630852
 21
3699.091486841608
 31
0.0
  0
LINE
  5
46ED
330
4609
100
AcDbEntity
  8
DIM
 62
     0
440
 16777216
370
    -2
100
AcDbLine
 10
36971.70294048064
 20
3240.091486841607
 30
0.0
 11
36709.43741630852
 21
3240.091486841607
 31
0.0
  0
LINE
  5
46EE
330
4609
100
AcDbEntity
  8
DIM
 62
     0
440
 16777216
370
    -2
100
AcDbLine
 10
36710.68741630852
 20
3691.091486841608
 30
0.0
 11
36710.68741630852
 21
3248.091486841608
 31
0.0
  0
SOLID
  5
46EF
330
4609
100
AcDbEntity
  8
DIM
 62
     0
440
 16777216
100
AcDbTrace
 10
36709.35408297518
 20
3691.091486841608
 30
0.0
 11
36712.02074964185
 21
3691.091486841608
 31
0.0
 12
36710.68741630852
 22
3699.091486841608
 32
0.0
 13
36710.68741630852
 23
3699.091486841608
 33
0.0
  0
SOLID
  5
46F0
330
4609
100
AcDbEntity
  8
DIM
 62
     0
440
 16777216
100
AcDbTrace
 10
36709.35408297518
 20
3248.091486841608
 30
0.0
 11
36712.02074964185
 21
3248.091486841608
 31
0.0
 12
36710.68741630852
 22
3240.091486841607
 32
0.0
 13
36710.68741630852
 23
3240.091486841607
 33
0.0
  0
MTEXT
  5
46F1
330
4609
100
AcDbEntity
  8
DIM
 62
     0
440
 16777216
100
AcDbMText
 10
36697.18741630852
 20
3469.591486841614
 30
0.0
 40
18.0
 41
0.0
 46
0.0
 71
     5
 72
     1
  1
459 [18,07]
 11
0.0000000000000001
 21
1.0
 31
0.0
 73
     1
 44
1.0
  0
POINT
  5
46F2
330
4609
100
AcDbEntity
  8
Defpoints
 62
     0
440
 16777216
100
AcDbPoint
 10
36972.70294048064
 20
3699.091486841608
 30
0.0
  0
POINT
  5
46F3
330
4609
100
AcDbEntity
  8
Defpoints
 62
     0
440
 16777216
100
AcDbPoint
 10
36972.70294048064
 20
3240.091486841607
 30
0.0
  0
POINT
  5
46F4
330
4609
100
AcDbEntity
  8
Defpoints
 62
     0
440
 16777216
100
AcDbPoint
 10
36710.68741630852
 20
3240.091486841607
 30
0.0
  0
ENDBLK
  5
4614
330
4609
100
AcDbEntity
  8
0
100
AcDbBlockEnd
  0
BLOCK
  5
461F
330
4615
100
AcDbEntity
  8
0
100
AcDbBlockBegin
  2
*D33
 70
     1
 10
0.0
 20
0.0
 30
0.0
  3
*D33
  1

  0
LINE
  5
46F5
330
4615
100
AcDbEntity
  8
DIM
 62
     0
440
 16777216
370
    -2
100
AcDbLine
 10
37061.20294048063
 20
3669.591486841607
 30
0.0
 11
36757.63213535391
 21
3669.591486841607
 31
0.0
  0
LINE
  5
46F6
330
4615
100
AcDbEntity
  8
DIM
 62
     0
440
 16777216
370
    -2
100
AcDbLine
 10
37061.20294048063
 20
3269.591486841607
 30
0.0
 11
36757.63213535391
 21
3269.591486841607
 31
0.0
  0
LINE
  5
46F7
330
4615
100
AcDbEntity
  8
DIM
 62
     0
440
 16777216
370
    -2
100
AcDbLine
 10
36758.88213535391
 20
3661.591486841608
 30
0.0
 11
36758.88213535391
 21
3277.591486841607
 31
0.0
  0
SOLID
  5
46F8
330
4615
100
AcDbEntity
  8
DIM
 62
     0
440
 16777216
100
AcDbTrace
 10
36757.54880202057
 20
3661.591486841608
 30
0.0
 11
36760.21546868724
 21
3661.591486841608
 31
0.0
 12
36758.88213535391
 22
3669.591486841607
 32
0.0
 13
36758.88213535391
 23
3669.591486841607
 33
0.0
  0
SOLID
  5
46F9
330
4615
100
AcDbEntity
  8
DIM
 62
     0
440
 16777216
100
AcDbTrace
 10
36757.54880202057
 20
3277.591486841607
 30
0.0
 11
36760.21546868724
 21
3277.591486841607
 31
0.0
 12
36758.88213535391
 22
3269.591486841607
 32
0.0
 13
36758.88213535391
 23
3269.591486841607
 33
0.0
  0
MTEXT
  5
46FA
330
4615
100
AcDbEntity
  8
DIM
 62
     0
440
 16777216
100
AcDbMText
 10
36745.38213535391
 20
3469.591486841614
 30
0.0
 40
18.0
 41
0.0
 46
0.0
 71
     5
 72
     1
  1
400 [15,75]
 11
0.0000000000000001
 21
1.0
 31
0.0
 73
     1
 44
1.0
  0
POINT
  5
46FB
330
4615
100
AcDbEntity
  8
Defpoints
 62
     0
440
 16777216
100
AcDbPoint
 10
37062.20294048063
 20
3669.591486841607
 30
0.0
  0
POINT
  5
46FC
330
4615
100
AcDbEntity
  8
Defpoints
 62
     0
440
 16777216
100
AcDbPoint
 10
37062.20294048063
 20
3269.591486841607
 30
0.0
  0
POINT
  5
46FD
330
4615
100
AcDbEntity
  8
Defpoints
 62
     0
440
 16777216
100
AcDbPoint
 10
36758.88213535391
 20
3269.591486841607
 30
0.0
  0
ENDBLK
  5
4620
330
4615
100
AcDbEntity
  8
0
100
AcDbBlockEnd
  0
BLOCK
  5
462C
330
4621
100
AcDbEntity
  8
0
100
AcDbBlockBegin
  2
*D34
 70
     1
 10
0.0
 20
0.0
 30
0.0
  3
*D34
  1

  0
LINE
  5
46FE
330
4621
100
AcDbEntity
  8
DIM
 62
     0
440
 16777216
370
    -2
100
AcDbLine
 10
36997.76373708021
 20
3549.591486841608
 30
0.0
 11
36803.41961115455
 21
3549.591486841608
 31
0.0
  0
LINE
  5
46FF
330
4621
100
AcDbEntity
  8
DIM
 62
     0
440
 16777216
370
    -2
100
AcDbLine
 10
37060.20294048063
 20
3669.591486841607
 30
0.0
 11
36803.41961115455
 21
3669.591486841607
 31
0.0
  0
LINE
  5
4700
330
4621
100
AcDbEntity
  8
DIM
 62
     0
440
 16777216
370
    -2
100
AcDbLine
 10
36804.66961115455
 20
3661.591486841608
 30
0.0
 11
36804.66961115455
 21
3557.591486841608
 31
0.0
  0
LINE
  5
4701
330
4621
100
AcDbEntity
  8
DIM
 62
     0
440
 16777216
370
    -2
100
AcDbLine
 10
36804.66961115455
 20
3549.591486841608
 30
0.0
 11
36804.66961115455
 21
3377.825340106568
 31
0.0
  0
SOLID
  5
4702
330
4621
100
AcDbEntity
  8
DIM
 62
     0
440
 16777216
100
AcDbTrace
 10
36803.33627782121
 20
3661.591486841608
 30
0.0
 11
36806.00294448789
 21
3661.591486841608
 31
0.0
 12
36804.66961115455
 22
3669.591486841607
 32
0.0
 13
36804.66961115455
 23
3669.591486841607
 33
0.0
  0
SOLID
  5
4703
330
4621
100
AcDbEntity
  8
DIM
 62
     0
440
 16777216
100
AcDbTrace
 10
36803.33627782121
 20
3557.591486841608
 30
0.0
 11
36806.00294448789
 21
3557.591486841608
 31
0.0
 12
36804.66961115455
 22
3549.591486841608
 32
0.0
 13
36804.66961115455
 23
3549.591486841608
 33
0.0
  0
MTEXT
  5
4704
330
4621
100
AcDbEntity
  8
DIM
 62
     0
440
 16777216
100
AcDbMText
 10
36791.16961115455
 20
3452.825340106574
 30
0.0
 40
18.0
 41
0.0
 46
0.0
 71
     5
 72
     1
  1
120 [4,72]
 11
0.0000000000000001
 21
1.0
 31
0.0
 73
     1
 44
1.0
  0
POINT
  5
4705
330
4621
100
AcDbEntity
  8
Defpoints
 62
     0
440
 16777216
100
AcDbPoint
 10
36998.76373708021
 20
3549.591486841608
 30
0.0
  0
POINT
  5
4706
330
4621
100
AcDbEntity
  8
Defpoints
 62
     0
440
 16777216
100
AcDbPoint
 10
37061.20294048063
 20
3669.591486841607
 30
0.0
  0
POINT
  5
4707
330
4621
100
AcDbEntity
  8
Defpoints
 62
     0
440
 16777216
100
AcDbPoint
 10
36804.66961115455
 20
3669.591486841607
 30
0.0
  0
ENDBLK
  5
462D
330
4621
100
AcDbEntity
  8
0
100
AcDbBlockEnd
  0
BLOCK
  5
4639
330
462E
100
AcDbEntity
  8
0
100
AcDbBlockBegin
  2
*D35
 70
     1
 10
0.0
 20
0.0
 30
0.0
  3
*D35
  1

  0
LINE
  5
4708
330
462E
100
AcDbEntity
  8
DIM
 62
     0
440
 16777216
370
    -2
100
AcDbLine
 10
37655.70294048063
 20
3739.591486841608
 30
0.0
 11
37718.09886707163
 21
3739.591486841608
 31
0.0
  0
LINE
  5
4709
330
462E
100
AcDbEntity
  8
DIM
 62
     0
440
 16777216
370
    -2
100
AcDbLine
 10
37519.03205765577
 20
3619.591486841608
 30
0.0
 11
37718.09886707163
 21
3619.591486841608
 31
0.0
  0
LINE
  5
470A
330
462E
100
AcDbEntity
  8
DIM
 62
     0
440
 16777216
370
    -2
100
AcDbLine
 10
37716.84886707163
 20
3731.591486841608
 30
0.0
 11
37716.84886707163
 21
3627.591486841608
 31
0.0
  0
LINE
  5
470B
330
462E
100
AcDbEntity
  8
DIM
 62
     0
440
 16777216
370
    -2
100
AcDbLine
 10
37716.84886707163
 20
3619.591486841608
 30
0.0
 11
37716.84886707163
 21
3461.591486841608
 31
0.0
  0
SOLID
  5
470C
330
462E
100
AcDbEntity
  8
DIM
 62
     0
440
 16777216
100
AcDbTrace
 10
37715.5155337383
 20
3731.591486841608
 30
0.0
 11
37718.18220040497
 21
3731.591486841608
 31
0.0
 12
37716.84886707163
 22
3739.591486841608
 32
0.0
 13
37716.84886707163
 23
3739.591486841608
 33
0.0
  0
SOLID
  5
470D
330
462E
100
AcDbEntity
  8
DIM
 62
     0
440
 16777216
100
AcDbTrace
 10
37715.5155337383
 20
3627.591486841608
 30
0.0
 11
37718.18220040497
 21
3627.591486841608
 31
0.0
 12
37716.84886707163
 22
3619.591486841608
 32
0.0
 13
37716.84886707163
 23
3619.591486841608
 33
0.0
  0
MTEXT
  5
470E
330
462E
100
AcDbEntity
  8
DIM
 62
     0
440
 16777216
100
AcDbMText
 10
37703.34886707163
 20
3536.591486841614
 30
0.0
 40
18.0
 41
0.0
 46
0.0
 71
     5
 72
     1
  1
120 [4,72]
 11
0.0000000000000001
 21
1.0
 31
0.0
 73
     1
 44
1.0
  0
POINT
  5
470F
330
462E
100
AcDbEntity
  8
Defpoints
 62
     0
440
 16777216
100
AcDbPoint
 10
37654.70294048063
 20
3739.591486841608
 30
0.0
  0
POINT
  5
4710
330
462E
100
AcDbEntity
  8
Defpoints
 62
     0
440
 16777216
100
AcDbPoint
 10
37518.03205765577
 20
3619.591486841608
 30
0.0
  0
POINT
  5
4711
330
462E
100
AcDbEntity
  8
Defpoints
 62
     0
440
 16777216
100
AcDbPoint
 10
37716.84886707163
 20
3619.591486841608
 30
0.0
  0
ENDBLK
  5
463A
330
462E
100
AcDbEntity
  8
0
100
AcDbBlockEnd
  0
BLOCK
  5
4641
330
463B
100
AcDbEntity
  8
0
100
AcDbBlockBegin
  2
*D36
 70
     1
 10
0.0
 20
0.0
 30
0.0
  3
*D36
  1

  0
LINE
  5
6206
330
463B
100
AcDbEntity
  8
DIM
 62
     0
440
 16777216
370
    -2
100
AcDbLine
 10
37456.70953982951
 20
3462.674866030096
 30
0.0
 11
37584.80499092702
 21
3293.750162661626
 31
0.0
  0
MTEXT
  5
6207
330
463B
100
AcDbEntity
  8
DIM
 62
     0
440
 16777216
100
AcDbMText
 10
37529.0973676947
 20
3389.55679455006
 30
0.0
 40
18.0
 41
0.0
 46
0.0
 71
     5
 72
     1
  1
4-R80 [R3,15]
 11
0.6042238259316407
 21
-0.7968146385305245
 31
0.0
 73
     1
 44
1.0
  0
SOLID
  5
6208
330
463B
100
AcDbEntity
  8
DIM
 62
     0
440
 16777216
100
AcDbTrace
 10
37585.86741044505
 20
3294.555794429533
 30
0.0
 11
37583.74257140898
 21
3292.944530893717
 31
0.0
 12
37589.63878153447
 22
3287.375645553381
 32
0.0
 13
37589.63878153447
 23
3287.375645553381
 33
0.0
  0
POINT
  5
6209
330
463B
100
AcDbEntity
  8
Defpoints
 62
     0
440
 16777216
100
AcDbPoint
 10
37589.63878153447
 20
3287.375645553381
 30
0.0
  0
POINT
  5
620A
330
463B
100
AcDbEntity
  8
Defpoints
 62
     0
440
 16777216
100
AcDbPoint
 10
37541.30087545996
 20
3351.1208166358
 30
0.0
  0
ENDBLK
  5
4642
330
463B
100
AcDbEntity
  8
0
100
AcDbBlockEnd
  0
BLOCK
  5
464A
330
4643
100
AcDbEntity
  8
0
100
AcDbBlockBegin
  2
*D37
 70
     1
 10
0.0
 20
0.0
 30
0.0
  3
*D37
  1

  0
LINE
  5
475C
330
4643
100
AcDbEntity
  8
DIM
 62
     0
440
 16777216
370
    -2
100
AcDbLine
 10
36679.73342389306
 20
3879.658713196801
 30
0.0
 11
36887.79184905677
 21
3671.885982849352
 31
0.0
  0
MTEXT
  5
475D
330
4643
100
AcDbEntity
  8
DIM
 62
     0
440
 16777216
100
AcDbMText
 10
36764.63139833261
 20
3813.956095775117
 30
0.0
 40
18.0
 41
0.0
 46
0.0
 71
     5
 72
     1
  1
5-R112 [R4,41]
 11
0.7075924285323003
 21
-0.706620800064477
 31
0.0
 73
     1
 44
1.0
  0
LINE
  5
475E
330
4643
100
AcDbEntity
  8
DIM
 62
     0
440
 16777216
370
    -2
100
AcDbLine
 10
36972.70294048065
 20
3587.091486841608
 30
0.0
 11
36893.45258848503
 21
3666.233016448834
 31
0.0
  0
SOLID
  5
475F
330
4643
100
AcDbEntity
  8
DIM
 62
     0
440
 16777216
100
AcDbTrace
 10
36888.73401012352
 20
3672.829439420726
 30
0.0
 11
36886.84968799002
 21
3670.942526277977
 31
0.0
 12
36893.45258848503
 22
3666.233016448834
 32
0.0
 13
36893.45258848503
 23
3666.233016448834
 33
0.0
  0
POINT
  5
4760
330
4643
100
AcDbEntity
  8
Defpoints
 62
     0
440
 16777216
100
AcDbPoint
 10
36893.45258848503
 20
3666.233016448834
 30
0.0
  0
POINT
  5
4761
330
4643
100
AcDbEntity
  8
Defpoints
 62
     0
440
 16777216
100
AcDbPoint
 10
36972.70294048065
 20
3587.091486841608
 30
0.0
  0
ENDBLK
  5
464B
330
4643
100
AcDbEntity
  8
0
100
AcDbBlockEnd
  0
BLOCK
  5
465F
330
4655
100
AcDbEntity
  8
0
100
AcDbBlockBegin
  2
*D38
 70
     1
 10
0.0
 20
0.0
 30
0.0
  3
*D38
  1

  0
LINE
  5
4656
330
4655
100
AcDbEntity
  8
DIM
 62
     0
440
 16777216
370
    -2
100
AcDbLine
 10
37180.08008607801
 20
2945.072235082489
 30
0.0
 11
37180.08008607801
 21
2983.768853451599
 31
0.0
  0
LINE
  5
4657
330
4655
100
AcDbEntity
  8
DIM
 62
     0
440
 16777216
370
    -2
100
AcDbLine
 10
37407.88230167783
 20
2945.099895380172
 30
0.0
 11
37407.88230167783
 21
2983.768853451599
 31
0.0
  0
LINE
  5
4658
330
4655
100
AcDbEntity
  8
DIM
 62
     0
440
 16777216
370
    -2
100
AcDbLine
 10
37188.08008607801
 20
2982.518853451598
 30
0.0
 11
37399.88230167783
 21
2982.518853451598
 31
0.0
  0
SOLID
  5
4659
330
4655
100
AcDbEntity
  8
DIM
 62
     0
440
 16777216
100
AcDbTrace
 10
37188.08008607801
 20
2983.852186784932
 30
0.0
 11
37188.08008607801
 21
2981.185520118265
 31
0.0
 12
37180.08008607801
 22
2982.518853451598
 32
0.0
 13
37180.08008607801
 23
2982.518853451598
 33
0.0
  0
SOLID
  5
465A
330
4655
100
AcDbEntity
  8
DIM
 62
     0
440
 16777216
100
AcDbTrace
 10
37399.88230167783
 20
2983.852186784932
 30
0.0
 11
37399.88230167783
 21
2981.185520118265
 31
0.0
 12
37407.88230167783
 22
2982.518853451598
 32
0.0
 13
37407.88230167783
 23
2982.518853451598
 33
0.0
  0
MTEXT
  5
465B
330
4655
100
AcDbEntity
  8
DIM
 62
     0
440
 16777216
100
AcDbMText
 10
37293.98119387792
 20
2994.518853451598
 30
0.0
 40
18.0
 41
0.0
 46
0.0
 71
     5
 72
     1
  1
%%C114[4.49]
 73
     1
 44
1.0
  0
POINT
  5
465C
330
4655
100
AcDbEntity
  8
Defpoints
 62
     0
440
 16777216
100
AcDbPoint
 10
37180.08008607801
 20
2944.072235082489
 30
0.0
  0
POINT
  5
465D
330
4655
100
AcDbEntity
  8
Defpoints
 62
     0
440
 16777216
100
AcDbPoint
 10
37407.88230167783
 20
2944.099895380171
 30
0.0
  0
POINT
  5
465E
330
4655
100
AcDbEntity
  8
Defpoints
 62
     0
440
 16777216
100
AcDbPoint
 10
37407.88230167783
 20
2982.518853451598
 30
0.0
  0
ENDBLK
  5
4660
330
4655
100
AcDbEntity
  8
0
100
AcDbBlockEnd
  0
BLOCK
  5
466B
330
4661
100
AcDbEntity
  8
0
100
AcDbBlockBegin
  2
*D39
 70
     1
 10
0.0
 20
0.0
 30
0.0
  3
*D39
  1

  0
LINE
  5
4662
330
4661
100
AcDbEntity
  8
DIM
 62
     0
440
 16777216
370
    -2
100
AcDbLine
 10
37173.97165263606
 20
2947.698432473855
 30
0.0
 11
37173.97165263606
 21
2842.553109456261
 31
0.0
  0
LINE
  5
4663
330
4661
100
AcDbEntity
  8
DIM
 62
     0
440
 16777216
370
    -2
100
AcDbLine
 10
37413.97165263606
 20
2947.698432473855
 30
0.0
 11
37413.97165263606
 21
2842.553109456261
 31
0.0
  0
LINE
  5
4664
330
4661
100
AcDbEntity
  8
DIM
 62
     0
440
 16777216
370
    -2
100
AcDbLine
 10
37181.97165263607
 20
2843.803109456261
 30
0.0
 11
37405.97165263606
 21
2843.803109456261
 31
0.0
  0
SOLID
  5
4665
330
4661
100
AcDbEntity
  8
DIM
 62
     0
440
 16777216
100
AcDbTrace
 10
37181.97165263607
 20
2845.136442789595
 30
0.0
 11
37181.97165263607
 21
2842.469776122928
 31
0.0
 12
37173.97165263606
 22
2843.803109456261
 32
0.0
 13
37173.97165263606
 23
2843.803109456261
 33
0.0
  0
SOLID
  5
4666
330
4661
100
AcDbEntity
  8
DIM
 62
     0
440
 16777216
100
AcDbTrace
 10
37405.97165263606
 20
2845.136442789595
 30
0.0
 11
37405.97165263606
 21
2842.469776122928
 31
0.0
 12
37413.97165263606
 22
2843.803109456261
 32
0.0
 13
37413.97165263606
 23
2843.803109456261
 33
0.0
  0
MTEXT
  5
4667
330
4661
100
AcDbEntity
  8
DIM
 62
     0
440
 16777216
100
AcDbMText
 10
37293.97165263606
 20
2855.803109456261
 30
0.0
 40
18.0
 41
0.0
 46
0.0
 71
     5
 72
     1
  1
%%C120[4.72]
 73
     1
 44
1.0
  0
POINT
  5
4668
330
4661
100
AcDbEntity
  8
Defpoints
 62
     0
440
 16777216
100
AcDbPoint
 10
37173.97165263606
 20
2948.698432473855
 30
0.0
  0
POINT
  5
4669
330
4661
100
AcDbEntity
  8
Defpoints
 62
     0
440
 16777216
100
AcDbPoint
 10
37413.97165263606
 20
2948.698432473855
 30
0.0
  0
POINT
  5
466A
330
4661
100
AcDbEntity
  8
Defpoints
 62
     0
440
 16777216
100
AcDbPoint
 10
37413.97165263606
 20
2843.803109456261
 30
0.0
  0
ENDBLK
  5
466C
330
4661
100
AcDbEntity
  8
0
100
AcDbBlockEnd
  0
BLOCK
  5
4679
330
466D
100
AcDbEntity
  8
0
100
AcDbBlockBegin
  2
*D40
 70
     1
 10
0.0
 20
0.0
 30
0.0
  3
*D40
  1

  0
LINE
  5
466E
330
466D
100
AcDbEntity
  8
DIM
 62
     0
440
 16777216
370
    -2
100
AcDbLine
 10
37382.9716526361
 20
2941.099895380171
 30
0.0
 11
37511.91858151457
 21
2941.099895380171
 31
0.0
  0
LINE
  5
466F
330
466D
100
AcDbEntity
  8
DIM
 62
     0
440
 16777216
370
    -2
100
AcDbLine
 10
37413.68040368658
 20
2951.05480397325
 30
0.0
 11
37511.91858151457
 21
2951.05480397325
 31
0.0
  0
LINE
  5
4670
330
466D
100
AcDbEntity
  8
DIM
 62
     0
440
 16777216
370
    -2
100
AcDbLine
 10
37510.66858151457
 20
2933.099895380172
 30
0.0
 11
37510.66858151457
 21
2925.099895380171
 31
0.0
  0
LINE
  5
4671
330
466D
100
AcDbEntity
  8
DIM
 62
     0
440
 16777216
370
    -2
100
AcDbLine
 10
37510.66858151457
 20
2959.05480397325
 30
0.0
 11
37510.66858151457
 21
3048.05480397325
 31
0.0
  0
LINE
  5
4672
330
466D
100
AcDbEntity
  8
DIM
 62
     0
440
 16777216
370
    -2
100
AcDbLine
 10
37510.66858151457
 20
2941.099895380171
 30
0.0
 11
37510.66858151457
 21
2951.05480397325
 31
0.0
  0
SOLID
  5
4673
330
466D
100
AcDbEntity
  8
DIM
 62
     0
440
 16777216
100
AcDbTrace
 10
37509.33524818123
 20
2933.099895380172
 30
0.0
 11
37512.00191484791
 21
2933.099895380172
 31
0.0
 12
37510.66858151457
 22
2941.099895380171
 32
0.0
 13
37510.66858151457
 23
2941.099895380171
 33
0.0
  0
SOLID
  5
4674
330
466D
100
AcDbEntity
  8
DIM
 62
     0
440
 16777216
100
AcDbTrace
 10
37509.33524818123
 20
2959.05480397325
 30
0.0
 11
37512.00191484791
 21
2959.05480397325
 31
0.0
 12
37510.66858151457
 22
2951.05480397325
 32
0.0
 13
37510.66858151457
 23
2951.05480397325
 33
0.0
  0
MTEXT
  5
4675
330
466D
100
AcDbEntity
  8
DIM
 62
     0
440
 16777216
100
AcDbMText
 10
37498.66858151457
 20
3007.554803973256
 30
0.0
 40
18.0
 41
0.0
 46
0.0
 71
     5
 72
     1
  1
5[0.2]
 11
0.0000000000000001
 21
1.0
 31
0.0
 73
     1
 44
1.0
  0
POINT
  5
4676
330
466D
100
AcDbEntity
  8
Defpoints
 62
     0
440
 16777216
100
AcDbPoint
 10
37381.9716526361
 20
2941.099895380171
 30
0.0
  0
POINT
  5
4677
330
466D
100
AcDbEntity
  8
Defpoints
 62
     0
440
 16777216
100
AcDbPoint
 10
37412.68040368658
 20
2951.05480397325
 30
0.0
  0
POINT
  5
4678
330
466D
100
AcDbEntity
  8
Defpoints
 62
     0
440
 16777216
100
AcDbPoint
 10
37510.66858151457
 20
2951.05480397325
 30
0.0
  0
ENDBLK
  5
467A
330
466D
100
AcDbEntity
  8
0
100
AcDbBlockEnd
  0
BLOCK
  5
4685
330
467B
100
AcDbEntity
  8
0
100
AcDbBlockBegin
  2
*D41
 70
     1
 10
0.0
 20
0.0
 30
0.0
  3
*D41
  1

  0
LINE
  5
46B5
330
467B
100
AcDbEntity
  8
DIM
 62
     0
440
 16777216
370
    -2
100
AcDbLine
 10
37234.20294048064
 20
3470.591486841609
 30
0.0
 11
37234.20294048064
 21
3842.519329096424
 31
0.0
  0
LINE
  5
46B6
330
467B
100
AcDbEntity
  8
DIM
 62
     0
440
 16777216
370
    -2
100
AcDbLine
 10
36890.20294048063
 20
3470.591486841609
 30
0.0
 11
36890.20294048063
 21
3842.519329096424
 31
0.0
  0
LINE
  5
46B7
330
467B
100
AcDbEntity
  8
DIM
 62
     0
440
 16777216
370
    -2
100
AcDbLine
 10
37226.20294048064
 20
3841.269329096423
 30
0.0
 11
36898.20294048063
 21
3841.269329096423
 31
0.0
  0
SOLID
  5
46B8
330
467B
100
AcDbEntity
  8
DIM
 62
     0
440
 16777216
100
AcDbTrace
 10
37226.20294048064
 20
3842.602662429757
 30
0.0
 11
37226.20294048064
 21
3839.93599576309
 31
0.0
 12
37234.20294048064
 22
3841.269329096423
 32
0.0
 13
37234.20294048064
 23
3841.269329096423
 33
0.0
  0
SOLID
  5
46B9
330
467B
100
AcDbEntity
  8
DIM
 62
     0
440
 16777216
100
AcDbTrace
 10
36898.20294048063
 20
3842.602662429757
 30
0.0
 11
36898.20294048063
 21
3839.93599576309
 31
0.0
 12
36890.20294048063
 22
3841.269329096423
 32
0.0
 13
36890.20294048063
 23
3841.269329096423
 33
0.0
  0
MTEXT
  5
46BA
330
467B
100
AcDbEntity
  8
DIM
 62
     0
440
 16777216
100
AcDbMText
 10
37062.20294048064
 20
3854.769329096424
 30
0.0
 40
18.0
 41
0.0
 46
0.0
 71
     5
 72
     1
  1
344 [13,54]
 73
     1
 44
1.0
  0
POINT
  5
46BB
330
467B
100
AcDbEntity
  8
Defpoints
 62
     0
440
 16777216
100
AcDbPoint
 10
37234.20294048064
 20
3469.59148684161
 30
0.0
  0
POINT
  5
46BC
330
467B
100
AcDbEntity
  8
Defpoints
 62
     0
440
 16777216
100
AcDbPoint
 10
36890.20294048063
 20
3469.591486841608
 30
0.0
  0
POINT
  5
46BD
330
467B
100
AcDbEntity
  8
Defpoints
 62
     0
440
 16777216
100
AcDbPoint
 10
36890.20294048063
 20
3841.269329096423
 30
0.0
  0
ENDBLK
  5
4686
330
467B
100
AcDbEntity
  8
0
100
AcDbBlockEnd
  0
BLOCK
  5
4691
330
4687
100
AcDbEntity
  8
0
100
AcDbBlockBegin
  2
*D42
 70
     1
 10
0.0
 20
0.0
 30
0.0
  3
*D42
  1

  0
LINE
  5
46BE
330
4687
100
AcDbEntity
  8
DIM
 62
     0
440
 16777216
370
    -2
100
AcDbLine
 10
37265.20294048064
 20
3505.591486841535
 30
0.0
 11
37265.20294048064
 21
3842.459312372019
 31
0.0
  0
LINE
  5
46BF
330
4687
100
AcDbEntity
  8
DIM
 62
     0
440
 16777216
370
    -2
100
AcDbLine
 10
37625.20294048064
 20
3505.591486841608
 30
0.0
 11
37625.20294048064
 21
3842.459312372019
 31
0.0
  0
LINE
  5
46C0
330
4687
100
AcDbEntity
  8
DIM
 62
     0
440
 16777216
370
    -2
100
AcDbLine
 10
37273.20294048064
 20
3841.209312372019
 30
0.0
 11
37617.20294048064
 21
3841.209312372019
 31
0.0
  0
SOLID
  5
46C1
330
4687
100
AcDbEntity
  8
DIM
 62
     0
440
 16777216
100
AcDbTrace
 10
37273.20294048064
 20
3842.542645705353
 30
0.0
 11
37273.20294048064
 21
3839.875979038686
 31
0.0
 12
37265.20294048064
 22
3841.209312372019
 32
0.0
 13
37265.20294048064
 23
3841.209312372019
 33
0.0
  0
SOLID
  5
46C2
330
4687
100
AcDbEntity
  8
DIM
 62
     0
440
 16777216
100
AcDbTrace
 10
37617.20294048064
 20
3842.542645705353
 30
0.0
 11
37617.20294048064
 21
3839.875979038686
 31
0.0
 12
37625.20294048064
 22
3841.209312372019
 32
0.0
 13
37625.20294048064
 23
3841.209312372019
 33
0.0
  0
MTEXT
  5
46C3
330
4687
100
AcDbEntity
  8
DIM
 62
     0
440
 16777216
100
AcDbMText
 10
37445.20294048064
 20
3854.709312372019
 30
0.0
 40
18.0
 41
0.0
 46
0.0
 71
     5
 72
     1
  1
360 [14,17]
 73
     1
 44
1.0
  0
POINT
  5
46C4
330
4687
100
AcDbEntity
  8
Defpoints
 62
     0
440
 16777216
100
AcDbPoint
 10
37265.20294048064
 20
3504.591486841535
 30
0.0
  0
POINT
  5
46C5
330
4687
100
AcDbEntity
  8
Defpoints
 62
     0
440
 16777216
100
AcDbPoint
 10
37625.20294048064
 20
3504.591486841608
 30
0.0
  0
POINT
  5
46C6
330
4687
100
AcDbEntity
  8
Defpoints
 62
     0
440
 16777216
100
AcDbPoint
 10
37625.20294048064
 20
3841.209312372019
 30
0.0
  0
ENDBLK
  5
4692
330
4687
100
AcDbEntity
  8
0
100
AcDbBlockEnd
  0
BLOCK
  5
46A7
330
469D
100
AcDbEntity
  8
0
100
AcDbBlockBegin
  2
*D43
 70
     1
 10
0.0
 20
0.0
 30
0.0
  3
*D43
  1

  0
LINE
  5
46D1
330
469D
100
AcDbEntity
  8
DIM
 62
     0
440
 16777216
370
    -2
100
AcDbLine
 10
37654.70294048063
 20
3658.091486841605
 30
0.0
 11
37654.70294048063
 21
3941.189572870084
 31
0.0
  0
LINE
  5
46D2
330
469D
100
AcDbEntity
  8
DIM
 62
     0
440
 16777216
370
    -2
100
AcDbLine
 10
36860.70294048064
 20
3588.091486841611
 30
0.0
 11
36860.70294048064
 21
3941.189572870084
 31
0.0
  0
LINE
  5
46D3
330
469D
100
AcDbEntity
  8
DIM
 62
     0
440
 16777216
370
    -2
100
AcDbLine
 10
37646.70294048063
 20
3939.939572870084
 30
0.0
 11
36868.70294048065
 21
3939.939572870084
 31
0.0
  0
SOLID
  5
46D4
330
469D
100
AcDbEntity
  8
DIM
 62
     0
440
 16777216
100
AcDbTrace
 10
37646.70294048063
 20
3941.272906203418
 30
0.0
 11
37646.70294048063
 21
3938.606239536751
 31
0.0
 12
37654.70294048063
 22
3939.939572870084
 32
0.0
 13
37654.70294048063
 23
3939.939572870084
 33
0.0
  0
SOLID
  5
46D5
330
469D
100
AcDbEntity
  8
DIM
 62
     0
440
 16777216
100
AcDbTrace
 10
36868.70294048065
 20
3941.272906203418
 30
0.0
 11
36868.70294048065
 21
3938.606239536751
 31
0.0
 12
36860.70294048064
 22
3939.939572870084
 32
0.0
 13
36860.70294048064
 23
3939.939572870084
 33
0.0
  0
MTEXT
  5
46D6
330
469D
100
AcDbEntity
  8
DIM
 62
     0
440
 16777216
100
AcDbMText
 10
37257.70294048064
 20
3953.439572870084
 30
0.0
 40
18.0
 41
0.0
 46
0.0
 71
     5
 72
     1
  1
794 [31,26]
 73
     1
 44
1.0
  0
POINT
  5
46D7
330
469D
100
AcDbEntity
  8
Defpoints
 62
     0
440
 16777216
100
AcDbPoint
 10
37654.70294048063
 20
3657.091486841605
 30
0.0
  0
POINT
  5
46D8
330
469D
100
AcDbEntity
  8
Defpoints
 62
     0
440
 16777216
100
AcDbPoint
 10
36860.70294048064
 20
3587.09148684161
 30
0.0
  0
POINT
  5
46D9
330
469D
100
AcDbEntity
  8
Defpoints
 62
     0
440
 16777216
100
AcDbPoint
 10
36860.70294048064
 20
3939.939572870084
 30
0.0
  0
ENDBLK
  5
46A8
330
469D
100
AcDbEntity
  8
0
100
AcDbBlockEnd
  0
BLOCK
  5
46B3
330
46A9
100
AcDbEntity
  8
0
100
AcDbBlockBegin
  2
*D44
 70
     1
 10
0.0
 20
0.0
 30
0.0
  3
*D44
  1

  0
LINE
  5
46DA
330
46A9
100
AcDbEntity
  8
DIM
 62
     0
440
 16777216
370
    -2
100
AcDbLine
 10
37446.20294048064
 20
3739.591486841608
 30
0.0
 11
37779.44425995465
 21
3739.591486841608
 31
0.0
  0
LINE
  5
46DB
330
46A9
100
AcDbEntity
  8
DIM
 62
     0
440
 16777216
370
    -2
100
AcDbLine
 10
37446.20294048064
 20
3269.591486841608
 30
0.0
 11
37779.44425995465
 21
3269.591486841608
 31
0.0
  0
LINE
  5
46DC
330
46A9
100
AcDbEntity
  8
DIM
 62
     0
440
 16777216
370
    -2
100
AcDbLine
 10
37778.19425995465
 20
3731.591486841608
 30
0.0
 11
37778.19425995465
 21
3277.591486841608
 31
0.0
  0
SOLID
  5
46DD
330
46A9
100
AcDbEntity
  8
DIM
 62
     0
440
 16777216
100
AcDbTrace
 10
37776.86092662131
 20
3731.591486841608
 30
0.0
 11
37779.52759328798
 21
3731.591486841608
 31
0.0
 12
37778.19425995465
 22
3739.591486841608
 32
0.0
 13
37778.19425995465
 23
3739.591486841608
 33
0.0
  0
SOLID
  5
46DE
330
46A9
100
AcDbEntity
  8
DIM
 62
     0
440
 16777216
100
AcDbTrace
 10
37776.86092662131
 20
3277.591486841608
 30
0.0
 11
37779.52759328798
 21
3277.591486841608
 31
0.0
 12
37778.19425995465
 22
3269.591486841608
 32
0.0
 13
37778.19425995465
 23
3269.591486841608
 33
0.0
  0
MTEXT
  5
46DF
330
46A9
100
AcDbEntity
  8
DIM
 62
     0
440
 16777216
100
AcDbMText
 10
37764.69425995465
 20
3504.591486841614
 30
0.0
 40
18.0
 41
0.0
 46
0.0
 71
     5
 72
     1
  1
470 [18,50]
 11
0.0000000000000001
 21
1.0
 31
0.0
 73
     1
 44
1.0
  0
POINT
  5
46E0
330
46A9
100
AcDbEntity
  8
Defpoints
 62
     0
440
 16777216
100
AcDbPoint
 10
37445.20294048064
 20
3739.591486841608
 30
0.0
  0
POINT
  5
46E1
330
46A9
100
AcDbEntity
  8
Defpoints
 62
     0
440
 16777216
100
AcDbPoint
 10
37445.20294048064
 20
3269.591486841608
 30
0.0
  0
POINT
  5
46E2
330
46A9
100
AcDbEntity
  8
Defpoints
 62
     0
440
 16777216
100
AcDbPoint
 10
37778.19425995465
 20
3269.591486841608
 30
0.0
  0
ENDBLK
  5
46B4
330
46A9
100
AcDbEntity
  8
0
100
AcDbBlockEnd
  0
BLOCK
  5
673B
330
6730
100
AcDbEntity
  8
0
370
     5
100
AcDbBlockBegin
  2
*D130
 70
     1
 10
0.0
 20
0.0
 30
0.0
  3
*D130
  1

  0
LINE
  5
67B0
330
6730
100
AcDbEntity
  8
DIM
 62
     0
440
 16777216
370
    -2
100
AcDbLine
 10
34770.53465404439
 20
3843.459312372019
 30
0.0
 11
34770.53465404439
 21
3897.53851583416
 31
0.0
  0
LINE
  5
67B1
330
6730
100
AcDbEntity
  8
DIM
 62
     0
440
 16777216
370
    -2
100
AcDbLine
 10
34801.53465404439
 20
3843.519329096423
 30
0.0
 11
34801.53465404439
 21
3897.53851583416
 31
0.0
  0
LINE
  5
67B2
330
6730
100
AcDbEntity
  8
DIM
 62
     0
440
 16777216
370
    -2
100
AcDbLine
 10
34778.53465404439
 20
3896.28851583416
 30
0.0
 11
34793.53465404439
 21
3896.28851583416
 31
0.0
  0
LINE
  5
67B3
330
6730
100
AcDbEntity
  8
DIM
 62
     0
440
 16777216
370
    -2
100
AcDbLine
 10
34801.53465404439
 20
3896.28851583416
 30
0.0
 11
34938.53465404439
 21
3896.28851583416
 31
0.0
  0
SOLID
  5
67B4
330
6730
100
AcDbEntity
  8
DIM
 62
     0
440
 16777216
370
     5
100
AcDbTrace
 10
34778.53465404439
 20
3897.621849167494
 30
0.0
 11
34778.53465404439
 21
3894.955182500826
 31
0.0
 12
34770.53465404439
 22
3896.28851583416
 32
0.0
 13
34770.53465404439
 23
3896.28851583416
 33
0.0
  0
SOLID
  5
67B5
330
6730
100
AcDbEntity
  8
DIM
 62
     0
440
 16777216
370
     5
100
AcDbTrace
 10
34793.53465404439
 20
3897.621849167494
 30
0.0
 11
34793.53465404439
 21
3894.955182500826
 31
0.0
 12
34801.53465404439
 22
3896.28851583416
 32
0.0
 13
34801.53465404439
 23
3896.28851583416
 33
0.0
  0
MTEXT
  5
67B6
330
6730
100
AcDbEntity
  8
DIM
 62
     0
440
 16777216
100
AcDbMText
 10
34874.03465404439
 20
3909.78851583416
 30
0.0
 40
18.0
 41
0.0
 46
0.0
 71
     5
 72
     1
  1
31 [1,22]
 73
     1
 44
1.0
  0
POINT
  5
67B7
330
6730
100
AcDbEntity
  8
Defpoints
 62
     0
440
 16777216
370
     5
100
AcDbPoint
 10
34770.53465404439
 20
3842.459312372019
 30
0.0
  0
POINT
  5
67B8
330
6730
100
AcDbEntity
  8
Defpoints
 62
     0
440
 16777216
370
     5
100
AcDbPoint
 10
34801.53465404439
 20
3842.519329096424
 30
0.0
  0
POINT
  5
67B9
330
6730
100
AcDbEntity
  8
Defpoints
 62
     0
440
 16777216
370
     5
100
AcDbPoint
 10
34801.53465404439
 20
3896.28851583416
 30
0.0
  0
ENDBLK
  5
673C
330
6730
100
AcDbEntity
  8
0
370
     5
100
AcDbBlockEnd
  0
BLOCK
  5
6747
330
673D
100
AcDbEntity
  8
0
370
     5
100
AcDbBlockBegin
  2
*D131
 70
     1
 10
0.0
 20
0.0
 30
0.0
  3
*D131
  1

  0
LINE
  5
67F8
330
673D
100
AcDbEntity
  8
DIM
 62
     0
440
 16777216
370
    -2
100
AcDbLine
 10
34829.76594188896
 20
2940.099895380172
 30
0.0
 11
34829.76594188896
 21
2887.219869377674
 31
0.0
  0
LINE
  5
67F9
330
673D
100
AcDbEntity
  8
DIM
 62
     0
440
 16777216
370
    -2
100
AcDbLine
 10
34653.76594188896
 20
2940.69989538017
 30
0.0
 11
34653.76594188896
 21
2887.219869377674
 31
0.0
  0
LINE
  5
67FA
330
673D
100
AcDbEntity
  8
DIM
 62
     0
440
 16777216
370
    -2
100
AcDbLine
 10
34821.76594188896
 20
2888.469869377674
 30
0.0
 11
34661.76594188896
 21
2888.469869377674
 31
0.0
  0
SOLID
  5
67FB
330
673D
100
AcDbEntity
  8
DIM
 62
     0
440
 16777216
370
     5
100
AcDbTrace
 10
34821.76594188896
 20
2889.803202711008
 30
0.0
 11
34821.76594188896
 21
2887.13653604434
 31
0.0
 12
34829.76594188896
 22
2888.469869377674
 32
0.0
 13
34829.76594188896
 23
2888.469869377674
 33
0.0
  0
SOLID
  5
67FC
330
673D
100
AcDbEntity
  8
DIM
 62
     0
440
 16777216
370
     5
100
AcDbTrace
 10
34661.76594188896
 20
2889.803202711008
 30
0.0
 11
34661.76594188896
 21
2887.13653604434
 31
0.0
 12
34653.76594188896
 22
2888.469869377674
 32
0.0
 13
34653.76594188896
 23
2888.469869377674
 33
0.0
  0
MTEXT
  5
67FD
330
673D
100
AcDbEntity
  8
DIM
 62
     0
440
 16777216
100
AcDbMText
 10
34741.76594188896
 20
2900.469869377674
 30
0.0
 40
18.0
 41
0.0
 46
0.0
 71
     5
 72
     1
  1
%%C90[3.46]
 73
     1
 44
1.0
  0
POINT
  5
67FE
330
673D
100
AcDbEntity
  8
Defpoints
 62
     0
440
 16777216
370
     5
100
AcDbPoint
 10
34829.76594188896
 20
2941.099895380171
 30
0.0
  0
POINT
  5
67FF
330
673D
100
AcDbEntity
  8
Defpoints
 62
     0
440
 16777216
370
     5
100
AcDbPoint
 10
34653.76594188896
 20
2941.69989538017
 30
0.0
  0
POINT
  5
6800
330
673D
100
AcDbEntity
  8
Defpoints
 62
     0
440
 16777216
370
     5
100
AcDbPoint
 10
34653.76594188896
 20
2888.469869377674
 30
0.0
  0
ENDBLK
  5
6748
330
673D
100
AcDbEntity
  8
0
370
     5
100
AcDbBlockEnd
  0
BLOCK
  5
6750
330
6749
100
AcDbEntity
  8
0
370
     5
100
AcDbBlockBegin
  2
*D132
 70
     1
 10
0.0
 20
0.0
 30
0.0
  3
*D132
  1

  0
LINE
  5
684D
330
6749
100
AcDbEntity
  8
DIM
 62
     0
440
 16777216
370
    -2
100
AcDbLine
 10
35356.00417063198
 20
3879.658713196803
 30
0.0
 11
35147.94574546826
 21
3671.885982849352
 31
0.0
  0
MTEXT
  5
684E
330
6749
100
AcDbEntity
  8
DIM
 62
     0
440
 16777216
100
AcDbMText
 10
35271.10619619242
 20
3813.956095775123
 30
0.0
 40
18.0
 41
0.0
 46
0.0
 71
     5
 72
     1
  1
5-R112 [R4,41]
 11
0.7075924285322987
 21
0.7066208000644787
 31
0.0
 73
     1
 44
1.0
  0
LINE
  5
684F
330
6749
100
AcDbEntity
  8
DIM
 62
     0
440
 16777216
370
    -2
100
AcDbLine
 10
35063.03465404438
 20
3587.091486841609
 30
0.0
 11
35142.28500604
 21
3666.233016448836
 31
0.0
  0
SOLID
  5
6850
330
6749
100
AcDbEntity
  8
DIM
 62
     0
440
 16777216
370
     5
100
AcDbTrace
 10
35147.00358440151
 20
3672.829439420727
 30
0.0
 11
35148.88790653501
 21
3670.942526277976
 31
0.0
 12
35142.28500604
 22
3666.233016448836
 32
0.0
 13
35142.28500604
 23
3666.233016448836
 33
0.0
  0
POINT
  5
6851
330
6749
100
AcDbEntity
  8
Defpoints
 62
     0
440
 16777216
370
     5
100
AcDbPoint
 10
35142.28500604
 20
3666.233016448836
 30
0.0
  0
POINT
  5
6852
330
6749
100
AcDbEntity
  8
Defpoints
 62
     0
440
 16777216
370
     5
100
AcDbPoint
 10
35063.03465404438
 20
3587.091486841609
 30
0.0
  0
ENDBLK
  5
6751
330
6749
100
AcDbEntity
  8
0
370
     5
100
AcDbBlockEnd
  0
BLOCK
  5
6758
330
6752
100
AcDbEntity
  8
0
370
     5
100
AcDbBlockBegin
  2
*D133
 70
     1
 10
0.0
 20
0.0
 30
0.0
  3
*D133
  1

  0
LINE
  5
6853
330
6752
100
AcDbEntity
  8
DIM
 62
     0
440
 16777216
370
    -2
100
AcDbLine
 10
34579.0280546955
 20
3462.674866030102
 30
0.0
 11
34450.932603598
 21
3293.750162661631
 31
0.0
  0
MTEXT
  5
6854
330
6752
100
AcDbEntity
  8
DIM
 62
     0
440
 16777216
100
AcDbMText
 10
34506.64022683032
 20
3389.556794550069
 30
0.0
 40
18.0
 41
0.0
 46
0.0
 71
     5
 72
     1
  1
4-R80 [R3,15]
 11
0.6042238259316435
 21
0.7968146385305224
 31
0.0
 73
     1
 44
1.0
  0
SOLID
  5
6855
330
6752
100
AcDbEntity
  8
DIM
 62
     0
440
 16777216
370
     5
100
AcDbTrace
 10
34449.87018407996
 20
3294.55579442954
 30
0.0
 11
34451.99502311604
 21
3292.944530893723
 31
0.0
 12
34446.09881299055
 22
3287.375645553387
 32
0.0
 13
34446.09881299055
 23
3287.375645553387
 33
0.0
  0
POINT
  5
6856
330
6752
100
AcDbEntity
  8
Defpoints
 62
     0
440
 16777216
370
     5
100
AcDbPoint
 10
34446.09881299055
 20
3287.375645553387
 30
0.0
  0
POINT
  5
6857
330
6752
100
AcDbEntity
  8
Defpoints
 62
     0
440
 16777216
370
     5
100
AcDbPoint
 10
34494.43671906506
 20
3351.120816635802
 30
0.0
  0
ENDBLK
  5
6759
330
6752
100
AcDbEntity
  8
0
370
     5
100
AcDbBlockEnd
  0
BLOCK
  5
6765
330
675A
100
AcDbEntity
  8
0
370
     5
100
AcDbBlockBegin
  2
*D134
 70
     1
 10
0.0
 20
0.0
 30
0.0
  3
*D134
  1

  0
LINE
  5
675B
330
675A
100
AcDbEntity
  8
DIM
 62
     0
440
 16777216
370
    -2
100
AcDbLine
 10
34380.0346540444
 20
3739.591486841606
 30
0.0
 11
34317.63872745339
 21
3739.591486841606
 31
0.0
  0
LINE
  5
675C
330
675A
100
AcDbEntity
  8
DIM
 62
     0
440
 16777216
370
    -2
100
AcDbLine
 10
34516.70553686926
 20
3619.591486841606
 30
0.0
 11
34317.63872745339
 21
3619.591486841606
 31
0.0
  0
LINE
  5
675D
330
675A
100
AcDbEntity
  8
DIM
 62
     0
440
 16777216
370
    -2
100
AcDbLine
 10
34318.88872745339
 20
3731.591486841606
 30
0.0
 11
34318.88872745339
 21
3627.591486841606
 31
0.0
  0
LINE
  5
675E
330
675A
100
AcDbEntity
  8
DIM
 62
     0
440
 16777216
370
    -2
100
AcDbLine
 10
34318.88872745339
 20
3619.591486841606
 30
0.0
 11
34318.88872745339
 21
3461.591486841606
 31
0.0
  0
SOLID
  5
675F
330
675A
100
AcDbEntity
  8
DIM
 62
     0
440
 16777216
370
     5
100
AcDbTrace
 10
34317.55539412006
 20
3731.591486841606
 30
0.0
 11
34320.22206078673
 21
3731.591486841606
 31
0.0
 12
34318.88872745339
 22
3739.591486841606
 32
0.0
 13
34318.88872745339
 23
3739.591486841606
 33
0.0
  0
SOLID
  5
6760
330
675A
100
AcDbEntity
  8
DIM
 62
     0
440
 16777216
370
     5
100
AcDbTrace
 10
34317.55539412006
 20
3627.591486841606
 30
0.0
 11
34320.22206078673
 21
3627.591486841606
 31
0.0
 12
34318.88872745339
 22
3619.591486841606
 32
0.0
 13
34318.88872745339
 23
3619.591486841606
 33
0.0
  0
MTEXT
  5
6761
330
675A
100
AcDbEntity
  8
DIM
 62
     0
440
 16777216
100
AcDbMText
 10
34305.38872745339
 20
3536.591486841611
 30
0.0
 40
18.0
 41
0.0
 46
0.0
 71
     5
 72
     1
  1
120 [4,72]
 11
0.0000000000000001
 21
1.0
 31
0.0
 73
     1
 44
1.0
  0
POINT
  5
6762
330
675A
100
AcDbEntity
  8
Defpoints
 62
     0
440
 16777216
370
     5
100
AcDbPoint
 10
34381.03465404439
 20
3739.591486841606
 30
0.0
  0
POINT
  5
6763
330
675A
100
AcDbEntity
  8
Defpoints
 62
     0
440
 16777216
370
     5
100
AcDbPoint
 10
34517.70553686926
 20
3619.591486841606
 30
0.0
  0
POINT
  5
6764
330
675A
100
AcDbEntity
  8
Defpoints
 62
     0
440
 16777216
370
     5
100
AcDbPoint
 10
34318.88872745339
 20
3619.591486841606
 30
0.0
  0
ENDBLK
  5
6766
330
675A
100
AcDbEntity
  8
0
370
     5
100
AcDbBlockEnd
  0
BLOCK
  5
6772
330
6767
100
AcDbEntity
  8
0
370
     5
100
AcDbBlockBegin
  2
*D135
 70
     1
 10
0.0
 20
0.0
 30
0.0
  3
*D135
  1

  0
LINE
  5
6768
330
6767
100
AcDbEntity
  8
DIM
 62
     0
440
 16777216
370
    -2
100
AcDbLine
 10
35037.97385744481
 20
3549.591486841606
 30
0.0
 11
35232.31798337048
 21
3549.591486841606
 31
0.0
  0
LINE
  5
6769
330
6767
100
AcDbEntity
  8
DIM
 62
     0
440
 16777216
370
    -2
100
AcDbLine
 10
34975.53465404439
 20
3669.591486841606
 30
0.0
 11
35232.31798337048
 21
3669.591486841606
 31
0.0
  0
LINE
  5
676A
330
6767
100
AcDbEntity
  8
DIM
 62
     0
440
 16777216
370
    -2
100
AcDbLine
 10
35231.06798337048
 20
3661.591486841607
 30
0.0
 11
35231.06798337048
 21
3557.591486841606
 31
0.0
  0
LINE
  5
676B
330
6767
100
AcDbEntity
  8
DIM
 62
     0
440
 16777216
370
    -2
100
AcDbLine
 10
35231.06798337048
 20
3549.591486841606
 30
0.0
 11
35231.06798337048
 21
3377.825340106568
 31
0.0
  0
SOLID
  5
676C
330
6767
100
AcDbEntity
  8
DIM
 62
     0
440
 16777216
370
     5
100
AcDbTrace
 10
35229.73465003714
 20
3661.591486841607
 30
0.0
 11
35232.40131670382
 21
3661.591486841607
 31
0.0
 12
35231.06798337048
 22
3669.591486841606
 32
0.0
 13
35231.06798337048
 23
3669.591486841606
 33
0.0
  0
SOLID
  5
676D
330
6767
100
AcDbEntity
  8
DIM
 62
     0
440
 16777216
370
     5
100
AcDbTrace
 10
35229.73465003714
 20
3557.591486841606
 30
0.0
 11
35232.40131670382
 21
3557.591486841606
 31
0.0
 12
35231.06798337048
 22
3549.591486841606
 32
0.0
 13
35231.06798337048
 23
3549.591486841606
 33
0.0
  0
MTEXT
  5
676E
330
6767
100
AcDbEntity
  8
DIM
 62
     0
440
 16777216
100
AcDbMText
 10
35217.56798337048
 20
3452.825340106574
 30
0.0
 40
18.0
 41
0.0
 46
0.0
 71
     5
 72
     1
  1
120 [4,72]
 11
0.0000000000000001
 21
1.0
 31
0.0
 73
     1
 44
1.0
  0
POINT
  5
676F
330
6767
100
AcDbEntity
  8
Defpoints
 62
     0
440
 16777216
370
     5
100
AcDbPoint
 10
35036.97385744481
 20
3549.591486841606
 30
0.0
  0
POINT
  5
6770
330
6767
100
AcDbEntity
  8
Defpoints
 62
     0
440
 16777216
370
     5
100
AcDbPoint
 10
34974.5346540444
 20
3669.591486841606
 30
0.0
  0
POINT
  5
6771
330
6767
100
AcDbEntity
  8
Defpoints
 62
     0
440
 16777216
370
     5
100
AcDbPoint
 10
35231.06798337048
 20
3669.591486841606
 30
0.0
  0
ENDBLK
  5
6773
330
6767
100
AcDbEntity
  8
0
370
     5
100
AcDbBlockEnd
  0
BLOCK
  5
677E
330
6774
100
AcDbEntity
  8
0
370
     5
100
AcDbBlockBegin
  2
*D136
 70
     1
 10
0.0
 20
0.0
 30
0.0
  3
*D136
  1

  0
LINE
  5
6775
330
6774
100
AcDbEntity
  8
DIM
 62
     0
440
 16777216
370
    -2
100
AcDbLine
 10
34974.5346540444
 20
3669.591486841606
 30
0.0
 11
35278.10545917112
 21
3669.591486841606
 31
0.0
  0
LINE
  5
6776
330
6774
100
AcDbEntity
  8
DIM
 62
     0
440
 16777216
370
    -2
100
AcDbLine
 10
34974.5346540444
 20
3269.591486841605
 30
0.0
 11
35278.10545917112
 21
3269.591486841605
 31
0.0
  0
LINE
  5
6777
330
6774
100
AcDbEntity
  8
DIM
 62
     0
440
 16777216
370
    -2
100
AcDbLine
 10
35276.85545917111
 20
3661.591486841607
 30
0.0
 11
35276.85545917111
 21
3277.591486841605
 31
0.0
  0
SOLID
  5
6778
330
6774
100
AcDbEntity
  8
DIM
 62
     0
440
 16777216
370
     5
100
AcDbTrace
 10
35275.52212583778
 20
3661.591486841607
 30
0.0
 11
35278.18879250445
 21
3661.591486841607
 31
0.0
 12
35276.85545917111
 22
3669.591486841606
 32
0.0
 13
35276.85545917111
 23
3669.591486841606
 33
0.0
  0
SOLID
  5
6779
330
6774
100
AcDbEntity
  8
DIM
 62
     0
440
 16777216
370
     5
100
AcDbTrace
 10
35275.52212583778
 20
3277.591486841605
 30
0.0
 11
35278.18879250445
 21
3277.591486841605
 31
0.0
 12
35276.85545917111
 22
3269.591486841605
 32
0.0
 13
35276.85545917111
 23
3269.591486841605
 33
0.0
  0
MTEXT
  5
677A
330
6774
100
AcDbEntity
  8
DIM
 62
     0
440
 16777216
100
AcDbMText
 10
35263.35545917111
 20
3469.591486841611
 30
0.0
 40
18.0
 41
0.0
 46
0.0
 71
     5
 72
     1
  1
400 [15,75]
 11
0.0000000000000001
 21
1.0
 31
0.0
 73
     1
 44
1.0
  0
POINT
  5
677B
330
6774
100
AcDbEntity
  8
Defpoints
 62
     0
440
 16777216
370
     5
100
AcDbPoint
 10
34973.53465404439
 20
3669.591486841606
 30
0.0
  0
POINT
  5
677C
330
6774
100
AcDbEntity
  8
Defpoints
 62
     0
440
 16777216
370
     5
100
AcDbPoint
 10
34973.53465404439
 20
3269.591486841605
 30
0.0
  0
POINT
  5
677D
330
6774
100
AcDbEntity
  8
Defpoints
 62
     0
440
 16777216
370
     5
100
AcDbPoint
 10
35276.85545917111
 20
3269.591486841605
 30
0.0
  0
ENDBLK
  5
677F
330
6774
100
AcDbEntity
  8
0
370
     5
100
AcDbBlockEnd
  0
BLOCK
  5
678A
330
6780
100
AcDbEntity
  8
0
370
     5
100
AcDbBlockBegin
  2
*D137
 70
     1
 10
0.0
 20
0.0
 30
0.0
  3
*D137
  1

  0
LINE
  5
6781
330
6780
100
AcDbEntity
  8
DIM
 62
     0
440
 16777216
370
    -2
100
AcDbLine
 10
35064.03465404439
 20
3699.091486841606
 30
0.0
 11
35326.30017821651
 21
3699.091486841606
 31
0.0
  0
LINE
  5
6782
330
6780
100
AcDbEntity
  8
DIM
 62
     0
440
 16777216
370
    -2
100
AcDbLine
 10
35064.03465404439
 20
3240.091486841606
 30
0.0
 11
35326.30017821651
 21
3240.091486841606
 31
0.0
  0
LINE
  5
6783
330
6780
100
AcDbEntity
  8
DIM
 62
     0
440
 16777216
370
    -2
100
AcDbLine
 10
35325.05017821651
 20
3691.091486841607
 30
0.0
 11
35325.05017821651
 21
3248.091486841607
 31
0.0
  0
SOLID
  5
6784
330
6780
100
AcDbEntity
  8
DIM
 62
     0
440
 16777216
370
     5
100
AcDbTrace
 10
35323.71684488317
 20
3691.091486841607
 30
0.0
 11
35326.38351154985
 21
3691.091486841607
 31
0.0
 12
35325.05017821651
 22
3699.091486841606
 32
0.0
 13
35325.05017821651
 23
3699.091486841606
 33
0.0
  0
SOLID
  5
6785
330
6780
100
AcDbEntity
  8
DIM
 62
     0
440
 16777216
370
     5
100
AcDbTrace
 10
35323.71684488317
 20
3248.091486841607
 30
0.0
 11
35326.38351154985
 21
3248.091486841607
 31
0.0
 12
35325.05017821651
 22
3240.091486841606
 32
0.0
 13
35325.05017821651
 23
3240.091486841606
 33
0.0
  0
MTEXT
  5
6786
330
6780
100
AcDbEntity
  8
DIM
 62
     0
440
 16777216
100
AcDbMText
 10
35311.55017821651
 20
3469.591486841612
 30
0.0
 40
18.0
 41
0.0
 46
0.0
 71
     5
 72
     1
  1
459 [18,07]
 11
0.0000000000000001
 21
1.0
 31
0.0
 73
     1
 44
1.0
  0
POINT
  5
6787
330
6780
100
AcDbEntity
  8
Defpoints
 62
     0
440
 16777216
370
     5
100
AcDbPoint
 10
35063.03465404439
 20
3699.091486841606
 30
0.0
  0
POINT
  5
6788
330
6780
100
AcDbEntity
  8
Defpoints
 62
     0
440
 16777216
370
     5
100
AcDbPoint
 10
35063.03465404439
 20
3240.091486841606
 30
0.0
  0
POINT
  5
6789
330
6780
100
AcDbEntity
  8
Defpoints
 62
     0
440
 16777216
370
     5
100
AcDbPoint
 10
35325.05017821651
 20
3240.091486841606
 30
0.0
  0
ENDBLK
  5
678B
330
6780
100
AcDbEntity
  8
0
370
     5
100
AcDbBlockEnd
  0
BLOCK
  5
6796
330
678C
100
AcDbEntity
  8
0
370
     5
100
AcDbBlockBegin
  2
*D138
 70
     1
 10
0.0
 20
0.0
 30
0.0
  3
*D138
  1

  0
LINE
  5
678D
330
678C
100
AcDbEntity
  8
DIM
 62
     0
440
 16777216
370
    -2
100
AcDbLine
 10
34492.03465404439
 20
3769.091486841606
 30
0.0
 11
34191.66163751128
 21
3769.091486841606
 31
0.0
  0
LINE
  5
678E
330
678C
100
AcDbEntity
  8
DIM
 62
     0
440
 16777216
370
    -2
100
AcDbLine
 10
34492.03465404439
 20
3240.091486841609
 30
0.0
 11
34191.66163751128
 21
3240.091486841609
 31
0.0
  0
LINE
  5
678F
330
678C
100
AcDbEntity
  8
DIM
 62
     0
440
 16777216
370
    -2
100
AcDbLine
 10
34192.91163751128
 20
3761.091486841606
 30
0.0
 11
34192.91163751128
 21
3248.091486841609
 31
0.0
  0
SOLID
  5
6790
330
678C
100
AcDbEntity
  8
DIM
 62
     0
440
 16777216
370
     5
100
AcDbTrace
 10
34191.57830417794
 20
3761.091486841606
 30
0.0
 11
34194.24497084462
 21
3761.091486841606
 31
0.0
 12
34192.91163751128
 22
3769.091486841606
 32
0.0
 13
34192.91163751128
 23
3769.091486841606
 33
0.0
  0
SOLID
  5
6791
330
678C
100
AcDbEntity
  8
DIM
 62
     0
440
 16777216
370
     5
100
AcDbTrace
 10
34191.57830417794
 20
3248.091486841609
 30
0.0
 11
34194.24497084462
 21
3248.091486841609
 31
0.0
 12
34192.91163751128
 22
3240.091486841609
 32
0.0
 13
34192.91163751128
 23
3240.091486841609
 33
0.0
  0
MTEXT
  5
6792
330
678C
100
AcDbEntity
  8
DIM
 62
     0
440
 16777216
100
AcDbMText
 10
34179.41163751128
 20
3504.591486841613
 30
0.0
 40
18.0
 41
0.0
 46
0.0
 71
     5
 72
     1
  1
529 [20,83]
 11
0.0000000000000001
 21
1.0
 31
0.0
 73
     1
 44
1.0
  0
POINT
  5
6793
330
678C
100
AcDbEntity
  8
Defpoints
 62
     0
440
 16777216
370
     5
100
AcDbPoint
 10
34493.03465404439
 20
3769.091486841606
 30
0.0
  0
POINT
  5
6794
330
678C
100
AcDbEntity
  8
Defpoints
 62
     0
440
 16777216
370
     5
100
AcDbPoint
 10
34493.03465404439
 20
3240.091486841609
 30
0.0
  0
POINT
  5
6795
330
678C
100
AcDbEntity
  8
Defpoints
 62
     0
440
 16777216
370
     5
100
AcDbPoint
 10
34192.91163751128
 20
3240.091486841609
 30
0.0
  0
ENDBLK
  5
6797
330
678C
100
AcDbEntity
  8
0
370
     5
100
AcDbBlockEnd
  0
BLOCK
  5
67A2
330
6798
100
AcDbEntity
  8
0
370
     5
100
AcDbBlockBegin
  2
*D139
 70
     1
 10
0.0
 20
0.0
 30
0.0
  3
*D139
  1

  0
LINE
  5
6799
330
6798
100
AcDbEntity
  8
DIM
 62
     0
440
 16777216
370
    -2
100
AcDbLine
 10
34589.53465404439
 20
3739.591486841606
 30
0.0
 11
34256.29333457038
 21
3739.591486841606
 31
0.0
  0
LINE
  5
679A
330
6798
100
AcDbEntity
  8
DIM
 62
     0
440
 16777216
370
    -2
100
AcDbLine
 10
34589.53465404439
 20
3269.591486841606
 30
0.0
 11
34256.29333457038
 21
3269.591486841606
 31
0.0
  0
LINE
  5
679B
330
6798
100
AcDbEntity
  8
DIM
 62
     0
440
 16777216
370
    -2
100
AcDbLine
 10
34257.54333457038
 20
3731.591486841606
 30
0.0
 11
34257.54333457038
 21
3277.591486841606
 31
0.0
  0
SOLID
  5
679C
330
6798
100
AcDbEntity
  8
DIM
 62
     0
440
 16777216
370
     5
100
AcDbTrace
 10
34256.21000123705
 20
3731.591486841606
 30
0.0
 11
34258.87666790372
 21
3731.591486841606
 31
0.0
 12
34257.54333457038
 22
3739.591486841606
 32
0.0
 13
34257.54333457038
 23
3739.591486841606
 33
0.0
  0
SOLID
  5
679D
330
6798
100
AcDbEntity
  8
DIM
 62
     0
440
 16777216
370
     5
100
AcDbTrace
 10
34256.21000123705
 20
3277.591486841606
 30
0.0
 11
34258.87666790372
 21
3277.591486841606
 31
0.0
 12
34257.54333457038
 22
3269.591486841606
 32
0.0
 13
34257.54333457038
 23
3269.591486841606
 33
0.0
  0
MTEXT
  5
679E
330
6798
100
AcDbEntity
  8
DIM
 62
     0
440
 16777216
100
AcDbMText
 10
34244.04333457038
 20
3504.591486841611
 30
0.0
 40
18.0
 41
0.0
 46
0.0
 71
     5
 72
     1
  1
470 [18,50]
 11
0.0000000000000001
 21
1.0
 31
0.0
 73
     1
 44
1.0
  0
POINT
  5
679F
330
6798
100
AcDbEntity
  8
Defpoints
 62
     0
440
 16777216
370
     5
100
AcDbPoint
 10
34590.53465404439
 20
3739.591486841606
 30
0.0
  0
POINT
  5
67A0
330
6798
100
AcDbEntity
  8
Defpoints
 62
     0
440
 16777216
370
     5
100
AcDbPoint
 10
34590.53465404439
 20
3269.591486841606
 30
0.0
  0
POINT
  5
67A1
330
6798
100
AcDbEntity
  8
Defpoints
 62
     0
440
 16777216
370
     5
100
AcDbPoint
 10
34257.54333457038
 20
3269.591486841606
 30
0.0
  0
ENDBLK
  5
67A3
330
6798
100
AcDbEntity
  8
0
370
     5
100
AcDbBlockEnd
  0
BLOCK
  5
67AE
330
67A4
100
AcDbEntity
  8
0
370
     5
100
AcDbBlockBegin
  2
*D140
 70
     1
 10
0.0
 20
0.0
 30
0.0
  3
*D140
  1

  0
LINE
  5
67A5
330
67A4
100
AcDbEntity
  8
DIM
 62
     0
440
 16777216
370
    -2
100
AcDbLine
 10
34381.03465404439
 20
3658.091486841605
 30
0.0
 11
34381.03465404439
 21
3941.189572870084
 31
0.0
  0
LINE
  5
67A6
330
67A4
100
AcDbEntity
  8
DIM
 62
     0
440
 16777216
370
    -2
100
AcDbLine
 10
35175.03465404438
 20
3588.091486841611
 30
0.0
 11
35175.03465404438
 21
3941.189572870084
 31
0.0
  0
LINE
  5
67A7
330
67A4
100
AcDbEntity
  8
DIM
 62
     0
440
 16777216
370
    -2
100
AcDbLine
 10
34389.0346540444
 20
3939.939572870084
 30
0.0
 11
35167.03465404438
 21
3939.939572870084
 31
0.0
  0
SOLID
  5
67A8
330
67A4
100
AcDbEntity
  8
DIM
 62
     0
440
 16777216
370
     5
100
AcDbTrace
 10
34389.0346540444
 20
3941.272906203418
 30
0.0
 11
34389.0346540444
 21
3938.606239536751
 31
0.0
 12
34381.03465404439
 22
3939.939572870084
 32
0.0
 13
34381.03465404439
 23
3939.939572870084
 33
0.0
  0
SOLID
  5
67A9
330
67A4
100
AcDbEntity
  8
DIM
 62
     0
440
 16777216
370
     5
100
AcDbTrace
 10
35167.03465404438
 20
3941.272906203418
 30
0.0
 11
35167.03465404438
 21
3938.606239536751
 31
0.0
 12
35175.03465404438
 22
3939.939572870084
 32
0.0
 13
35175.03465404438
 23
3939.939572870084
 33
0.0
  0
MTEXT
  5
67AA
330
67A4
100
AcDbEntity
  8
DIM
 62
     0
440
 16777216
100
AcDbMText
 10
34778.03465404439
 20
3953.439572870084
 30
0.0
 40
18.0
 41
0.0
 46
0.0
 71
     5
 72
     1
  1
794 [31,26]
 73
     1
 44
1.0
  0
POINT
  5
67AB
330
67A4
100
AcDbEntity
  8
Defpoints
 62
     0
440
 16777216
370
     5
100
AcDbPoint
 10
34381.03465404439
 20
3657.091486841605
 30
0.0
  0
POINT
  5
67AC
330
67A4
100
AcDbEntity
  8
Defpoints
 62
     0
440
 16777216
370
     5
100
AcDbPoint
 10
35175.03465404438
 20
3587.09148684161
 30
0.0
  0
POINT
  5
67AD
330
67A4
100
AcDbEntity
  8
Defpoints
 62
     0
440
 16777216
370
     5
100
AcDbPoint
 10
35175.03465404438
 20
3939.939572870084
 30
0.0
  0
ENDBLK
  5
67AF
330
67A4
100
AcDbEntity
  8
0
370
     5
100
AcDbBlockEnd
  0
BLOCK
  5
67C4
330
67BA
100
AcDbEntity
  8
0
370
     5
100
AcDbBlockBegin
  2
*D141
 70
     1
 10
0.0
 20
0.0
 30
0.0
  3
*D141
  1

  0
LINE
  5
67BB
330
67BA
100
AcDbEntity
  8
DIM
 62
     0
440
 16777216
370
    -2
100
AcDbLine
 10
34770.53465404439
 20
3505.591486841535
 30
0.0
 11
34770.53465404439
 21
3842.459312372019
 31
0.0
  0
LINE
  5
67BC
330
67BA
100
AcDbEntity
  8
DIM
 62
     0
440
 16777216
370
    -2
100
AcDbLine
 10
34410.53465404439
 20
3505.591486841608
 30
0.0
 11
34410.53465404439
 21
3842.459312372019
 31
0.0
  0
LINE
  5
67BD
330
67BA
100
AcDbEntity
  8
DIM
 62
     0
440
 16777216
370
    -2
100
AcDbLine
 10
34762.53465404439
 20
3841.209312372019
 30
0.0
 11
34418.53465404439
 21
3841.209312372019
 31
0.0
  0
SOLID
  5
67BE
330
67BA
100
AcDbEntity
  8
DIM
 62
     0
440
 16777216
370
     5
100
AcDbTrace
 10
34762.53465404439
 20
3842.542645705353
 30
0.0
 11
34762.53465404439
 21
3839.875979038686
 31
0.0
 12
34770.53465404439
 22
3841.209312372019
 32
0.0
 13
34770.53465404439
 23
3841.209312372019
 33
0.0
  0
SOLID
  5
67BF
330
67BA
100
AcDbEntity
  8
DIM
 62
     0
440
 16777216
370
     5
100
AcDbTrace
 10
34418.53465404439
 20
3842.542645705353
 30
0.0
 11
34418.53465404439
 21
3839.875979038686
 31
0.0
 12
34410.53465404439
 22
3841.209312372019
 32
0.0
 13
34410.53465404439
 23
3841.209312372019
 33
0.0
  0
MTEXT
  5
67C0
330
67BA
100
AcDbEntity
  8
DIM
 62
     0
440
 16777216
100
AcDbMText
 10
34590.53465404439
 20
3854.709312372019
 30
0.0
 40
18.0
 41
0.0
 46
0.0
 71
     5
 72
     1
  1
360 [14,17]
 73
     1
 44
1.0
  0
POINT
  5
67C1
330
67BA
100
AcDbEntity
  8
Defpoints
 62
     0
440
 16777216
370
     5
100
AcDbPoint
 10
34770.53465404439
 20
3504.591486841535
 30
0.0
  0
POINT
  5
67C2
330
67BA
100
AcDbEntity
  8
Defpoints
 62
     0
440
 16777216
370
     5
100
AcDbPoint
 10
34410.53465404439
 20
3504.591486841608
 30
0.0
  0
POINT
  5
67C3
330
67BA
100
AcDbEntity
  8
Defpoints
 62
     0
440
 16777216
370
     5
100
AcDbPoint
 10
34410.53465404439
 20
3841.209312372019
 30
0.0
  0
ENDBLK
  5
67C5
330
67BA
100
AcDbEntity
  8
0
370
     5
100
AcDbBlockEnd
  0
BLOCK
  5
67D0
330
67C6
100
AcDbEntity
  8
0
370
     5
100
AcDbBlockBegin
  2
*D142
 70
     1
 10
0.0
 20
0.0
 30
0.0
  3
*D142
  1

  0
LINE
  5
67C7
330
67C6
100
AcDbEntity
  8
DIM
 62
     0
440
 16777216
370
    -2
100
AcDbLine
 10
34801.53465404439
 20
3470.591486841609
 30
0.0
 11
34801.53465404439
 21
3842.519329096424
 31
0.0
  0
LINE
  5
67C8
330
67C6
100
AcDbEntity
  8
DIM
 62
     0
440
 16777216
370
    -2
100
AcDbLine
 10
35145.5346540444
 20
3470.591486841609
 30
0.0
 11
35145.5346540444
 21
3842.519329096424
 31
0.0
  0
LINE
  5
67C9
330
67C6
100
AcDbEntity
  8
DIM
 62
     0
440
 16777216
370
    -2
100
AcDbLine
 10
34809.53465404439
 20
3841.269329096423
 30
0.0
 11
35137.53465404439
 21
3841.269329096423
 31
0.0
  0
SOLID
  5
67CA
330
67C6
100
AcDbEntity
  8
DIM
 62
     0
440
 16777216
370
     5
100
AcDbTrace
 10
34809.53465404439
 20
3842.602662429757
 30
0.0
 11
34809.53465404439
 21
3839.93599576309
 31
0.0
 12
34801.53465404439
 22
3841.269329096423
 32
0.0
 13
34801.53465404439
 23
3841.269329096423
 33
0.0
  0
SOLID
  5
67CB
330
67C6
100
AcDbEntity
  8
DIM
 62
     0
440
 16777216
370
     5
100
AcDbTrace
 10
35137.53465404439
 20
3842.602662429757
 30
0.0
 11
35137.53465404439
 21
3839.93599576309
 31
0.0
 12
35145.5346540444
 22
3841.269329096423
 32
0.0
 13
35145.5346540444
 23
3841.269329096423
 33
0.0
  0
MTEXT
  5
67CC
330
67C6
100
AcDbEntity
  8
DIM
 62
     0
440
 16777216
100
AcDbMText
 10
34973.53465404439
 20
3854.769329096424
 30
0.0
 40
18.0
 41
0.0
 46
0.0
 71
     5
 72
     1
  1
344 [13,54]
 73
     1
 44
1.0
  0
POINT
  5
67CD
330
67C6
100
AcDbEntity
  8
Defpoints
 62
     0
440
 16777216
370
     5
100
AcDbPoint
 10
34801.53465404439
 20
3469.59148684161
 30
0.0
  0
POINT
  5
67CE
330
67C6
100
AcDbEntity
  8
Defpoints
 62
     0
440
 16777216
370
     5
100
AcDbPoint
 10
35145.5346540444
 20
3469.591486841608
 30
0.0
  0
POINT
  5
67CF
330
67C6
100
AcDbEntity
  8
Defpoints
 62
     0
440
 16777216
370
     5
100
AcDbPoint
 10
35145.5346540444
 20
3841.269329096423
 30
0.0
  0
ENDBLK
  5
67D1
330
67C6
100
AcDbEntity
  8
0
370
     5
100
AcDbBlockEnd
  0
BLOCK
  5
67DE
330
67D2
100
AcDbEntity
  8
0
370
     5
100
AcDbBlockBegin
  2
*D143
 70
     1
 10
0.0
 20
0.0
 30
0.0
  3
*D143
  1

  0
LINE
  5
67D3
330
67D2
100
AcDbEntity
  8
DIM
 62
     0
440
 16777216
370
    -2
100
AcDbLine
 10
34652.76594188893
 20
2941.09989538017
 30
0.0
 11
34523.81901301046
 21
2941.09989538017
 31
0.0
  0
LINE
  5
67D4
330
67D2
100
AcDbEntity
  8
DIM
 62
     0
440
 16777216
370
    -2
100
AcDbLine
 10
34622.05719083844
 20
2951.054803973248
 30
0.0
 11
34523.81901301046
 21
2951.054803973248
 31
0.0
  0
LINE
  5
67D5
330
67D2
100
AcDbEntity
  8
DIM
 62
     0
440
 16777216
370
    -2
100
AcDbLine
 10
34525.06901301046
 20
2933.09989538017
 30
0.0
 11
34525.06901301046
 21
2925.09989538017
 31
0.0
  0
LINE
  5
67D6
330
67D2
100
AcDbEntity
  8
DIM
 62
     0
440
 16777216
370
    -2
100
AcDbLine
 10
34525.06901301046
 20
2959.054803973249
 30
0.0
 11
34525.06901301046
 21
3048.054803973249
 31
0.0
  0
LINE
  5
67D7
330
67D2
100
AcDbEntity
  8
DIM
 62
     0
440
 16777216
370
    -2
100
AcDbLine
 10
34525.06901301046
 20
2941.09989538017
 30
0.0
 11
34525.06901301046
 21
2951.054803973248
 31
0.0
  0
SOLID
  5
67D8
330
67D2
100
AcDbEntity
  8
DIM
 62
     0
440
 16777216
370
     5
100
AcDbTrace
 10
34523.73567967712
 20
2933.09989538017
 30
0.0
 11
34526.40234634379
 21
2933.09989538017
 31
0.0
 12
34525.06901301046
 22
2941.09989538017
 32
0.0
 13
34525.06901301046
 23
2941.09989538017
 33
0.0
  0
SOLID
  5
67D9
330
67D2
100
AcDbEntity
  8
DIM
 62
     0
440
 16777216
370
     5
100
AcDbTrace
 10
34523.73567967712
 20
2959.054803973249
 30
0.0
 11
34526.40234634379
 21
2959.054803973249
 31
0.0
 12
34525.06901301046
 22
2951.054803973248
 32
0.0
 13
34525.06901301046
 23
2951.054803973248
 33
0.0
  0
MTEXT
  5
67DA
330
67D2
100
AcDbEntity
  8
DIM
 62
     0
440
 16777216
100
AcDbMText
 10
34513.06901301046
 20
3007.554803973254
 30
0.0
 40
18.0
 41
0.0
 46
0.0
 71
     5
 72
     1
  1
5[0.2]
 11
0.0000000000000001
 21
1.0
 31
0.0
 73
     1
 44
1.0
  0
POINT
  5
67DB
330
67D2
100
AcDbEntity
  8
Defpoints
 62
     0
440
 16777216
370
     5
100
AcDbPoint
 10
34653.76594188892
 20
2941.09989538017
 30
0.0
  0
POINT
  5
67DC
330
67D2
100
AcDbEntity
  8
Defpoints
 62
     0
440
 16777216
370
     5
100
AcDbPoint
 10
34623.05719083845
 20
2951.054803973248
 30
0.0
  0
POINT
  5
67DD
330
67D2
100
AcDbEntity
  8
Defpoints
 62
     0
440
 16777216
370
     5
100
AcDbPoint
 10
34525.06901301046
 20
2951.054803973248
 30
0.0
  0
ENDBLK
  5
67DF
330
67D2
100
AcDbEntity
  8
0
370
     5
100
AcDbBlockEnd
  0
BLOCK
  5
67EA
330
67E0
100
AcDbEntity
  8
0
370
     5
100
AcDbBlockBegin
  2
*D144
 70
     1
 10
0.0
 20
0.0
 30
0.0
  3
*D144
  1

  0
LINE
  5
67E1
330
67E0
100
AcDbEntity
  8
DIM
 62
     0
440
 16777216
370
    -2
100
AcDbLine
 10
34861.76594188896
 20
2947.698432473855
 30
0.0
 11
34861.76594188896
 21
2842.553109456261
 31
0.0
  0
LINE
  5
67E2
330
67E0
100
AcDbEntity
  8
DIM
 62
     0
440
 16777216
370
    -2
100
AcDbLine
 10
34621.76594188896
 20
2947.698432473855
 30
0.0
 11
34621.76594188896
 21
2842.553109456261
 31
0.0
  0
LINE
  5
67E3
330
67E0
100
AcDbEntity
  8
DIM
 62
     0
440
 16777216
370
    -2
100
AcDbLine
 10
34853.76594188896
 20
2843.803109456261
 30
0.0
 11
34629.76594188896
 21
2843.803109456261
 31
0.0
  0
SOLID
  5
67E4
330
67E0
100
AcDbEntity
  8
DIM
 62
     0
440
 16777216
370
     5
100
AcDbTrace
 10
34853.76594188896
 20
2845.136442789595
 30
0.0
 11
34853.76594188896
 21
2842.469776122928
 31
0.0
 12
34861.76594188896
 22
2843.803109456261
 32
0.0
 13
34861.76594188896
 23
2843.803109456261
 33
0.0
  0
SOLID
  5
67E5
330
67E0
100
AcDbEntity
  8
DIM
 62
     0
440
 16777216
370
     5
100
AcDbTrace
 10
34629.76594188896
 20
2845.136442789595
 30
0.0
 11
34629.76594188896
 21
2842.469776122928
 31
0.0
 12
34621.76594188896
 22
2843.803109456261
 32
0.0
 13
34621.76594188896
 23
2843.803109456261
 33
0.0
  0
MTEXT
  5
67E6
330
67E0
100
AcDbEntity
  8
DIM
 62
     0
440
 16777216
100
AcDbMText
 10
34741.76594188896
 20
2855.803109456261
 30
0.0
 40
18.0
 41
0.0
 46
0.0
 71
     5
 72
     1
  1
%%C120[4.72]
 73
     1
 44
1.0
  0
POINT
  5
67E7
330
67E0
100
AcDbEntity
  8
Defpoints
 62
     0
440
 16777216
370
     5
100
AcDbPoint
 10
34861.76594188896
 20
2948.698432473855
 30
0.0
  0
POINT
  5
67E8
330
67E0
100
AcDbEntity
  8
Defpoints
 62
     0
440
 16777216
370
     5
100
AcDbPoint
 10
34621.76594188896
 20
2948.698432473855
 30
0.0
  0
POINT
  5
67E9
330
67E0
100
AcDbEntity
  8
Defpoints
 62
     0
440
 16777216
370
     5
100
AcDbPoint
 10
34621.76594188896
 20
2843.803109456261
 30
0.0
  0
ENDBLK
  5
67EB
330
67E0
100
AcDbEntity
  8
0
370
     5
100
AcDbBlockEnd
  0
BLOCK
  5
67F6
330
67EC
100
AcDbEntity
  8
0
370
     5
100
AcDbBlockBegin
  2
*D145
 70
     1
 10
0.0
 20
0.0
 30
0.0
  3
*D145
  1

  0
LINE
  5
67ED
330
67EC
100
AcDbEntity
  8
DIM
 62
     0
440
 16777216
370
    -2
100
AcDbLine
 10
34855.65750844702
 20
2945.072235082489
 30
0.0
 11
34855.65750844702
 21
2983.768853451599
 31
0.0
  0
LINE
  5
67EE
330
67EC
100
AcDbEntity
  8
DIM
 62
     0
440
 16777216
370
    -2
100
AcDbLine
 10
34627.8552928472
 20
2945.099895380172
 30
0.0
 11
34627.8552928472
 21
2983.768853451599
 31
0.0
  0
LINE
  5
67EF
330
67EC
100
AcDbEntity
  8
DIM
 62
     0
440
 16777216
370
    -2
100
AcDbLine
 10
34847.65750844702
 20
2982.518853451598
 30
0.0
 11
34635.8552928472
 21
2982.518853451598
 31
0.0
  0
SOLID
  5
67F0
330
67EC
100
AcDbEntity
  8
DIM
 62
     0
440
 16777216
370
     5
100
AcDbTrace
 10
34847.65750844702
 20
2983.852186784932
 30
0.0
 11
34847.65750844702
 21
2981.185520118265
 31
0.0
 12
34855.65750844702
 22
2982.518853451598
 32
0.0
 13
34855.65750844702
 23
2982.518853451598
 33
0.0
  0
SOLID
  5
67F1
330
67EC
100
AcDbEntity
  8
DIM
 62
     0
440
 16777216
370
     5
100
AcDbTrace
 10
34635.8552928472
 20
2983.852186784932
 30
0.0
 11
34635.8552928472
 21
2981.185520118265
 31
0.0
 12
34627.8552928472
 22
2982.518853451598
 32
0.0
 13
34627.8552928472
 23
2982.518853451598
 33
0.0
  0
MTEXT
  5
67F2
330
67EC
100
AcDbEntity
  8
DIM
 62
     0
440
 16777216
100
AcDbMText
 10
34741.75640064711
 20
2994.518853451598
 30
0.0
 40
18.0
 41
0.0
 46
0.0
 71
     5
 72
     1
  1
%%C114[4.49]
 73
     1
 44
1.0
  0
POINT
  5
67F3
330
67EC
100
AcDbEntity
  8
Defpoints
 62
     0
440
 16777216
370
     5
100
AcDbPoint
 10
34855.65750844702
 20
2944.072235082489
 30
0.0
  0
POINT
  5
67F4
330
67EC
100
AcDbEntity
  8
Defpoints
 62
     0
440
 16777216
370
     5
100
AcDbPoint
 10
34627.8552928472
 20
2944.099895380171
 30
0.0
  0
POINT
  5
67F5
330
67EC
100
AcDbEntity
  8
Defpoints
 62
     0
440
 16777216
370
     5
100
AcDbPoint
 10
34627.8552928472
 20
2982.518853451598
 30
0.0
  0
ENDBLK
  5
67F7
330
67EC
100
AcDbEntity
  8
0
370
     5
100
AcDbBlockEnd
  0
BLOCK
  5
6807
330
6801
100
AcDbEntity
  8
0
370
     5
100
AcDbBlockBegin
  2
*D146
 70
     1
 10
0.0
 20
0.0
 30
0.0
  3
*D146
  1

  0
LINE
  5
6858
330
6801
100
AcDbEntity
  8
DIM
 62
     0
440
 16777216
370
    -2
100
AcDbLine
 10
34947.92618728979
 20
4378.287766779187
 30
0.0
 11
34821.32238243018
 21
4256.027893578415
 31
0.0
  0
MTEXT
  5
6859
330
6801
100
AcDbEntity
  8
DIM
 62
     0
440
 16777216
100
AcDbMText
 10
34878.12375606014
 20
4329.647550965206
 30
0.0
 40
18.0
 41
0.0
 46
0.0
 71
     5
 72
     1
  1
R50 [R1,97]
 11
0.7193398003387093
 21
0.6946583704589371
 31
0.0
 73
     1
 44
1.0
  0
SOLID
  5
685A
330
6801
100
AcDbEntity
  8
DIM
 62
     0
440
 16777216
370
     5
100
AcDbTrace
 10
34820.39617126956
 20
4256.987013312198
 30
0.0
 11
34822.24859359078
 21
4255.06877384463
 31
0.0
 12
34815.56766402746
 22
4250.470626614743
 32
0.0
 13
34815.56766402746
 23
4250.470626614743
 33
0.0
  0
POINT
  5
685B
330
6801
100
AcDbEntity
  8
Defpoints
 62
     0
440
 16777216
370
     5
100
AcDbPoint
 10
34815.56766402746
 20
4250.470626614743
 30
0.0
  0
POINT
  5
685C
330
6801
100
AcDbEntity
  8
Defpoints
 62
     0
440
 16777216
370
     5
100
AcDbPoint
 10
34851.53465404439
 20
4285.203545137679
 30
0.0
  0
ENDBLK
  5
6808
330
6801
100
AcDbEntity
  8
0
370
     5
100
AcDbBlockEnd
  0
BLOCK
  5
6819
330
6809
100
AcDbEntity
  8
0
370
     5
100
AcDbBlockBegin
  2
*D147
 70
     1
 10
0.0
 20
0.0
 30
0.0
  3
*D147
  1

  0
LINE
  5
680A
330
6809
100
AcDbEntity
  8
DIM
 62
     0
440
 16777216
370
    -2
100
AcDbLine
 10
35034.53465404439
 20
4233.007980214252
 30
0.0
 11
35200.13482421158
 21
4233.007980214252
 31
0.0
  0
LINE
  5
680B
330
6809
100
AcDbEntity
  8
DIM
 62
     0
440
 16777216
370
    -2
100
AcDbLine
 10
35098.27901970655
 20
4235.26890328343
 30
0.0
 11
35200.03333588931
 21
4238.822242303639
 31
0.0
  0
ARC
  5
680C
330
6809
100
AcDbEntity
  8
DIM
 62
     0
440
 16777216
370
    -2
100
AcDbCircle
 10
35033.53465404436
 20
4233.007980214252
 30
0.0
 40
165.3501701672213
100
AcDbArc
 50
354.4536464541042
 51
360.0
  0
LINE
  5
680D
330
6809
100
AcDbEntity
  8
DIM
 62
     0
440
 16777216
370
    -2
100
AcDbLine
 10
35198.1107094957
 20
4217.0267178609
 30
0.0
 11
35191.44178922023
 21
4148.349753001062
 31
0.0
  0
ARC
  5
680E
330
6809
100
AcDbEntity
  8
DIM
 62
     0
440
 16777216
370
    -2
100
AcDbCircle
 10
35033.53465404436
 20
4233.007980214252
 30
0.0
 40
165.3501701672213
100
AcDbArc
 50
354.4552708465761
 51
357.227635423288
  0
ARC
  5
680F
330
6809
100
AcDbEntity
  8
DIM
 62
     0
440
 16777216
370
    -2
100
AcDbCircle
 10
35033.53465404436
 20
4233.007980214252
 30
0.0
 40
165.3501701672213
100
AcDbArc
 50
4.772364576711971
 51
7.5447291534239
  0
ARC
  5
6810
330
6809
100
AcDbEntity
  8
DIM
 62
     0
440
 16777216
370
    -2
100
AcDbCircle
 10
35033.53465404436
 20
4233.007980214252
 30
0.0
 40
165.3501701672213
100
AcDbArc
 50
360.0
 51
2.00000000000004
  0
SOLID
  5
6811
330
6809
100
AcDbEntity
  8
DIM
 62
     0
440
 16777216
370
     5
100
AcDbTrace
 10
35197.35835239543
 20
4225.042576170998
 30
0.0
 11
35200.0242386698
 21
4224.978066611342
 31
0.0
 12
35198.88482421159
 22
4233.007980214252
 32
0.0
 13
35198.88482421159
 23
4233.007980214252
 33
0.0
  0
SOLID
  5
6812
330
6809
100
AcDbEntity
  8
DIM
 62
     0
440
 16777216
370
     5
100
AcDbTrace
 10
35199.64257776993
 20
4246.843404920393
 30
0.0
 11
35196.98056683262
 21
4246.685896568974
 31
0.0
 12
35198.78409735553
 22
4238.778617932761
 32
0.0
 13
35198.78409735553
 23
4238.778617932761
 33
0.0
  0
MTEXT
  5
6813
330
6809
100
AcDbEntity
  8
DIM
 62
     0
440
 16777216
100
AcDbMText
 10
35208.21304683054
 20
4181.383446681435
 30
0.0
 40
18.0
 41
0.0
 46
0.0
 71
     5
 72
     1
  1
2,00\U+00B0
 11
-0.0966510184851316
 21
-0.9953183313019945
 31
0.0
 73
     1
 44
1.0
  0
POINT
  5
6814
330
6809
100
AcDbEntity
  8
Defpoints
 62
     0
440
 16777216
370
     5
100
AcDbPoint
 10
35198.84005419453
 20
4236.855506110315
 30
0.0
  0
POINT
  5
6815
330
6809
100
AcDbEntity
  8
Defpoints
 62
     0
440
 16777216
370
     5
100
AcDbPoint
 10
34913.5346540444
 20
4233.007980214252
 30
0.0
  0
POINT
  5
6816
330
6809
100
AcDbEntity
  8
Defpoints
 62
     0
440
 16777216
370
     5
100
AcDbPoint
 10
35033.53465404436
 20
4233.007980214252
 30
0.0
  0
POINT
  5
6817
330
6809
100
AcDbEntity
  8
Defpoints
 62
     0
440
 16777216
370
     5
100
AcDbPoint
 10
35097.27962887953
 20
4235.234003786728
 30
0.0
  0
POINT
  5
6818
330
6809
100
AcDbEntity
  8
Defpoints
 62
     0
440
 16777216
370
     5
100
AcDbPoint
 10
35033.53465404439
 20
4233.007980214252
 30
0.0
  0
ENDBLK
  5
681A
330
6809
100
AcDbEntity
  8
0
370
     5
100
AcDbBlockEnd
  0
BLOCK
  5
6825
330
681B
100
AcDbEntity
  8
0
370
     5
100
AcDbBlockBegin
  2
*D148
 70
     1
 10
0.0
 20
0.0
 30
0.0
  3
*D148
  1

  0
LINE
  5
681C
330
681B
100
AcDbEntity
  8
DIM
 62
     0
440
 16777216
370
    -2
100
AcDbLine
 10
35176.03465404438
 20
4436.007980214248
 30
0.0
 11
35239.61491055187
 21
4436.007980214248
 31
0.0
  0
LINE
  5
681D
330
681B
100
AcDbEntity
  8
DIM
 62
     0
440
 16777216
370
    -2
100
AcDbLine
 10
35034.53465404439
 20
4233.007980214249
 30
0.0
 11
35239.61491055187
 21
4233.007980214249
 31
0.0
  0
LINE
  5
681E
330
681B
100
AcDbEntity
  8
DIM
 62
     0
440
 16777216
370
    -2
100
AcDbLine
 10
35238.36491055187
 20
4428.007980214248
 30
0.0
 11
35238.36491055187
 21
4241.007980214248
 31
0.0
  0
SOLID
  5
681F
330
681B
100
AcDbEntity
  8
DIM
 62
     0
440
 16777216
370
     5
100
AcDbTrace
 10
35237.03157721854
 20
4428.007980214248
 30
0.0
 11
35239.69824388521
 21
4428.007980214248
 31
0.0
 12
35238.36491055187
 22
4436.007980214248
 32
0.0
 13
35238.36491055187
 23
4436.007980214248
 33
0.0
  0
SOLID
  5
6820
330
681B
100
AcDbEntity
  8
DIM
 62
     0
440
 16777216
370
     5
100
AcDbTrace
 10
35237.03157721854
 20
4241.007980214248
 30
0.0
 11
35239.69824388521
 21
4241.007980214248
 31
0.0
 12
35238.36491055187
 22
4233.007980214249
 32
0.0
 13
35238.36491055187
 23
4233.007980214249
 33
0.0
  0
MTEXT
  5
6821
330
681B
100
AcDbEntity
  8
DIM
 62
     0
440
 16777216
100
AcDbMText
 10
35224.86491055187
 20
4334.507980214254
 30
0.0
 40
18.0
 41
0.0
 46
0.0
 71
     5
 72
     1
  1
203 [7,99]
 11
0.0000000000000001
 21
1.0
 31
0.0
 73
     1
 44
1.0
  0
POINT
  5
6822
330
681B
100
AcDbEntity
  8
Defpoints
 62
     0
440
 16777216
370
     5
100
AcDbPoint
 10
35175.03465404438
 20
4436.007980214248
 30
0.0
  0
POINT
  5
6823
330
681B
100
AcDbEntity
  8
Defpoints
 62
     0
440
 16777216
370
     5
100
AcDbPoint
 10
35033.53465404439
 20
4233.007980214249
 30
0.0
  0
POINT
  5
6824
330
681B
100
AcDbEntity
  8
Defpoints
 62
     0
440
 16777216
370
     5
100
AcDbPoint
 10
35238.36491055187
 20
4233.007980214249
 30
0.0
  0
ENDBLK
  5
6826
330
681B
100
AcDbEntity
  8
0
370
     5
100
AcDbBlockEnd
  0
BLOCK
  5
6837
330
6827
100
AcDbEntity
  8
0
370
     5
100
AcDbBlockBegin
  2
*D149
 70
     1
 10
0.0
 20
0.0
 30
0.0
  3
*D149
  1

  0
LINE
  5
6828
330
6827
100
AcDbEntity
  8
DIM
 62
     0
440
 16777216
370
    -2
100
AcDbLine
 10
34457.79028838223
 20
4184.54826943936
 30
0.0
 11
34368.65550801863
 21
4187.660924558135
 31
0.0
  0
LINE
  5
6829
330
6827
100
AcDbEntity
  8
DIM
 62
     0
440
 16777216
370
    -2
100
AcDbLine
 10
34529.53465404438
 20
4182.00798021425
 30
0.0
 11
34368.55683550808
 21
4182.00798021425
 31
0.0
  0
ARC
  5
682A
330
6827
100
AcDbEntity
  8
DIM
 62
     0
440
 16777216
370
    -2
100
AcDbCircle
 10
34530.53465404439
 20
4182.00798021425
 30
0.0
 40
160.7278185363113
100
AcDbArc
 50
172.2940094407657
 51
178.0000000000004
  0
LINE
  5
682B
330
6827
100
AcDbEntity
  8
DIM
 62
     0
440
 16777216
370
    -2
100
AcDbLine
 10
34371.25833864236
 20
4203.5599407607
 30
0.0
 11
34380.51053462964
 21
4271.936814551573
 31
0.0
  0
ARC
  5
682C
330
6827
100
AcDbEntity
  8
DIM
 62
     0
440
 16777216
370
    -2
100
AcDbCircle
 10
34530.53465404439
 20
4182.00798021425
 30
0.0
 40
160.7278185363113
100
AcDbArc
 50
172.2957781855623
 51
175.1478890927814
  0
ARC
  5
682D
330
6827
100
AcDbEntity
  8
DIM
 62
     0
440
 16777216
370
    -2
100
AcDbCircle
 10
34530.53465404439
 20
4182.00798021425
 30
0.0
 40
160.7278185363113
100
AcDbArc
 50
182.8521109072189
 51
185.704221814438
  0
ARC
  5
682E
330
6827
100
AcDbEntity
  8
DIM
 62
     0
440
 16777216
370
    -2
100
AcDbCircle
 10
34530.53465404439
 20
4182.00798021425
 30
0.0
 40
160.7278185363113
100
AcDbArc
 50
178.0000000000004
 51
180.0
  0
SOLID
  5
682F
330
6827
100
AcDbEntity
  8
DIM
 62
     0
440
 16777216
370
     5
100
AcDbTrace
 10
34371.71377945581
 20
4195.523321799432
 30
0.0
 11
34369.051878776
 21
4195.682682653932
 31
0.0
 12
34369.90474655241
 22
4187.617300187256
 32
0.0
 13
34369.90474655241
 23
4187.617300187256
 33
0.0
  0
SOLID
  5
6830
330
6827
100
AcDbEntity
  8
DIM
 62
     0
440
 16777216
370
     5
100
AcDbTrace
 10
34368.67300948688
 20
4173.977275616805
 30
0.0
 11
34371.33885022233
 21
4174.04364039898
 31
0.0
 12
34369.80683550808
 22
4182.00798021425
 32
0.0
 13
34369.80683550808
 23
4182.00798021425
 33
0.0
  0
MTEXT
  5
6831
330
6827
100
AcDbEntity
  8
DIM
 62
     0
440
 16777216
100
AcDbMText
 10
34362.50635263344
 20
4239.558589914522
 30
0.0
 40
18.0
 41
0.0
 46
0.0
 71
     5
 72
     1
  1
2,00\U+00B0
 11
0.1340897969170322
 21
0.9909691853749787
 31
0.0
 73
     1
 44
1.0
  0
POINT
  5
6832
330
6827
100
AcDbEntity
  8
Defpoints
 62
     0
440
 16777216
370
     5
100
AcDbPoint
 10
34369.81771549496
 20
4183.878091104598
 30
0.0
  0
POINT
  5
6833
330
6827
100
AcDbEntity
  8
Defpoints
 62
     0
440
 16777216
370
     5
100
AcDbPoint
 10
34530.53465404439
 20
4182.00798021425
 30
0.0
  0
POINT
  5
6834
330
6827
100
AcDbEntity
  8
Defpoints
 62
     0
440
 16777216
370
     5
100
AcDbPoint
 10
34530.53465404439
 20
4182.00798021425
 30
0.0
  0
POINT
  5
6835
330
6827
100
AcDbEntity
  8
Defpoints
 62
     0
440
 16777216
370
     5
100
AcDbPoint
 10
34458.78967920925
 20
4184.513369942659
 30
0.0
  0
POINT
  5
6836
330
6827
100
AcDbEntity
  8
Defpoints
 62
     0
440
 16777216
370
     5
100
AcDbPoint
 10
34650.53465404438
 20
4182.00798021425
 30
0.0
  0
ENDBLK
  5
6838
330
6827
100
AcDbEntity
  8
0
370
     5
100
AcDbBlockEnd
  0
BLOCK
  5
683F
330
6839
100
AcDbEntity
  8
0
370
     5
100
AcDbBlockBegin
  2
*D150
 70
     1
 10
0.0
 20
0.0
 30
0.0
  3
*D150
  1

  0
LINE
  5
685D
330
6839
100
AcDbEntity
  8
DIM
 62
     0
440
 16777216
370
    -2
100
AcDbLine
 10
34557.23967317265
 20
4327.241411041036
 30
0.0
 11
34430.22412566087
 21
4205.409351671251
 31
0.0
  0
MTEXT
  5
685E
330
6839
100
AcDbEntity
  8
DIM
 62
     0
440
 16777216
100
AcDbMText
 10
34487.27354366991
 20
4278.836961633918
 30
0.0
 40
18.0
 41
0.0
 46
0.0
 71
     5
 72
     1
  1
R50 [R1,97]
 11
0.7216792472260184
 21
0.6922276100555998
 31
0.0
 73
     1
 44
1.0
  0
SOLID
  5
685F
330
6839
100
AcDbEntity
  8
DIM
 62
     0
440
 16777216
370
     5
100
AcDbTrace
 10
34429.30115551413
 20
4206.371590667552
 30
0.0
 11
34431.14709580761
 21
4204.447112674951
 31
0.0
 12
34424.45069168306
 22
4199.871530790806
 32
0.0
 13
34424.45069168306
 23
4199.871530790806
 33
0.0
  0
POINT
  5
6860
330
6839
100
AcDbEntity
  8
Defpoints
 62
     0
440
 16777216
370
     5
100
AcDbPoint
 10
34424.45069168306
 20
4199.871530790806
 30
0.0
  0
POINT
  5
6861
330
6839
100
AcDbEntity
  8
Defpoints
 62
     0
440
 16777216
370
     5
100
AcDbPoint
 10
34460.53465404439
 20
4234.482911293611
 30
0.0
  0
ENDBLK
  5
6840
330
6839
100
AcDbEntity
  8
0
370
     5
100
AcDbBlockEnd
  0
BLOCK
  5
684B
330
6841
100
AcDbEntity
  8
0
370
     5
100
AcDbBlockBegin
  2
*D151
 70
     1
 10
0.0
 20
0.0
 30
0.0
  3
*D151
  1

  0
LINE
  5
6842
330
6841
100
AcDbEntity
  8
DIM
 62
     0
440
 16777216
370
    -2
100
AcDbLine
 10
34380.03465404439
 20
4436.007980214249
 30
0.0
 11
34336.69374204756
 21
4436.007980214249
 31
0.0
  0
LINE
  5
6843
330
6841
100
AcDbEntity
  8
DIM
 62
     0
440
 16777216
370
    -2
100
AcDbLine
 10
34529.53465404439
 20
4182.007980214249
 30
0.0
 11
34336.69374204756
 21
4182.007980214249
 31
0.0
  0
LINE
  5
6844
330
6841
100
AcDbEntity
  8
DIM
 62
     0
440
 16777216
370
    -2
100
AcDbLine
 10
34337.94374204756
 20
4428.007980214249
 30
0.0
 11
34337.94374204756
 21
4190.007980214249
 31
0.0
  0
SOLID
  5
6845
330
6841
100
AcDbEntity
  8
DIM
 62
     0
440
 16777216
370
     5
100
AcDbTrace
 10
34336.61040871422
 20
4428.007980214249
 30
0.0
 11
34339.2770753809
 21
4428.007980214249
 31
0.0
 12
34337.94374204756
 22
4436.007980214249
 32
0.0
 13
34337.94374204756
 23
4436.007980214249
 33
0.0
  0
SOLID
  5
6846
330
6841
100
AcDbEntity
  8
DIM
 62
     0
440
 16777216
370
     5
100
AcDbTrace
 10
34336.61040871422
 20
4190.007980214249
 30
0.0
 11
34339.2770753809
 21
4190.007980214249
 31
0.0
 12
34337.94374204756
 22
4182.007980214249
 32
0.0
 13
34337.94374204756
 23
4182.007980214249
 33
0.0
  0
MTEXT
  5
6847
330
6841
100
AcDbEntity
  8
DIM
 62
     0
440
 16777216
100
AcDbMText
 10
34324.44374204756
 20
4309.007980214254
 30
0.0
 40
18.0
 41
0.0
 46
0.0
 71
     5
 72
     1
  1
254 [10,00]
 11
0.0000000000000001
 21
1.0
 31
0.0
 73
     1
 44
1.0
  0
POINT
  5
6848
330
6841
100
AcDbEntity
  8
Defpoints
 62
     0
440
 16777216
370
     5
100
AcDbPoint
 10
34381.03465404439
 20
4436.007980214249
 30
0.0
  0
POINT
  5
6849
330
6841
100
AcDbEntity
  8
Defpoints
 62
     0
440
 16777216
370
     5
100
AcDbPoint
 10
34530.53465404439
 20
4182.007980214249
 30
0.0
  0
POINT
  5
684A
330
6841
100
AcDbEntity
  8
Defpoints
 62
     0
440
 16777216
370
     5
100
AcDbPoint
 10
34337.94374204756
 20
4182.007980214249
 30
0.0
  0
ENDBLK
  5
684C
330
6841
100
AcDbEntity
  8
0
370
     5
100
AcDbBlockEnd
  0
ENDSEC
  0
SECTION
  2
ENTITIES
  0
MTEXT
  5
44A0
102
{ACAD_REACTORS
330
44A1
102
}
330
1F
100
AcDbEntity
  8
DIM
100
AcDbMText
 10
37141.41373264593
 20
4173.651673243345
 30
0.0
 40
18.0
 41
0.0
 46
0.0
 71
     7
 72
     1
  1
I
 73
     1
 44
1.0
  0
LEADER
  5
44A1
330
1F
100
AcDbEntity
  8
DIM
100
AcDbLeader
  3
ISO-25
 73
     0
 74
     0
 75
     1
 40
18.0
 41
6.0
 76
     3
 10
37088.22457011759
 20
4204.649406236764
 30
0.0
 10
37130.41373264593
 20
4182.651673243344
 30
0.0
 10
37138.41373264593
 20
4182.651673243344
 30
0.0
340
44A0
210
0.0
220
0.0
230
-1.0
213
0.0
223
9.0
233
0.0
1001
ACAD
1000
DSTYLE
1002
{
1070
    77
1070
     0
1070
    41
1040
8.0
1070
   140
1040
18.0
1070
   141
1040
0.5
1070
   143
1040
0.03937007874
1070
   147
1040
3.0
1070
   170
1070
     1
1070
   171
1070
     2
1070
   179
1070
     2
1070
   274
1070
     2
1002
}
  0
MTEXT
  5
44A2
102
{ACAD_REACTORS
330
44A3
102
}
330
1F
100
AcDbEntity
  8
DIM
100
AcDbMText
 10
37529.16368020412
 20
4129.727104875601
 30
0.0
 40
18.0
 41
0.0
 46
0.0
 71
     7
 72
     1
  1
I
 73
     1
 44
1.0
  0
LEADER
  5
44A3
330
1F
100
AcDbEntity
  8
DIM
100
AcDbLeader
  3
ISO-25
 73
     0
 74
     0
 75
     1
 40
18.0
 41
6.0
 76
     3
 10
37483.0922843959
 20
4156.05567415346
 30
0.0
 10
37518.16368020412
 20
4138.727104875601
 30
0.0
 10
37526.16368020412
 20
4138.727104875601
 30
0.0
340
44A2
210
0.0
220
0.0
230
-1.0
213
0.0
223
9.0
233
0.0
1001
ACAD
1000
DSTYLE
1002
{
1070
    77
1070
     0
1070
    41
1040
8.0
1070
   140
1040
18.0
1070
   141
1040
0.5
1070
   143
1040
0.03937007874
1070
   147
1040
3.0
1070
   170
1070
     1
1070
   171
1070
     2
1070
   179
1070
     2
1070
   274
1070
     2
1002
}
  0
CIRCLE
  5
44A4
330
1F
100
AcDbEntity
  8
DIM
100
AcDbCircle
 10
37062.20294048064
 20
4233.007980214249
 30
0.0
 40
68.63232583804347
  0
CIRCLE
  5
44A5
330
1F
100
AcDbEntity
  8
DIM
100
AcDbCircle
 10
37445.20294048064
 20
4182.00798021425
 30
0.0
 40
68.63232583804347
  0
DIMENSION
  5
44A6
102
{ACAD_XDICTIONARY
360
44A7
102
}
102
{ACAD_REACTORS
330
44A8
102
}
330
1F
100
AcDbEntity
  8
DIM
100
AcDbDimension
280
     0
  2
*D30
 10
37184.20294048064
 20
4285.203545137675
 30
0.0
 11
37148.23595046369
 21
4319.936463660633
 31
0.0
 70
   164
 71
     5
 42
49.99999999998545
 73
     0
 74
     0
 75
     0
  3
ISO-25
100
AcDbRadialDimension
 15
37220.16993049757
 25
4250.470626614741
 35
0.0
 40
0.0
1001
ACAD
1000
DSTYLE
1002
{
1070
    41
1040
8.0
1070
   140
1040
18.0
1070
   141
1040
0.5
1070
   143
1040
0.03937007874
1070
   147
1040
3.0
1070
   170
1070
     1
1070
   171
1070
     2
1070
   179
1070
     2
1070
   274
1070
     2
1070
   288
1070
     1
1002
}
  0
DIMENSION
  5
44A9
102
{ACAD_XDICTIONARY
360
44AA
102
}
102
{ACAD_REACTORS
330
44AB
102
}
330
1F
100
AcDbEntity
  8
DIM
100
AcDbDimension
280
     0
  2
*D29
 10
37002.20294048064
 20
4233.007980214249
 30
0.0
 11
36829.82661203988
 21
4293.671270284227
 31
0.0
 70
    34
 71
     5
 42
0.0349065850398764
 73
     0
 74
     0
 75
     0
  3
ISO-25
100
AcDb2LineAngularDimension
 13
37002.20294048067
 23
4233.007980214249
 33
0.0
 14
36938.4579656455
 24
4235.234003786726
 34
0.0
 15
37122.20294048064
 25
4233.007980214249
 35
0.0
 16
36836.86396319654
 26
4234.931873394451
 36
0.0
1001
ACAD
1000
DSTYLE
1002
{
1070
    41
1040
8.0
1070
   140
1040
18.0
1070
   141
1040
0.5
1070
   143
1040
0.03937007874
1070
   147
1040
3.0
1070
   170
1070
     1
1070
   171
1070
     2
1070
   179
1070
     2
1070
   274
1070
     2
1002
}
  0
DIMENSION
  5
44AC
102
{ACAD_XDICTIONARY
360
44AD
102
}
102
{ACAD_REACTORS
330
44AE
102
}
330
1F
100
AcDbEntity
  8
DIM
100
AcDbDimension
280
     0
  2
*D28
 10
36797.37268397316
 20
4233.007980214249
 30
0.0
 11
36783.87268397315
 21
4334.507980214256
 31
0.0
 70
    32
 71
     5
 42
203.0
 73
     0
 74
     0
 75
     0
  3
ISO-25
100
AcDbAlignedDimension
 13
36860.70294048064
 23
4436.00798021425
 33
0.0
 14
37002.20294048064
 24
4233.007980214249
 34
0.0
 50
90.0
100
AcDbRotatedDimension
1001
ACAD
1000
DSTYLE
1002
{
1070
    41
1040
8.0
1070
   140
1040
18.0
1070
   141
1040
0.5
1070
   143
1040
0.03937007874
1070
   147
1040
3.0
1070
   170
1070
     1
1070
   171
1070
     2
1070
   179
1070
     2
1070
   274
1070
     2
1002
}
  0
DIMENSION
  5
44AF
102
{ACAD_XDICTIONARY
360
44B0
102
}
102
{ACAD_REACTORS
330
44B1
102
}
330
1F
100
AcDbEntity
  8
DIM
100
AcDbDimension
280
     0
  2
*D27
 10
37385.20294048064
 20
4182.00798021425
 30
0.0
 11
37674.83909954215
 21
4127.371396401022
 31
0.0
 70
    34
 71
     5
 42
0.0349065850398713
 73
     0
 74
     0
 75
     0
  3
ISO-25
100
AcDb2LineAngularDimension
 13
37505.20294048064
 23
4182.00798021425
 33
0.0
 14
37576.94791531577
 24
4184.513369942659
 34
0.0
 15
37505.20294048064
 25
4182.00798021425
 35
0.0
 16
37665.88724054237
 26
4185.747948811869
 36
0.0
1001
ACAD
1000
DSTYLE
1002
{
1070
    41
1040
8.0
1070
   140
1040
18.0
1070
   141
1040
0.5
1070
   143
1040
0.03937007874
1070
   147
1040
3.0
1070
   170
1070
     1
1070
   171
1070
     2
1070
   179
1070
     2
1070
   274
1070
     2
1002
}
  0
DIMENSION
  5
44B2
102
{ACAD_XDICTIONARY
360
44B3
102
}
102
{ACAD_REACTORS
330
44B4
102
}
330
1F
100
AcDbEntity
  8
DIM
100
AcDbDimension
280
     0
  2
*D26
 10
37575.20294048064
 20
4234.48291129361
 30
0.0
 11
37539.11897811937
 21
4269.09429179637
 31
0.0
 70
   164
 71
     5
 42
50.00000000004366
 73
     0
 74
     0
 75
     0
  3
ISO-25
100
AcDbRadialDimension
 15
37611.28690284197
 25
4199.871530790802
 35
0.0
 40
0.0
1001
ACAD
1000
DSTYLE
1002
{
1070
    41
1040
8.0
1070
   140
1040
18.0
1070
   141
1040
0.5
1070
   143
1040
0.03937007874
1070
   147
1040
3.0
1070
   170
1070
     1
1070
   171
1070
     2
1070
   179
1070
     2
1070
   274
1070
     2
1070
   288
1070
     1
1002
}
  0
DIMENSION
  5
44B5
102
{ACAD_XDICTIONARY
360
44B6
102
}
102
{ACAD_REACTORS
330
44B7
102
}
330
1F
100
AcDbEntity
  8
DIM
100
AcDbDimension
280
     0
  2
*D25
 10
37697.79385247747
 20
4182.00798021425
 30
0.0
 11
37684.29385247747
 21
4309.007980214255
 31
0.0
 70
    32
 71
     5
 42
254.0
 73
     0
 74
     0
 75
     0
  3
ISO-25
100
AcDbAlignedDimension
 13
37654.70294048064
 23
4436.00798021425
 33
0.0
 14
37505.20294048064
 24
4182.00798021425
 34
0.0
 50
90.0
100
AcDbRotatedDimension
1001
ACAD
1000
DSTYLE
1002
{
1070
    41
1040
8.0
1070
   140
1040
18.0
1070
   141
1040
0.5
1070
   143
1040
0.03937007874
1070
   147
1040
3.0
1070
   170
1070
     1
1070
   171
1070
     2
1070
   179
1070
     2
1070
   274
1070
     2
1002
}
  0
ARC
  5
44BA
330
1F
100
AcDbEntity
  8
base
100
AcDbCircle
 10
36884.70294048063
 20
4430.50798021425
 30
0.0
 40
5.5
100
AcDbArc
 50
0.000000000000007
 51
90.0
  0
ARC
  5
44BB
330
1F
100
AcDbEntity
  8
base
100
AcDbCircle
 10
37239.70294048063
 20
4430.50798021425
 30
0.0
 40
5.5
100
AcDbArc
 50
90.0
 51
180.0
  0
ARC
  5
44BE
330
1F
100
AcDbEntity
  8
base
100
AcDbCircle
 10
36940.20294048064
 20
4285.203545137685
 30
0.0
 40
50.0
100
AcDbArc
 50
180.0000000000052
 51
267.9999999999882
  0
ARC
  5
44C0
102
{ACAD_REACTORS
330
44A8
102
}
330
1F
100
AcDbEntity
  8
base
100
AcDbCircle
 10
37184.20294048064
 20
4285.203545137678
 30
0.0
 40
50.0
100
AcDbArc
 50
272.0000000000037
 51
0.0000000000020935
  0
LINE
  5
44C1
330
1F
100
AcDbEntity
  8
base
100
AcDbLine
 10
37122.20294048064
 20
4233.007980214249
 30
0.0
 11
37185.94791531577
 21
4235.234003786724
 31
0.0
  0
LINE
  5
44C2
330
1F
100
AcDbEntity
  8
base
100
AcDbLine
 10
37121.5728699968
 20
4233.007980214249
 30
0.0
 11
37119.14872375968
 21
4229.494150065409
 31
0.0
  0
LINE
  5
44C3
330
1F
100
AcDbEntity
  8
base
100
AcDbLine
 10
37106.20294048064
 20
4228.0079070766
 30
0.0
 11
37106.20294048064
 21
4229.208272764852
 31
0.0
  0
LINE
  5
44C5
330
1F
100
AcDbEntity
  8
base
100
AcDbLine
 10
37106.20294048064
 20
4229.208272764852
 30
0.0
 11
37119.14872375968
 21
4229.494150065409
 31
0.0
  0
LINE
  5
44C6
330
1F
100
AcDbEntity
  8
base
100
AcDbLine
 10
37018.20294048067
 20
4229.208272764852
 30
0.0
 11
37106.20294048064
 21
4229.208272764852
 31
0.0
  0
LINE
  5
44C7
102
{ACAD_REACTORS
330
44AE
330
44AB
102
}
330
1F
100
AcDbEntity
  8
base
100
AcDbLine
 10
37122.20294048064
 20
4233.007980214249
 30
0.0
 11
37002.20294048064
 21
4233.007980214249
 31
0.0
  0
LINE
  5
44CD
330
1F
100
AcDbEntity
  8
base
100
AcDbLine
 10
37018.20294048064
 20
4229.208272764852
 30
0.0
 11
37005.2571572016
 21
4229.494150065409
 31
0.0
  0
LINE
  5
44CE
330
1F
100
AcDbEntity
  8
base
100
AcDbLine
 10
37018.20294048064
 20
4228.007907076597
 30
0.0
 11
37018.20294048064
 21
4229.208272764852
 31
0.0
  0
LINE
  5
44CF
330
1F
100
AcDbEntity
  8
base
100
AcDbLine
 10
37002.83301096447
 20
4233.007980214249
 30
0.0
 11
37005.2571572016
 21
4229.494150065409
 31
0.0
  0
LINE
  5
44D1
102
{ACAD_REACTORS
330
44AB
102
}
330
1F
100
AcDbEntity
  8
base
100
AcDbLine
 10
37002.20294048067
 20
4233.007980214249
 30
0.0
 11
36938.4579656455
 21
4235.234003786726
 31
0.0
  0
LINE
  5
44D2
330
1F
100
AcDbEntity
  8
base
100
AcDbLine
 10
37385.20294048067
 20
4182.00798021425
 30
0.0
 11
37313.45796564554
 21
4184.513369942659
 31
0.0
  0
ARC
  5
44D5
330
1F
100
AcDbEntity
  8
base
100
AcDbCircle
 10
37315.20294048063
 20
4234.482911293607
 30
0.0
 40
50.0
100
AcDbArc
 50
179.9999999999937
 51
268.0000000000045
  0
LINE
  5
44D6
330
1F
100
AcDbEntity
  8
base
100
AcDbLine
 10
37385.83301096447
 20
4182.00798021425
 30
0.0
 11
37388.2571572016
 21
4178.494150065409
 31
0.0
  0
LINE
  5
44D7
330
1F
100
AcDbEntity
  8
base
100
AcDbLine
 10
37401.20294048064
 20
4177.007980214249
 30
0.0
 11
37401.20294048064
 21
4178.208272764852
 31
0.0
  0
LINE
  5
44D8
330
1F
100
AcDbEntity
  8
base
100
AcDbLine
 10
37401.20294048064
 20
4178.208272764852
 30
0.0
 11
37388.2571572016
 21
4178.494150065409
 31
0.0
  0
ARC
  5
44DF
102
{ACAD_REACTORS
330
44B4
102
}
330
1F
100
AcDbEntity
  8
base
100
AcDbCircle
 10
37575.20294048064
 20
4234.482911293611
 30
0.0
 40
50.0
100
AcDbArc
 50
272.0000000000037
 51
0.0000000000020935
  0
LINE
  5
44E0
102
{ACAD_REACTORS
330
44B7
330
44B1
102
}
330
1F
100
AcDbEntity
  8
base
100
AcDbLine
 10
37505.20294048064
 20
4182.00798021425
 30
0.0
 11
37385.20294048064
 21
4182.00798021425
 31
0.0
  0
LINE
  5
44E1
330
1F
100
AcDbEntity
  8
base
100
AcDbLine
 10
37401.20294048067
 20
4178.208272764852
 30
0.0
 11
37489.20294048064
 21
4178.208272764852
 31
0.0
  0
LINE
  5
44E2
330
1F
100
AcDbEntity
  8
base
100
AcDbLine
 10
37489.20294048064
 20
4178.208272764852
 30
0.0
 11
37502.14872375968
 21
4178.494150065409
 31
0.0
  0
LINE
  5
44E4
330
1F
100
AcDbEntity
  8
base
100
AcDbLine
 10
37489.20294048064
 20
4177.007980214249
 30
0.0
 11
37489.20294048064
 21
4178.208272764852
 31
0.0
  0
LINE
  5
44E5
330
1F
100
AcDbEntity
  8
base
100
AcDbLine
 10
37504.5728699968
 20
4182.00798021425
 30
0.0
 11
37502.14872375968
 21
4178.494150065409
 31
0.0
  0
LINE
  5
44E6
102
{ACAD_REACTORS
330
44B1
102
}
330
1F
100
AcDbEntity
  8
base
100
AcDbLine
 10
37505.20294048064
 20
4182.00798021425
 30
0.0
 11
37576.94791531577
 21
4184.513369942659
 31
0.0
  0
ARC
  5
44E8
330
1F
100
AcDbEntity
  8
base
100
AcDbCircle
 10
37630.70294048064
 20
4430.50798021425
 30
0.0
 40
5.5
100
AcDbArc
 50
90.0
 51
180.0
  0
ARC
  5
44E9
330
1F
100
AcDbEntity
  8
base
100
AcDbCircle
 10
37259.70294048064
 20
4430.50798021425
 30
0.0
 40
5.5
100
AcDbArc
 50
0.000000000000007
 51
90.0
  0
LINE
  5
44F0
330
1F
100
AcDbEntity
  8
base
100
AcDbLine
 10
36890.20294048063
 20
4285.20354513768
 30
0.0
 11
36890.20294048063
 21
4430.50798021425
 31
0.0
  0
LINE
  5
44F1
330
1F
100
AcDbEntity
  8
base
100
AcDbLine
 10
37234.20294048064
 20
4285.203545137679
 30
0.0
 11
37234.20294048064
 21
4430.50798021425
 31
0.0
  0
LINE
  5
44F2
330
1F
100
AcDbEntity
  8
base
100
AcDbLine
 10
37265.20294048064
 20
4430.50798021425
 30
0.0
 11
37265.20294048064
 21
4234.482911293613
 31
0.0
  0
LINE
  5
44F3
330
1F
100
AcDbEntity
  8
base
100
AcDbLine
 10
37625.20294048064
 20
4430.50798021425
 30
0.0
 11
37625.20294048064
 21
4234.482911293613
 31
0.0
  0
LINE
  5
44F5
102
{ACAD_REACTORS
330
44B7
330
44AE
102
}
330
1F
100
AcDbEntity
  8
base
100
AcDbLine
 10
37654.70294048064
 20
4436.00798021425
 30
0.0
 11
36860.70294048064
 21
4436.00798021425
 31
0.0
  0
LINE
  5
44F6
330
1F
100
AcDbEntity
  8
base
100
AcDbLine
 10
36860.70294048064
 20
4436.00798021425
 30
0.0
 11
36860.70294048064
 21
4434.80798021425
 31
0.0
  0
LINE
  5
44F7
330
1F
100
AcDbEntity
  8
base
100
AcDbLine
 10
37654.70294048064
 20
4436.00798021425
 30
0.0
 11
37654.70294048064
 21
4434.80798021425
 31
0.0
  0
DIMENSION
  5
44F8
102
{ACAD_XDICTIONARY
360
44F9
102
}
102
{ACAD_REACTORS
330
44FA
102
}
330
1F
100
AcDbEntity
  8
DIM
100
AcDbDimension
280
     0
  2
*D37
 10
36972.70294048065
 20
3587.091486841608
 30
0.0
 11
36755.09201753174
 21
3804.403597989931
 31
0.0
 70
   164
  1
5-<>
 71
     5
 42
112.0000000000072
 73
     0
 74
     0
 75
     0
  3
ISO-25
100
AcDbRadialDimension
 15
36893.45258848503
 25
3666.233016448834
 35
0.0
 40
0.0
1001
ACAD
1000
DSTYLE
1002
{
1070
    41
1040
8.0
1070
   140
1040
18.0
1070
   141
1040
0.5
1070
   143
1040
0.03937007874
1070
   147
1040
3.0
1070
   170
1070
     1
1070
   171
1070
     2
1070
   179
1070
     2
1070
   274
1070
     2
1070
   288
1070
     1
1002
}
  0
SOLID
  5
44FB
330
1F
100
AcDbEntity
  8
DIM
100
AcDbTrace
 10
36929.83171312053
 20
3292.938657331799
 30
0.0
 11
36932.00782251952
 21
3291.397340039765
 31
0.0
 12
36926.29581594391
 22
3285.639670488811
 32
0.0
 13
36926.29581594391
 23
3285.639670488811
 33
0.0
  0
MTEXT
  5
44FC
330
1F
100
AcDbEntity
  8
DIM
100
AcDbMText
 10
36983.48255228419
 20
3389.7354301851
 30
0.0
 40
15.0
 41
0.0
 46
0.0
 71
     5
 72
     1
  1
4-R80 [R3,15]
 11
0.5779939845141481
 21
0.8160410246215926
 31
0.0
 73
     1
 44
1.0
  0
LINE
  5
44FD
330
1F
100
AcDbEntity
  8
DIM
100
AcDbLine
 10
37053.45449253702
 20
3465.168695905564
 30
0.0
 11
36930.91976782002
 21
3292.167998685783
 31
0.0
  0
LINE
  5
44FE
330
1F
100
AcDbEntity
  8
DIM
100
AcDbLine
 10
37113.02002648152
 20
3474.467554182928
 30
0.0
 11
37258.70884239492
 21
3469.59148684161
 31
0.0
  0
LINE
  5
44FF
330
1F
100
AcDbEntity
  8
DIM
100
AcDbLine
 10
37134.31681293933
 20
3479.656538325384
 30
0.0
 11
37113.02002648152
 21
3474.467554182928
 31
0.0
  0
SOLID
  5
4500
330
1F
100
AcDbEntity
  8
DIM
100
AcDbTrace
 10
36898.21656825078
 20
3478.867893625928
 30
0.0
 11
36898.2097178171
 21
3476.201235758358
 31
0.0
 12
36890.21316943123
 22
3477.555115993179
 32
0.0
 13
36890.21316943123
 23
3477.555115993179
 33
0.0
  0
MTEXT
  5
4501
330
1F
100
AcDbEntity
  8
DIM
100
AcDbMText
 10
37050.98153311041
 20
3486.626059454978
 30
0.0
 40
13.0
 41
0.0
 46
0.0
 71
     5
 72
     1
  1
2-R3100 [R122,05]
 11
0.9999967003385069
 21
-0.0025689126295381
 31
0.0
 73
     1
 44
1.0
  0
LINE
  5
4502
330
1F
100
AcDbEntity
  8
DIM
100
AcDbLine
 10
37134.31681293933
 20
3479.656538325384
 30
0.0
 11
36898.21314303394
 21
3477.534564692142
 31
0.0
  0
LINE
  5
4503
330
1F
100
AcDbEntity
  8
DIM
100
AcDbLine
 10
37076.75935216883
 20
3459.49555762369
 30
0.0
 11
37089.35635619271
 21
3277.68019526324
 31
0.0
  0
LINE
  5
4504
330
1F
100
AcDbEntity
  8
DIM
100
AcDbLine
 10
37072.45105002269
 20
3451.110740174721
 30
0.0
 11
37062.20294048063
 21
3640.35928464221
 31
0.0
  0
LINE
  5
4505
330
1F
100
AcDbEntity
  8
DIM
100
AcDbLine
 10
37076.75935216883
 20
3459.49555762369
 30
0.0
 11
37072.45105002269
 21
3451.110740174721
 31
0.0
  0
SOLID
  5
4506
330
1F
100
AcDbEntity
  8
DIM
100
AcDbTrace
 10
37090.68351519884
 20
3277.808362147581
 30
0.0
 11
37088.02919718658
 21
3277.552028378899
 31
0.0
 12
37090.12535749875
 22
3269.717241226495
 32
0.0
 13
37090.12535749875
 23
3269.717241226495
 33
0.0
  0
MTEXT
  5
4507
330
1F
100
AcDbEntity
  8
DIM
100
AcDbMText
 10
37093.40571807238
 20
3373.67636307568
 30
0.0
 40
13.0
 41
0.0
 46
0.0
 71
     5
 72
     1
  1
2-R3100 [R122,05]
 11
0.09612516325556
 21
-0.9953692545930341
 31
0.0
 73
     1
 44
1.0
  0
SOLID
  5
4508
330
1F
100
AcDbEntity
  8
DIM
100
AcDbTrace
 10
37408.87602703311
 20
3277.804603316621
 30
0.0
 11
37411.54252291367
 21
3277.774423354993
 31
0.0
 12
37410.1187350885
 22
3269.790025694136
 32
0.0
 13
37410.1187350885
 23
3269.790025694136
 33
0.0
  0
MTEXT
  5
4509
330
1F
100
AcDbEntity
  8
DIM
100
AcDbMText
 10
37397.18554365632
 20
3389.983277785469
 30
0.0
 40
15.0
 41
0.0
 46
0.0
 71
     5
 72
     1
  1
2-R3100 [R122,05]
 11
0.0113174856103953
 21
0.9999359552088616
 31
0.0
 73
     1
 44
1.0
  0
LINE
  5
450A
330
1F
100
AcDbEntity
  8
DIM
100
AcDbLine
 10
37412.88020157744
 20
3513.774398765102
 30
0.0
 11
37410.20927497339
 21
3277.789513335807
 31
0.0
  0
LINE
  5
450B
330
1F
100
AcDbEntity
  8
DIM
100
AcDbLine
 10
37429.62449467562
 20
3439.510790148132
 30
0.0
 11
37412.88020157744
 21
3513.774398765102
 31
0.0
  0
LINE
  5
450C
330
1F
100
AcDbEntity
  8
DIM
100
AcDbLine
 10
37445.20294048064
 20
3694.788113227373
 30
0.0
 11
37429.62449467562
 21
3439.510790148132
 31
0.0
  0
LINE
  5
450D
330
1F
100
AcDbEntity
  8
DIM
100
AcDbLine
 10
37497.28057708182
 20
3514.187416276616
 30
0.0
 11
37563.07487261532
 21
3520.741835645985
 31
0.0
  0
LINE
  5
450E
330
1F
100
AcDbEntity
  8
DIM
100
AcDbLine
 10
37638.47538690929
 20
3504.591486841611
 30
0.0
 11
37497.28057708182
 21
3514.187416276616
 31
0.0
  0
SOLID
  5
450F
330
1F
100
AcDbEntity
  8
DIM
100
AcDbTrace
 10
37273.32500788434
 20
3532.098353290316
 30
0.0
 11
37273.30243472273
 21
3529.43178216554
 31
0.0
 12
37265.31400792921
 22
3530.832787212758
 32
0.0
 13
37265.31400792921
 23
3530.832787212758
 33
0.0
  0
MTEXT
  5
4510
330
1F
100
AcDbEntity
  8
DIM
100
AcDbMText
 10
37430.49463124175
 20
3537.377612069795
 30
0.0
 40
15.0
 41
0.0
 46
0.0
 71
     5
 72
     1
  1
2-R3100 [R122,05]
 11
0.9990595986432703
 21
-0.0433580253095968
 31
0.0
 73
     1
 44
1.0
  0
LINE
  5
4511
330
1F
100
AcDbEntity
  8
DIM
100
AcDbLine
 10
37563.07487261532
 20
3520.741835645985
 30
0.0
 11
37273.31372130354
 21
3530.765067727929
 31
0.0
  0
DIMENSION
  5
4512
102
{ACAD_XDICTIONARY
360
4513
102
}
102
{ACAD_REACTORS
330
4514
102
}
330
1F
100
AcDbEntity
  8
DIM
100
AcDbDimension
280
     0
  2
*D36
 10
37541.30087545996
 20
3351.1208166358
 30
0.0
 11
37518.34037007454
 21
3381.399772899982
 31
0.0
 70
   164
  1
4-<>
 71
     5
 42
79.9999999999709
 73
     0
 74
     0
 75
     0
  3
ISO-25
100
AcDbRadialDimension
 15
37589.63878153447
 25
3287.375645553381
 35
0.0
 40
0.0
1001
ACAD
1000
DSTYLE
1002
{
1070
    41
1040
8.0
1070
   140
1040
18.0
1070
   141
1040
0.5
1070
   143
1040
0.03937007874
1070
   147
1040
3.0
1070
   170
1070
     1
1070
   171
1070
     2
1070
   179
1070
     2
1070
   274
1070
     2
1070
   288
1070
     1
1002
}
  0
SOLID
  5
4515
330
1F
100
AcDbEntity
  8
DIM
100
AcDbTrace
 10
37254.4893155517
 20
3732.783214312736
 30
0.0
 11
37253.38554699424
 21
3730.355704048561
 31
0.0
 12
37261.2199620655
 22
3728.258153508273
 32
0.0
 13
37261.2199620655
 23
3728.258153508273
 33
0.0
  0
MTEXT
  5
4516
330
1F
100
AcDbEntity
  8
DIM
100
AcDbMText
 10
37149.13110090128
 20
3793.350283870196
 30
0.0
 40
18.0
 41
0.0
 46
0.0
 71
     5
 72
     1
  1
R80 [R3,15]
 11
0.9103163490657939
 21
-0.4139132090469252
 31
0.0
 73
     1
 44
1.0
  0
LINE
  5
4517
330
1F
100
AcDbEntity
  8
DIM
100
AcDbLine
 10
37041.83347987696
 20
3828.011346952907
 30
0.0
 11
37253.93743127297
 21
3731.569459180651
 31
0.0
  0
DIMENSION
  5
4518
102
{ACAD_XDICTIONARY
360
4519
102
}
102
{ACAD_REACTORS
330
451A
102
}
330
1F
100
AcDbEntity
  8
DIM
100
AcDbDimension
280
     0
  2
*D35
 10
37716.84886707163
 20
3619.591486841608
 30
0.0
 11
37703.34886707163
 21
3536.591486841614
 31
0.0
 70
    32
 71
     5
 42
120.0
 73
     0
 74
     0
 75
     0
  3
ISO-25
100
AcDbAlignedDimension
 13
37654.70294048063
 23
3739.591486841608
 33
0.0
 14
37518.03205765577
 24
3619.591486841608
 34
0.0
 50
90.0
100
AcDbRotatedDimension
1001
ACAD
1000
DSTYLE
1002
{
1070
    41
1040
8.0
1070
   140
1040
18.0
1070
   141
1040
0.5
1070
   143
1040
0.03937007874
1070
   147
1040
3.0
1070
   170
1070
     1
1070
   171
1070
     2
1070
   179
1070
     2
1070
   274
1070
     2
1002
}
  0
DIMENSION
  5
451B
102
{ACAD_XDICTIONARY
360
451C
102
}
102
{ACAD_REACTORS
330
451D
102
}
330
1F
100
AcDbEntity
  8
DIM
100
AcDbDimension
280
     0
  2
*D34
 10
36804.66961115455
 20
3669.591486841607
 30
0.0
 11
36804.66961115455
 21
3452.825340106574
 31
0.0
 70
   160
 71
     5
 42
120.0
 73
     0
 74
     0
 75
     0
  3
ISO-25
100
AcDbAlignedDimension
 13
36998.76373708021
 23
3549.591486841608
 33
0.0
 14
37061.20294048063
 24
3669.591486841607
 34
0.0
 50
90.0
100
AcDbRotatedDimension
1001
ACAD
1000
DSTYLE
1002
{
1070
    41
1040
8.0
1070
   140
1040
18.0
1070
   141
1040
0.5
1070
   143
1040
0.03937007874
1070
   147
1040
3.0
1070
   170
1070
     1
1070
   171
1070
     2
1070
   179
1070
     2
1070
   274
1070
     2
1002
}
  0
DIMENSION
  5
451E
102
{ACAD_XDICTIONARY
360
451F
102
}
102
{ACAD_REACTORS
330
4520
102
}
330
1F
100
AcDbEntity
  8
DIM
100
AcDbDimension
280
     0
  2
*D33
 10
36758.88213535391
 20
3269.591486841607
 30
0.0
 11
36745.38213535391
 21
3469.591486841614
 31
0.0
 70
    32
 71
     5
 42
400.0000000000008
 73
     0
 74
     0
 75
     0
  3
ISO-25
100
AcDbAlignedDimension
 13
37062.20294048063
 23
3669.591486841607
 33
0.0
 14
37062.20294048063
 24
3269.591486841607
 34
0.0
 50
90.0
100
AcDbRotatedDimension
1001
ACAD
1000
DSTYLE
1002
{
1070
    41
1040
8.0
1070
   140
1040
18.0
1070
   141
1040
0.5
1070
   143
1040
0.03937007874
1070
   147
1040
3.0
1070
   170
1070
     1
1070
   171
1070
     2
1070
   179
1070
     2
1070
   274
1070
     2
1002
}
  0
DIMENSION
  5
4521
102
{ACAD_XDICTIONARY
360
4522
102
}
102
{ACAD_REACTORS
330
4523
102
}
330
1F
100
AcDbEntity
  8
DIM
100
AcDbDimension
280
     0
  2
*D32
 10
36710.68741630852
 20
3240.091486841607
 30
0.0
 11
36697.18741630852
 21
3469.591486841614
 31
0.0
 70
    32
 71
     5
 42
459.0
 73
     0
 74
     0
 75
     0
  3
ISO-25
100
AcDbAlignedDimension
 13
36972.70294048064
 23
3699.091486841608
 33
0.0
 14
36972.70294048064
 24
3240.091486841607
 34
0.0
 50
90.0
100
AcDbRotatedDimension
1001
ACAD
1000
DSTYLE
1002
{
1070
    41
1040
8.0
1070
   140
1040
18.0
1070
   141
1040
0.5
1070
   143
1040
0.03937007874
1070
   147
1040
3.0
1070
   170
1070
     1
1070
   171
1070
     2
1070
   179
1070
     2
1070
   274
1070
     2
1002
}
  0
DIMENSION
  5
4524
102
{ACAD_XDICTIONARY
360
4525
102
}
102
{ACAD_REACTORS
330
4526
102
}
330
1F
100
AcDbEntity
  8
DIM
100
AcDbDimension
280
     0
  2
*D31
 10
37842.82595701375
 20
3240.091486841611
 30
0.0
 11
37829.32595701375
 21
3504.591486841615
 31
0.0
 70
    32
 71
     5
 42
528.9999999999968
 73
     0
 74
     0
 75
     0
  3
ISO-25
100
AcDbAlignedDimension
 13
37542.70294048064
 23
3769.091486841608
 33
0.0
 14
37542.70294048064
 24
3240.091486841611
 34
0.0
 50
90.0
100
AcDbRotatedDimension
1001
ACAD
1000
DSTYLE
1002
{
1070
    41
1040
8.0
1070
   140
1040
18.0
1070
   141
1040
0.5
1070
   143
1040
0.03937007874
1070
   147
1040
3.0
1070
   170
1070
     1
1070
   171
1070
     2
1070
   179
1070
     2
1070
   274
1070
     2
1002
}
  0
DIMENSION
  5
4527
102
{ACAD_XDICTIONARY
360
4528
102
}
102
{ACAD_REACTORS
330
4529
102
}
330
1F
100
AcDbEntity
  8
DIM
100
AcDbDimension
280
     0
  2
*D44
 10
37778.19425995465
 20
3269.591486841608
 30
0.0
 11
37764.69425995465
 21
3504.591486841614
 31
0.0
 70
    32
 71
     5
 42
470.0
 73
     0
 74
     0
 75
     0
  3
ISO-25
100
AcDbAlignedDimension
 13
37445.20294048064
 23
3739.591486841608
 33
0.0
 14
37445.20294048064
 24
3269.591486841608
 34
0.0
 50
90.0
100
AcDbRotatedDimension
1001
ACAD
1000
DSTYLE
1002
{
1070
    41
1040
8.0
1070
   140
1040
18.0
1070
   141
1040
0.5
1070
   143
1040
0.03937007874
1070
   147
1040
3.0
1070
   170
1070
     1
1070
   171
1070
     2
1070
   179
1070
     2
1070
   274
1070
     2
1002
}
  0
DIMENSION
  5
452A
102
{ACAD_XDICTIONARY
360
452B
102
}
102
{ACAD_REACTORS
330
452C
102
}
330
1F
100
AcDbEntity
  8
DIM
100
AcDbDimension
280
     0
  2
*D43
 10
36860.70294048064
 20
3939.939572870084
 30
0.0
 11
37257.70294048064
 21
3939.939572870084
 31
0.0
 70
   160
 71
     5
 42
793.9999999999854
 73
     0
 74
     0
 75
     0
  3
ISO-25
100
AcDbAlignedDimension
 13
37654.70294048063
 23
3657.091486841605
 33
0.0
 14
36860.70294048064
 24
3587.09148684161
 34
0.0
 50
180.0
100
AcDbRotatedDimension
1001
ACAD
1000
DSTYLE
1002
{
1070
    41
1040
8.0
1070
   140
1040
18.0
1070
   141
1040
0.5
1070
   143
1040
0.03937007874
1070
   147
1040
3.0
1070
   170
1070
     1
1070
   171
1070
     2
1070
   179
1070
     2
1070
   274
1070
     2
1002
}
  0
DIMENSION
  5
452D
330
1F
100
AcDbEntity
  8
DIM
100
AcDbDimension
280
     0
  2
*D24
 10
37234.20294048064
 20
3896.28851583416
 30
0.0
 11
37161.70294048064
 21
3896.28851583416
 31
0.0
 70
   160
 71
     5
 42
31.0
 73
     0
 74
     0
 75
     0
  3
ISO-25
100
AcDbAlignedDimension
 13
37265.20294048064
 23
3842.459312372019
 33
0.0
 14
37234.20294048064
 24
3842.519329096424
 34
0.0
 50
180.0
100
AcDbRotatedDimension
1001
ACAD
1000
DSTYLE
1002
{
1070
    41
1040
8.0
1070
   140
1040
18.0
1070
   141
1040
0.5
1070
   143
1040
0.03937007874
1070
   147
1040
3.0
1070
   170
1070
     1
1070
   171
1070
     2
1070
   179
1070
     2
1070
   274
1070
     2
1002
}
  0
DIMENSION
  5
452E
102
{ACAD_XDICTIONARY
360
452F
102
}
102
{ACAD_REACTORS
330
4530
102
}
330
1F
100
AcDbEntity
  8
DIM
100
AcDbDimension
280
     0
  2
*D42
 10
37625.20294048064
 20
3841.209312372019
 30
0.0
 11
37445.20294048064
 21
3854.709312372019
 31
0.0
 70
    32
 71
     5
 42
360.0
 73
     0
 74
     0
 75
     0
  3
ISO-25
100
AcDbAlignedDimension
 13
37265.20294048064
 23
3504.591486841535
 33
0.0
 14
37625.20294048064
 24
3504.591486841608
 34
0.0
 50
180.0
100
AcDbRotatedDimension
1001
ACAD
1000
DSTYLE
1002
{
1070
    41
1040
8.0
1070
   140
1040
18.0
1070
   141
1040
0.5
1070
   143
1040
0.03937007874
1070
   147
1040
3.0
1070
   170
1070
     1
1070
   171
1070
     2
1070
   179
1070
     2
1070
   274
1070
     2
1002
}
  0
DIMENSION
  5
4531
102
{ACAD_XDICTIONARY
360
4532
102
}
102
{ACAD_REACTORS
330
4533
102
}
330
1F
100
AcDbEntity
  8
DIM
100
AcDbDimension
280
     0
  2
*D41
 10
36890.20294048063
 20
3841.269329096423
 30
0.0
 11
37062.20294048064
 21
3854.769329096424
 31
0.0
 70
    32
 71
     5
 42
344.0000000000073
 73
     0
 74
     0
 75
     0
  3
ISO-25
100
AcDbAlignedDimension
 13
37234.20294048064
 23
3469.59148684161
 33
0.0
 14
36890.20294048063
 24
3469.591486841608
 34
0.0
 50
180.0
100
AcDbRotatedDimension
1001
ACAD
1000
DSTYLE
1002
{
1070
    41
1040
8.0
1070
   140
1040
18.0
1070
   141
1040
0.5
1070
   143
1040
0.03937007874
1070
   147
1040
3.0
1070
   170
1070
     1
1070
   171
1070
     2
1070
   179
1070
     2
1070
   274
1070
     2
1002
}
  0
LINE
  5
4534
102
{ACAD_REACTORS
330
451D
102
}
330
1F
100
AcDbEntity
  8
DIM
  6
CENTER
100
AcDbLine
 10
36998.76373708021
 20
3549.591486841608
 30
0.0
 11
37135.03205765576
 21
3549.591486841608
 31
0.0
  0
CIRCLE
  5
4535
330
1F
100
AcDbEntity
  8
base
100
AcDbCircle
 10
37062.20294048063
 20
3549.591486841606
 30
0.0
 40
44.0
  0
CIRCLE
  5
4536
330
1F
100
AcDbEntity
  8
base
100
AcDbCircle
 10
37062.20294048063
 20
3549.591486841606
 30
0.0
 40
57.0
  0
CIRCLE
  5
4537
330
1F
100
AcDbEntity
  8
base
100
AcDbCircle
 10
37062.20294048063
 20
3549.591486841606
 30
0.0
 40
60.0
  0
LINE
  5
4538
102
{ACAD_REACTORS
330
451A
102
}
330
1F
100
AcDbEntity
  8
DIM
  6
CENTER
100
AcDbLine
 10
37381.76373708022
 20
3619.591486841608
 30
0.0
 11
37518.03205765577
 21
3619.591486841608
 31
0.0
  0
CIRCLE
  5
4539
330
1F
100
AcDbEntity
  8
base
100
AcDbCircle
 10
37445.20294048064
 20
3619.591486841606
 30
0.0
 40
44.0
  0
CIRCLE
  5
453A
330
1F
100
AcDbEntity
  8
base
100
AcDbCircle
 10
37445.20294048064
 20
3619.591486841606
 30
0.0
 40
57.0
  0
CIRCLE
  5
453B
330
1F
100
AcDbEntity
  8
base
100
AcDbCircle
 10
37445.20294048064
 20
3619.591486841606
 30
0.0
 40
60.0
  0
LINE
  5
453C
102
{ACAD_REACTORS
330
4533
102
}
330
1F
100
AcDbEntity
  8
DIM
  6
CENTER
100
AcDbLine
 10
37281.00501869354
 20
3469.59148684161
 30
0.0
 11
36876.0889646156
 21
3469.591486841603
 31
0.0
  0
LINE
  5
453D
102
{ACAD_REACTORS
330
4520
102
}
330
1F
100
AcDbEntity
  8
DIM
  6
CENTER
100
AcDbLine
 10
37062.20294048063
 20
3669.591486841607
 30
0.0
 11
37062.20294048064
 21
3269.591486841607
 31
0.0
  0
LINE
  5
453E
330
1F
100
AcDbEntity
  8
DIM
  6
CENTER
100
AcDbLine
 10
36860.70294048064
 20
3504.591486841454
 30
0.0
 11
37654.70294048063
 21
3504.591486841614
 31
0.0
  0
LINE
  5
453F
102
{ACAD_REACTORS
330
4529
102
}
330
1F
100
AcDbEntity
  8
DIM
  6
CENTER
100
AcDbLine
 10
37445.20294048064
 20
3739.591486841608
 30
0.0
 11
37445.20294048064
 21
3269.591486841608
 31
0.0
  0
LWPOLYLINE
  5
4540
102
{ACAD_REACTORS
330
4526
330
4523
330
44FA
330
452C
102
}
330
1F
100
AcDbEntity
  8
base
100
AcDbPolyline
 90
       11
 70
     1
 43
0.0
 10
36860.70294048064
 20
3352.091486841608
 42
0.4142135623730868
 10
36972.70294048064
 20
3240.091486841607
 10
37542.70294048064
 20
3240.091486841611
 42
0.4142135623730868
 10
37654.70294048064
 20
3352.091486841608
 10
37654.70294048063
 20
3657.091486841608
 42
0.4142135623730606
 10
37542.70294048064
 20
3769.091486841608
 10
37347.70294048065
 20
3769.091486841608
 42
0.2242096832768294
 10
37261.2199620655
 20
3728.25815350827
 42
-0.2242096832768674
 10
37199.44640605468
 20
3699.091486841599
 10
36972.70294048064
 20
3699.091486841608
 42
0.4142135623730702
 10
36860.70294048064
 20
3587.091486841608
  0
LWPOLYLINE
  5
4541
102
{ACAD_REACTORS
330
4529
330
4514
330
4530
102
}
330
1F
100
AcDbEntity
  8
base
100
AcDbPolyline
 90
        8
 70
     1
 43
0.0
 10
37346.55936483961
 20
3271.161328683326
 42
-0.3902034027945804
 10
37269.20837146212
 20
3347.055368418425
 42
-0.0254254771640539
 10
37269.20837146213
 20
3662.127605264789
 42
-0.3902034027945854
 10
37346.55936483961
 20
3738.021644999889
 42
-0.015914283636994
 10
37543.84651612167
 20
3738.021644999889
 42
-0.390203402794582
 10
37621.19750949915
 20
3662.12760526479
 42
-0.0254254771640539
 10
37621.19750949916
 20
3347.055368418426
 42
-0.3902034027945853
 10
37543.84651612167
 20
3271.161328683326
 42
-0.015914283636994
  0
LWPOLYLINE
  5
4542
102
{ACAD_REACTORS
330
4520
330
4533
102
}
330
1F
100
AcDbEntity
  8
base
100
AcDbPolyline
 90
        8
 70
     1
 43
0.0
 10
36970.16003388979
 20
3270.958223070899
 42
-0.3941453424552707
 10
36892.59711998251
 20
3347.779415123879
 42
-0.0196546981601901
 10
36892.59711998251
 20
3591.403558559335
 42
-0.3941453424552722
 10
36970.16003388979
 20
3668.224750612316
 42
-0.0148489034072733
 10
37154.24584707148
 20
3668.224750612316
 42
-0.394145342455269
 10
37231.80876097876
 20
3591.403558559336
 42
-0.0196546981601901
 10
37231.80876097876
 20
3347.77941512388
 42
-0.3941453424552723
 10
37154.24584707148
 20
3270.958223070898
 42
-0.0148489034072732
  0
LINE
  5
4543
330
1F
100
AcDbEntity
  8
base
100
AcDbLine
 10
37206.02463809705
 20
2943.499310421577
 30
0.0
 11
37381.91866717509
 21
2943.499310421577
 31
0.0
  0
LINE
  5
4544
330
1F
100
AcDbEntity
  8
DIM
  6
CENTER
100
AcDbLine
 10
37293.97165263606
 20
2968.165642489963
 30
0.0
 11
37293.97165263606
 21
2926.925239996428
 31
0.0
  0
DIMENSION
  5
4545
102
{ACAD_XDICTIONARY
360
4546
102
}
102
{ACAD_REACTORS
330
4547
102
}
330
1F
100
AcDbEntity
  8
DIM
100
AcDbDimension
280
     0
  2
*D40
 10
37510.66858151457
 20
2951.05480397325
 30
0.0
 11
37498.66858151457
 21
3007.554803973256
 31
0.0
 70
    32
  1
5[0.2]
 71
     5
 42
9.954908593078471
 73
     0
 74
     0
 75
     0
  3
ISO-25
100
AcDbAlignedDimension
 13
37381.9716526361
 23
2941.099895380171
 33
0.0
 14
37412.68040368658
 24
2951.05480397325
 34
0.0
 50
90.0
100
AcDbRotatedDimension
1001
ACAD
1000
DSTYLE
1002
{
1070
    41
1040
8.0
1070
   140
1040
18.0
1070
   141
1040
0.5
1070
   143
1040
0.03937007874
1070
   147
1040
3.0
1070
   170
1070
     1
1070
   171
1070
     2
1070
   179
1070
     2
1070
   274
1070
     2
1002
}
  0
LINE
  5
4548
102
{ACAD_REACTORS
330
4547
102
}
330
1F
100
AcDbEntity
  8
base
100
AcDbLine
 10
37412.68040368658
 20
2951.05480397325
 30
0.0
 11
37407.86321919413
 21
2944.072235082489
 31
0.0
  0
LINE
  5
4549
330
1F
100
AcDbEntity
  8
base
100
AcDbLine
 10
37413.97046745656
 20
2948.698391086472
 30
0.0
 11
37409.14229525891
 21
2941.699895380171
 31
0.0
  0
LINE
  5
454A
330
1F
100
AcDbEntity
  8
base
100
AcDbLine
 10
37381.9716526361
 20
2941.099895380171
 30
0.0
 11
37409.14229525891
 21
2941.699895380171
 31
0.0
  0
LINE
  5
454B
330
1F
100
AcDbEntity
  8
base
100
AcDbLine
 10
37381.91866717508
 20
2943.499310421577
 30
0.0
 11
37407.86321919413
 21
2944.072235082489
 31
0.0
  0
LINE
  5
454C
330
1F
100
AcDbEntity
  8
base
100
AcDbLine
 10
37381.97165263607
 20
2941.099895380171
 30
0.0
 11
37381.91866717509
 21
2943.499310421577
 31
0.0
  0
LINE
  5
454D
330
1F
100
AcDbEntity
  8
base
100
AcDbLine
 10
37205.97165263606
 20
2941.099895380171
 30
0.0
 11
37206.02463809705
 21
2943.499310421577
 31
0.0
  0
LINE
  5
454E
330
1F
100
AcDbEntity
  8
base
100
AcDbLine
 10
37206.02463809706
 20
2943.499310421577
 30
0.0
 11
37180.08008607801
 21
2944.072235082489
 31
0.0
  0
LINE
  5
454F
330
1F
100
AcDbEntity
  8
base
100
AcDbLine
 10
37205.97165263606
 20
2941.099895380171
 30
0.0
 11
37178.80101001323
 21
2941.699895380171
 31
0.0
  0
LINE
  5
4550
102
{ACAD_REACTORS
330
4547
102
}
330
1F
100
AcDbEntity
  8
base
370
     9
100
AcDbLine
 10
37381.9716526361
 20
2941.099895380171
 30
0.0
 11
37205.97165263604
 21
2941.099895380172
 31
0.0
  0
DIMENSION
  5
4588
102
{ACAD_XDICTIONARY
360
4589
102
}
102
{ACAD_REACTORS
330
458A
102
}
330
1F
100
AcDbEntity
  8
DIM
100
AcDbDimension
280
     0
  2
*D39
 10
37413.97165263606
 20
2843.803109456261
 30
0.0
 11
37293.97165263606
 21
2855.803109456261
 31
0.0
 70
    32
  1
%%C120[4.72]
 71
     5
 42
240.0
 73
     0
 74
     0
 75
     0
  3
ISO-25
100
AcDbAlignedDimension
 13
37173.97165263606
 23
2948.698432473855
 33
0.0
 14
37413.97165263606
 24
2948.698432473855
 34
0.0
100
AcDbRotatedDimension
1001
ACAD
1000
DSTYLE
1002
{
1070
    41
1040
8.0
1070
   140
1040
18.0
1070
   141
1040
0.5
1070
   143
1040
0.03937007874
1070
   147
1040
3.0
1070
   170
1070
     1
1070
   171
1070
     2
1070
   179
1070
     2
1070
   274
1070
     2
1002
}
  0
DIMENSION
  5
458B
102
{ACAD_XDICTIONARY
360
458C
102
}
102
{ACAD_REACTORS
330
458D
102
}
330
1F
100
AcDbEntity
  8
DIM
100
AcDbDimension
280
     0
  2
*D38
 10
37407.88230167783
 20
2982.518853451598
 30
0.0
 11
37293.98119387792
 21
2994.518853451598
 31
0.0
 70
    32
  1
%%C114[4.49]
 71
     5
 42
227.8022155998187
 73
     0
 74
     0
 75
     0
  3
ISO-25
100
AcDbAlignedDimension
 13
37180.08008607801
 23
2944.072235082489
 33
0.0
 14
37407.88230167783
 24
2944.099895380171
 34
0.0
100
AcDbRotatedDimension
1001
ACAD
1000
DSTYLE
1002
{
1070
    41
1040
8.0
1070
   140
1040
18.0
1070
   141
1040
0.5
1070
   143
1040
0.03937007874
1070
   147
1040
3.0
1070
   170
1070
     1
1070
   171
1070
     2
1070
   179
1070
     2
1070
   274
1070
     2
1002
}
  0
DIMENSION
  5
458E
330
1F
100
AcDbEntity
  8
DIM
100
AcDbDimension
280
     0
  2
*D23
 10
37381.97165263607
 20
2888.469869377674
 30
0.0
 11
37293.97165263606
 21
2900.469869377674
 31
0.0
 70
    32
  1
%%C90[3.46]
 71
     5
 42
176.0
 73
     0
 74
     0
 75
     0
  3
ISO-25
100
AcDbAlignedDimension
 13
37205.97165263606
 23
2941.099895380171
 33
0.0
 14
37381.97165263607
 24
2941.69989538017
 34
0.0
100
AcDbRotatedDimension
1001
ACAD
1000
DSTYLE
1002
{
1070
    41
1040
8.0
1070
   140
1040
18.0
1070
   141
1040
0.5
1070
   143
1040
0.03937007874
1070
   147
1040
3.0
1070
   170
1070
     1
1070
   171
1070
     2
1070
   179
1070
     2
1070
   274
1070
     2
1002
}
  0
LINE
  5
458F
330
1F
100
AcDbEntity
  8
base
100
AcDbLine
 10
37484.02090875638
 20
2953.546069306217
 30
0.0
 11
37484.02090875638
 21
2951.1446063999
 31
0.0
  0
LINE
  5
4590
330
1F
100
AcDbEntity
  8
base
100
AcDbLine
 10
37103.92239651575
 20
2953.546069306217
 30
0.0
 11
37103.92239651575
 21
2951.1446063999
 31
0.0
  0
LINE
  5
4591
330
1F
100
AcDbEntity
  8
base
100
AcDbLine
 10
37173.97165263606
 20
2951.099895380171
 30
0.0
 11
37103.92239651575
 21
2953.546069306217
 31
0.0
  0
LINE
  5
4592
102
{ACAD_REACTORS
330
458A
102
}
330
1F
100
AcDbEntity
  8
base
100
AcDbLine
 10
37173.97165263606
 20
2948.698432473855
 30
0.0
 11
37103.92239651575
 21
2951.1446063999
 31
0.0
  0
LINE
  5
4593
330
1F
100
AcDbEntity
  8
base
100
AcDbLine
 10
37173.97283781558
 20
2948.698391086472
 30
0.0
 11
37178.80101001323
 21
2941.699895380171
 31
0.0
  0
LINE
  5
4594
102
{ACAD_REACTORS
330
458D
102
}
330
1F
100
AcDbEntity
  8
base
100
AcDbLine
 10
37175.23179360374
 20
2951.099895380171
 30
0.0
 11
37180.08008607801
 21
2944.072235082489
 31
0.0
  0
LINE
  5
4595
102
{ACAD_REACTORS
330
458A
102
}
330
1F
100
AcDbEntity
  8
base
100
AcDbLine
 10
37413.97165263606
 20
2948.698432473855
 30
0.0
 11
37484.02090875639
 21
2951.144606399901
 31
0.0
  0
LINE
  5
4596
330
1F
100
AcDbEntity
  8
base
100
AcDbLine
 10
37412.68040368658
 20
2951.05480397325
 30
0.0
 11
37484.02090875638
 21
2953.546069306217
 31
0.0
  0
LINE
  5
4597
330
1F
100
AcDbEntity
  8
base
370
     9
100
AcDbLine
 10
37413.97165263606
 20
2951.099895380171
 30
0.0
 11
37173.97165263606
 21
2951.099895380171
 31
0.0
  0
LINE
  5
663D
330
1F
100
AcDbEntity
  8
base
100
AcDbLine
 10
37654.70294048064
 20
4434.80798021425
 30
0.0
 11
37630.70294048064
 21
4434.80798021425
 31
0.0
  0
ARC
  5
6640
330
1F
100
AcDbEntity
  8
base
100
AcDbCircle
 10
37630.70294048064
 20
4430.50798021425
 30
0.0
 40
4.299999999999999
100
AcDbArc
 50
90.0
 51
180.0
  0
LINE
  5
6641
330
1F
100
AcDbEntity
  8
base
100
AcDbLine
 10
37626.40294048064
 20
4430.50798021425
 30
0.0
 11
37626.40294048064
 21
4234.482911293611
 31
0.0
  0
ARC
  5
6642
330
1F
100
AcDbEntity
  8
base
100
AcDbCircle
 10
37575.20294048064
 20
4234.482911293611
 30
0.0
 40
51.2
100
AcDbArc
 50
272.0000000000037
 51
0.0000000000020935
  0
LINE
  5
6643
330
1F
100
AcDbEntity
  8
base
100
AcDbLine
 10
37505.20234789089
 20
4180.807228067402
 30
0.0
 11
37576.98979471181
 21
4183.314100950236
 31
0.0
  0
LINE
  5
6644
330
1F
100
AcDbEntity
  8
base
100
AcDbLine
 10
37505.20234789089
 20
4180.807228067402
 30
0.0
 11
37502.78826179205
 21
4177.30798021425
 31
0.0
  0
LINE
  5
6645
330
1F
100
AcDbEntity
  8
base
100
AcDbLine
 10
37489.19631729801
 20
4177.007833956775
 30
0.0
 11
37502.78826179205
 21
4177.30798021425
 31
0.0
  0
LINE
  5
6646
330
1F
100
AcDbEntity
  8
base
100
AcDbLine
 10
37401.20294048067
 20
4177.007907076598
 30
0.0
 11
37489.20294048064
 21
4177.007907076599
 31
0.0
  0
LINE
  5
6647
330
1F
100
AcDbEntity
  8
base
100
AcDbLine
 10
37401.20956366327
 20
4177.007833956775
 30
0.0
 11
37387.61761916923
 21
4177.30798021425
 31
0.0
  0
LINE
  5
6648
330
1F
100
AcDbEntity
  8
base
100
AcDbLine
 10
37385.20353307039
 20
4180.807228067403
 30
0.0
 11
37387.61761916923
 21
4177.30798021425
 31
0.0
  0
LINE
  5
6649
330
1F
100
AcDbEntity
  8
base
100
AcDbLine
 10
37385.20353307039
 20
4180.807228067403
 30
0.0
 11
37313.4160862495
 21
4183.314100950236
 31
0.0
  0
ARC
  5
664A
330
1F
100
AcDbEntity
  8
base
100
AcDbCircle
 10
37315.20294048063
 20
4234.482911293607
 30
0.0
 40
51.2
100
AcDbArc
 50
179.9999999999937
 51
268.0000000000045
  0
LINE
  5
664B
330
1F
100
AcDbEntity
  8
base
100
AcDbLine
 10
37264.00294048064
 20
4430.50798021425
 30
0.0
 11
37264.00294048064
 21
4234.482911293607
 31
0.0
  0
ARC
  5
664C
330
1F
100
AcDbEntity
  8
base
100
AcDbCircle
 10
37259.70294048064
 20
4430.50798021425
 30
0.0
 40
4.299999999999999
100
AcDbArc
 50
0.000000000000007
 51
90.0
  0
LINE
  5
664D
330
1F
100
AcDbEntity
  8
base
100
AcDbLine
 10
37259.70294048064
 20
4434.80798021425
 30
0.0
 11
37239.70294048063
 21
4434.80798021425
 31
0.0
  0
ARC
  5
664E
330
1F
100
AcDbEntity
  8
base
100
AcDbCircle
 10
37239.70294048063
 20
4430.50798021425
 30
0.0
 40
4.299999999999999
100
AcDbArc
 50
90.0
 51
180.0
  0
LINE
  5
664F
330
1F
100
AcDbEntity
  8
base
100
AcDbLine
 10
37235.40294048063
 20
4285.203545137678
 30
0.0
 11
37235.40294048063
 21
4430.50798021425
 31
0.0
  0
ARC
  5
6650
330
1F
100
AcDbEntity
  8
base
100
AcDbCircle
 10
37184.20294048064
 20
4285.203545137678
 30
0.0
 40
51.2
100
AcDbArc
 50
272.0000000000037
 51
0.0000000000020935
  0
LINE
  5
6651
330
1F
100
AcDbEntity
  8
base
100
AcDbLine
 10
37122.2023478909
 20
4231.807228067402
 30
0.0
 11
37185.98979471181
 21
4234.034734794302
 31
0.0
  0
LINE
  5
6652
330
1F
100
AcDbEntity
  8
base
100
AcDbLine
 10
37122.2023478909
 20
4231.807228067402
 30
0.0
 11
37119.78826179205
 21
4228.307980214251
 31
0.0
  0
LINE
  5
6653
330
1F
100
AcDbEntity
  8
base
100
AcDbLine
 10
37106.19631729801
 20
4228.007833956775
 30
0.0
 11
37119.78826179205
 21
4228.307980214251
 31
0.0
  0
LINE
  5
6654
330
1F
100
AcDbEntity
  8
base
100
AcDbLine
 10
37018.20294048067
 20
4228.007907076597
 30
0.0
 11
37106.20294048064
 21
4228.0079070766
 31
0.0
  0
LINE
  5
6655
330
1F
100
AcDbEntity
  8
base
100
AcDbLine
 10
37018.20956366327
 20
4228.007833956775
 30
0.0
 11
37004.61761916923
 21
4228.307980214251
 31
0.0
  0
LINE
  5
6656
330
1F
100
AcDbEntity
  8
base
100
AcDbLine
 10
37002.20353307039
 20
4231.807228067404
 30
0.0
 11
37004.61761916923
 21
4228.307980214251
 31
0.0
  0
LINE
  5
6657
330
1F
100
AcDbEntity
  8
base
100
AcDbLine
 10
37002.20353307039
 20
4231.807228067404
 30
0.0
 11
36938.41608624947
 21
4234.034734794302
 31
0.0
  0
ARC
  5
6658
330
1F
100
AcDbEntity
  8
base
100
AcDbCircle
 10
36940.20294048064
 20
4285.203545137685
 30
0.0
 40
51.2
100
AcDbArc
 50
180.0000000000052
 51
267.9999999999882
  0
LINE
  5
6659
330
1F
100
AcDbEntity
  8
base
100
AcDbLine
 10
36889.00294048063
 20
4285.203545137685
 30
0.0
 11
36889.00294048063
 21
4430.50798021425
 31
0.0
  0
ARC
  5
665A
330
1F
100
AcDbEntity
  8
base
100
AcDbCircle
 10
36884.70294048063
 20
4430.50798021425
 30
0.0
 40
4.299999999999999
100
AcDbArc
 50
0.000000000000007
 51
90.0
  0
LINE
  5
665B
330
1F
100
AcDbEntity
  8
base
100
AcDbLine
 10
36860.70294048064
 20
4434.80798021425
 30
0.0
 11
36884.70294048063
 21
4434.807980214249
 31
0.0
  0
MTEXT
  5
666E
102
{ACAD_REACTORS
330
666F
102
}
330
1F
100
AcDbEntity
  8
DIM
100
AcDbMText
 10
34894.32386187909
 20
4173.651673243345
 30
0.0
 40
18.0
 41
0.0
 46
0.0
 71
     9
 72
     1
  1
I
 73
     1
 44
1.0
  0
LEADER
  5
666F
330
1F
100
AcDbEntity
  8
DIM
100
AcDbLeader
  3
ISO-25
 73
     0
 75
     1
 40
18.0
 41
6.0
 76
     3
 10
34947.51302440744
 20
4204.649406236764
 30
0.0
 10
34905.3238618791
 20
4182.651673243344
 30
0.0
 10
34897.32386187909
 20
4182.651673243344
 30
0.0
340
666E
210
0.0
220
0.0
230
-1.0
213
0.0
223
9.0
233
0.0
1001
ACAD
1000
DSTYLE
1002
{
1070
    77
1070
     0
1070
    41
1040
8.0
1070
   140
1040
18.0
1070
   141
1040
0.5
1070
   143
1040
0.03937007874
1070
   147
1040
3.0
1070
   170
1070
     1
1070
   171
1070
     2
1070
   179
1070
     2
1070
   274
1070
     2
1002
}
  0
MTEXT
  5
6670
102
{ACAD_REACTORS
330
6671
102
}
330
1F
100
AcDbEntity
  8
DIM
100
AcDbMText
 10
34506.57391432091
 20
4129.727104875601
 30
0.0
 40
18.0
 41
0.0
 46
0.0
 71
     9
 72
     1
  1
I
 73
     1
 44
1.0
  0
LEADER
  5
6671
330
1F
100
AcDbEntity
  8
DIM
100
AcDbLeader
  3
ISO-25
 73
     0
 75
     1
 40
18.0
 41
6.0
 76
     3
 10
34552.64531012913
 20
4156.05567415346
 30
0.0
 10
34517.57391432091
 20
4138.727104875601
 30
0.0
 10
34509.57391432091
 20
4138.727104875601
 30
0.0
340
6670
210
0.0
220
0.0
230
-1.0
213
0.0
223
9.0
233
0.0
1001
ACAD
1000
DSTYLE
1002
{
1070
    77
1070
     0
1070
    41
1040
8.0
1070
   140
1040
18.0
1070
   141
1040
0.5
1070
   143
1040
0.03937007874
1070
   147
1040
3.0
1070
   170
1070
     1
1070
   171
1070
     2
1070
   179
1070
     2
1070
   274
1070
     2
1002
}
  0
CIRCLE
  5
6672
330
1F
100
AcDbEntity
  8
DIM
100
AcDbCircle
 10
34973.53465404439
 20
4233.007980214249
 30
0.0
 40
68.63232583804347
  0
CIRCLE
  5
6673
330
1F
100
AcDbEntity
  8
DIM
100
AcDbCircle
 10
34590.53465404439
 20
4182.00798021425
 30
0.0
 40
68.63232583804347
  0
DIMENSION
  5
6674
102
{ACAD_XDICTIONARY
360
6675
102
}
102
{ACAD_REACTORS
330
6676
102
}
330
1F
100
AcDbEntity
  8
DIM
100
AcDbDimension
280
     0
  2
*D146
 10
34851.53465404439
 20
4285.203545137679
 30
0.0
 11
34887.50164406134
 21
4319.936463660634
 31
0.0
 70
   164
 71
     5
 42
49.99999999998545
 73
     0
 74
     0
 75
     0
  3
ISO-25
100
AcDbRadialDimension
 15
34815.56766402746
 25
4250.470626614743
 35
0.0
 40
0.0
1001
ACAD
1000
DSTYLE
1002
{
1070
    41
1040
8.0
1070
   140
1040
18.0
1070
   141
1040
0.5
1070
   143
1040
0.03937007874
1070
   147
1040
3.0
1070
   170
1070
     1
1070
   171
1070
     2
1070
   179
1070
     2
1070
   274
1070
     2
1070
   288
1070
     1
1002
}
  0
DIMENSION
  5
6677
102
{ACAD_XDICTIONARY
360
6678
102
}
102
{ACAD_REACTORS
330
6679
102
}
330
1F
100
AcDbEntity
  8
DIM
100
AcDbDimension
280
     0
  2
*D147
 10
35033.53465404439
 20
4233.007980214249
 30
0.0
 11
35208.21304683055
 21
4181.383446681432
 31
0.0
 70
    34
 71
     5
 42
0.034906585039888
 73
     0
 74
     0
 75
     0
  3
ISO-25
100
AcDb2LineAngularDimension
 13
35033.53465404436
 23
4233.007980214249
 33
0.0
 14
35097.27962887952
 24
4235.234003786726
 34
0.0
 15
34913.53465404439
 25
4233.007980214249
 35
0.0
 16
35198.84005419453
 26
4236.855506110315
 36
0.0
1001
ACAD
1000
DSTYLE
1002
{
1070
    41
1040
8.0
1070
   140
1040
18.0
1070
   141
1040
0.5
1070
   143
1040
0.03937007874
1070
   147
1040
3.0
1070
   170
1070
     1
1070
   171
1070
     2
1070
   179
1070
     2
1070
   274
1070
     2
1002
}
  0
DIMENSION
  5
667A
102
{ACAD_XDICTIONARY
360
667B
102
}
102
{ACAD_REACTORS
330
667C
102
}
330
1F
100
AcDbEntity
  8
DIM
100
AcDbDimension
280
     0
  2
*D148
 10
35238.36491055187
 20
4233.007980214249
 30
0.0
 11
35224.86491055187
 21
4334.507980214254
 31
0.0
 70
    32
 71
     5
 42
203.0
 73
     0
 74
     0
 75
     0
  3
ISO-25
100
AcDbAlignedDimension
 13
35175.03465404438
 23
4436.00798021425
 33
0.0
 14
35033.53465404439
 24
4233.007980214249
 34
0.0
 50
90.0
100
AcDbRotatedDimension
1001
ACAD
1000
DSTYLE
1002
{
1070
    41
1040
8.0
1070
   140
1040
18.0
1070
   141
1040
0.5
1070
   143
1040
0.03937007874
1070
   147
1040
3.0
1070
   170
1070
     1
1070
   171
1070
     2
1070
   179
1070
     2
1070
   274
1070
     2
1002
}
  0
DIMENSION
  5
667D
102
{ACAD_XDICTIONARY
360
667E
102
}
102
{ACAD_REACTORS
330
667F
102
}
330
1F
100
AcDbEntity
  8
DIM
100
AcDbDimension
280
     0
  2
*D149
 10
34650.53465404439
 20
4182.00798021425
 30
0.0
 11
34362.50635263345
 21
4239.558589914518
 31
0.0
 70
    34
 71
     5
 42
0.0349065850398791
 73
     0
 74
     0
 75
     0
  3
ISO-25
100
AcDb2LineAngularDimension
 13
34530.53465404439
 23
4182.00798021425
 33
0.0
 14
34458.78967920926
 24
4184.513369942659
 34
0.0
 15
34530.53465404439
 25
4182.00798021425
 35
0.0
 16
34369.81771549496
 26
4183.878091104598
 36
0.0
1001
ACAD
1000
DSTYLE
1002
{
1070
    41
1040
8.0
1070
   140
1040
18.0
1070
   141
1040
0.5
1070
   143
1040
0.03937007874
1070
   147
1040
3.0
1070
   170
1070
     1
1070
   171
1070
     2
1070
   179
1070
     2
1070
   274
1070
     2
1002
}
  0
DIMENSION
  5
6680
102
{ACAD_XDICTIONARY
360
6681
102
}
102
{ACAD_REACTORS
330
6682
102
}
330
1F
100
AcDbEntity
  8
DIM
100
AcDbDimension
280
     0
  2
*D150
 10
34460.53465404439
 20
4234.482911293611
 30
0.0
 11
34496.61861640566
 21
4269.094291796366
 31
0.0
 70
   164
 71
     5
 42
50.00000000003637
 73
     0
 74
     0
 75
     0
  3
ISO-25
100
AcDbRadialDimension
 15
34424.45069168306
 25
4199.871530790806
 35
0.0
 40
0.0
1001
ACAD
1000
DSTYLE
1002
{
1070
    41
1040
8.0
1070
   140
1040
18.0
1070
   141
1040
0.5
1070
   143
1040
0.03937007874
1070
   147
1040
3.0
1070
   170
1070
     1
1070
   171
1070
     2
1070
   179
1070
     2
1070
   274
1070
     2
1070
   288
1070
     1
1002
}
  0
DIMENSION
  5
6683
102
{ACAD_XDICTIONARY
360
6684
102
}
102
{ACAD_REACTORS
330
6685
102
}
330
1F
100
AcDbEntity
  8
DIM
100
AcDbDimension
280
     0
  2
*D151
 10
34337.94374204756
 20
4182.007980214249
 30
0.0
 11
34324.44374204756
 21
4309.007980214254
 31
0.0
 70
    32
 71
     5
 42
254.0
 73
     0
 74
     0
 75
     0
  3
ISO-25
100
AcDbAlignedDimension
 13
34381.03465404439
 23
4436.00798021425
 33
0.0
 14
34530.53465404439
 24
4182.00798021425
 34
0.0
 50
90.0
100
AcDbRotatedDimension
1001
ACAD
1000
DSTYLE
1002
{
1070
    41
1040
8.0
1070
   140
1040
18.0
1070
   141
1040
0.5
1070
   143
1040
0.03937007874
1070
   147
1040
3.0
1070
   170
1070
     1
1070
   171
1070
     2
1070
   179
1070
     2
1070
   274
1070
     2
1002
}
  0
LINE
  5
6686
330
1F
100
AcDbEntity
  8
base
100
AcDbLine
 10
35175.03465404438
 20
4434.80798021425
 30
0.0
 11
35151.03465404439
 21
4434.807980214249
 31
0.0
  0
ARC
  5
6687
330
1F
100
AcDbEntity
  8
base
100
AcDbCircle
 10
35151.03465404439
 20
4430.50798021425
 30
0.0
 40
4.299999999999999
100
AcDbArc
 50
90.0
 51
180.0
  0
ARC
  5
6688
330
1F
100
AcDbEntity
  8
base
100
AcDbCircle
 10
35151.03465404439
 20
4430.50798021425
 30
0.0
 40
5.5
100
AcDbArc
 50
90.0
 51
180.0
  0
ARC
  5
6689
330
1F
100
AcDbEntity
  8
base
100
AcDbCircle
 10
34796.03465404439
 20
4430.50798021425
 30
0.0
 40
5.5
100
AcDbArc
 50
0.000000000000007
 51
90.0
  0
ARC
  5
668A
330
1F
100
AcDbEntity
  8
base
100
AcDbCircle
 10
34796.03465404439
 20
4430.50798021425
 30
0.0
 40
4.299999999999999
100
AcDbArc
 50
0.000000000000007
 51
90.0
  0
ARC
  5
668B
330
1F
100
AcDbEntity
  8
base
100
AcDbCircle
 10
35095.53465404439
 20
4285.203545137685
 30
0.0
 40
51.2
100
AcDbArc
 50
272.000000000212
 51
359.9999999999948
  0
ARC
  5
668C
330
1F
100
AcDbEntity
  8
base
100
AcDbCircle
 10
35095.53465404439
 20
4285.203545137685
 30
0.0
 40
50.0
100
AcDbArc
 50
272.000000000212
 51
359.9999999999948
  0
ARC
  5
668D
330
1F
100
AcDbEntity
  8
base
100
AcDbCircle
 10
34851.53465404439
 20
4285.203545137678
 30
0.0
 40
51.2
100
AcDbArc
 50
179.9999999999979
 51
267.999999999788
  0
ARC
  5
668E
102
{ACAD_REACTORS
330
6676
102
}
330
1F
100
AcDbEntity
  8
base
100
AcDbCircle
 10
34851.53465404439
 20
4285.203545137678
 30
0.0
 40
50.0
100
AcDbArc
 50
179.9999999999979
 51
267.999999999788
  0
LINE
  5
668F
330
1F
100
AcDbEntity
  8
base
100
AcDbLine
 10
34913.53465404439
 20
4233.007980214249
 30
0.0
 11
34849.78967920926
 21
4235.234003786724
 31
0.0
  0
LINE
  5
6690
330
1F
100
AcDbEntity
  8
base
100
AcDbLine
 10
34914.16472452822
 20
4233.007980214249
 30
0.0
 11
34916.58887076535
 21
4229.494150065409
 31
0.0
  0
LINE
  5
6691
330
1F
100
AcDbEntity
  8
base
100
AcDbLine
 10
34929.53465404439
 20
4228.0079070766
 30
0.0
 11
34929.53465404439
 21
4229.208272764852
 31
0.0
  0
LINE
  5
6692
330
1F
100
AcDbEntity
  8
base
100
AcDbLine
 10
35017.53465404436
 20
4228.007907076597
 30
0.0
 11
34929.53465404439
 21
4228.0079070766
 31
0.0
  0
LINE
  5
6693
330
1F
100
AcDbEntity
  8
base
100
AcDbLine
 10
34929.53465404439
 20
4229.208272764852
 30
0.0
 11
34916.58887076535
 21
4229.494150065409
 31
0.0
  0
LINE
  5
6694
330
1F
100
AcDbEntity
  8
base
100
AcDbLine
 10
35017.53465404436
 20
4229.208272764852
 30
0.0
 11
34929.53465404439
 21
4229.208272764852
 31
0.0
  0
LINE
  5
6695
102
{ACAD_REACTORS
330
667C
330
6679
102
}
330
1F
100
AcDbEntity
  8
base
100
AcDbLine
 10
34913.53465404439
 20
4233.007980214249
 30
0.0
 11
35033.53465404439
 21
4233.007980214249
 31
0.0
  0
LINE
  5
6696
330
1F
100
AcDbEntity
  8
base
100
AcDbLine
 10
34913.53524663413
 20
4231.807228067402
 30
0.0
 11
34849.74779981322
 21
4234.034734794302
 31
0.0
  0
LINE
  5
6697
330
1F
100
AcDbEntity
  8
base
100
AcDbLine
 10
34913.53524663413
 20
4231.807228067402
 30
0.0
 11
34915.94933273298
 21
4228.307980214251
 31
0.0
  0
LINE
  5
6698
330
1F
100
AcDbEntity
  8
base
100
AcDbLine
 10
34929.54127722701
 20
4228.007833956775
 30
0.0
 11
34915.94933273298
 21
4228.307980214251
 31
0.0
  0
LINE
  5
6699
330
1F
100
AcDbEntity
  8
base
100
AcDbLine
 10
35017.52803086176
 20
4228.007833956775
 30
0.0
 11
35031.1199753558
 21
4228.307980214251
 31
0.0
  0
LINE
  5
669A
330
1F
100
AcDbEntity
  8
base
100
AcDbLine
 10
35033.53406145464
 20
4231.807228067404
 30
0.0
 11
35031.1199753558
 21
4228.307980214251
 31
0.0
  0
LINE
  5
669B
330
1F
100
AcDbEntity
  8
base
100
AcDbLine
 10
35017.53465404439
 20
4229.208272764852
 30
0.0
 11
35030.48043732342
 21
4229.494150065409
 31
0.0
  0
LINE
  5
669C
330
1F
100
AcDbEntity
  8
base
100
AcDbLine
 10
35017.53465404439
 20
4228.007907076597
 30
0.0
 11
35017.53465404439
 21
4229.208272764852
 31
0.0
  0
LINE
  5
669D
330
1F
100
AcDbEntity
  8
base
100
AcDbLine
 10
35032.90458356055
 20
4233.007980214249
 30
0.0
 11
35030.48043732342
 21
4229.494150065409
 31
0.0
  0
LINE
  5
669E
330
1F
100
AcDbEntity
  8
base
100
AcDbLine
 10
35033.53406145464
 20
4231.807228067404
 30
0.0
 11
35097.32150827556
 21
4234.034734794302
 31
0.0
  0
LINE
  5
669F
102
{ACAD_REACTORS
330
6679
102
}
330
1F
100
AcDbEntity
  8
base
100
AcDbLine
 10
35033.53465404436
 20
4233.007980214249
 30
0.0
 11
35097.27962887952
 21
4235.234003786726
 31
0.0
  0
LINE
  5
66A0
330
1F
100
AcDbEntity
  8
base
100
AcDbLine
 10
34650.53465404436
 20
4182.00798021425
 30
0.0
 11
34722.27962887949
 21
4184.513369942659
 31
0.0
  0
LINE
  5
66A1
330
1F
100
AcDbEntity
  8
base
100
AcDbLine
 10
34650.53406145464
 20
4180.807228067403
 30
0.0
 11
34722.32150827553
 21
4183.314100950236
 31
0.0
  0
ARC
  5
66A2
330
1F
100
AcDbEntity
  8
base
100
AcDbCircle
 10
34720.5346540444
 20
4234.482911293607
 30
0.0
 40
51.2
100
AcDbArc
 50
272.0000000002119
 51
0.0000000000062663
  0
ARC
  5
66A3
330
1F
100
AcDbEntity
  8
base
100
AcDbCircle
 10
34720.5346540444
 20
4234.482911293607
 30
0.0
 40
50.0
100
AcDbArc
 50
272.0000000002119
 51
0.0000000000062663
  0
LINE
  5
66A4
330
1F
100
AcDbEntity
  8
base
100
AcDbLine
 10
34649.90458356055
 20
4182.00798021425
 30
0.0
 11
34647.48043732342
 21
4178.494150065409
 31
0.0
  0
LINE
  5
66A5
330
1F
100
AcDbEntity
  8
base
100
AcDbLine
 10
34634.53465404439
 20
4177.007980214249
 30
0.0
 11
34634.53465404439
 21
4178.208272764852
 31
0.0
  0
LINE
  5
66A6
330
1F
100
AcDbEntity
  8
base
100
AcDbLine
 10
34634.53465404439
 20
4178.208272764852
 30
0.0
 11
34647.48043732342
 21
4178.494150065409
 31
0.0
  0
LINE
  5
66A7
330
1F
100
AcDbEntity
  8
base
100
AcDbLine
 10
34650.53406145464
 20
4180.807228067403
 30
0.0
 11
34648.1199753558
 21
4177.30798021425
 31
0.0
  0
LINE
  5
66A8
330
1F
100
AcDbEntity
  8
base
100
AcDbLine
 10
34634.52803086176
 20
4177.007833956775
 30
0.0
 11
34648.1199753558
 21
4177.30798021425
 31
0.0
  0
LINE
  5
66A9
330
1F
100
AcDbEntity
  8
base
100
AcDbLine
 10
34546.54127722701
 20
4177.007833956775
 30
0.0
 11
34532.94933273298
 21
4177.30798021425
 31
0.0
  0
LINE
  5
66AA
330
1F
100
AcDbEntity
  8
base
100
AcDbLine
 10
34530.53524663414
 20
4180.807228067402
 30
0.0
 11
34532.94933273298
 21
4177.30798021425
 31
0.0
  0
LINE
  5
66AB
330
1F
100
AcDbEntity
  8
base
100
AcDbLine
 10
34530.53524663414
 20
4180.807228067402
 30
0.0
 11
34458.74779981322
 21
4183.314100950236
 31
0.0
  0
ARC
  5
66AC
330
1F
100
AcDbEntity
  8
base
100
AcDbCircle
 10
34460.53465404439
 20
4234.482911293611
 30
0.0
 40
51.2
100
AcDbArc
 50
179.9999999999979
 51
267.999999999788
  0
ARC
  5
66AD
102
{ACAD_REACTORS
330
6682
102
}
330
1F
100
AcDbEntity
  8
base
100
AcDbCircle
 10
34460.53465404439
 20
4234.482911293611
 30
0.0
 40
50.0
100
AcDbArc
 50
179.9999999999979
 51
267.999999999788
  0
LINE
  5
66AE
102
{ACAD_REACTORS
330
6685
330
667F
102
}
330
1F
100
AcDbEntity
  8
base
100
AcDbLine
 10
34530.53465404439
 20
4182.00798021425
 30
0.0
 11
34650.53465404439
 21
4182.00798021425
 31
0.0
  0
LINE
  5
66AF
330
1F
100
AcDbEntity
  8
base
100
AcDbLine
 10
34634.53465404436
 20
4178.208272764852
 30
0.0
 11
34546.53465404439
 21
4178.208272764852
 31
0.0
  0
LINE
  5
66B0
330
1F
100
AcDbEntity
  8
base
100
AcDbLine
 10
34546.53465404439
 20
4178.208272764852
 30
0.0
 11
34533.58887076535
 21
4178.494150065409
 31
0.0
  0
LINE
  5
66B1
330
1F
100
AcDbEntity
  8
base
100
AcDbLine
 10
34634.53465404436
 20
4177.007907076598
 30
0.0
 11
34546.53465404439
 21
4177.007907076599
 31
0.0
  0
LINE
  5
66B2
330
1F
100
AcDbEntity
  8
base
100
AcDbLine
 10
34546.53465404439
 20
4177.007980214249
 30
0.0
 11
34546.53465404439
 21
4178.208272764852
 31
0.0
  0
LINE
  5
66B3
330
1F
100
AcDbEntity
  8
base
100
AcDbLine
 10
34531.16472452822
 20
4182.00798021425
 30
0.0
 11
34533.58887076535
 21
4178.494150065409
 31
0.0
  0
LINE
  5
66B4
102
{ACAD_REACTORS
330
667F
102
}
330
1F
100
AcDbEntity
  8
base
100
AcDbLine
 10
34530.53465404439
 20
4182.00798021425
 30
0.0
 11
34458.78967920926
 21
4184.513369942659
 31
0.0
  0
LINE
  5
66B5
330
1F
100
AcDbEntity
  8
base
100
AcDbLine
 10
34776.03465404439
 20
4434.80798021425
 30
0.0
 11
34796.03465404439
 21
4434.80798021425
 31
0.0
  0
ARC
  5
66B6
330
1F
100
AcDbEntity
  8
base
100
AcDbCircle
 10
34405.03465404439
 20
4430.50798021425
 30
0.0
 40
5.5
100
AcDbArc
 50
0.000000000000007
 51
90.0
  0
ARC
  5
66B7
330
1F
100
AcDbEntity
  8
base
100
AcDbCircle
 10
34776.03465404439
 20
4430.50798021425
 30
0.0
 40
5.5
100
AcDbArc
 50
90.0
 51
180.0
  0
ARC
  5
66B8
330
1F
100
AcDbEntity
  8
base
100
AcDbCircle
 10
34776.03465404439
 20
4430.50798021425
 30
0.0
 40
4.299999999999999
100
AcDbArc
 50
90.0
 51
180.0
  0
ARC
  5
66B9
330
1F
100
AcDbEntity
  8
base
100
AcDbCircle
 10
34405.03465404439
 20
4430.50798021425
 30
0.0
 40
4.299999999999999
100
AcDbArc
 50
0.000000000000007
 51
90.0
  0
LINE
  5
66BA
330
1F
100
AcDbEntity
  8
base
100
AcDbLine
 10
34409.33465404439
 20
4430.50798021425
 30
0.0
 11
34409.33465404439
 21
4234.482911293611
 31
0.0
  0
LINE
  5
66BB
330
1F
100
AcDbEntity
  8
base
100
AcDbLine
 10
34771.73465404439
 20
4430.50798021425
 30
0.0
 11
34771.73465404439
 21
4234.482911293607
 31
0.0
  0
LINE
  5
66BC
330
1F
100
AcDbEntity
  8
base
100
AcDbLine
 10
34800.33465404439
 20
4285.203545137678
 30
0.0
 11
34800.33465404439
 21
4430.50798021425
 31
0.0
  0
LINE
  5
66BD
330
1F
100
AcDbEntity
  8
base
100
AcDbLine
 10
35146.73465404439
 20
4285.203545137685
 30
0.0
 11
35146.73465404439
 21
4430.50798021425
 31
0.0
  0
LINE
  5
66BE
330
1F
100
AcDbEntity
  8
base
100
AcDbLine
 10
35145.5346540444
 20
4285.20354513768
 30
0.0
 11
35145.5346540444
 21
4430.50798021425
 31
0.0
  0
LINE
  5
66BF
330
1F
100
AcDbEntity
  8
base
100
AcDbLine
 10
34801.53465404439
 20
4285.203545137679
 30
0.0
 11
34801.53465404439
 21
4430.50798021425
 31
0.0
  0
LINE
  5
66C0
330
1F
100
AcDbEntity
  8
base
100
AcDbLine
 10
34770.53465404439
 20
4430.50798021425
 30
0.0
 11
34770.53465404439
 21
4234.482911293613
 31
0.0
  0
LINE
  5
66C1
330
1F
100
AcDbEntity
  8
base
100
AcDbLine
 10
34410.53465404439
 20
4430.50798021425
 30
0.0
 11
34410.53465404439
 21
4234.482911293613
 31
0.0
  0
LINE
  5
66C2
330
1F
100
AcDbEntity
  8
base
100
AcDbLine
 10
34381.03465404439
 20
4434.80798021425
 30
0.0
 11
34405.03465404439
 21
4434.80798021425
 31
0.0
  0
LINE
  5
66C3
102
{ACAD_REACTORS
330
6685
330
667C
102
}
330
1F
100
AcDbEntity
  8
base
100
AcDbLine
 10
34381.03465404439
 20
4436.00798021425
 30
0.0
 11
35175.03465404438
 21
4436.00798021425
 31
0.0
  0
LINE
  5
66C4
330
1F
100
AcDbEntity
  8
base
100
AcDbLine
 10
35175.03465404438
 20
4436.00798021425
 30
0.0
 11
35175.03465404438
 21
4434.80798021425
 31
0.0
  0
LINE
  5
66C5
330
1F
100
AcDbEntity
  8
base
100
AcDbLine
 10
34381.03465404439
 20
4436.00798021425
 30
0.0
 11
34381.03465404439
 21
4434.80798021425
 31
0.0
  0
DIMENSION
  5
66C6
102
{ACAD_XDICTIONARY
360
66C7
102
}
102
{ACAD_REACTORS
330
66C8
102
}
330
1F
100
AcDbEntity
  8
DIM
100
AcDbDimension
280
     0
  2
*D132
 10
35063.03465404438
 20
3587.091486841609
 30
0.0
 11
35280.64557699329
 21
3804.403597989937
 31
0.0
 70
   164
  1
5-<>
 71
     5
 42
112.0000000000072
 73
     0
 74
     0
 75
     0
  3
ISO-25
100
AcDbRadialDimension
 15
35142.28500604
 25
3666.233016448836
 35
0.0
 40
0.0
1001
ACAD
1000
DSTYLE
1002
{
1070
    41
1040
8.0
1070
   140
1040
18.0
1070
   141
1040
0.5
1070
   143
1040
0.03937007874
1070
   147
1040
3.0
1070
   170
1070
     1
1070
   171
1070
     2
1070
   179
1070
     2
1070
   274
1070
     2
1070
   288
1070
     1
1002
}
  0
SOLID
  5
66C9
330
1F
100
AcDbEntity
  8
DIM
100
AcDbTrace
 10
35105.9058814045
 20
3292.938657331799
 30
0.0
 11
35103.72977200551
 21
3291.397340039765
 31
0.0
 12
35109.44177858112
 22
3285.639670488811
 32
0.0
 13
35109.44177858112
 23
3285.639670488811
 33
0.0
  0
MTEXT
  5
66CA
330
1F
100
AcDbEntity
  8
DIM
100
AcDbMText
 10
35052.25504224084
 20
3389.7354301851
 30
0.0
 40
15.0
 41
0.0
 46
0.0
 71
     5
 72
     1
  1
4-R80 [R3,15]
 11
0.5779939845141481
 21
-0.8160410246215926
 31
0.0
 73
     1
 44
1.0
  0
LINE
  5
66CB
330
1F
100
AcDbEntity
  8
DIM
100
AcDbLine
 10
34982.283101988
 20
3465.168695905564
 30
0.0
 11
35104.817826705
 21
3292.167998685783
 31
0.0
  0
LINE
  5
66CC
330
1F
100
AcDbEntity
  8
DIM
100
AcDbLine
 10
34922.7175680435
 20
3474.467554182928
 30
0.0
 11
34777.02875213011
 21
3469.59148684161
 31
0.0
  0
LINE
  5
66CD
330
1F
100
AcDbEntity
  8
DIM
100
AcDbLine
 10
34901.42078158569
 20
3479.656538325384
 30
0.0
 11
34922.7175680435
 21
3474.467554182928
 31
0.0
  0
SOLID
  5
66CE
330
1F
100
AcDbEntity
  8
DIM
100
AcDbTrace
 10
35137.52102627425
 20
3478.867893625928
 30
0.0
 11
35137.52787670792
 21
3476.201235758358
 31
0.0
 12
35145.5244250938
 22
3477.555115993179
 32
0.0
 13
35145.5244250938
 23
3477.555115993179
 33
0.0
  0
MTEXT
  5
66CF
330
1F
100
AcDbEntity
  8
DIM
100
AcDbMText
 10
34984.75606141462
 20
3486.626059454978
 30
0.0
 40
13.0
 41
0.0
 46
0.0
 71
     5
 72
     1
  1
2-R3100 [R122,05]
 11
0.9999967003385069
 21
0.0025689126295381
 31
0.0
 73
     1
 44
1.0
  0
LINE
  5
66D0
330
1F
100
AcDbEntity
  8
DIM
100
AcDbLine
 10
34901.42078158569
 20
3479.656538325384
 30
0.0
 11
35137.52445149109
 21
3477.534564692142
 31
0.0
  0
LINE
  5
66D1
330
1F
100
AcDbEntity
  8
DIM
100
AcDbLine
 10
34958.9782423562
 20
3459.49555762369
 30
0.0
 11
34946.38123833232
 21
3277.68019526324
 31
0.0
  0
LINE
  5
66D2
330
1F
100
AcDbEntity
  8
DIM
100
AcDbLine
 10
34963.28654450234
 20
3451.110740174721
 30
0.0
 11
34973.53465404439
 21
3640.35928464221
 31
0.0
  0
LINE
  5
66D3
330
1F
100
AcDbEntity
  8
DIM
100
AcDbLine
 10
34958.9782423562
 20
3459.49555762369
 30
0.0
 11
34963.28654450234
 21
3451.110740174721
 31
0.0
  0
SOLID
  5
66D4
330
1F
100
AcDbEntity
  8
DIM
100
AcDbTrace
 10
34945.05407932619
 20
3277.808362147581
 30
0.0
 11
34947.70839733845
 21
3277.552028378899
 31
0.0
 12
34945.61223702628
 22
3269.717241226495
 32
0.0
 13
34945.61223702628
 23
3269.717241226495
 33
0.0
  0
MTEXT
  5
66D5
330
1F
100
AcDbEntity
  8
DIM
100
AcDbMText
 10
34942.33187645265
 20
3373.67636307568
 30
0.0
 40
13.0
 41
0.0
 46
0.0
 71
     5
 72
     1
  1
2-R3100 [R122,05]
 11
0.09612516325556
 21
0.9953692545930341
 31
0.0
 73
     1
 44
1.0
  0
SOLID
  5
66D6
330
1F
100
AcDbEntity
  8
DIM
100
AcDbTrace
 10
34626.86156749192
 20
3277.804603316621
 30
0.0
 11
34624.19507161136
 21
3277.774423354993
 31
0.0
 12
34625.61885943653
 22
3269.790025694136
 32
0.0
 13
34625.61885943653
 23
3269.790025694136
 33
0.0
  0
MTEXT
  5
66D7
330
1F
100
AcDbEntity
  8
DIM
100
AcDbMText
 10
34638.55205086871
 20
3389.983277785469
 30
0.0
 40
15.0
 41
0.0
 46
0.0
 71
     5
 72
     1
  1
2-R3100 [R122,05]
 11
0.0113174856103953
 21
-0.9999359552088616
 31
0.0
 73
     1
 44
1.0
  0
LINE
  5
66D8
330
1F
100
AcDbEntity
  8
DIM
100
AcDbLine
 10
34622.85739294758
 20
3513.774398765102
 30
0.0
 11
34625.52831955164
 21
3277.789513335807
 31
0.0
  0
LINE
  5
66D9
330
1F
100
AcDbEntity
  8
DIM
100
AcDbLine
 10
34606.1130998494
 20
3439.510790148132
 30
0.0
 11
34622.85739294758
 21
3513.774398765102
 31
0.0
  0
LINE
  5
66DA
330
1F
100
AcDbEntity
  8
DIM
100
AcDbLine
 10
34590.53465404439
 20
3694.788113227373
 30
0.0
 11
34606.1130998494
 21
3439.510790148132
 31
0.0
  0
LINE
  5
66DB
330
1F
100
AcDbEntity
  8
DIM
100
AcDbLine
 10
34538.4570174432
 20
3514.187416276616
 30
0.0
 11
34472.6627219097
 21
3520.741835645985
 31
0.0
  0
LINE
  5
66DC
330
1F
100
AcDbEntity
  8
DIM
100
AcDbLine
 10
34397.26220761574
 20
3504.591486841611
 30
0.0
 11
34538.4570174432
 21
3514.187416276616
 31
0.0
  0
SOLID
  5
66DD
330
1F
100
AcDbEntity
  8
DIM
100
AcDbTrace
 10
34762.41258664068
 20
3532.098353290316
 30
0.0
 11
34762.43515980229
 21
3529.43178216554
 31
0.0
 12
34770.42358659581
 22
3530.832787212758
 32
0.0
 13
34770.42358659581
 23
3530.832787212758
 33
0.0
  0
MTEXT
  5
66DE
330
1F
100
AcDbEntity
  8
DIM
100
AcDbMText
 10
34605.24296328327
 20
3537.377612069795
 30
0.0
 40
15.0
 41
0.0
 46
0.0
 71
     5
 72
     1
  1
2-R3100 [R122,05]
 11
0.9990595986432703
 21
0.0433580253095968
 31
0.0
 73
     1
 44
1.0
  0
LINE
  5
66DF
330
1F
100
AcDbEntity
  8
DIM
100
AcDbLine
 10
34472.6627219097
 20
3520.741835645985
 30
0.0
 11
34762.42387322149
 21
3530.765067727929
 31
0.0
  0
DIMENSION
  5
66E0
102
{ACAD_XDICTIONARY
360
66E1
102
}
102
{ACAD_REACTORS
330
66E2
102
}
330
1F
100
AcDbEntity
  8
DIM
100
AcDbDimension
280
     0
  2
*D133
 10
34494.43671906506
 20
3351.120816635802
 30
0.0
 11
34517.39722445048
 21
3381.399772899992
 31
0.0
 70
   164
  1
4-<>
 71
     5
 42
79.99999999996726
 73
     0
 74
     0
 75
     0
  3
ISO-25
100
AcDbRadialDimension
 15
34446.09881299055
 25
3287.375645553387
 35
0.0
 40
0.0
1001
ACAD
1000
DSTYLE
1002
{
1070
    41
1040
8.0
1070
   140
1040
18.0
1070
   141
1040
0.5
1070
   143
1040
0.03937007874
1070
   147
1040
3.0
1070
   170
1070
     1
1070
   171
1070
     2
1070
   179
1070
     2
1070
   274
1070
     2
1070
   288
1070
     1
1002
}
  0
SOLID
  5
66E3
330
1F
100
AcDbEntity
  8
DIM
100
AcDbTrace
 10
34781.24827897333
 20
3732.783214312736
 30
0.0
 11
34782.35204753078
 21
3730.355704048561
 31
0.0
 12
34774.51763245953
 22
3728.258153508273
 32
0.0
 13
34774.51763245953
 23
3728.258153508273
 33
0.0
  0
MTEXT
  5
66E4
330
1F
100
AcDbEntity
  8
DIM
100
AcDbMText
 10
34886.60649362375
 20
3793.350283870196
 30
0.0
 40
18.0
 41
0.0
 46
0.0
 71
     5
 72
     1
  1
R80 [R3,15]
 11
0.9103163490657939
 21
0.4139132090469252
 31
0.0
 73
     1
 44
1.0
  0
LINE
  5
66E5
330
1F
100
AcDbEntity
  8
DIM
100
AcDbLine
 10
34993.90411464806
 20
3828.011346952907
 30
0.0
 11
34781.80016325206
 21
3731.569459180651
 31
0.0
  0
DIMENSION
  5
66E6
102
{ACAD_XDICTIONARY
360
66E7
102
}
102
{ACAD_REACTORS
330
66E8
102
}
330
1F
100
AcDbEntity
  8
DIM
100
AcDbDimension
280
     0
  2
*D134
 10
34318.88872745339
 20
3619.591486841606
 30
0.0
 11
34305.38872745339
 21
3536.591486841611
 31
0.0
 70
    32
 71
     5
 42
120.0
 73
     0
 74
     0
 75
     0
  3
ISO-25
100
AcDbAlignedDimension
 13
34381.03465404439
 23
3739.591486841608
 33
0.0
 14
34517.70553686926
 24
3619.591486841608
 34
0.0
 50
90.0
100
AcDbRotatedDimension
1001
ACAD
1000
DSTYLE
1002
{
1070
    41
1040
8.0
1070
   140
1040
18.0
1070
   141
1040
0.5
1070
   143
1040
0.03937007874
1070
   147
1040
3.0
1070
   170
1070
     1
1070
   171
1070
     2
1070
   179
1070
     2
1070
   274
1070
     2
1002
}
  0
DIMENSION
  5
66E9
102
{ACAD_XDICTIONARY
360
66EA
102
}
102
{ACAD_REACTORS
330
66EB
102
}
330
1F
100
AcDbEntity
  8
DIM
100
AcDbDimension
280
     0
  2
*D135
 10
35231.06798337048
 20
3669.591486841606
 30
0.0
 11
35231.06798337048
 21
3452.825340106574
 31
0.0
 70
   160
 71
     5
 42
120.0
 73
     0
 74
     0
 75
     0
  3
ISO-25
100
AcDbAlignedDimension
 13
35036.97385744481
 23
3549.591486841608
 33
0.0
 14
34974.5346540444
 24
3669.591486841607
 34
0.0
 50
90.0
100
AcDbRotatedDimension
1001
ACAD
1000
DSTYLE
1002
{
1070
    41
1040
8.0
1070
   140
1040
18.0
1070
   141
1040
0.5
1070
   143
1040
0.03937007874
1070
   147
1040
3.0
1070
   170
1070
     1
1070
   171
1070
     2
1070
   179
1070
     2
1070
   274
1070
     2
1002
}
  0
DIMENSION
  5
66EC
102
{ACAD_XDICTIONARY
360
66ED
102
}
102
{ACAD_REACTORS
330
66EE
102
}
330
1F
100
AcDbEntity
  8
DIM
100
AcDbDimension
280
     0
  2
*D136
 10
35276.85545917111
 20
3269.591486841605
 30
0.0
 11
35263.35545917111
 21
3469.591486841611
 31
0.0
 70
    32
 71
     5
 42
400.0000000000008
 73
     0
 74
     0
 75
     0
  3
ISO-25
100
AcDbAlignedDimension
 13
34973.53465404439
 23
3669.591486841607
 33
0.0
 14
34973.53465404439
 24
3269.591486841607
 34
0.0
 50
90.0
100
AcDbRotatedDimension
1001
ACAD
1000
DSTYLE
1002
{
1070
    41
1040
8.0
1070
   140
1040
18.0
1070
   141
1040
0.5
1070
   143
1040
0.03937007874
1070
   147
1040
3.0
1070
   170
1070
     1
1070
   171
1070
     2
1070
   179
1070
     2
1070
   274
1070
     2
1002
}
  0
DIMENSION
  5
66EF
102
{ACAD_XDICTIONARY
360
66F0
102
}
102
{ACAD_REACTORS
330
66F1
102
}
330
1F
100
AcDbEntity
  8
DIM
100
AcDbDimension
280
     0
  2
*D137
 10
35325.05017821651
 20
3240.091486841606
 30
0.0
 11
35311.55017821651
 21
3469.591486841612
 31
0.0
 70
    32
 71
     5
 42
459.0
 73
     0
 74
     0
 75
     0
  3
ISO-25
100
AcDbAlignedDimension
 13
35063.03465404439
 23
3699.091486841608
 33
0.0
 14
35063.03465404439
 24
3240.091486841607
 34
0.0
 50
90.0
100
AcDbRotatedDimension
1001
ACAD
1000
DSTYLE
1002
{
1070
    41
1040
8.0
1070
   140
1040
18.0
1070
   141
1040
0.5
1070
   143
1040
0.03937007874
1070
   147
1040
3.0
1070
   170
1070
     1
1070
   171
1070
     2
1070
   179
1070
     2
1070
   274
1070
     2
1002
}
  0
DIMENSION
  5
66F2
102
{ACAD_XDICTIONARY
360
66F3
102
}
102
{ACAD_REACTORS
330
66F4
102
}
330
1F
100
AcDbEntity
  8
DIM
100
AcDbDimension
280
     0
  2
*D138
 10
34192.91163751128
 20
3240.091486841609
 30
0.0
 11
34179.41163751128
 21
3504.591486841613
 31
0.0
 70
    32
 71
     5
 42
528.9999999999968
 73
     0
 74
     0
 75
     0
  3
ISO-25
100
AcDbAlignedDimension
 13
34493.03465404439
 23
3769.091486841608
 33
0.0
 14
34493.03465404439
 24
3240.091486841611
 34
0.0
 50
90.0
100
AcDbRotatedDimension
1001
ACAD
1000
DSTYLE
1002
{
1070
    41
1040
8.0
1070
   140
1040
18.0
1070
   141
1040
0.5
1070
   143
1040
0.03937007874
1070
   147
1040
3.0
1070
   170
1070
     1
1070
   171
1070
     2
1070
   179
1070
     2
1070
   274
1070
     2
1002
}
  0
DIMENSION
  5
66F5
102
{ACAD_XDICTIONARY
360
66F6
102
}
102
{ACAD_REACTORS
330
66F7
102
}
330
1F
100
AcDbEntity
  8
DIM
100
AcDbDimension
280
     0
  2
*D139
 10
34257.54333457038
 20
3269.591486841606
 30
0.0
 11
34244.04333457038
 21
3504.591486841611
 31
0.0
 70
    32
 71
     5
 42
470.0
 73
     0
 74
     0
 75
     0
  3
ISO-25
100
AcDbAlignedDimension
 13
34590.53465404439
 23
3739.591486841608
 33
0.0
 14
34590.53465404439
 24
3269.591486841608
 34
0.0
 50
90.0
100
AcDbRotatedDimension
1001
ACAD
1000
DSTYLE
1002
{
1070
    41
1040
8.0
1070
   140
1040
18.0
1070
   141
1040
0.5
1070
   143
1040
0.03937007874
1070
   147
1040
3.0
1070
   170
1070
     1
1070
   171
1070
     2
1070
   179
1070
     2
1070
   274
1070
     2
1002
}
  0
DIMENSION
  5
66F8
102
{ACAD_XDICTIONARY
360
66F9
102
}
102
{ACAD_REACTORS
330
66FA
102
}
330
1F
100
AcDbEntity
  8
DIM
100
AcDbDimension
280
     0
  2
*D140
 10
35175.03465404438
 20
3939.939572870084
 30
0.0
 11
34778.03465404439
 21
3939.939572870084
 31
0.0
 70
   160
 71
     5
 42
793.9999999999854
 73
     0
 74
     0
 75
     0
  3
ISO-25
100
AcDbAlignedDimension
 13
34381.03465404439
 23
3657.091486841605
 33
0.0
 14
35175.03465404438
 24
3587.09148684161
 34
0.0
 50
0.000000000000007
100
AcDbRotatedDimension
1001
ACAD
1000
DSTYLE
1002
{
1070
    41
1040
8.0
1070
   140
1040
18.0
1070
   141
1040
0.5
1070
   143
1040
0.03937007874
1070
   147
1040
3.0
1070
   170
1070
     1
1070
   171
1070
     2
1070
   179
1070
     2
1070
   274
1070
     2
1002
}
  0
DIMENSION
  5
66FB
330
1F
100
AcDbEntity
  8
DIM
100
AcDbDimension
280
     0
  2
*D130
 10
34801.53465404439
 20
3896.28851583416
 30
0.0
 11
34874.03465404439
 21
3896.28851583416
 31
0.0
 70
   160
 71
     5
 42
31.0
 73
     0
 74
     0
 75
     0
  3
ISO-25
100
AcDbAlignedDimension
 13
34770.53465404439
 23
3842.459312372019
 33
0.0
 14
34801.53465404439
 24
3842.519329096424
 34
0.0
 50
0.000000000000007
100
AcDbRotatedDimension
1001
ACAD
1000
DSTYLE
1002
{
1070
    41
1040
8.0
1070
   140
1040
18.0
1070
   141
1040
0.5
1070
   143
1040
0.03937007874
1070
   147
1040
3.0
1070
   170
1070
     1
1070
   171
1070
     2
1070
   179
1070
     2
1070
   274
1070
     2
1002
}
  0
DIMENSION
  5
66FC
102
{ACAD_XDICTIONARY
360
66FD
102
}
102
{ACAD_REACTORS
330
66FE
102
}
330
1F
100
AcDbEntity
  8
DIM
100
AcDbDimension
280
     0
  2
*D141
 10
34410.53465404439
 20
3841.209312372019
 30
0.0
 11
34590.53465404439
 21
3854.709312372019
 31
0.0
 70
    32
 71
     5
 42
360.0
 73
     0
 74
     0
 75
     0
  3
ISO-25
100
AcDbAlignedDimension
 13
34770.53465404439
 23
3504.591486841535
 33
0.0
 14
34410.53465404439
 24
3504.591486841608
 34
0.0
 50
0.000000000000007
100
AcDbRotatedDimension
1001
ACAD
1000
DSTYLE
1002
{
1070
    41
1040
8.0
1070
   140
1040
18.0
1070
   141
1040
0.5
1070
   143
1040
0.03937007874
1070
   147
1040
3.0
1070
   170
1070
     1
1070
   171
1070
     2
1070
   179
1070
     2
1070
   274
1070
     2
1002
}
  0
DIMENSION
  5
66FF
102
{ACAD_XDICTIONARY
360
6700
102
}
102
{ACAD_REACTORS
330
6701
102
}
330
1F
100
AcDbEntity
  8
DIM
100
AcDbDimension
280
     0
  2
*D142
 10
35145.5346540444
 20
3841.269329096423
 30
0.0
 11
34973.53465404439
 21
3854.769329096424
 31
0.0
 70
    32
 71
     5
 42
344.0000000000073
 73
     0
 74
     0
 75
     0
  3
ISO-25
100
AcDbAlignedDimension
 13
34801.53465404439
 23
3469.59148684161
 33
0.0
 14
35145.5346540444
 24
3469.591486841608
 34
0.0
 50
0.000000000000007
100
AcDbRotatedDimension
1001
ACAD
1000
DSTYLE
1002
{
1070
    41
1040
8.0
1070
   140
1040
18.0
1070
   141
1040
0.5
1070
   143
1040
0.03937007874
1070
   147
1040
3.0
1070
   170
1070
     1
1070
   171
1070
     2
1070
   179
1070
     2
1070
   274
1070
     2
1002
}
  0
LINE
  5
6702
102
{ACAD_REACTORS
330
66EB
102
}
330
1F
100
AcDbEntity
  8
DIM
  6
CENTER
100
AcDbLine
 10
35036.97385744481
 20
3549.591486841608
 30
0.0
 11
34900.70553686927
 21
3549.591486841608
 31
0.0
  0
CIRCLE
  5
6703
330
1F
100
AcDbEntity
  8
base
100
AcDbCircle
 10
34973.53465404439
 20
3549.591486841606
 30
0.0
 40
44.0
  0
CIRCLE
  5
6704
330
1F
100
AcDbEntity
  8
base
100
AcDbCircle
 10
34973.53465404439
 20
3549.591486841606
 30
0.0
 40
57.0
  0
CIRCLE
  5
6705
330
1F
100
AcDbEntity
  8
base
100
AcDbCircle
 10
34973.53465404439
 20
3549.591486841606
 30
0.0
 40
60.0
  0
LINE
  5
6706
102
{ACAD_REACTORS
330
66E8
102
}
330
1F
100
AcDbEntity
  8
DIM
  6
CENTER
100
AcDbLine
 10
34653.97385744481
 20
3619.591486841608
 30
0.0
 11
34517.70553686926
 21
3619.591486841608
 31
0.0
  0
CIRCLE
  5
6707
330
1F
100
AcDbEntity
  8
base
100
AcDbCircle
 10
34590.53465404439
 20
3619.591486841606
 30
0.0
 40
44.0
  0
CIRCLE
  5
6708
330
1F
100
AcDbEntity
  8
base
100
AcDbCircle
 10
34590.53465404439
 20
3619.591486841606
 30
0.0
 40
57.0
  0
CIRCLE
  5
6709
330
1F
100
AcDbEntity
  8
base
100
AcDbCircle
 10
34590.53465404439
 20
3619.591486841606
 30
0.0
 40
60.0
  0
LINE
  5
670A
102
{ACAD_REACTORS
330
6701
102
}
330
1F
100
AcDbEntity
  8
DIM
  6
CENTER
100
AcDbLine
 10
34754.73257583149
 20
3469.59148684161
 30
0.0
 11
35159.64862990943
 21
3469.591486841603
 31
0.0
  0
LINE
  5
670B
102
{ACAD_REACTORS
330
66EE
102
}
330
1F
100
AcDbEntity
  8
DIM
  6
CENTER
100
AcDbLine
 10
34973.53465404439
 20
3669.591486841607
 30
0.0
 11
34973.53465404439
 21
3269.591486841607
 31
0.0
  0
LINE
  5
670C
330
1F
100
AcDbEntity
  8
DIM
  6
CENTER
100
AcDbLine
 10
35175.03465404438
 20
3504.591486841454
 30
0.0
 11
34381.03465404439
 21
3504.591486841614
 31
0.0
  0
LINE
  5
670D
102
{ACAD_REACTORS
330
66F7
102
}
330
1F
100
AcDbEntity
  8
DIM
  6
CENTER
100
AcDbLine
 10
34590.53465404439
 20
3739.591486841608
 30
0.0
 11
34590.53465404439
 21
3269.591486841608
 31
0.0
  0
LWPOLYLINE
  5
670E
102
{ACAD_REACTORS
330
66F4
330
66F1
330
66C8
330
66FA
102
}
330
1F
100
AcDbEntity
  8
base
100
AcDbPolyline
 90
       11
 70
     1
 43
0.0
 10
35175.03465404439
 20
3352.091486841608
 42
-0.4142135623730868
 10
35063.03465404439
 20
3240.091486841607
 10
34493.03465404439
 20
3240.091486841611
 42
-0.4142135623730868
 10
34381.03465404439
 20
3352.091486841608
 10
34381.03465404439
 20
3657.091486841608
 42
-0.4142135623730606
 10
34493.03465404439
 20
3769.091486841608
 10
34688.03465404438
 20
3769.091486841608
 42
-0.2242096832768294
 10
34774.51763245953
 20
3728.25815350827
 42
0.2242096832768674
 10
34836.29118847035
 20
3699.091486841599
 10
35063.03465404439
 20
3699.091486841608
 42
-0.4142135623730702
 10
35175.03465404438
 20
3587.091486841608
  0
LWPOLYLINE
  5
670F
102
{ACAD_REACTORS
330
66F7
330
66E2
330
66FE
102
}
330
1F
100
AcDbEntity
  8
base
100
AcDbPolyline
 90
        8
 70
     1
 43
0.0
 10
34689.17822968542
 20
3271.161328683326
 42
0.3902034027945804
 10
34766.5292230629
 20
3347.055368418425
 42
0.0254254771640539
 10
34766.5292230629
 20
3662.127605264789
 42
0.3902034027945854
 10
34689.17822968542
 20
3738.021644999889
 42
0.015914283636994
 10
34491.89107840336
 20
3738.021644999889
 42
0.390203402794582
 10
34414.54008502588
 20
3662.12760526479
 42
0.0254254771640539
 10
34414.54008502587
 20
3347.055368418426
 42
0.3902034027945853
 10
34491.89107840336
 20
3271.161328683326
 42
0.015914283636994
  0
LWPOLYLINE
  5
6710
102
{ACAD_REACTORS
330
66EE
330
6701
102
}
330
1F
100
AcDbEntity
  8
base
100
AcDbPolyline
 90
        8
 70
     1
 43
0.0
 10
35065.57756063523
 20
3270.958223070899
 42
0.3941453424552707
 10
35143.14047454252
 20
3347.779415123879
 42
0.0196546981601901
 10
35143.14047454252
 20
3591.403558559335
 42
0.3941453424552722
 10
35065.57756063523
 20
3668.224750612316
 42
0.0148489034072733
 10
34881.49174745355
 20
3668.224750612316
 42
0.394145342455269
 10
34803.92883354626
 20
3591.403558559336
 42
0.0196546981601901
 10
34803.92883354626
 20
3347.77941512388
 42
0.3941453424552723
 10
34881.49174745355
 20
3270.958223070898
 42
0.0148489034072732
  0
LINE
  5
6711
330
1F
100
AcDbEntity
  8
base
100
AcDbLine
 10
34829.71295642798
 20
2943.499310421577
 30
0.0
 11
34653.81892734994
 21
2943.499310421577
 31
0.0
  0
LINE
  5
6712
330
1F
100
AcDbEntity
  8
DIM
  6
CENTER
100
AcDbLine
 10
34741.76594188896
 20
2968.165642489963
 30
0.0
 11
34741.76594188896
 21
2926.925239996428
 31
0.0
  0
DIMENSION
  5
6713
102
{ACAD_XDICTIONARY
360
6714
102
}
102
{ACAD_REACTORS
330
6715
102
}
330
1F
100
AcDbEntity
  8
DIM
100
AcDbDimension
280
     0
  2
*D143
 10
34525.06901301046
 20
2951.054803973248
 30
0.0
 11
34513.06901301046
 21
3007.554803973254
 31
0.0
 70
    32
  1
5[0.2]
 71
     5
 42
9.954908593078471
 73
     0
 74
     0
 75
     0
  3
ISO-25
100
AcDbAlignedDimension
 13
34653.76594188892
 23
2941.099895380171
 33
0.0
 14
34623.05719083845
 24
2951.05480397325
 34
0.0
 50
90.0
100
AcDbRotatedDimension
1001
ACAD
1000
DSTYLE
1002
{
1070
    41
1040
8.0
1070
   140
1040
18.0
1070
   141
1040
0.5
1070
   143
1040
0.03937007874
1070
   147
1040
3.0
1070
   170
1070
     1
1070
   171
1070
     2
1070
   179
1070
     2
1070
   274
1070
     2
1002
}
  0
LINE
  5
6716
102
{ACAD_REACTORS
330
6715
102
}
330
1F
100
AcDbEntity
  8
base
100
AcDbLine
 10
34623.05719083845
 20
2951.05480397325
 30
0.0
 11
34627.8743753309
 21
2944.072235082489
 31
0.0
  0
LINE
  5
6717
330
1F
100
AcDbEntity
  8
base
100
AcDbLine
 10
34621.76712706847
 20
2948.698391086472
 30
0.0
 11
34626.59529926612
 21
2941.699895380171
 31
0.0
  0
LINE
  5
6718
330
1F
100
AcDbEntity
  8
base
100
AcDbLine
 10
34653.76594188892
 20
2941.099895380171
 30
0.0
 11
34626.59529926612
 21
2941.699895380171
 31
0.0
  0
LINE
  5
6719
330
1F
100
AcDbEntity
  8
base
100
AcDbLine
 10
34653.81892734995
 20
2943.499310421577
 30
0.0
 11
34627.8743753309
 21
2944.072235082489
 31
0.0
  0
LINE
  5
671A
330
1F
100
AcDbEntity
  8
base
100
AcDbLine
 10
34653.76594188895
 20
2941.099895380171
 30
0.0
 11
34653.81892734994
 21
2943.499310421577
 31
0.0
  0
LINE
  5
671B
330
1F
100
AcDbEntity
  8
base
100
AcDbLine
 10
34829.76594188896
 20
2941.099895380171
 30
0.0
 11
34829.71295642798
 21
2943.499310421577
 31
0.0
  0
LINE
  5
671C
330
1F
100
AcDbEntity
  8
base
100
AcDbLine
 10
34829.71295642797
 20
2943.499310421577
 30
0.0
 11
34855.65750844702
 21
2944.072235082489
 31
0.0
  0
LINE
  5
671D
330
1F
100
AcDbEntity
  8
base
100
AcDbLine
 10
34829.76594188896
 20
2941.099895380171
 30
0.0
 11
34856.9365845118
 21
2941.699895380171
 31
0.0
  0
LINE
  5
671E
102
{ACAD_REACTORS
330
6715
102
}
330
1F
100
AcDbEntity
  8
base
370
     9
100
AcDbLine
 10
34653.76594188892
 20
2941.099895380171
 30
0.0
 11
34829.76594188898
 21
2941.099895380172
 31
0.0
  0
DIMENSION
  5
6720
102
{ACAD_XDICTIONARY
360
6721
102
}
102
{ACAD_REACTORS
330
6722
102
}
330
1F
100
AcDbEntity
  8
DIM
100
AcDbDimension
280
     0
  2
*D144
 10
34621.76594188896
 20
2843.803109456261
 30
0.0
 11
34741.76594188896
 21
2855.803109456261
 31
0.0
 70
    32
  1
%%C120[4.72]
 71
     5
 42
240.0
 73
     0
 74
     0
 75
     0
  3
ISO-25
100
AcDbAlignedDimension
 13
34861.76594188896
 23
2948.698432473855
 33
0.0
 14
34621.76594188896
 24
2948.698432473855
 34
0.0
 50
180.0
100
AcDbRotatedDimension
1001
ACAD
1000
DSTYLE
1002
{
1070
    41
1040
8.0
1070
   140
1040
18.0
1070
   141
1040
0.5
1070
   143
1040
0.03937007874
1070
   147
1040
3.0
1070
   170
1070
     1
1070
   171
1070
     2
1070
   179
1070
     2
1070
   274
1070
     2
1002
}
  0
DIMENSION
  5
6723
102
{ACAD_XDICTIONARY
360
6724
102
}
102
{ACAD_REACTORS
330
6725
102
}
330
1F
100
AcDbEntity
  8
DIM
100
AcDbDimension
280
     0
  2
*D145
 10
34627.8552928472
 20
2982.518853451598
 30
0.0
 11
34741.75640064711
 21
2994.518853451598
 31
0.0
 70
    32
  1
%%C114[4.49]
 71
     5
 42
227.8022155998187
 73
     0
 74
     0
 75
     0
  3
ISO-25
100
AcDbAlignedDimension
 13
34855.65750844702
 23
2944.072235082489
 33
0.0
 14
34627.8552928472
 24
2944.099895380171
 34
0.0
 50
180.0
100
AcDbRotatedDimension
1001
ACAD
1000
DSTYLE
1002
{
1070
    41
1040
8.0
1070
   140
1040
18.0
1070
   141
1040
0.5
1070
   143
1040
0.03937007874
1070
   147
1040
3.0
1070
   170
1070
     1
1070
   171
1070
     2
1070
   179
1070
     2
1070
   274
1070
     2
1002
}
  0
DIMENSION
  5
6726
330
1F
100
AcDbEntity
  8
DIM
100
AcDbDimension
280
     0
  2
*D131
 10
34653.76594188896
 20
2888.469869377674
 30
0.0
 11
34741.76594188896
 21
2900.469869377674
 31
0.0
 70
    32
  1
%%C90[3.46]
 71
     5
 42
176.0
 73
     0
 74
     0
 75
     0
  3
ISO-25
100
AcDbAlignedDimension
 13
34829.76594188896
 23
2941.099895380171
 33
0.0
 14
34653.76594188896
 24
2941.69989538017
 34
0.0
 50
180.0
100
AcDbRotatedDimension
1001
ACAD
1000
DSTYLE
1002
{
1070
    41
1040
8.0
1070
   140
1040
18.0
1070
   141
1040
0.5
1070
   143
1040
0.03937007874
1070
   147
1040
3.0
1070
   170
1070
     1
1070
   171
1070
     2
1070
   179
1070
     2
1070
   274
1070
     2
1002
}
  0
LINE
  5
6727
330
1F
100
AcDbEntity
  8
base
100
AcDbLine
 10
34551.71668576865
 20
2953.546069306217
 30
0.0
 11
34551.71668576865
 21
2951.1446063999
 31
0.0
  0
LINE
  5
6728
330
1F
100
AcDbEntity
  8
base
100
AcDbLine
 10
34931.81519800927
 20
2953.546069306217
 30
0.0
 11
34931.81519800927
 21
2951.1446063999
 31
0.0
  0
LINE
  5
6729
330
1F
100
AcDbEntity
  8
base
100
AcDbLine
 10
34861.76594188896
 20
2951.099895380171
 30
0.0
 11
34931.81519800927
 21
2953.546069306217
 31
0.0
  0
LINE
  5
672A
102
{ACAD_REACTORS
330
6722
102
}
330
1F
100
AcDbEntity
  8
base
100
AcDbLine
 10
34861.76594188896
 20
2948.698432473855
 30
0.0
 11
34931.81519800927
 21
2951.1446063999
 31
0.0
  0
LINE
  5
672B
330
1F
100
AcDbEntity
  8
base
100
AcDbLine
 10
34861.76475670945
 20
2948.698391086472
 30
0.0
 11
34856.9365845118
 21
2941.699895380171
 31
0.0
  0
LINE
  5
672C
102
{ACAD_REACTORS
330
6725
102
}
330
1F
100
AcDbEntity
  8
base
100
AcDbLine
 10
34860.50580092129
 20
2951.099895380171
 30
0.0
 11
34855.65750844702
 21
2944.072235082489
 31
0.0
  0
LINE
  5
672D
102
{ACAD_REACTORS
330
6722
102
}
330
1F
100
AcDbEntity
  8
base
100
AcDbLine
 10
34621.76594188896
 20
2948.698432473855
 30
0.0
 11
34551.71668576864
 21
2951.144606399901
 31
0.0
  0
LINE
  5
672E
330
1F
100
AcDbEntity
  8
base
100
AcDbLine
 10
34623.05719083845
 20
2951.05480397325
 30
0.0
 11
34551.71668576865
 21
2953.546069306217
 31
0.0
  0
LINE
  5
672F
330
1F
100
AcDbEntity
  8
base
370
     9
100
AcDbLine
 10
34621.76594188896
 20
2951.099895380171
 30
0.0
 11
34861.76594188896
 21
2951.099895380171
 31
0.0
  0
ENDSEC
  0
SECTION
  2
OBJECTS
  0
DICTIONARY
  5
C
330
0
100
AcDbDictionary
281
     1
  3
ACAD_CIP_PREVIOUS_PRODUCT_INFO
350
688F
  3
ACAD_COLOR
350
6B
  3
ACAD_DETAILVIEWSTYLE
350
6886
  3
ACAD_GROUP
350
D
  3
ACAD_LAYOUT
350
1A
  3
ACAD_MATERIAL
350
6A
  3
ACAD_MLEADERSTYLE
350
6882
  3
ACAD_MLINESTYLE
350
17
  3
ACAD_PLOTSETTINGS
350
19
  3
ACAD_PLOTSTYLENAME
350
E
  3
ACAD_SCALELIST
350
6870
  3
ACAD_SECTIONVIEWSTYLE
350
6884
  3
ACAD_TABLESTYLE
350
6633
  3
ACAD_VISUALSTYLE
350
6622
  3
AcadDim
350
449D
  3
ACDB_RECOMPOSE_DATA
350
68B3
  3
AcDbVariableDictionary
350
5E
  3
lxx_dict
350
663B
  0
DICTIONARY
  5
6890
330
10
100
AcDbDictionary
280
     1
281
     1
  3
ADSK_XREC_LAYER_RECONCILED
360
6891
  0
DICTIONARY
  5
6892
330
84
100
AcDbDictionary
280
     1
281
     1
  3
ADSK_XREC_LAYER_RECONCILED
360
6893
  0
DICTIONARY
  5
6894
330
2D93
100
AcDbDictionary
280
     1
281
     1
  3
ADSK_XREC_LAYER_RECONCILED
360
6895
  0
DICTIONARY
  5
6896
330
4796
100
AcDbDictionary
280
     1
281
     1
  3
ADSK_XREC_LAYER_RECONCILED
360
6897
  0
DICTIONARY
  5
6898
330
4797
100
AcDbDictionary
280
     1
281
     1
  3
ADSK_XREC_LAYER_RECONCILED
360
6899
  0
DICTIONARY
  5
689A
330
4798
100
AcDbDictionary
280
     1
281
     1
  3
ADSK_XREC_LAYER_RECONCILED
360
689B
  0
DICTIONARY
  5
689C
330
4799
100
AcDbDictionary
280
     1
281
     1
  3
ADSK_XREC_LAYER_RECONCILED
360
689D
  0
DICTIONARY
  5
689E
330
5DB3
100
AcDbDictionary
280
     1
281
     1
  3
ADSK_XREC_LAYER_RECONCILED
360
689F
  0
DICTIONARY
  5
663E
330
1F
100
AcDbDictionary
280
     1
281
     1
  3
ACAD_SORTENTS
360
663F
  0
DICTIONARY
  5
44A7
330
44A6
100
AcDbDictionary
280
     1
281
     1
  3
ACAD_DIMASSOC
360
44A8
  0
DICTIONARY
  5
44AA
330
44A9
100
AcDbDictionary
280
     1
281
     1
  3
ACAD_DIMASSOC
360
44AB
  0
DICTIONARY
  5
44AD
330
44AC
100
AcDbDictionary
280
     1
281
     1
  3
ACAD_DIMASSOC
360
44AE
  0
DICTIONARY
  5
44B0
330
44AF
100
AcDbDictionary
280
     1
281
     1
  3
ACAD_DIMASSOC
360
44B1
  0
DICTIONARY
  5
44B3
330
44B2
100
AcDbDictionary
280
     1
281
     1
  3
ACAD_DIMASSOC
360
44B4
  0
DICTIONARY
  5
44B6
330
44B5
100
AcDbDictionary
280
     1
281
     1
  3
ACAD_DIMASSOC
360
44B7
  0
DICTIONARY
  5
44F9
330
44F8
100
AcDbDictionary
280
     1
281
     1
  3
ACAD_DIMASSOC
360
44FA
  0
DICTIONARY
  5
4513
330
4512
100
AcDbDictionary
280
     1
281
     1
  3
ACAD_DIMASSOC
360
4514
  0
DICTIONARY
  5
4519
330
4518
100
AcDbDictionary
280
     1
281
     1
  3
ACAD_DIMASSOC
360
451A
  0
DICTIONARY
  5
451C
330
451B
100
AcDbDictionary
280
     1
281
     1
  3
ACAD_DIMASSOC
360
451D
  0
DICTIONARY
  5
451F
330
451E
100
AcDbDictionary
280
     1
281
     1
  3
ACAD_DIMASSOC
360
4520
  0
DICTIONARY
  5
4522
330
4521
100
AcDbDictionary
280
     1
281
     1
  3
ACAD_DIMASSOC
360
4523
  0
DICTIONARY
  5
4525
330
4524
100
AcDbDictionary
280
     1
281
     1
  3
ACAD_DIMASSOC
360
4526
  0
DICTIONARY
  5
4528
330
4527
100
AcDbDictionary
280
     1
281
     1
  3
ACAD_DIMASSOC
360
4529
  0
DICTIONARY
  5
452B
330
452A
100
AcDbDictionary
280
     1
281
     1
  3
ACAD_DIMASSOC
360
452C
  0
DICTIONARY
  5
452F
330
452E
100
AcDbDictionary
280
     1
281
     1
  3
ACAD_DIMASSOC
360
4530
  0
DICTIONARY
  5
4532
330
4531
100
AcDbDictionary
280
     1
281
     1
  3
ACAD_DIMASSOC
360
4533
  0
DICTIONARY
  5
4546
330
4545
100
AcDbDictionary
280
     1
281
     1
  3
ACAD_DIMASSOC
360
4547
  0
DICTIONARY
  5
4589
330
4588
100
AcDbDictionary
280
     1
281
     1
  3
ACAD_DIMASSOC
360
458A
  0
DICTIONARY
  5
458C
330
458B
100
AcDbDictionary
280
     1
281
     1
  3
ACAD_DIMASSOC
360
458D
  0
DICTIONARY
  5
6675
330
6674
100
AcDbDictionary
280
     1
281
     1
  3
ACAD_DIMASSOC
360
6676
  0
DICTIONARY
  5
6678
330
6677
100
AcDbDictionary
280
     1
281
     1
  3
ACAD_DIMASSOC
360
6679
  0
DICTIONARY
  5
667B
330
667A
100
AcDbDictionary
280
     1
281
     1
  3
ACAD_DIMASSOC
360
667C
  0
DICTIONARY
  5
667E
330
667D
100
AcDbDictionary
280
     1
281
     1
  3
ACAD_DIMASSOC
360
667F
  0
DICTIONARY
  5
6681
330
6680
100
AcDbDictionary
280
     1
281
     1
  3
ACAD_DIMASSOC
360
6682
  0
DICTIONARY
  5
6684
330
6683
100
AcDbDictionary
280
     1
281
     1
  3
ACAD_DIMASSOC
360
6685
  0
DICTIONARY
  5
66C7
330
66C6
100
AcDbDictionary
280
     1
281
     1
  3
ACAD_DIMASSOC
360
66C8
  0
DICTIONARY
  5
66E1
330
66E0
100
AcDbDictionary
280
     1
281
     1
  3
ACAD_DIMASSOC
360
66E2
  0
DICTIONARY
  5
66E7
330
66E6
100
AcDbDictionary
280
     1
281
     1
  3
ACAD_DIMASSOC
360
66E8
  0
DICTIONARY
  5
66EA
330
66E9
100
AcDbDictionary
280
     1
281
     1
  3
ACAD_DIMASSOC
360
66EB
  0
DICTIONARY
  5
66ED
330
66EC
100
AcDbDictionary
280
     1
281
     1
  3
ACAD_DIMASSOC
360
66EE
  0
DICTIONARY
  5
66F0
330
66EF
100
AcDbDictionary
280
     1
281
     1
  3
ACAD_DIMASSOC
360
66F1
  0
DICTIONARY
  5
66F3
330
66F2
100
AcDbDictionary
280
     1
281
     1
  3
ACAD_DIMASSOC
360
66F4
  0
DICTIONARY
  5
66F6
330
66F5
100
AcDbDictionary
280
     1
281
     1
  3
ACAD_DIMASSOC
360
66F7
  0
DICTIONARY
  5
66F9
330
66F8
100
AcDbDictionary
280
     1
281
     1
  3
ACAD_DIMASSOC
360
66FA
  0
DICTIONARY
  5
66FD
330
66FC
100
AcDbDictionary
280
     1
281
     1
  3
ACAD_DIMASSOC
360
66FE
  0
DICTIONARY
  5
6700
330
66FF
100
AcDbDictionary
280
     1
281
     1
  3
ACAD_DIMASSOC
360
6701
  0
DICTIONARY
  5
6714
330
6713
100
AcDbDictionary
280
     1
281
     1
  3
ACAD_DIMASSOC
360
6715
  0
DICTIONARY
  5
6721
330
6720
100
AcDbDictionary
280
     1
281
     1
  3
ACAD_DIMASSOC
360
6722
  0
DICTIONARY
  5
6724
330
6723
100
AcDbDictionary
280
     1
281
     1
  3
ACAD_DIMASSOC
360
6725
  0
XRECORD
  5
688F
102
{ACAD_REACTORS
330
C
102
}
330
C
100
AcDbXrecord
280
     1
300
ACDLT
300
2018
300

  0
DICTIONARY
  5
6B
102
{ACAD_REACTORS
330
C
102
}
330
C
100
AcDbDictionary
281
     1
  0
DICTIONARY
  5
6886
102
{ACAD_REACTORS
330
C
102
}
330
C
100
AcDbDictionary
281
     1
  3
Metric50
350
6887
  0
DICTIONARY
  5
D
102
{ACAD_REACTORS
330
C
102
}
330
C
100
AcDbDictionary
281
     1
  0
DICTIONARY
  5
1A
102
{ACAD_REACTORS
330
C
102
}
330
C
100
AcDbDictionary
281
     1
  3
Layout1
350
51
  3
Layout2
350
56
  3
Model
350
22
  0
DICTIONARY
  5
6A
102
{ACAD_REACTORS
330
C
102
}
330
C
100
AcDbDictionary
281
     1
  3
ByBlock
350
6620
  3
ByLayer
350
661F
  3
Global
350
6621
  0
DICTIONARY
  5
6882
102
{ACAD_REACTORS
330
C
102
}
330
C
100
AcDbDictionary
281
     1
  3
Standard
350
6883
  0
DICTIONARY
  5
17
102
{ACAD_REACTORS
330
C
102
}
330
C
100
AcDbDictionary
281
     1
  3
Standard
350
18
  0
DICTIONARY
  5
19
102
{ACAD_REACTORS
330
C
102
}
330
C
100
AcDbDictionary
281
     1
  0
ACDBDICTIONARYWDFLT
  5
E
102
{ACAD_REACTORS
330
C
102
}
330
C
100
AcDbDictionary
281
     1
  3
Normal
350
F
100
AcDbDictionaryWithDefault
340
F
  0
DICTIONARY
  5
6870
102
{ACAD_REACTORS
330
C
102
}
330
C
100
AcDbDictionary
281
     1
  3
A0
350
6871
  3
A1
350
6872
  3
A2
350
6873
  3
A3
350
6874
  3
A4
350
6875
  3
A5
350
6876
  3
A6
350
6877
  3
A7
350
6878
  3
A8
350
6879
  3
A9
350
687A
  3
B0
350
687B
  3
B1
350
687C
  3
B2
350
687D
  3
B3
350
687E
  3
B4
350
687F
  3
B5
350
6880
  3
B6
350
6881
  0
DICTIONARY
  5
6884
102
{ACAD_REACTORS
330
C
102
}
330
C
100
AcDbDictionary
281
     1
  3
Metric50
350
6885
  0
DICTIONARY
  5
6633
102
{ACAD_REACTORS
330
C
102
}
330
C
100
AcDbDictionary
281
     1
  3
Standard
350
6634
  0
DICTIONARY
  5
6622
102
{ACAD_REACTORS
330
C
102
}
330
C
100
AcDbDictionary
281
     1
  3
2dWireframe
350
6628
  3
3D Hidden
350
662A
  3
3dWireframe
350
6629
  3
Basic
350
6627
  3
Brighten
350
662E
  3
ColorChange
350
6632
  3
Conceptual
350
662B
  3
Dim
350
662D
  3
EdgeColorOff
350
686F
  3
Facepattern
350
6631
  3
Flat
350
6623
  3
FlatWithEdges
350
6624
  3
Gouraud
350
6625
  3
GouraudWithEdges
350
6626
  3
Hidden
350
6867
  3
JitterOff
350
686D
  3
Linepattern
350
6630
  3
OverhangOff
350
686E
  3
Realistic
350
662C
  3
Shaded
350
686C
  3
Shaded with edges
350
686B
  3
Shades of Gray
350
6868
  3
Sketchy
350
6869
  3
Thicken
350
662F
  3
Wireframe
350
6866
  3
X-Ray
350
686A
  0
XRECORD
  5
449D
102
{ACAD_REACTORS
330
C
102
}
330
C
100
AcDbXrecord
280
     1
 90
   990106
  3

 60
     0
 61
     0
 62
     1
 63
     3
 64
     0
 65
     0
 66
     0
 67
     3
 68
     1
 69
     0
 70
     0
 71
     0
 72
     0
 40
0.0
170
     0
340
0
  0
XRECORD
  5
68B3
102
{ACAD_REACTORS
330
C
102
}
330
C
100
AcDbXrecord
280
     1
 90
        1
330
6634
  0
DICTIONARY
  5
5E
102
{ACAD_REACTORS
330
C
102
}
330
C
100
AcDbDictionary
281
     1
  3
CANNOSCALE
350
68AD
  3
CMLEADERSTYLE
350
68A9
  3
CTABLESTYLE
350
6864
  3
CVIEWDETAILSTYLE
350
68AA
  3
CVIEWSECTIONSTYLE
350
68AB
  3
DIMASSOC
350
5F
  3
HIDETEXT
350
63
  3
LAYEREVAL
350
68AF
  3
LAYERNOTIFY
350
68B0
  3
LIGHTINGUNITS
350
68AE
  3
MSLTSCALE
350
68AC
  3
PROJECTNAME
350
1CF
  0
DICTIONARY
  5
663B
102
{ACAD_REACTORS
330
C
102
}
330
C
100
AcDbDictionary
281
     1
  3
lxx_dimth
350
663C
  0
XRECORD
  5
6891
102
{ACAD_REACTORS
330
6890
102
}
330
6890
100
AcDbXrecord
280
     1
290
     1
  0
XRECORD
  5
6893
102
{ACAD_REACTORS
330
6892
102
}
330
6892
100
AcDbXrecord
280
     1
290
     1
  0
XRECORD
  5
6895
102
{ACAD_REACTORS
330
6894
102
}
330
6894
100
AcDbXrecord
280
     1
290
     1
  0
XRECORD
  5
6897
102
{ACAD_REACTORS
330
6896
102
}
330
6896
100
AcDbXrecord
280
     1
290
     1
  0
XRECORD
  5
6899
102
{ACAD_REACTORS
330
6898
102
}
330
6898
100
AcDbXrecord
280
     1
290
     1
  0
XRECORD
  5
689B
102
{ACAD_REACTORS
330
689A
102
}
330
689A
100
AcDbXrecord
280
     1
290
     1
  0
XRECORD
  5
689D
102
{ACAD_REACTORS
330
689C
102
}
330
689C
100
AcDbXrecord
280
     1
290
     1
  0
XRECORD
  5
689F
102
{ACAD_REACTORS
330
689E
102
}
330
689E
100
AcDbXrecord
280
     1
290
     1
  0
SORTENTSTABLE
  5
663F
102
{ACAD_REACTORS
330
663E
102
}
330
663E
100
AcDbSortentsTable
330
1F
331
44E2
  5
44F6
331
4521
  5
454C
331
44E6
  5
44FD
331
44A9
  5
44A9
331
44BA
  5
44BC
331
44BE
  5
44C2
331
44FD
  5
4524
331
44F1
  5
450F
331
44B2
  5
44B2
331
44F5
  5
4516
331
4537
  5
4556
331
4509
  5
453A
331
450D
  5
453E
331
44CE
  5
44D9
331
44C2
  5
44C7
331
4501
  5
452E
331
44C6
  5
44CC
331
4505
  5
4536
331
4543
  5
4562
331
453B
  5
455A
331
453F
  5
455E
331
6648
  5
44E8
331
664C
  5
4503
331
6640
  5
4505
331
6644
  5
44EE
331
451E
  5
454B
331
44DF
  5
44F3
331
44A2
  5
44A2
331
4512
  5
4543
331
44D7
  5
44E5
331
44A6
  5
44A6
331
4516
  5
4545
331
4550
  5
456D
331
4593
  5
6657
331
4548
  5
4565
331
4597
  5
665B
331
454C
  5
4569
331
458B
  5
6651
331
458F
  5
6653
331
6658
  5
44C1
331
6650
  5
44C4
331
6654
  5
44CA
331
44BB
  5
44BD
331
44FE
  5
4527
331
44F2
  5
4510
331
44F6
  5
4517
331
4534
  5
4553
331
450A
  5
453B
331
44CF
  5
44DA
331
450E
  5
453F
331
4502
  5
4531
331
44C3
  5
44C8
331
44C7
  5
44CD
331
4506
  5
4537
331
4540
  5
455F
331
4544
  5
4563
331
4538
  5
4557
331
453C
  5
455B
331
6649
  5
44E0
331
664D
  5
44FF
331
6641
  5
4507
331
6645
  5
44EC
331
44D8
  5
44E6
331
451B
  5
454A
331
44A3
  5
44A3
331
4517
  5
4548
331
4590
  5
6654
331
4594
  5
6658
331
4588
  5
6650
331
4549
  5
4566
331
454D
  5
456A
331
6659
  5
450D
331
6651
  5
44CF
331
6655
  5
44D5
331
44E8
  5
4500
331
44E0
  5
44F4
331
44E4
  5
44FB
331
4527
  5
454E
331
44AF
  5
44AF
331
44FB
  5
451E
331
44FF
  5
452A
331
44F3
  5
4511
331
44F7
  5
4518
331
4531
  5
4552
331
4535
  5
4554
331
452D
  5
4550
331
663D
  5
4515
331
450B
  5
453C
331
450F
  5
4540
331
44C0
  5
44C5
331
4503
  5
4534
331
4507
  5
4538
331
4541
  5
4560
331
4545
  5
4564
331
4539
  5
4558
331
453D
  5
455C
331
664A
  5
44E2
331
664E
  5
44BF
331
6642
  5
44F2
331
6646
  5
44F8
331
4518
  5
4549
331
44D1
  5
44DD
331
44A0
  5
44A0
331
4510
  5
4541
331
44D5
  5
44E3
331
44A4
  5
44A4
331
4591
  5
6655
331
4595
  5
6659
331
454A
  5
4567
331
454E
  5
456B
331
665A
  5
44BB
331
6652
  5
44D1
331
6656
  5
44D7
331
44E9
  5
4501
331
44E1
  5
44F5
331
4524
  5
454D
331
44E5
  5
44FC
331
44AC
  5
44AC
331
44F8
  5
451B
331
44FC
  5
4521
331
44F0
  5
450E
331
44B5
  5
44B5
331
4536
  5
4555
331
452A
  5
454F
331
452E
  5
4551
331
4508
  5
4539
331
44CD
  5
44D8
331
450C
  5
453D
331
4500
  5
452D
331
44C1
  5
44C6
331
44C5
  5
44CB
331
4504
  5
4535
331
4542
  5
4561
331
453A
  5
4559
331
453E
  5
455D
331
664B
  5
4509
331
664F
  5
450B
331
6643
  5
44F0
331
6647
  5
44EA
331
4511
  5
4542
331
44D2
  5
44DE
331
44A1
  5
44A1
331
44D6
  5
44E4
331
44A5
  5
44A5
331
4515
  5
4544
331
4592
  5
6656
331
4596
  5
665A
331
454B
  5
4568
331
458E
  5
6652
331
454F
  5
456C
331
665B
  5
44B9
331
6653
  5
44D3
331
6657
  5
44DC
  0
DIMASSOC
  5
44A8
102
{ACAD_REACTORS
330
44A7
102
}
330
44A7
100
AcDbDimAssoc
330
44A6
 90
        2
 70
     0
 71
     0
  1
AcDbOsnapPointRef
 72
     3
331
44C0
 73
     2
 91
        0
 40
0.0
 10
0.0
 20
0.0
 30
0.0
 75
     0
  0
DIMASSOC
  5
44AB
102
{ACAD_REACTORS
330
44AA
102
}
330
44AA
100
AcDbDimAssoc
330
44A9
 90
       15
 70
     0
 71
     0
  1
AcDbOsnapPointRef
 72
    13
331
44D1
 73
     2
 91
        0
 40
0.0
 10
0.0
 20
0.0
 30
2.000000000000000E+50
 75
     0
  1
AcDbOsnapPointRef
 72
     1
331
44D1
 73
     2
 91
        0
 40
1.0
 10
0.0
 20
0.0
 30
2.000000000000000E+50
 75
     0
  1
AcDbOsnapPointRef
 72
    13
331
44C7
 73
     2
 91
        0
 40
0.0
 10
0.0
 20
0.0
 30
2.000000000000000E+50
 75
     0
  1
AcDbOsnapPointRef
 72
     1
331
44C7
 73
     2
 91
        0
 40
1.0
 10
0.0
 20
0.0
 30
2.000000000000000E+50
 75
     0
  0
DIMASSOC
  5
44AE
102
{ACAD_REACTORS
330
44AD
102
}
330
44AD
100
AcDbDimAssoc
330
44AC
 90
        3
 70
     0
 71
     0
  1
AcDbOsnapPointRef
 72
     1
331
44F5
 73
     2
 91
        0
 40
1.0
 10
0.0
 20
0.0
 30
2.000000000000000E+50
 75
     0
  1
AcDbOsnapPointRef
 72
     1
331
44C7
 73
     2
 91
        0
 40
1.0
 10
0.0
 20
0.0
 30
2.000000000000000E+50
 75
     0
  0
DIMASSOC
  5
44B1
102
{ACAD_REACTORS
330
44B0
102
}
330
44B0
100
AcDbDimAssoc
330
44AF
 90
       15
 70
     0
 71
     0
  1
AcDbOsnapPointRef
 72
    13
331
44E6
 73
     2
 91
        0
 40
0.0
 10
0.0
 20
0.0
 30
2.000000000000000E+50
 75
     0
  1
AcDbOsnapPointRef
 72
     1
331
44E6
 73
     2
 91
        0
 40
1.0
 10
0.0
 20
0.0
 30
2.000000000000000E+50
 75
     0
  1
AcDbOsnapPointRef
 72
    13
331
44E0
 73
     2
 91
        0
 40
0.0
 10
0.0
 20
0.0
 30
2.000000000000000E+50
 75
     0
  1
AcDbOsnapPointRef
 72
     1
331
44E0
 73
     2
 91
        0
 40
1.0
 10
0.0
 20
0.0
 30
2.000000000000000E+50
 75
     0
  0
DIMASSOC
  5
44B4
102
{ACAD_REACTORS
330
44B3
102
}
330
44B3
100
AcDbDimAssoc
330
44B2
 90
        2
 70
     0
 71
     0
  1
AcDbOsnapPointRef
 72
     3
331
44DF
 73
     2
 91
        0
 40
0.0
 10
0.0
 20
0.0
 30
0.0
 75
     0
  0
DIMASSOC
  5
44B7
102
{ACAD_REACTORS
330
44B6
102
}
330
44B6
100
AcDbDimAssoc
330
44B5
 90
        3
 70
     0
 71
     0
  1
AcDbOsnapPointRef
 72
    13
331
44F5
 73
     2
 91
        0
 40
0.0
 10
0.0
 20
0.0
 30
2.000000000000000E+50
 75
     0
  1
AcDbOsnapPointRef
 72
    13
331
44E0
 73
     2
 91
        0
 40
0.0
 10
0.0
 20
0.0
 30
2.000000000000000E+50
 75
     0
  0
DIMASSOC
  5
44FA
102
{ACAD_REACTORS
330
44F9
102
}
330
44F9
100
AcDbDimAssoc
330
44F8
 90
        2
 70
     0
 71
     0
  1
AcDbOsnapPointRef
 72
     3
331
4540
 73
     2
 91
       10
 40
0.0
 10
0.0
 20
0.0
 30
0.0
 75
     0
  0
DIMASSOC
  5
4514
102
{ACAD_REACTORS
330
4513
102
}
330
4513
100
AcDbDimAssoc
330
4512
 90
        2
 70
     0
 71
     0
  1
AcDbOsnapPointRef
 72
     3
331
4541
 73
     2
 91
        7
 40
0.0
 10
0.0
 20
0.0
 30
0.0
 75
     0
  0
DIMASSOC
  5
451A
102
{ACAD_REACTORS
330
4519
102
}
330
4519
100
AcDbDimAssoc
330
4518
 90
        2
 70
     0
 71
     0
  1
AcDbOsnapPointRef
 72
     1
331
4538
 73
     2
 91
        0
 40
1.0
 10
0.0
 20
0.0
 30
2.000000000000000E+50
 75
     0
  0
DIMASSOC
  5
451D
102
{ACAD_REACTORS
330
451C
102
}
330
451C
100
AcDbDimAssoc
330
451B
 90
        1
 70
     0
 71
     0
  1
AcDbOsnapPointRef
 72
    13
331
4534
 73
     2
 91
        0
 40
0.0
 10
0.0
 20
0.0
 30
2.000000000000000E+50
 75
     0
  0
DIMASSOC
  5
4520
102
{ACAD_REACTORS
330
451F
102
}
330
451F
100
AcDbDimAssoc
330
451E
 90
        3
 70
     0
 71
     0
  1
AcDbOsnapPointRef
 72
    13
331
453D
 73
     2
 91
        0
 40
0.0
 10
0.0
 20
0.0
 30
2.000000000000000E+50
 75
     0
  1
AcDbOsnapPointRef
 72
     6
331
453D
 73
     2
 91
        0
 40
1.0
 10
0.0
 20
0.0
 30
0.0
332
4542
 74
     2
 92
        8
 75
     0
  0
DIMASSOC
  5
4523
102
{ACAD_REACTORS
330
4522
102
}
330
4522
100
AcDbDimAssoc
330
4521
 90
        3
 70
     0
 71
     0
  1
AcDbOsnapPointRef
 72
     1
331
4540
 73
     2
 91
        9
 40
1.0
 10
0.0
 20
0.0
 30
2.000000000000000E+50
 75
     0
  1
AcDbOsnapPointRef
 72
    13
331
4540
 73
     2
 91
        2
 40
0.0
 10
0.0
 20
0.0
 30
2.000000000000000E+50
 75
     0
  0
DIMASSOC
  5
4526
102
{ACAD_REACTORS
330
4525
102
}
330
4525
100
AcDbDimAssoc
330
4524
 90
        3
 70
     0
 71
     0
  1
AcDbOsnapPointRef
 72
    13
331
4540
 73
     2
 91
        6
 40
0.0
 10
0.0
 20
0.0
 30
2.000000000000000E+50
 75
     0
  1
AcDbOsnapPointRef
 72
     1
331
4540
 73
     2
 91
        2
 40
1.0
 10
0.0
 20
0.0
 30
2.000000000000000E+50
 75
     0
  0
DIMASSOC
  5
4529
102
{ACAD_REACTORS
330
4528
102
}
330
4528
100
AcDbDimAssoc
330
4527
 90
        3
 70
     0
 71
     0
  1
AcDbOsnapPointRef
 72
     2
331
4541
 73
     2
 91
        4
 40
1.570796326794896
 10
0.0
 20
0.0
 30
0.0
 75
     0
  1
AcDbOsnapPointRef
 72
     1
331
453F
 73
     2
 91
        0
 40
1.0
 10
0.0
 20
0.0
 30
2.000000000000000E+50
 75
     0
  0
DIMASSOC
  5
452C
102
{ACAD_REACTORS
330
452B
102
}
330
452B
100
AcDbDimAssoc
330
452A
 90
        2
 70
     0
 71
     0
  1
AcDbOsnapPointRef
 72
     6
331
4540
 73
     2
 91
       11
 40
-0.0000000000000116
 10
0.0
 20
0.0
 30
0.0
332
4540
 74
     2
 92
       10
 75
     0
  0
DIMASSOC
  5
4530
102
{ACAD_REACTORS
330
452F
102
}
330
452F
100
AcDbDimAssoc
330
452E
 90
        2
 70
     0
 71
     0
  1
AcDbOsnapPointRef
 72
     2
331
4541
 73
     2
 91
        6
 40
3.14159265358977
 10
0.0
 20
0.0
 30
0.0
 75
     0
  0
DIMASSOC
  5
4533
102
{ACAD_REACTORS
330
4532
102
}
330
4532
100
AcDbDimAssoc
330
4531
 90
        1
 70
     0
 71
     0
  1
AcDbOsnapPointRef
 72
     6
331
453C
 73
     2
 91
        0
 40
0.0
 10
0.0
 20
0.0
 30
0.0
332
4542
 74
     2
 92
        6
 75
     0
  0
DIMASSOC
  5
4547
102
{ACAD_REACTORS
330
4546
102
}
330
4546
100
AcDbDimAssoc
330
4545
 90
        3
 70
     0
 71
     0
  1
AcDbOsnapPointRef
 72
    13
331
4550
 73
     2
 91
        0
 40
0.0
 10
0.0
 20
0.0
 30
2.000000000000000E+50
 75
     0
  1
AcDbOsnapPointRef
 72
    13
331
4548
 73
     2
 91
        0
 40
0.0
 10
0.0
 20
0.0
 30
2.000000000000000E+50
 75
     0
  0
DIMASSOC
  5
458A
102
{ACAD_REACTORS
330
4589
102
}
330
4589
100
AcDbDimAssoc
330
4588
 90
        3
 70
     0
 71
     0
  1
AcDbOsnapPointRef
 72
    13
331
4592
 73
     2
 91
        0
 40
0.0
 10
0.0
 20
0.0
 30
2.000000000000000E+50
 75
     0
  1
AcDbOsnapPointRef
 72
    13
331
4595
 73
     2
 91
        0
 40
0.0
 10
0.0
 20
0.0
 30
2.000000000000000E+50
 75
     0
  0
DIMASSOC
  5
458D
102
{ACAD_REACTORS
330
458C
102
}
330
458C
100
AcDbDimAssoc
330
458B
 90
        1
 70
     0
 71
     0
  1
AcDbOsnapPointRef
 72
     1
331
4594
 73
     2
 91
        0
 40
0.9999999999999998
 10
0.0
 20
0.0
 30
2.000000000000000E+50
 75
     0
  0
DIMASSOC
  5
6676
102
{ACAD_REACTORS
330
6675
102
}
330
6675
100
AcDbDimAssoc
330
6674
 90
        2
 70
     0
 71
     0
  1
AcDbOsnapPointRef
 72
     3
331
668E
 73
     2
 91
        0
 40
0.0
 10
0.0
 20
0.0
 30
0.0
 75
     0
  0
DIMASSOC
  5
6679
102
{ACAD_REACTORS
330
6678
102
}
330
6678
100
AcDbDimAssoc
330
6677
 90
       15
 70
     0
 71
     0
  1
AcDbOsnapPointRef
 72
    13
331
669F
 73
     2
 91
        0
 40
0.0
 10
0.0
 20
0.0
 30
2.000000000000000E+50
 75
     0
  1
AcDbOsnapPointRef
 72
     1
331
669F
 73
     2
 91
        0
 40
1.0
 10
0.0
 20
0.0
 30
2.000000000000000E+50
 75
     0
  1
AcDbOsnapPointRef
 72
    13
331
6695
 73
     2
 91
        0
 40
0.0
 10
0.0
 20
0.0
 30
2.000000000000000E+50
 75
     0
  1
AcDbOsnapPointRef
 72
     1
331
6695
 73
     2
 91
        0
 40
1.0
 10
0.0
 20
0.0
 30
2.000000000000000E+50
 75
     0
  0
DIMASSOC
  5
667C
102
{ACAD_REACTORS
330
667B
102
}
330
667B
100
AcDbDimAssoc
330
667A
 90
        3
 70
     0
 71
     0
  1
AcDbOsnapPointRef
 72
     1
331
66C3
 73
     2
 91
        0
 40
1.0
 10
0.0
 20
0.0
 30
2.000000000000000E+50
 75
     0
  1
AcDbOsnapPointRef
 72
     1
331
6695
 73
     2
 91
        0
 40
1.0
 10
0.0
 20
0.0
 30
2.000000000000000E+50
 75
     0
  0
DIMASSOC
  5
667F
102
{ACAD_REACTORS
330
667E
102
}
330
667E
100
AcDbDimAssoc
330
667D
 90
       15
 70
     0
 71
     0
  1
AcDbOsnapPointRef
 72
    13
331
66B4
 73
     2
 91
        0
 40
0.0
 10
0.0
 20
0.0
 30
2.000000000000000E+50
 75
     0
  1
AcDbOsnapPointRef
 72
     1
331
66B4
 73
     2
 91
        0
 40
1.0
 10
0.0
 20
0.0
 30
2.000000000000000E+50
 75
     0
  1
AcDbOsnapPointRef
 72
    13
331
66AE
 73
     2
 91
        0
 40
0.0
 10
0.0
 20
0.0
 30
2.000000000000000E+50
 75
     0
  1
AcDbOsnapPointRef
 72
     1
331
66AE
 73
     2
 91
        0
 40
1.0
 10
0.0
 20
0.0
 30
2.000000000000000E+50
 75
     0
  0
DIMASSOC
  5
6682
102
{ACAD_REACTORS
330
6681
102
}
330
6681
100
AcDbDimAssoc
330
6680
 90
        2
 70
     0
 71
     0
  1
AcDbOsnapPointRef
 72
     3
331
66AD
 73
     2
 91
        0
 40
0.0
 10
0.0
 20
0.0
 30
0.0
 75
     0
  0
DIMASSOC
  5
6685
102
{ACAD_REACTORS
330
6684
102
}
330
6684
100
AcDbDimAssoc
330
6683
 90
        3
 70
     0
 71
     0
  1
AcDbOsnapPointRef
 72
    13
331
66C3
 73
     2
 91
        0
 40
0.0
 10
0.0
 20
0.0
 30
2.000000000000000E+50
 75
     0
  1
AcDbOsnapPointRef
 72
    13
331
66AE
 73
     2
 91
        0
 40
0.0
 10
0.0
 20
0.0
 30
2.000000000000000E+50
 75
     0
  0
DIMASSOC
  5
66C8
102
{ACAD_REACTORS
330
66C7
102
}
330
66C7
100
AcDbDimAssoc
330
66C6
 90
        2
 70
     0
 71
     0
  1
AcDbOsnapPointRef
 72
     3
331
670E
 73
     2
 91
       10
 40
0.0
 10
0.0
 20
0.0
 30
0.0
 75
     0
  0
DIMASSOC
  5
66E2
102
{ACAD_REACTORS
330
66E1
102
}
330
66E1
100
AcDbDimAssoc
330
66E0
 90
        2
 70
     0
 71
     0
  1
AcDbOsnapPointRef
 72
     3
331
670F
 73
     2
 91
        7
 40
0.0
 10
0.0
 20
0.0
 30
0.0
 75
     0
  0
DIMASSOC
  5
66E8
102
{ACAD_REACTORS
330
66E7
102
}
330
66E7
100
AcDbDimAssoc
330
66E6
 90
        2
 70
     0
 71
     0
  1
AcDbOsnapPointRef
 72
     1
331
6706
 73
     2
 91
        0
 40
1.0
 10
0.0
 20
0.0
 30
2.000000000000000E+50
 75
     0
  0
DIMASSOC
  5
66EB
102
{ACAD_REACTORS
330
66EA
102
}
330
66EA
100
AcDbDimAssoc
330
66E9
 90
        1
 70
     0
 71
     0
  1
AcDbOsnapPointRef
 72
    13
331
6702
 73
     2
 91
        0
 40
0.0
 10
0.0
 20
0.0
 30
2.000000000000000E+50
 75
     0
  0
DIMASSOC
  5
66EE
102
{ACAD_REACTORS
330
66ED
102
}
330
66ED
100
AcDbDimAssoc
330
66EC
 90
        3
 70
     0
 71
     0
  1
AcDbOsnapPointRef
 72
    13
331
670B
 73
     2
 91
        0
 40
0.0
 10
0.0
 20
0.0
 30
2.000000000000000E+50
 75
     0
  1
AcDbOsnapPointRef
 72
     6
331
670B
 73
     2
 91
        0
 40
1.0
 10
0.0
 20
0.0
 30
0.0
332
6710
 74
     2
 92
        8
 75
     0
  0
DIMASSOC
  5
66F1
102
{ACAD_REACTORS
330
66F0
102
}
330
66F0
100
AcDbDimAssoc
330
66EF
 90
        3
 70
     0
 71
     0
  1
AcDbOsnapPointRef
 72
     1
331
670E
 73
     2
 91
        9
 40
1.0
 10
0.0
 20
0.0
 30
2.000000000000000E+50
 75
     0
  1
AcDbOsnapPointRef
 72
    13
331
670E
 73
     2
 91
        2
 40
0.0
 10
0.0
 20
0.0
 30
2.000000000000000E+50
 75
     0
  0
DIMASSOC
  5
66F4
102
{ACAD_REACTORS
330
66F3
102
}
330
66F3
100
AcDbDimAssoc
330
66F2
 90
        3
 70
     0
 71
     0
  1
AcDbOsnapPointRef
 72
    13
331
670E
 73
     2
 91
        6
 40
0.0
 10
0.0
 20
0.0
 30
2.000000000000000E+50
 75
     0
  1
AcDbOsnapPointRef
 72
     1
331
670E
 73
     2
 91
        2
 40
1.0
 10
0.0
 20
0.0
 30
2.000000000000000E+50
 75
     0
  0
DIMASSOC
  5
66F7
102
{ACAD_REACTORS
330
66F6
102
}
330
66F6
100
AcDbDimAssoc
330
66F5
 90
        3
 70
     0
 71
     0
  1
AcDbOsnapPointRef
 72
     2
331
670F
 73
     2
 91
        4
 40
1.570796326794896
 10
0.0
 20
0.0
 30
0.0
 75
     0
  1
AcDbOsnapPointRef
 72
     1
331
670D
 73
     2
 91
        0
 40
1.0
 10
0.0
 20
0.0
 30
2.000000000000000E+50
 75
     0
  0
DIMASSOC
  5
66FA
102
{ACAD_REACTORS
330
66F9
102
}
330
66F9
100
AcDbDimAssoc
330
66F8
 90
        2
 70
     0
 71
     0
  1
AcDbOsnapPointRef
 72
     6
331
670E
 73
     2
 91
       11
 40
0.0
 10
0.0
 20
0.0
 30
0.0
332
670E
 74
     2
 92
       10
 75
     0
  0
DIMASSOC
  5
66FE
102
{ACAD_REACTORS
330
66FD
102
}
330
66FD
100
AcDbDimAssoc
330
66FC
 90
        2
 70
     0
 71
     0
  1
AcDbOsnapPointRef
 72
     2
331
670F
 73
     2
 91
        6
 40
3.14159265358977
 10
0.0
 20
0.0
 30
0.0
 75
     0
  0
DIMASSOC
  5
6701
102
{ACAD_REACTORS
330
6700
102
}
330
6700
100
AcDbDimAssoc
330
66FF
 90
        1
 70
     0
 71
     0
  1
AcDbOsnapPointRef
 72
     6
331
670A
 73
     2
 91
        0
 40
0.0
 10
0.0
 20
0.0
 30
0.0
332
6710
 74
     2
 92
        6
 75
     0
  0
DIMASSOC
  5
6715
102
{ACAD_REACTORS
330
6714
102
}
330
6714
100
AcDbDimAssoc
330
6713
 90
        3
 70
     0
 71
     0
  1
AcDbOsnapPointRef
 72
    13
331
671E
 73
     2
 91
        0
 40
0.0
 10
0.0
 20
0.0
 30
2.000000000000000E+50
 75
     0
  1
AcDbOsnapPointRef
 72
    13
331
6716
 73
     2
 91
        0
 40
0.0
 10
0.0
 20
0.0
 30
2.000000000000000E+50
 75
     0
  0
DIMASSOC
  5
6722
102
{ACAD_REACTORS
330
6721
102
}
330
6721
100
AcDbDimAssoc
330
6720
 90
        3
 70
     0
 71
     0
  1
AcDbOsnapPointRef
 72
    13
331
672A
 73
     2
 91
        0
 40
0.0
 10
0.0
 20
0.0
 30
2.000000000000000E+50
 75
     0
  1
AcDbOsnapPointRef
 72
    13
331
672D
 73
     2
 91
        0
 40
0.0
 10
0.0
 20
0.0
 30
2.000000000000000E+50
 75
     0
  0
DIMASSOC
  5
6725
102
{ACAD_REACTORS
330
6724
102
}
330
6724
100
AcDbDimAssoc
330
6723
 90
        1
 70
     0
 71
     0
  1
AcDbOsnapPointRef
 72
     1
331
672C
 73
     2
 91
        0
 40
0.9999999999999998
 10
0.0
 20
0.0
 30
2.000000000000000E+50
 75
     0
  0
ACDBDETAILVIEWSTYLE
  5
6887
102
{ACAD_REACTORS
330
6886
102
}
330
6886
100
AcDbModelDocViewStyle
 70
     0
  3
Metric50
290
     1
300
Metric50
 90
        0
100
AcDbDetailViewStyle
 70
     0
 71
     0
 90
        3
 71
     1
340
11
 62
   256
 40
5.0
340
0
 62
   256
 40
5.0
300

 40
0.0
280
     1
 71
     2
340
16
 90
       25
 62
   256
 71
     3
340
11
 62
   256
 40
5.0
 90
        0
 40
15.0
 90
        1
300
%<\AcVar ViewDetailId>% (%<\AcVar ViewScale \f "%sn">%)
 71
     4
340
16
 90
       25
 62
   256
340
16
 90
       25
 62
   256
280
     0
  0
LAYOUT
  5
51
102
{ACAD_REACTORS
330
1A
102
}
330
1A
100
AcDbPlotSettings
  1

  2
None
  4

  6

 40
0.0
 41
0.0
 42
0.0
 43
0.0
 44
0.0
 45
0.0
 46
0.0
 47
0.0
 48
0.0
 49
0.0
140
0.0
141
0.0
142
1.0
143
1.0
 70
   688
 72
     0
 73
     0
 74
     5
  7

 75
    16
147
1.0
 76
     0
 77
     2
 78
   300
148
0.0
149
0.0
100
AcDbLayout
  1
Layout1
 70
     1
 71
     1
 10
0.0
 20
0.0
 11
12.0
 21
9.0
 12
0.0
 22
0.0
 32
0.0
 14
0.0
 24
0.0
 34
0.0
 15
0.0
 25
0.0
 35
0.0
146
0.0
 13
0.0
 23
0.0
 33
0.0
 16
1.0
 26
0.0
 36
0.0
 17
0.0
 27
1.0
 37
0.0
 76
     0
330
50
  0
LAYOUT
  5
56
102
{ACAD_REACTORS
330
1A
102
}
330
1A
100
AcDbPlotSettings
  1

  2
None
  4

  6

 40
0.0
 41
0.0
 42
0.0
 43
0.0
 44
0.0
 45
0.0
 46
0.0
 47
0.0
 48
0.0
 49
0.0
140
0.0
141
0.0
142
1.0
143
1.0
 70
   688
 72
     0
 73
     0
 74
     5
  7

 75
    16
147
1.0
 76
     0
 77
     2
 78
   300
148
0.0
149
0.0
100
AcDbLayout
  1
Layout2
 70
     1
 71
     2
 10
0.0
 20
0.0
 11
12.0
 21
9.0
 12
0.0
 22
0.0
 32
0.0
 14
0.0
 24
0.0
 34
0.0
 15
0.0
 25
0.0
 35
0.0
146
0.0
 13
0.0
 23
0.0
 33
0.0
 16
1.0
 26
0.0
 36
0.0
 17
0.0
 27
1.0
 37
0.0
 76
     0
330
55
  0
LAYOUT
  5
22
102
{ACAD_REACTORS
330
1A
102
}
330
1A
100
AcDbPlotSettings
  1

  2
EPSON Stylus C43 Series
  4
Letter
  6

 40
3.757083177566528
 41
13.28207969665527
 42
3.757080078125
 43
13.28207397460937
 44
215.8999938964844
 45
279.3999938964844
 46
23.114
 47
0.0
 48
39532.39311359094
 49
-2814.365988303306
140
41040.30991359219
141
-464.4651883014084
142
1.0
143
236.0720705849301
 70
 11956
 72
     0
 73
     0
 74
     4
  7

 75
     0
147
0.0042359945313405
 76
     0
 77
     2
 78
   180
148
-1004122.78508521
149
71484.89610290396
100
AcDbLayout
  1
Model
 70
     1
 71
     0
 10
0.0
 20
0.0
 11
12.0
 21
9.0
 12
0.0
 22
0.0
 32
0.0
 14
0.0
 24
0.0
 34
0.0
 15
0.0
 25
0.0
 35
0.0
146
0.0
 13
0.0
 23
0.0
 33
0.0
 16
1.0
 26
0.0
 36
0.0
 17
0.0
 27
1.0
 37
0.0
 76
     0
330
1F
331
661D
  0
MATERIAL
  5
6620
102
{ACAD_REACTORS
330
6A
102
}
330
6A
100
AcDbMaterial
  1
ByBlock
 73
     1
 78
     1
172
     1
176
     1
270
     1
274
     1
 94
       63
  0
MATERIAL
  5
661F
102
{ACAD_REACTORS
330
6A
102
}
330
6A
100
AcDbMaterial
  1
ByLayer
 73
     1
 78
     1
172
     1
176
     1
270
     1
274
     1
 94
       63
  0
MATERIAL
  5
6621
102
{ACAD_REACTORS
330
6A
102
}
330
6A
100
AcDbMaterial
  1
Global
 73
     1
 78
     1
172
     1
176
     1
270
     1
274
     1
 94
       63
  0
MLEADERSTYLE
  5
6883
102
{ACAD_REACTORS
330
6882
102
}
330
6882
100
AcDbMLeaderStyle
179
     2
170
     2
171
     1
172
     0
 90
        2
 40
0.0
 41
0.0
173
     1
 91
-1056964608
340
14
 92
       -2
290
     1
 42
2.0
291
     1
 43
0.36
  3
Standard
 44
4.0
300

342
11
174
     1
178
     6
175
     1
176
     0
 93
-1056964608
 45
4.0
292
     0
297
     0
 46
4.0
 94
-1056964608
 47
1.0
 49
1.0
140
1.0
293
     1
141
0.0
294
     1
177
     0
142
1.0
295
     1
296
     0
143
0.125
271
     0
272
     9
273
     9
298
     1
  0
MLINESTYLE
  5
18
102
{ACAD_REACTORS
330
17
102
}
330
17
100
AcDbMlineStyle
  2
STANDARD
 70
     0
  3

 62
   256
 51
90.0
 52
90.0
 71
     2
 49
0.5
 62
   256
  6
BYLAYER
 49
-0.5
 62
   256
  6
BYLAYER
  0
ACDBPLACEHOLDER
  5
F
102
{ACAD_REACTORS
330
E
102
}
330
E
  0
SCALE
  5
6871
102
{ACAD_REACTORS
330
6870
102
}
330
6870
100
AcDbScale
 70
     0
300
1:1
140
1.0
141
1.0
290
     1
  0
SCALE
  5
6872
102
{ACAD_REACTORS
330
6870
102
}
330
6870
100
AcDbScale
 70
     0
300
1:2
140
1.0
141
2.0
290
     0
  0
SCALE
  5
6873
102
{ACAD_REACTORS
330
6870
102
}
330
6870
100
AcDbScale
 70
     0
300
1:4
140
1.0
141
4.0
290
     0
  0
SCALE
  5
6874
102
{ACAD_REACTORS
330
6870
102
}
330
6870
100
AcDbScale
 70
     0
300
1:5
140
1.0
141
5.0
290
     0
  0
SCALE
  5
6875
102
{ACAD_REACTORS
330
6870
102
}
330
6870
100
AcDbScale
 70
     0
300
1:8
140
1.0
141
8.0
290
     0
  0
SCALE
  5
6876
102
{ACAD_REACTORS
330
6870
102
}
330
6870
100
AcDbScale
 70
     0
300
1:10
140
1.0
141
10.0
290
     0
  0
SCALE
  5
6877
102
{ACAD_REACTORS
330
6870
102
}
330
6870
100
AcDbScale
 70
     0
300
1:16
140
1.0
141
16.0
290
     0
  0
SCALE
  5
6878
102
{ACAD_REACTORS
330
6870
102
}
330
6870
100
AcDbScale
 70
     0
300
1:20
140
1.0
141
20.0
290
     0
  0
SCALE
  5
6879
102
{ACAD_REACTORS
330
6870
102
}
330
6870
100
AcDbScale
 70
     0
300
1:30
140
1.0
141
30.0
290
     0
  0
SCALE
  5
687A
102
{ACAD_REACTORS
330
6870
102
}
330
6870
100
AcDbScale
 70
     0
300
1:40
140
1.0
141
40.0
290
     0
  0
SCALE
  5
687B
102
{ACAD_REACTORS
330
6870
102
}
330
6870
100
AcDbScale
 70
     0
300
1:50
140
1.0
141
50.0
290
     0
  0
SCALE
  5
687C
102
{ACAD_REACTORS
330
6870
102
}
330
6870
100
AcDbScale
 70
     0
300
1:100
140
1.0
141
100.0
290
     0
  0
SCALE
  5
687D
102
{ACAD_REACTORS
330
6870
102
}
330
6870
100
AcDbScale
 70
     0
300
2:1
140
2.0
141
1.0
290
     0
  0
SCALE
  5
687E
102
{ACAD_REACTORS
330
6870
102
}
330
6870
100
AcDbScale
 70
     0
300
4:1
140
4.0
141
1.0
290
     0
  0
SCALE
  5
687F
102
{ACAD_REACTORS
330
6870
102
}
330
6870
100
AcDbScale
 70
     0
300
8:1
140
8.0
141
1.0
290
     0
  0
SCALE
  5
6880
102
{ACAD_REACTORS
330
6870
102
}
330
6870
100
AcDbScale
 70
     0
300
10:1
140
10.0
141
1.0
290
     0
  0
SCALE
  5
6881
102
{ACAD_REACTORS
330
6870
102
}
330
6870
100
AcDbScale
 70
     0
300
100:1
140
100.0
141
1.0
290
     0
  0
ACDBSECTIONVIEWSTYLE
  5
6885
102
{ACAD_REACTORS
330
6884
102
}
330
6884
100
AcDbModelDocViewStyle
 70
     0
  3
Metric50
290
     1
300
Metric50
 90
        0
100
AcDbSectionViewStyle
 70
     0
 71
     0
 90
      102
 71
     1
340
11
 62
   256
 40
5.0
340
0
340
0
 62
   256
 40
5.0
300
I, O, Q, S, X, Z
 40
10.0
 90
        0
 40
2.5
 90
        0
 71
     2
340
16
 90
       25
 62
   256
340
16
 90
       50
 62
   256
 40
5.0
 40
2.5
 40
5.0
 71
     3
340
11
 62
   256
 40
5.0
 90
        0
 40
15.0
 90
        1
300
%<\AcVar ViewSectionStartId>%-%<\AcVar ViewSectionEndId>% (%<\AcVar ViewScale \f "%sn">%)
 71
     4
 62
   256
 62
   257
300
ANSI31
 40
1.0
 90
        0
290
     0
290
     0
 90
        6
 40
0.0
 40
1.570796326794896
 40
0.2617993877991494
 40
1.308996938995747
 40
-0.2617993877991494
 40
1.832595714594046
  0
TABLESTYLE
  5
6634
102
{ACAD_XDICTIONARY
360
68B1
102
}
102
{ACAD_REACTORS
330
6633
102
}
330
6633
100
AcDbTableStyle
280
     0
  3
Standard
 70
     0
 71
     0
 40
1.5
 41
1.5
280
     0
281
     0
  7
Standard
140
4.5
170
     2
 62
     0
 63
     7
283
     0
 90
      512
 91
        0
  1

274
    -2
284
     1
 64
     0
275
    -2
285
     1
 65
     0
276
    -2
286
     1
 66
     0
277
    -2
287
     1
 67
     0
278
    -2
288
     1
 68
     0
279
    -2
289
     1
 69
     0
  7
Standard
140
6.0
170
     5
 62
     0
 63
     7
283
     0
 90
      512
 91
        0
  1

274
    -2
284
     1
 64
     0
275
    -2
285
     1
 65
     0
276
    -2
286
     1
 66
     0
277
    -2
287
     1
 67
     0
278
    -2
288
     1
 68
     0
279
    -2
289
     1
 69
     0
  7
Standard
140
4.5
170
     5
 62
     0
 63
     7
283
     0
 90
      512
 91
        0
  1

274
    -2
284
     1
 64
     0
275
    -2
285
     1
 65
     0
276
    -2
286
     1
 66
     0
277
    -2
287
     1
 67
     0
278
    -2
288
     1
 68
     0
279
    -2
289
     1
 69
     0
  0
VISUALSTYLE
  5
6628
102
{ACAD_REACTORS
330
6622
102
}
330
6622
100
AcDbVisualStyle
  2
2dWireframe
 70
     4
177
     3
291
     0
 70
    58
 90
        0
176
     1
 90
        2
176
     1
 90
        0
176
     1
 90
        0
176
     1
 40
0.6
176
     1
 40
30.0
176
     1
 62
     7
420
 16777215
176
     1
 90
        1
176
     1
 90
        4
176
     1
 62
     7
176
     1
 62
   257
176
     1
 90
        1
176
     1
 90
        1
176
     1
 40
1.0
176
     1
 90
        0
176
     1
 62
   257
176
     1
 40
1.0
176
     1
 90
        1
176
     1
 90
        6
176
     1
 90
        2
176
     1
 62
     7
176
     1
 90
        5
176
     1
 90
        0
176
     1
 90
        0
176
     1
290
     0
176
     1
 90
        1
176
     1
 40
0.0
176
     1
 90
        0
176
     1
290
     1
176
     1
290
     1
176
     1
290
     0
176
     1
290
     0
176
     1
290
     0
176
     1
290
     0
176
     1
290
     0
176
     1
290
     0
176
     1
290
     0
176
     1
 90
       50
176
     1
 40
0.0
176
     1
 40
1.0
176
     1
 90
        0
176
     1
 62
    18
420
        0
176
     1
 90
       50
176
     1
 90
        3
176
     1
 62
     5
420
      255
176
     1
290
     0
176
     1
 90
       50
176
     1
 90
       50
176
     1
 90
       50
176
     1
290
     0
176
     1
 90
       50
176
     1
 62
   256
176
     0
 40
1.0
176
     0
 90
        2
176
     1
  1
strokes_ogs.tif
176
     1
290
     0
176
     1
 40
1.0
176
     1
 40
1.0
176
     1
  0
VISUALSTYLE
  5
662A
102
{ACAD_REACTORS
330
6622
102
}
330
6622
100
AcDbVisualStyle
  2
3D Hidden
 70
     6
177
     3
291
     0
 70
    58
 90
        1
176
     1
 90
        2
176
     1
 90
        2
176
     1
 90
        0
176
     1
 40
0.6
176
     1
 40
30.0
176
     1
 62
     7
420
 16777215
176
     1
 90
        2
176
     1
 90
        2
176
     1
 62
     7
176
     1
 62
   257
176
     1
 90
        2
176
     1
 90
        1
176
     1
 40
40.0
176
     1
 90
        0
176
     1
 62
   257
176
     1
 40
1.0
176
     1
 90
        1
176
     1
 90
        6
176
     1
 90
        2
176
     1
 62
     7
176
     1
 90
        3
176
     1
 90
        0
176
     1
 90
        0
176
     1
290
     0
176
     1
 90
        1
176
     1
 40
0.0
176
     1
 90
        0
176
     1
290
     0
176
     1
290
     1
176
     1
290
     1
176
     1
290
     0
176
     1
290
     0
176
     1
290
     0
176
     1
290
     0
176
     1
290
     0
176
     1
290
     0
176
     1
 90
       50
176
     1
 40
0.0
176
     1
 40
1.0
176
     1
 90
        0
176
     1
 62
    18
420
        0
176
     1
 90
       50
176
     1
 90
        3
176
     1
 62
     5
420
      255
176
     1
290
     0
176
     1
 90
       50
176
     1
 90
       50
176
     1
 90
       50
176
     1
290
     0
176
     1
 90
       50
176
     1
 62
   256
176
     0
 40
1.0
176
     0
 90
        2
176
     1
  1
strokes_ogs.tif
176
     1
290
     0
176
     1
 40
1.0
176
     1
 40
1.0
176
     1
  0
VISUALSTYLE
  5
6629
102
{ACAD_REACTORS
330
6622
102
}
330
6622
100
AcDbVisualStyle
  2
3dWireframe
 70
     5
177
     3
291
     0
 70
    58
 90
        0
176
     1
 90
        2
176
     1
 90
        0
176
     1
 90
        0
176
     1
 40
0.6
176
     1
 40
30.0
176
     1
 62
     7
420
 16777215
176
     1
 90
        1
176
     1
 90
        4
176
     1
 62
     7
176
     1
 62
   257
176
     1
 90
        1
176
     1
 90
        1
176
     1
 40
1.0
176
     1
 90
        0
176
     1
 62
   257
176
     1
 40
1.0
176
     1
 90
        1
176
     1
 90
        6
176
     1
 90
        2
176
     1
 62
     7
176
     1
 90
        5
176
     1
 90
        0
176
     1
 90
        0
176
     1
290
     0
176
     1
 90
        1
176
     1
 40
0.0
176
     1
 90
        0
176
     1
290
     0
176
     1
290
     1
176
     1
290
     1
176
     1
290
     0
176
     1
290
     0
176
     1
290
     0
176
     1
290
     0
176
     1
290
     0
176
     1
290
     0
176
     1
 90
       50
176
     1
 40
0.0
176
     1
 40
1.0
176
     1
 90
        0
176
     1
 62
    18
420
        0
176
     1
 90
       50
176
     1
 90
        3
176
     1
 62
     5
420
      255
176
     1
290
     0
176
     1
 90
       50
176
     1
 90
       50
176
     1
 90
       50
176
     1
290
     0
176
     1
 90
       50
176
     1
 62
   256
176
     0
 40
1.0
176
     0
 90
        2
176
     1
  1
strokes_ogs.tif
176
     1
290
     0
176
     1
 40
1.0
176
     1
 40
1.0
176
     1
  0
VISUALSTYLE
  5
6627
102
{ACAD_REACTORS
330
6622
102
}
330
6622
100
AcDbVisualStyle
  2
Basic
 70
     7
177
     3
291
     1
 70
    58
 90
        1
176
     1
 90
        0
176
     1
 90
        1
176
     1
 90
        0
176
     1
 40
0.6
176
     1
 40
30.0
176
     1
 62
     7
420
 16777215
176
     1
 90
        0
176
     1
 90
        4
176
     1
 62
     7
176
     1
 62
   257
176
     1
 90
        1
176
     1
 90
        1
176
     1
 40
1.0
176
     1
 90
        8
176
     1
 62
     7
176
     1
 40
1.0
176
     1
 90
        1
176
     1
 90
        6
176
     1
 90
        2
176
     1
 62
     7
176
     1
 90
        5
176
     1
 90
        0
176
     1
 90
        0
176
     1
290
     0
176
     1
 90
        1
176
     1
 40
0.0
176
     1
 90
        0
176
     1
290
     0
176
     1
290
     1
176
     1
290
     1
176
     1
290
     0
176
     1
290
     0
176
     1
290
     0
176
     1
290
     0
176
     1
290
     0
176
     1
290
     0
176
     1
 90
       50
176
     1
 40
0.0
176
     1
 40
1.0
176
     1
 90
        0
176
     1
 62
    18
420
        0
176
     1
 90
       50
176
     1
 90
        3
176
     1
 62
     5
420
      255
176
     1
290
     0
176
     1
 90
       50
176
     1
 90
       50
176
     1
 90
       50
176
     1
290
     0
176
     1
 90
       50
176
     1
 62
   256
176
     0
 40
1.0
176
     0
 90
        2
176
     1
  1
strokes_ogs.tif
176
     1
290
     0
176
     1
 40
1.0
176
     1
 40
1.0
176
     1
  0
VISUALSTYLE
  5
662E
102
{ACAD_REACTORS
330
6622
102
}
330
6622
100
AcDbVisualStyle
  2
Brighten
 70
    12
177
     3
291
     1
 70
    58
 90
        2
176
     1
 90
        2
176
     1
 90
        0
176
     1
 90
        0
176
     1
 40
0.6
176
     1
 40
30.0
176
     1
 62
     7
420
 16777215
176
     1
 90
        1
176
     1
 90
        4
176
     1
 62
     7
176
     1
 62
   257
176
     1
 90
        1
176
     1
 90
        1
176
     1
 40
1.0
176
     1
 90
        8
176
     1
 62
     7
176
     1
 40
1.0
176
     1
 90
        1
176
     1
 90
        6
176
     1
 90
        2
176
     1
 62
     7
176
     1
 90
        5
176
     1
 90
        0
176
     1
 90
        0
176
     1
290
     0
176
     1
 90
        1
176
     1
 40
50.0
176
     1
 90
        0
176
     1
290
     0
176
     1
290
     1
176
     1
290
     1
176
     1
290
     0
176
     1
290
     0
176
     1
290
     0
176
     1
290
     0
176
     1
290
     0
176
     1
290
     0
176
     1
 90
       50
176
     1
 40
0.0
176
     1
 40
1.0
176
     1
 90
        0
176
     1
 62
    18
420
        0
176
     1
 90
       50
176
     1
 90
        3
176
     1
 62
     5
420
      255
176
     1
290
     0
176
     1
 90
       50
176
     1
 90
       50
176
     1
 90
       50
176
     1
290
     0
176
     1
 90
       50
176
     1
 62
   256
176
     0
 40
1.0
176
     0
 90
        2
176
     1
  1
strokes_ogs.tif
176
     1
290
     0
176
     1
 40
1.0
176
     1
 40
1.0
176
     1
  0
VISUALSTYLE
  5
6632
102
{ACAD_REACTORS
330
6622
102
}
330
6622
100
AcDbVisualStyle
  2
ColorChange
 70
    16
177
     3
291
     1
 70
    58
 90
        2
176
     1
 90
        2
176
     1
 90
        3
176
     1
 90
        0
176
     1
 40
0.6
176
     1
 40
30.0
176
     1
 62
     8
420
  8421504
176
     1
 90
        1
176
     1
 90
        4
176
     1
 62
     7
176
     1
 62
   257
176
     1
 90
        1
176
     1
 90
        1
176
     1
 40
1.0
176
     1
 90
        8
176
     1
 62
     8
420
  8421504
176
     1
 40
1.0
176
     1
 90
        1
176
     1
 90
        6
176
     1
 90
        2
176
     1
 62
     7
176
     1
 90
        5
176
     1
 90
        0
176
     1
 90
        0
176
     1
290
     0
176
     1
 90
        1
176
     1
 40
0.0
176
     1
 90
        0
176
     1
290
     0
176
     1
290
     1
176
     1
290
     1
176
     1
290
     0
176
     1
290
     0
176
     1
290
     0
176
     1
290
     0
176
     1
290
     0
176
     1
290
     0
176
     1
 90
       50
176
     1
 40
0.0
176
     1
 40
1.0
176
     1
 90
        0
176
     1
 62
    18
420
        0
176
     1
 90
       50
176
     1
 90
        3
176
     1
 62
     5
420
      255
176
     1
290
     0
176
     1
 90
       50
176
     1
 90
       50
176
     1
 90
       50
176
     1
290
     0
176
     1
 90
       50
176
     1
 62
   256
176
     0
 40
1.0
176
     0
 90
        2
176
     1
  1
strokes_ogs.tif
176
     1
290
     0
176
     1
 40
1.0
176
     1
 40
1.0
176
     1
  0
VISUALSTYLE
  5
662B
102
{ACAD_REACTORS
330
6622
102
}
330
6622
100
AcDbVisualStyle
  2
Conceptual
 70
     9
177
     3
291
     0
 70
    58
 90
        3
176
     1
 90
        2
176
     1
 90
        0
176
     1
 90
        0
176
     1
 40
0.6
176
     1
 40
30.0
176
     1
 62
     7
420
 16777215
176
     1
 90
        2
176
     1
 90
        2
176
     1
 62
     7
176
     1
 62
   257
176
     1
 90
        1
176
     1
 90
        1
176
     1
 40
40.0
176
     1
 90
        8
176
     1
 62
     7
176
     1
 40
1.0
176
     1
 90
        1
176
     1
 90
        6
176
     1
 90
        2
176
     1
 62
     7
176
     1
 90
        3
176
     1
 90
        0
176
     1
 90
        0
176
     1
290
     0
176
     1
 90
        1
176
     1
 40
0.0
176
     1
 90
        0
176
     1
290
     0
176
     1
290
     1
176
     1
290
     1
176
     1
290
     0
176
     1
290
     0
176
     1
290
     0
176
     1
290
     0
176
     1
290
     0
176
     1
290
     0
176
     1
 90
       50
176
     1
 40
0.0
176
     1
 40
1.0
176
     1
 90
        0
176
     1
 62
    18
420
        0
176
     1
 90
       50
176
     1
 90
        3
176
     1
 62
     5
420
      255
176
     1
290
     0
176
     1
 90
       50
176
     1
 90
       50
176
     1
 90
       50
176
     1
290
     0
176
     1
 90
       50
176
     1
 62
   256
176
     0
 40
1.0
176
     0
 90
        2
176
     1
  1
strokes_ogs.tif
176
     1
290
     0
176
     1
 40
1.0
176
     1
 40
1.0
176
     1
  0
VISUALSTYLE
  5
662D
102
{ACAD_REACTORS
330
6622
102
}
330
6622
100
AcDbVisualStyle
  2
Dim
 70
    11
177
     3
291
     1
 70
    58
 90
        2
176
     1
 90
        2
176
     1
 90
        0
176
     1
 90
        0
176
     1
 40
0.6
176
     1
 40
30.0
176
     1
 62
     7
420
 16777215
176
     1
 90
        1
176
     1
 90
        4
176
     1
 62
     7
176
     1
 62
   257
176
     1
 90
        1
176
     1
 90
        1
176
     1
 40
1.0
176
     1
 90
        8
176
     1
 62
     7
176
     1
 40
1.0
176
     1
 90
        1
176
     1
 90
        6
176
     1
 90
        2
176
     1
 62
     7
176
     1
 90
        5
176
     1
 90
        0
176
     1
 90
        0
176
     1
290
     0
176
     1
 90
        1
176
     1
 40
-50.0
176
     1
 90
        0
176
     1
290
     0
176
     1
290
     1
176
     1
290
     1
176
     1
290
     0
176
     1
290
     0
176
     1
290
     0
176
     1
290
     0
176
     1
290
     0
176
     1
290
     0
176
     1
 90
       50
176
     1
 40
0.0
176
     1
 40
1.0
176
     1
 90
        0
176
     1
 62
    18
420
        0
176
     1
 90
       50
176
     1
 90
        3
176
     1
 62
     5
420
      255
176
     1
290
     0
176
     1
 90
       50
176
     1
 90
       50
176
     1
 90
       50
176
     1
290
     0
176
     1
 90
       50
176
     1
 62
   256
176
     0
 40
1.0
176
     0
 90
        2
176
     1
  1
strokes_ogs.tif
176
     1
290
     0
176
     1
 40
1.0
176
     1
 40
1.0
176
     1
  0
VISUALSTYLE
  5
686F
102
{ACAD_REACTORS
330
6622
102
}
330
6622
100
AcDbVisualStyle
  2
EdgeColorOff
 70
    22
177
     3
291
     1
 70
    58
 90
        2
176
     0
 90
        2
176
     0
 90
        0
176
     0
 90
        0
176
     0
 40
0.6
176
     0
 40
30.0
176
     0
 62
     7
420
 16777215
176
     0
 90
        1
176
     0
 90
        4
176
     0
 62
     7
176
     0
 62
   257
176
     0
 90
        1
176
     0
 90
        1
176
     0
 40
1.0
176
     0
 90
        8
176
     2
 62
     7
176
     0
 40
1.0
176
     0
 90
        1
176
     0
 90
        6
176
     0
 90
        2
176
     0
 62
     7
176
     0
 90
        5
176
     0
 90
        0
176
     0
 90
        0
176
     0
290
     0
176
     0
 90
        1
176
     0
 40
0.0
176
     0
 90
        0
176
     0
290
     0
176
     0
290
     1
176
     0
290
     1
176
     0
290
     0
176
     0
290
     0
176
     0
290
     0
176
     0
290
     0
176
     0
290
     0
176
     0
290
     0
176
     0
 90
       50
176
     0
 40
0.0
176
     0
 40
1.0
176
     0
 90
        0
176
     0
 62
    18
420
        0
176
     0
 90
       50
176
     0
 90
        3
176
     0
 62
     5
420
      255
176
     0
290
     0
176
     0
 90
       50
176
     0
 90
       50
176
     0
 90
       50
176
     0
290
     0
176
     0
 90
       50
176
     0
 62
   256
176
     0
 40
1.0
176
     0
 90
        2
176
     0
  1
strokes_ogs.tif
176
     0
290
     0
176
     0
 40
1.0
176
     0
 40
1.0
176
     0
  0
VISUALSTYLE
  5
6631
102
{ACAD_REACTORS
330
6622
102
}
330
6622
100
AcDbVisualStyle
  2
Facepattern
 70
    15
177
     3
291
     1
 70
    58
 90
        2
176
     1
 90
        2
176
     1
 90
        0
176
     1
 90
        0
176
     1
 40
0.6
176
     1
 40
30.0
176
     1
 62
     7
420
 16777215
176
     1
 90
        1
176
     1
 90
        4
176
     1
 62
     7
176
     1
 62
   257
176
     1
 90
        1
176
     1
 90
        1
176
     1
 40
1.0
176
     1
 90
        8
176
     1
 62
     7
176
     1
 40
1.0
176
     1
 90
        1
176
     1
 90
        6
176
     1
 90
        2
176
     1
 62
     7
176
     1
 90
        5
176
     1
 90
        0
176
     1
 90
        0
176
     1
290
     0
176
     1
 90
        1
176
     1
 40
0.0
176
     1
 90
        0
176
     1
290
     0
176
     1
290
     1
176
     1
290
     1
176
     1
290
     0
176
     1
290
     0
176
     1
290
     0
176
     1
290
     0
176
     1
290
     0
176
     1
290
     0
176
     1
 90
       50
176
     1
 40
0.0
176
     1
 40
1.0
176
     1
 90
        0
176
     1
 62
    18
420
        0
176
     1
 90
       50
176
     1
 90
        3
176
     1
 62
     5
420
      255
176
     1
290
     0
176
     1
 90
       50
176
     1
 90
       50
176
     1
 90
       50
176
     1
290
     0
176
     1
 90
       50
176
     1
 62
   256
176
     0
 40
1.0
176
     0
 90
        2
176
     1
  1
strokes_ogs.tif
176
     1
290
     0
176
     1
 40
1.0
176
     1
 40
1.0
176
     1
  0
VISUALSTYLE
  5
6623
102
{ACAD_REACTORS
330
6622
102
}
330
6622
100
AcDbVisualStyle
  2
Flat
 70
     0
177
     3
291
     1
 70
    58
 90
        2
176
     1
 90
        1
176
     1
 90
        1
176
     1
 90
        2
176
     1
 40
0.6
176
     1
 40
30.0
176
     1
 62
     7
420
 16777215
176
     1
 90
        0
176
     1
 90
        4
176
     1
 62
     7
176
     1
 62
   257
176
     1
 90
        1
176
     1
 90
        1
176
     1
 40
1.0
176
     1
 90
        8
176
     1
 62
     7
176
     1
 40
1.0
176
     1
 90
        1
176
     1
 90
        6
176
     1
 90
        2
176
     1
 62
     7
176
     1
 90
        5
176
     1
 90
        0
176
     1
 90
        0
176
     1
290
     0
176
     1
 90
       13
176
     1
 40
0.0
176
     1
 90
        0
176
     1
290
     0
176
     1
290
     1
176
     1
290
     1
176
     1
290
     0
176
     1
290
     0
176
     1
290
     0
176
     1
290
     0
176
     1
290
     0
176
     1
290
     0
176
     1
 90
       50
176
     1
 40
0.0
176
     1
 40
1.0
176
     1
 90
        0
176
     1
 62
    18
420
        0
176
     1
 90
       50
176
     1
 90
        3
176
     1
 62
     5
420
      255
176
     1
290
     0
176
     1
 90
       50
176
     1
 90
       50
176
     1
 90
       50
176
     1
290
     0
176
     1
 90
       50
176
     1
 62
   256
176
     0
 40
1.0
176
     0
 90
        2
176
     1
  1
strokes_ogs.tif
176
     1
290
     0
176
     1
 40
1.0
176
     1
 40
1.0
176
     1
  0
VISUALSTYLE
  5
6624
102
{ACAD_REACTORS
330
6622
102
}
330
6622
100
AcDbVisualStyle
  2
FlatWithEdges
 70
     1
177
     3
291
     1
 70
    58
 90
        2
176
     1
 90
        1
176
     1
 90
        1
176
     1
 90
        2
176
     1
 40
0.6
176
     1
 40
30.0
176
     1
 62
     7
420
 16777215
176
     1
 90
        1
176
     1
 90
        4
176
     1
 62
     7
176
     1
 62
   257
176
     1
 90
        1
176
     1
 90
        1
176
     1
 40
1.0
176
     1
 90
        0
176
     1
 62
   257
176
     1
 40
1.0
176
     1
 90
        1
176
     1
 90
        6
176
     1
 90
        2
176
     1
 62
     7
176
     1
 90
        5
176
     1
 90
        0
176
     1
 90
        0
176
     1
290
     0
176
     1
 90
       13
176
     1
 40
0.0
176
     1
 90
        0
176
     1
290
     0
176
     1
290
     1
176
     1
290
     1
176
     1
290
     0
176
     1
290
     0
176
     1
290
     0
176
     1
290
     0
176
     1
290
     0
176
     1
290
     0
176
     1
 90
       50
176
     1
 40
0.0
176
     1
 40
1.0
176
     1
 90
        0
176
     1
 62
    18
420
        0
176
     1
 90
       50
176
     1
 90
        3
176
     1
 62
     5
420
      255
176
     1
290
     0
176
     1
 90
       50
176
     1
 90
       50
176
     1
 90
       50
176
     1
290
     0
176
     1
 90
       50
176
     1
 62
   256
176
     0
 40
1.0
176
     0
 90
        2
176
     1
  1
strokes_ogs.tif
176
     1
290
     0
176
     1
 40
1.0
176
     1
 40
1.0
176
     1
  0
VISUALSTYLE
  5
6625
102
{ACAD_REACTORS
330
6622
102
}
330
6622
100
AcDbVisualStyle
  2
Gouraud
 70
     2
177
     3
291
     1
 70
    58
 90
        2
176
     1
 90
        2
176
     1
 90
        1
176
     1
 90
        2
176
     1
 40
0.6
176
     1
 40
30.0
176
     1
 62
     7
420
 16777215
176
     1
 90
        0
176
     1
 90
        4
176
     1
 62
     7
176
     1
 62
   257
176
     1
 90
        1
176
     1
 90
        1
176
     1
 40
1.0
176
     1
 90
        0
176
     1
 62
     7
176
     1
 40
1.0
176
     1
 90
        1
176
     1
 90
        6
176
     1
 90
        2
176
     1
 62
     7
176
     1
 90
        5
176
     1
 90
        0
176
     1
 90
        0
176
     1
290
     0
176
     1
 90
       13
176
     1
 40
0.0
176
     1
 90
        0
176
     1
290
     0
176
     1
290
     1
176
     1
290
     1
176
     1
290
     0
176
     1
290
     0
176
     1
290
     0
176
     1
290
     0
176
     1
290
     0
176
     1
290
     0
176
     1
 90
       50
176
     1
 40
0.0
176
     1
 40
1.0
176
     1
 90
        0
176
     1
 62
    18
420
        0
176
     1
 90
       50
176
     1
 90
        3
176
     1
 62
     5
420
      255
176
     1
290
     0
176
     1
 90
       50
176
     1
 90
       50
176
     1
 90
       50
176
     1
290
     0
176
     1
 90
       50
176
     1
 62
   256
176
     0
 40
1.0
176
     0
 90
        2
176
     1
  1
strokes_ogs.tif
176
     1
290
     0
176
     1
 40
1.0
176
     1
 40
1.0
176
     1
  0
VISUALSTYLE
  5
6626
102
{ACAD_REACTORS
330
6622
102
}
330
6622
100
AcDbVisualStyle
  2
GouraudWithEdges
 70
     3
177
     3
291
     1
 70
    58
 90
        2
176
     1
 90
        2
176
     1
 90
        1
176
     1
 90
        2
176
     1
 40
0.6
176
     1
 40
30.0
176
     1
 62
     7
420
 16777215
176
     1
 90
        1
176
     1
 90
        4
176
     1
 62
     7
176
     1
 62
   257
176
     1
 90
        1
176
     1
 90
        1
176
     1
 40
1.0
176
     1
 90
        0
176
     1
 62
   257
176
     1
 40
1.0
176
     1
 90
        1
176
     1
 90
        6
176
     1
 90
        2
176
     1
 62
     7
176
     1
 90
        5
176
     1
 90
        0
176
     1
 90
        0
176
     1
290
     0
176
     1
 90
       13
176
     1
 40
0.0
176
     1
 90
        0
176
     1
290
     0
176
     1
290
     1
176
     1
290
     1
176
     1
290
     0
176
     1
290
     0
176
     1
290
     0
176
     1
290
     0
176
     1
290
     0
176
     1
290
     0
176
     1
 90
       50
176
     1
 40
0.0
176
     1
 40
1.0
176
     1
 90
        0
176
     1
 62
    18
420
        0
176
     1
 90
       50
176
     1
 90
        3
176
     1
 62
     5
420
      255
176
     1
290
     0
176
     1
 90
       50
176
     1
 90
       50
176
     1
 90
       50
176
     1
290
     0
176
     1
 90
       50
176
     1
 62
   256
176
     0
 40
1.0
176
     0
 90
        2
176
     1
  1
strokes_ogs.tif
176
     1
290
     0
176
     1
 40
1.0
176
     1
 40
1.0
176
     1
  0
VISUALSTYLE
  5
6867
102
{ACAD_REACTORS
330
6622
102
}
330
6622
100
AcDbVisualStyle
  2
Hidden
 70
     6
177
     3
291
     0
 70
    58
 90
        1
176
     1
 90
        2
176
     1
 90
        2
176
     1
 90
        0
176
     1
 40
0.6
176
     1
 40
30.0
176
     1
 62
     7
420
 16777215
176
     1
 90
        2
176
     1
 90
        2
176
     1
 62
     7
176
     1
 62
   257
176
     1
 90
        2
176
     1
 90
        1
176
     1
 40
40.0
176
     1
 90
        0
176
     1
 62
   257
176
     1
 40
1.0
176
     1
 90
        1
176
     1
 90
        6
176
     1
 90
        2
176
     1
 62
     7
176
     1
 90
        3
176
     1
 90
        0
176
     1
 90
        0
176
     1
290
     0
176
     1
 90
        1
176
     1
 40
0.0
176
     1
 90
        0
176
     1
290
     0
176
     1
290
     1
176
     1
290
     1
176
     1
290
     0
176
     1
290
     0
176
     1
290
     0
176
     1
290
     0
176
     1
290
     0
176
     1
290
     0
176
     1
 90
       50
176
     1
 40
0.0
176
     1
 40
1.0
176
     1
 90
        0
176
     1
 62
    18
420
        0
176
     1
 90
       50
176
     1
 90
        3
176
     1
 62
     5
420
      255
176
     1
290
     0
176
     1
 90
       50
176
     1
 90
       50
176
     1
 90
       50
176
     1
290
     0
176
     1
 90
       50
176
     1
 62
   256
176
     0
 40
1.0
176
     0
 90
        2
176
     1
  1
strokes_ogs.tif
176
     1
290
     0
176
     1
 40
1.0
176
     1
 40
1.0
176
     1
  0
VISUALSTYLE
  5
686D
102
{ACAD_REACTORS
330
6622
102
}
330
6622
100
AcDbVisualStyle
  2
JitterOff
 70
    20
177
     3
291
     1
 70
    58
 90
        2
176
     0
 90
        2
176
     0
 90
        0
176
     0
 90
        0
176
     0
 40
0.6
176
     0
 40
30.0
176
     0
 62
     7
420
 16777215
176
     0
 90
        1
176
     0
 90
        4
176
     0
 62
     7
176
     0
 62
   257
176
     0
 90
        1
176
     0
 90
        1
176
     0
 40
1.0
176
     0
 90
       10
176
     2
 62
     7
176
     0
 40
1.0
176
     0
 90
        1
176
     0
 90
        6
176
     0
 90
        2
176
     0
 62
     7
176
     0
 90
        5
176
     0
 90
        0
176
     0
 90
        0
176
     0
290
     0
176
     0
 90
        1
176
     0
 40
0.0
176
     0
 90
        0
176
     0
290
     0
176
     0
290
     1
176
     0
290
     1
176
     0
290
     0
176
     0
290
     0
176
     0
290
     0
176
     0
290
     0
176
     0
290
     0
176
     0
290
     0
176
     0
 90
       50
176
     0
 40
0.0
176
     0
 40
1.0
176
     0
 90
        0
176
     0
 62
    18
420
        0
176
     0
 90
       50
176
     0
 90
        3
176
     0
 62
     5
420
      255
176
     0
290
     0
176
     0
 90
       50
176
     0
 90
       50
176
     0
 90
       50
176
     0
290
     0
176
     0
 90
       50
176
     0
 62
   256
176
     0
 40
1.0
176
     0
 90
        2
176
     0
  1
strokes_ogs.tif
176
     0
290
     0
176
     0
 40
1.0
176
     0
 40
1.0
176
     0
  0
VISUALSTYLE
  5
6630
102
{ACAD_REACTORS
330
6622
102
}
330
6622
100
AcDbVisualStyle
  2
Linepattern
 70
    14
177
     3
291
     1
 70
    58
 90
        2
176
     1
 90
        2
176
     1
 90
        0
176
     1
 90
        0
176
     1
 40
0.6
176
     1
 40
30.0
176
     1
 62
     7
420
 16777215
176
     1
 90
        1
176
     1
 90
        4
176
     1
 62
     7
176
     1
 62
   257
176
     1
 90
        7
176
     1
 90
        7
176
     1
 40
1.0
176
     1
 90
        8
176
     1
 62
     7
176
     1
 40
1.0
176
     1
 90
        1
176
     1
 90
        6
176
     1
 90
        2
176
     1
 62
     7
176
     1
 90
        5
176
     1
 90
        0
176
     1
 90
        0
176
     1
290
     0
176
     1
 90
        1
176
     1
 40
0.0
176
     1
 90
        0
176
     1
290
     0
176
     1
290
     1
176
     1
290
     1
176
     1
290
     0
176
     1
290
     0
176
     1
290
     0
176
     1
290
     0
176
     1
290
     0
176
     1
290
     0
176
     1
 90
       50
176
     1
 40
0.0
176
     1
 40
1.0
176
     1
 90
        0
176
     1
 62
    18
420
        0
176
     1
 90
       50
176
     1
 90
        3
176
     1
 62
     5
420
      255
176
     1
290
     0
176
     1
 90
       50
176
     1
 90
       50
176
     1
 90
       50
176
     1
290
     0
176
     1
 90
       50
176
     1
 62
   256
176
     0
 40
1.0
176
     0
 90
        2
176
     1
  1
strokes_ogs.tif
176
     1
290
     0
176
     1
 40
1.0
176
     1
 40
1.0
176
     1
  0
VISUALSTYLE
  5
686E
102
{ACAD_REACTORS
330
6622
102
}
330
6622
100
AcDbVisualStyle
  2
OverhangOff
 70
    21
177
     3
291
     1
 70
    58
 90
        2
176
     0
 90
        2
176
     0
 90
        0
176
     0
 90
        0
176
     0
 40
0.6
176
     0
 40
30.0
176
     0
 62
     7
420
 16777215
176
     0
 90
        1
176
     0
 90
        4
176
     0
 62
     7
176
     0
 62
   257
176
     0
 90
        1
176
     0
 90
        1
176
     0
 40
1.0
176
     0
 90
        9
176
     2
 62
     7
176
     0
 40
1.0
176
     0
 90
        1
176
     0
 90
        6
176
     0
 90
        2
176
     0
 62
     7
176
     0
 90
        5
176
     0
 90
        0
176
     0
 90
        0
176
     0
290
     0
176
     0
 90
        1
176
     0
 40
0.0
176
     0
 90
        0
176
     0
290
     0
176
     0
290
     1
176
     0
290
     1
176
     0
290
     0
176
     0
290
     0
176
     0
290
     0
176
     0
290
     0
176
     0
290
     0
176
     0
290
     0
176
     0
 90
       50
176
     0
 40
0.0
176
     0
 40
1.0
176
     0
 90
        0
176
     0
 62
    18
420
        0
176
     0
 90
       50
176
     0
 90
        3
176
     0
 62
     5
420
      255
176
     0
290
     0
176
     0
 90
       50
176
     0
 90
       50
176
     0
 90
       50
176
     0
290
     0
176
     0
 90
       50
176
     0
 62
   256
176
     0
 40
1.0
176
     0
 90
        2
176
     0
  1
strokes_ogs.tif
176
     0
290
     0
176
     0
 40
1.0
176
     0
 40
1.0
176
     0
  0
VISUALSTYLE
  5
662C
102
{ACAD_REACTORS
330
6622
102
}
330
6622
100
AcDbVisualStyle
  2
Realistic
 70
     8
177
     3
291
     0
 70
    58
 90
        2
176
     1
 90
        2
176
     1
 90
        0
176
     1
 90
        0
176
     1
 40
0.6
176
     1
 40
30.0
176
     1
 62
     7
420
 16777215
176
     1
 90
        1
176
     1
 90
        0
176
     1
 62
     7
176
     1
 62
   257
176
     1
 90
        1
176
     1
 90
        1
176
     1
 40
1.0
176
     1
 90
        8
176
     1
 62
     8
420
  7895160
176
     1
 40
1.0
176
     1
 90
        1
176
     1
 90
        6
176
     1
 90
        2
176
     1
 62
     7
176
     1
 90
        5
176
     1
 90
        0
176
     1
 90
        0
176
     1
290
     0
176
     1
 90
       13
176
     1
 40
0.0
176
     1
 90
        0
176
     1
290
     0
176
     1
290
     1
176
     1
290
     1
176
     1
290
     0
176
     1
290
     0
176
     1
290
     0
176
     1
290
     0
176
     1
290
     0
176
     1
290
     0
176
     1
 90
       50
176
     1
 40
0.0
176
     1
 40
1.0
176
     1
 90
        0
176
     1
 62
    18
420
        0
176
     1
 90
       50
176
     1
 90
        3
176
     1
 62
     5
420
      255
176
     1
290
     0
176
     1
 90
       50
176
     1
 90
       50
176
     1
 90
       50
176
     1
290
     0
176
     1
 90
       50
176
     1
 62
   256
176
     0
 40
1.0
176
     0
 90
        2
176
     1
  1
strokes_ogs.tif
176
     1
290
     0
176
     1
 40
1.0
176
     1
 40
1.0
176
     1
  0
VISUALSTYLE
  5
686C
102
{ACAD_REACTORS
330
6622
102
}
330
6622
100
AcDbVisualStyle
  2
Shaded
 70
    27
177
     3
291
     0
 70
    58
 90
        2
176
     1
 90
        2
176
     1
 90
        1
176
     1
 90
        2
176
     1
 40
0.6
176
     1
 40
30.0
176
     1
 62
     7
420
 16777215
176
     1
 90
        0
176
     1
 90
        4
176
     1
 62
     7
176
     1
 62
   257
176
     1
 90
        1
176
     1
 90
        1
176
     1
 40
1.0
176
     1
 90
        8
176
     1
 62
   257
176
     1
 40
1.0
176
     1
 90
        1
176
     1
 90
        6
176
     1
 90
        2
176
     1
 62
     8
420
  7895160
176
     1
 90
        3
176
     1
 90
        0
176
     1
 90
        0
176
     1
290
     0
176
     1
 90
        5
176
     1
 40
0.0
176
     1
 90
        0
176
     1
290
     0
176
     1
290
     1
176
     1
290
     1
176
     1
290
     0
176
     1
290
     0
176
     1
290
     0
176
     1
290
     0
176
     1
290
     0
176
     1
290
     0
176
     1
 90
       50
176
     1
 40
0.0
176
     1
 40
1.0
176
     1
 90
        0
176
     1
 62
    18
420
        0
176
     1
 90
       50
176
     1
 90
        3
176
     1
 62
     5
420
      255
176
     1
290
     0
176
     1
 90
       50
176
     1
 90
       50
176
     1
 90
       50
176
     1
290
     0
176
     1
 90
       50
176
     1
 62
   256
176
     0
 40
1.0
176
     0
 90
        2
176
     1
  1
strokes_ogs.tif
176
     1
290
     0
176
     1
 40
1.0
176
     1
 40
1.0
176
     1
  0
VISUALSTYLE
  5
686B
102
{ACAD_REACTORS
330
6622
102
}
330
6622
100
AcDbVisualStyle
  2
Shaded with edges
 70
    26
177
     3
291
     0
 70
    58
 90
        2
176
     1
 90
        2
176
     1
 90
        1
176
     1
 90
        2
176
     1
 40
0.6
176
     1
 40
30.0
176
     1
 62
     7
420
 16777215
176
     1
 90
        1
176
     1
 90
        2
176
     1
 62
     7
176
     1
 62
   257
176
     1
 90
        2
176
     1
 90
        1
176
     1
 40
1.0
176
     1
 90
        8
176
     1
 62
   257
176
     1
 40
1.0
176
     1
 90
        1
176
     1
 90
        6
176
     1
 90
        2
176
     1
 62
     7
176
     1
 90
        3
176
     1
 90
        0
176
     1
 90
        0
176
     1
290
     0
176
     1
 90
        5
176
     1
 40
0.0
176
     1
 90
        0
176
     1
290
     0
176
     1
290
     1
176
     1
290
     1
176
     1
290
     0
176
     1
290
     0
176
     1
290
     0
176
     1
290
     0
176
     1
290
     0
176
     1
290
     0
176
     1
 90
       50
176
     1
 40
0.0
176
     1
 40
1.0
176
     1
 90
        0
176
     1
 62
    18
420
        0
176
     1
 90
       50
176
     1
 90
        3
176
     1
 62
     5
420
      255
176
     1
290
     0
176
     1
 90
       50
176
     1
 90
       50
176
     1
 90
       50
176
     1
290
     0
176
     1
 90
       50
176
     1
 62
   256
176
     0
 40
1.0
176
     0
 90
        2
176
     1
  1
strokes_ogs.tif
176
     1
290
     0
176
     1
 40
1.0
176
     1
 40
1.0
176
     1
  0
VISUALSTYLE
  5
6868
102
{ACAD_REACTORS
330
6622
102
}
330
6622
100
AcDbVisualStyle
  2
Shades of Gray
 70
    23
177
     3
291
     0
 70
    58
 90
        2
176
     1
 90
        2
176
     1
 90
        3
176
     1
 90
        0
176
     1
 40
0.6
176
     1
 40
30.0
176
     1
 62
     7
420
 16777215
176
     1
 90
        2
176
     1
 90
        2
176
     1
 62
     7
176
     1
 62
     7
176
     1
 90
        1
176
     1
 90
        1
176
     1
 40
40.0
176
     1
 90
        8
176
     1
 62
     7
176
     1
 40
1.0
176
     1
 90
        1
176
     1
 90
        6
176
     1
 90
        2
176
     1
 62
     7
176
     1
 90
        3
176
     1
 90
        0
176
     1
 90
        0
176
     1
290
     0
176
     1
 90
        1
176
     1
 40
0.0
176
     1
 90
        0
176
     1
290
     0
176
     1
290
     1
176
     1
290
     1
176
     1
290
     0
176
     1
290
     0
176
     1
290
     0
176
     1
290
     0
176
     1
290
     0
176
     1
290
     0
176
     1
 90
       50
176
     1
 40
0.0
176
     1
 40
1.0
176
     1
 90
        0
176
     1
 62
    18
420
        0
176
     1
 90
       50
176
     1
 90
        3
176
     1
 62
     5
420
      255
176
     1
290
     0
176
     1
 90
       50
176
     1
 90
       50
176
     1
 90
       50
176
     1
290
     0
176
     1
 90
       50
176
     1
 62
   256
176
     0
 40
1.0
176
     0
 90
        2
176
     1
  1
strokes_ogs.tif
176
     1
290
     0
176
     1
 40
1.0
176
     1
 40
1.0
176
     1
  0
VISUALSTYLE
  5
6869
102
{ACAD_REACTORS
330
6622
102
}
330
6622
100
AcDbVisualStyle
  2
Sketchy
 70
    24
177
     3
291
     0
 70
    58
 90
        1
176
     1
 90
        2
176
     1
 90
        2
176
     1
 90
        0
176
     1
 40
0.6
176
     1
 40
30.0
176
     1
 62
     7
420
 16777215
176
     1
 90
        2
176
     1
 90
        2
176
     1
 62
     7
176
     1
 62
     7
176
     1
 90
        1
176
     1
 90
        1
176
     1
 40
40.0
176
     1
 90
       11
176
     1
 62
     7
176
     1
 40
1.0
176
     1
 90
        1
176
     1
 90
        6
176
     1
 90
        2
176
     1
 62
     7
176
     1
 90
        6
176
     1
 90
        0
176
     1
 90
        0
176
     1
290
     0
176
     1
 90
        1
176
     1
 40
0.0
176
     1
 90
        0
176
     1
290
     0
176
     1
290
     1
176
     1
290
     1
176
     1
290
     0
176
     1
290
     0
176
     1
290
     0
176
     1
290
     0
176
     1
290
     0
176
     1
290
     0
176
     1
 90
       50
176
     1
 40
0.0
176
     1
 40
1.0
176
     1
 90
        0
176
     1
 62
    18
420
        0
176
     1
 90
       50
176
     1
 90
        3
176
     1
 62
     5
420
      255
176
     1
290
     0
176
     1
 90
       50
176
     1
 90
       50
176
     1
 90
       50
176
     1
290
     0
176
     1
 90
       50
176
     1
 62
   256
176
     0
 40
1.0
176
     0
 90
        2
176
     1
  1
strokes_ogs.tif
176
     1
290
     0
176
     1
 40
1.0
176
     1
 40
1.0
176
     1
  0
VISUALSTYLE
  5
662F
102
{ACAD_REACTORS
330
6622
102
}
330
6622
100
AcDbVisualStyle
  2
Thicken
 70
    13
177
     3
291
     1
 70
    58
 90
        2
176
     1
 90
        2
176
     1
 90
        0
176
     1
 90
        0
176
     1
 40
0.6
176
     1
 40
30.0
176
     1
 62
     7
420
 16777215
176
     1
 90
        1
176
     1
 90
        4
176
     1
 62
     7
176
     1
 62
   257
176
     1
 90
        1
176
     1
 90
        1
176
     1
 40
1.0
176
     1
 90
       12
176
     1
 62
     7
176
     1
 40
1.0
176
     1
 90
        1
176
     1
 90
        6
176
     1
 90
        2
176
     1
 62
     7
176
     1
 90
        5
176
     1
 90
        0
176
     1
 90
        0
176
     1
290
     0
176
     1
 90
        1
176
     1
 40
0.0
176
     1
 90
        0
176
     1
290
     0
176
     1
290
     1
176
     1
290
     1
176
     1
290
     0
176
     1
290
     0
176
     1
290
     0
176
     1
290
     0
176
     1
290
     0
176
     1
290
     0
176
     1
 90
       50
176
     1
 40
0.0
176
     1
 40
1.0
176
     1
 90
        0
176
     1
 62
    18
420
        0
176
     1
 90
       50
176
     1
 90
        3
176
     1
 62
     5
420
      255
176
     1
290
     0
176
     1
 90
       50
176
     1
 90
       50
176
     1
 90
       50
176
     1
290
     0
176
     1
 90
       50
176
     1
 62
   256
176
     0
 40
1.0
176
     0
 90
        2
176
     1
  1
strokes_ogs.tif
176
     1
290
     0
176
     1
 40
1.0
176
     1
 40
1.0
176
     1
  0
VISUALSTYLE
  5
6866
102
{ACAD_REACTORS
330
6622
102
}
330
6622
100
AcDbVisualStyle
  2
Wireframe
 70
     5
177
     3
291
     0
 70
    58
 90
        0
176
     1
 90
        2
176
     1
 90
        0
176
     1
 90
        0
176
     1
 40
0.6
176
     1
 40
30.0
176
     1
 62
     7
420
 16777215
176
     1
 90
        1
176
     1
 90
        4
176
     1
 62
     7
176
     1
 62
   257
176
     1
 90
        1
176
     1
 90
        1
176
     1
 40
1.0
176
     1
 90
        0
176
     1
 62
   257
176
     1
 40
1.0
176
     1
 90
        1
176
     1
 90
        6
176
     1
 90
        2
176
     1
 62
     7
176
     1
 90
        3
176
     1
 90
        0
176
     1
 90
        0
176
     1
290
     0
176
     1
 90
        1
176
     1
 40
0.0
176
     1
 90
        0
176
     1
290
     0
176
     1
290
     1
176
     1
290
     1
176
     1
290
     0
176
     1
290
     0
176
     1
290
     0
176
     1
290
     0
176
     1
290
     0
176
     1
290
     0
176
     1
 90
       50
176
     1
 40
0.0
176
     1
 40
1.0
176
     1
 90
        0
176
     1
 62
    18
420
        0
176
     1
 90
       50
176
     1
 90
        3
176
     1
 62
     5
420
      255
176
     1
290
     0
176
     1
 90
       50
176
     1
 90
       50
176
     1
 90
       50
176
     1
290
     0
176
     1
 90
       50
176
     1
 62
   256
176
     0
 40
1.0
176
     0
 90
        2
176
     1
  1
strokes_ogs.tif
176
     1
290
     0
176
     1
 40
1.0
176
     1
 40
1.0
176
     1
  0
VISUALSTYLE
  5
686A
102
{ACAD_REACTORS
330
6622
102
}
330
6622
100
AcDbVisualStyle
  2
X-Ray
 70
    25
177
     3
291
     0
 70
    58
 90
        2
176
     1
 90
        2
176
     1
 90
        1
176
     1
 90
        1
176
     1
 40
0.5
176
     1
 40
30.0
176
     1
 62
     7
420
 16777215
176
     1
 90
        1
176
     1
 90
        0
176
     1
 62
     7
176
     1
 62
   257
176
     1
 90
        1
176
     1
 90
        1
176
     1
 40
1.0
176
     1
 90
        8
176
     1
 62
     7
176
     1
 40
1.0
176
     1
 90
        1
176
     1
 90
        6
176
     1
 90
        2
176
     1
 62
     7
176
     1
 90
        3
176
     1
 90
        0
176
     1
 90
        0
176
     1
290
     0
176
     1
 90
       13
176
     1
 40
0.0
176
     1
 90
        0
176
     1
290
     0
176
     1
290
     1
176
     1
290
     1
176
     1
290
     0
176
     1
290
     0
176
     1
290
     0
176
     1
290
     0
176
     1
290
     0
176
     1
290
     0
176
     1
 90
       50
176
     1
 40
0.0
176
     1
 40
1.0
176
     1
 90
        0
176
     1
 62
    18
420
        0
176
     1
 90
       50
176
     1
 90
        3
176
     1
 62
     5
420
      255
176
     1
290
     0
176
     1
 90
       50
176
     1
 90
       50
176
     1
 90
       50
176
     1
290
     0
176
     1
 90
       50
176
     1
 62
   256
176
     0
 40
1.0
176
     0
 90
        2
176
     1
  1
strokes_ogs.tif
176
     1
290
     0
176
     1
 40
1.0
176
     1
 40
1.0
176
     1
  0
DICTIONARYVAR
  5
68AD
102
{ACAD_REACTORS
330
5E
102
}
330
5E
100
DictionaryVariables
280
     0
  1
1:1
  0
DICTIONARYVAR
  5
68A9
102
{ACAD_REACTORS
330
5E
102
}
330
5E
100
DictionaryVariables
280
     0
  1
STANDARD
  0
DICTIONARYVAR
  5
6864
102
{ACAD_REACTORS
330
5E
102
}
330
5E
100
DictionaryVariables
280
     0
  1
STANDARD
  0
DICTIONARYVAR
  5
68AA
102
{ACAD_REACTORS
330
5E
102
}
330
5E
100
DictionaryVariables
280
     0
  1
Metric50
  0
DICTIONARYVAR
  5
68AB
102
{ACAD_REACTORS
330
5E
102
}
330
5E
100
DictionaryVariables
280
     0
  1
Metric50
  0
DICTIONARYVAR
  5
5F
102
{ACAD_REACTORS
330
5E
102
}
330
5E
100
DictionaryVariables
280
     0
  1
2
  0
DICTIONARYVAR
  5
63
102
{ACAD_REACTORS
330
5E
102
}
330
5E
100
DictionaryVariables
280
     0
  1
1
  0
DICTIONARYVAR
  5
68AF
102
{ACAD_REACTORS
330
5E
102
}
330
5E
100
DictionaryVariables
280
     0
  1
1
  0
DICTIONARYVAR
  5
68B0
102
{ACAD_REACTORS
330
5E
102
}
330
5E
100
DictionaryVariables
280
     0
  1
15
  0
DICTIONARYVAR
  5
68AE
102
{ACAD_REACTORS
330
5E
102
}
330
5E
100
DictionaryVariables
280
     0
  1
0
  0
DICTIONARYVAR
  5
68AC
102
{ACAD_REACTORS
330
5E
102
}
330
5E
100
DictionaryVariables
280
     0
  1
0
  0
DICTIONARYVAR
  5
1CF
102
{ACAD_REACTORS
330
5E
102
}
330
5E
100
DictionaryVariables
280
     0
  1

  0
ACAD_PROXY_OBJECT
  5
663C
102
{ACAD_REACTORS
330
663B
102
}
330
663B
100
AcDbProxyObject
 90
      499
 91
      508
 71
    27
 97
        1
 70
     0
162
                 0
161
               224
310
00013FFFD0C4040800000000000004402826564C4F2D52202E20302900
 94
        0
  0
DICTIONARY
  5
68B1
330
6634
100
AcDbDictionary
280
     1
281
     1
  3
ACAD_ROUNDTRIP_2008_TABLESTYLE_CELLSTYLEMAP
360
68B2
  0
CELLSTYLEMAP
  5
68B2
102
{ACAD_REACTORS
330
68B1
102
}
330
68B1
100
AcDbCellStyleMap
 90
        3
300
CELLSTYLE
  1
TABLEFORMAT_BEGIN
 90
        5
170
     1
 91
        0
 92
    32768
 62
   257
 93
        1
300
CONTENTFORMAT
  1
CONTENTFORMAT_BEGIN
 90
        0
 91
        0
 92
      512
 93
        0
300

 40
0.0
140
1.0
 94
        5
 62
     0
340
11
144
6.0
309
CONTENTFORMAT_END
171
     1
301
MARGIN
  1
CELLMARGIN_BEGIN
 40
1.5
 40
1.5
 40
1.5
 40
1.5
 40
0.18
 40
0.18
309
CELLMARGIN_END
 94
        6
 95
        1
302
GRIDFORMAT
  1
GRIDFORMAT_BEGIN
 90
        0
 91
        1
 62
     0
 92
       -2
340
0
 93
        0
 40
0.045
309
GRIDFORMAT_END
 95
        2
302
GRIDFORMAT
  1
GRIDFORMAT_BEGIN
 90
        0
 91
        1
 62
     0
 92
       -2
340
0
 93
        0
 40
0.045
309
GRIDFORMAT_END
 95
        4
302
GRIDFORMAT
  1
GRIDFORMAT_BEGIN
 90
        0
 91
        1
 62
     0
 92
       -2
340
0
 93
        0
 40
0.045
309
GRIDFORMAT_END
 95
        8
302
GRIDFORMAT
  1
GRIDFORMAT_BEGIN
 90
        0
 91
        1
 62
     0
 92
       -2
340
0
 93
        0
 40
0.045
309
GRIDFORMAT_END
 95
       16
302
GRIDFORMAT
  1
GRIDFORMAT_BEGIN
 90
        0
 91
        1
 62
     0
 92
       -2
340
0
 93
        0
 40
0.045
309
GRIDFORMAT_END
 95
       32
302
GRIDFORMAT
  1
GRIDFORMAT_BEGIN
 90
        0
 91
        1
 62
     0
 92
       -2
340
0
 93
        0
 40
0.045
309
GRIDFORMAT_END
309
TABLEFORMAT_END
  1
CELLSTYLE_BEGIN
 90
        1
 91
        1
300
_TITLE
309
CELLSTYLE_END
300
CELLSTYLE
  1
TABLEFORMAT_BEGIN
 90
        5
170
     1
 91
        0
 92
        0
 62
   257
 93
        1
300
CONTENTFORMAT
  1
CONTENTFORMAT_BEGIN
 90
        0
 91
        0
 92
      512
 93
        0
300

 40
0.0
140
1.0
 94
        5
 62
     0
340
11
144
4.5
309
CONTENTFORMAT_END
171
     1
301
MARGIN
  1
CELLMARGIN_BEGIN
 40
1.5
 40
1.5
 40
1.5
 40
1.5
 40
0.18
 40
0.18
309
CELLMARGIN_END
 94
        6
 95
        1
302
GRIDFORMAT
  1
GRIDFORMAT_BEGIN
 90
        0
 91
        1
 62
     0
 92
       -2
340
0
 93
        0
 40
0.045
309
GRIDFORMAT_END
 95
        2
302
GRIDFORMAT
  1
GRIDFORMAT_BEGIN
 90
        0
 91
        1
 62
     0
 92
       -2
340
0
 93
        0
 40
0.045
309
GRIDFORMAT_END
 95
        4
302
GRIDFORMAT
  1
GRIDFORMAT_BEGIN
 90
        0
 91
        1
 62
     0
 92
       -2
340
0
 93
        0
 40
0.045
309
GRIDFORMAT_END
 95
        8
302
GRIDFORMAT
  1
GRIDFORMAT_BEGIN
 90
        0
 91
        1
 62
     0
 92
       -2
340
0
 93
        0
 40
0.045
309
GRIDFORMAT_END
 95
       16
302
GRIDFORMAT
  1
GRIDFORMAT_BEGIN
 90
        0
 91
        1
 62
     0
 92
       -2
340
0
 93
        0
 40
0.045
309
GRIDFORMAT_END
 95
       32
302
GRIDFORMAT
  1
GRIDFORMAT_BEGIN
 90
        0
 91
        1
 62
     0
 92
       -2
340
0
 93
        0
 40
0.045
309
GRIDFORMAT_END
309
TABLEFORMAT_END
  1
CELLSTYLE_BEGIN
 90
        2
 91
        1
300
_HEADER
309
CELLSTYLE_END
300
CELLSTYLE
  1
TABLEFORMAT_BEGIN
 90
        5
170
     1
 91
        0
 92
        0
 62
   257
 93
        1
300
CONTENTFORMAT
  1
CONTENTFORMAT_BEGIN
 90
        0
 91
        0
 92
      512
 93
        0
300

 40
0.0
140
1.0
 94
        2
 62
     0
340
11
144
4.5
309
CONTENTFORMAT_END
171
     1
301
MARGIN
  1
CELLMARGIN_BEGIN
 40
1.5
 40
1.5
 40
1.5
 40
1.5
 40
0.18
 40
0.18
309
CELLMARGIN_END
 94
        6
 95
        1
302
GRIDFORMAT
  1
GRIDFORMAT_BEGIN
 90
        0
 91
        1
 62
     0
 92
       -2
340
0
 93
        0
 40
0.045
309
GRIDFORMAT_END
 95
        2
302
GRIDFORMAT
  1
GRIDFORMAT_BEGIN
 90
        0
 91
        1
 62
     0
 92
       -2
340
0
 93
        0
 40
0.045
309
GRIDFORMAT_END
 95
        4
302
GRIDFORMAT
  1
GRIDFORMAT_BEGIN
 90
        0
 91
        1
 62
     0
 92
       -2
340
0
 93
        0
 40
0.045
309
GRIDFORMAT_END
 95
        8
302
GRIDFORMAT
  1
GRIDFORMAT_BEGIN
 90
        0
 91
        1
 62
     0
 92
       -2
340
0
 93
        0
 40
0.045
309
GRIDFORMAT_END
 95
       16
302
GRIDFORMAT
  1
GRIDFORMAT_BEGIN
 90
        0
 91
        1
 62
     0
 92
       -2
340
0
 93
        0
 40
0.045
309
GRIDFORMAT_END
 95
       32
302
GRIDFORMAT
  1
GRIDFORMAT_BEGIN
 90
        0
 91
        1
 62
     0
 92
       -2
340
0
 93
        0
 40
0.045
309
GRIDFORMAT_END
309
TABLEFORMAT_END
  1
CELLSTYLE_BEGIN
 90
        3
 91
        2
300
_DATA
309
CELLSTYLE_END
  0
ENDSEC
  0
EOF
