  0
SECTION
  2
HEADER
  9
$ACADVER
  1
AC1032
  9
$ACADMAINTVER
 90
        4
  9
$DWGCODEPAGE
  3
ANSI_1252
  9
$LASTSAVEDBY
  1
Siqi
  9
$REQUIREDVERSIONS
160
                 0
  9
$INSBASE
 10
0.0
 20
0.0
 30
0.0
  9
$EXTMIN
 10
-7928.446699289875
 20
-3901.299921888059
 30
0.0
  9
$EXTMAX
 10
8024.739577768526
 20
7385.851910530006
 30
0.0
  9
$LIMMIN
 10
0.0
 20
0.0
  9
$LIMMAX
 10
420.0
 20
297.0
  9
$ORTHOMODE
 70
     0
  9
$REGENMODE
 70
     1
  9
$FILLMODE
 70
     1
  9
$QTEXTMODE
 70
     0
  9
$MIRRTEXT
 70
     0
  9
$LTSCALE
 40
1.0
  9
$ATTMODE
 70
     1
  9
$TEXTSIZE
 40
2.5
  9
$TRACEWID
 40
1.0
  9
$TEXTSTYLE
  7
样式 2
  9
$CLAYER
  8
图层3
  9
$CELTYPE
  6
ByLayer
  9
$CECOLOR
 62
   256
  9
$CELTSCALE
 40
1.0
  9
$DISPSILH
 70
     0
  9
$DIMSCALE
 40
1.0
  9
$DIMASZ
 40
16.0
  9
$DIMEXO
 40
0.0
  9
$DIMDLI
 40
3.75
  9
$DIMRND
 40
0.0
  9
$DIMDLE
 40
0.0
  9
$DIMEXE
 40
1.25
  9
$DIMTP
 40
0.0
  9
$DIMTM
 40
0.0
  9
$DIMTXT
 40
17.0
  9
$DIMCEN
 40
80.0
  9
$DIMTSZ
 40
0.0
  9
$DIMTOL
 70
     0
  9
$DIMLIM
 70
     0
  9
$DIMTIH
 70
     0
  9
$DIMTOH
 70
     1
  9
$DIMSE1
 70
     0
  9
$DIMSE2
 70
     0
  9
$DIMTAD
 70
     1
  9
$DIMZIN
 70
     8
  9
$DIMBLK
  1

  9
$DIMASO
 70
     1
  9
$DIMSHO
 70
     1
  9
$DIMPOST
  1

  9
$DIMAPOST
  1

  9
$DIMALT
 70
     0
  9
$DIMALTD
 70
     3
  9
$DIMALTF
 40
0.03937007874016
  9
$DIMLFAC
 40
1.0
  9
$DIMTOFL
 70
     1
  9
$DIMTVP
 40
0.0
  9
$DIMTIX
 70
     0
  9
$DIMSOXD
 70
     0
  9
$DIMSAH
 70
     0
  9
$DIMBLK1
  1

  9
$DIMBLK2
  1

  9
$DIMSTYLE
  2
ISO-25
  9
$DIMCLRD
 70
     0
  9
$DIMCLRE
 70
     0
  9
$DIMCLRT
 70
     0
  9
$DIMTFAC
 40
1.0
  9
$DIMGAP
 40
5.0
  9
$DIMJUST
 70
     0
  9
$DIMSD1
 70
     0
  9
$DIMSD2
 70
     0
  9
$DIMTOLJ
 70
     0
  9
$DIMTZIN
 70
     8
  9
$DIMALTZ
 70
     0
  9
$DIMALTTZ
 70
     0
  9
$DIMUPT
 70
     0
  9
$DIMDEC
 70
     2
  9
$DIMTDEC
 70
     2
  9
$DIMALTU
 70
     7
  9
$DIMALTTD
 70
     3
  9
$DIMTXSTY
  7
Standard
  9
$DIMAUNIT
 70
     0
  9
$DIMADEC
 70
     0
  9
$DIMALTRND
 40
0.0
  9
$DIMAZIN
 70
     0
  9
$DIMDSEP
 70
    46
  9
$DIMATFIT
 70
     3
  9
$DIMFRAC
 70
     0
  9
$DIMLDRBLK
  1

  9
$DIMLUNIT
 70
     2
  9
$DIMLWD
 70
    -2
  9
$DIMLWE
 70
    -2
  9
$DIMTMOVE
 70
     0
  9
$DIMFXL
 40
1.0
  9
$DIMFXLON
 70
     0
  9
$DIMJOGANG
 40
0.7853981633974483
  9
$DIMTFILL
 70
     0
  9
$DIMTFILLCLR
 70
     0
  9
$DIMARCSYM
 70
     0
  9
$DIMLTYPE
  6

  9
$DIMLTEX1
  6

  9
$DIMLTEX2
  6

  9
$DIMTXTDIRECTION
 70
     0
  9
$LUNITS
 70
     2
  9
$LUPREC
 70
     4
  9
$SKETCHINC
 40
1.0
  9
$FILLETRAD
 40
2.5
  9
$AUNITS
 70
     0
  9
$AUPREC
 70
     0
  9
$MENU
  1
.
  9
$ELEVATION
 40
0.0
  9
$PELEVATION
 40
0.0
  9
$THICKNESS
 40
0.0
  9
$LIMCHECK
 70
     0
  9
$CHAMFERA
 40
72.0
  9
$CHAMFERB
 40
72.0
  9
$CHAMFERC
 40
0.0
  9
$CHAMFERD
 40
0.0
  9
$SKPOLY
 70
     0
  9
$TDCREATE
 40
2454478.682291667
  9
$TDUCREATE
 40
2454479.015631863
  9
$TDUPDATE
 40
2457974.698715278
  9
$TDUUPDATE
 40
2457974.990381945
  9
$TDINDWG
 40
0.3625703356
  9
$TDUSRTIMER
 40
0.3625629282
  9
$USRTIMER
 70
     1
  9
$ANGBASE
 50
0.0
  9
$ANGDIR
 70
     0
  9
$PDMODE
 70
     0
  9
$PDSIZE
 40
0.0
  9
$PLINEWID
 40
0.0
  9
$SPLFRAME
 70
     0
  9
$SPLINETYPE
 70
     6
  9
$SPLINESEGS
 70
     8
  9
$HANDSEED
  5
23DE
  9
$SURFTAB1
 70
     6
  9
$SURFTAB2
 70
     6
  9
$SURFTYPE
 70
     6
  9
$SURFU
 70
     6
  9
$SURFV
 70
     6
  9
$UCSBASE
  2

  9
$UCSNAME
  2

  9
$UCSORG
 10
0.0
 20
0.0
 30
0.0
  9
$UCSXDIR
 10
1.0
 20
0.0
 30
0.0
  9
$UCSYDIR
 10
0.0
 20
1.0
 30
0.0
  9
$UCSORTHOREF
  2

  9
$UCSORTHOVIEW
 70
     0
  9
$UCSORGTOP
 10
0.0
 20
0.0
 30
0.0
  9
$UCSORGBOTTOM
 10
0.0
 20
0.0
 30
0.0
  9
$UCSORGLEFT
 10
0.0
 20
0.0
 30
0.0
  9
$UCSORGRIGHT
 10
0.0
 20
0.0
 30
0.0
  9
$UCSORGFRONT
 10
0.0
 20
0.0
 30
0.0
  9
$UCSORGBACK
 10
0.0
 20
0.0
 30
0.0
  9
$PUCSBASE
  2

  9
$PUCSNAME
  2

  9
$PUCSORG
 10
0.0
 20
0.0
 30
0.0
  9
$PUCSXDIR
 10
1.0
 20
0.0
 30
0.0
  9
$PUCSYDIR
 10
0.0
 20
1.0
 30
0.0
  9
$PUCSORTHOREF
  2

  9
$PUCSORTHOVIEW
 70
     0
  9
$PUCSORGTOP
 10
0.0
 20
0.0
 30
0.0
  9
$PUCSORGBOTTOM
 10
0.0
 20
0.0
 30
0.0
  9
$PUCSORGLEFT
 10
0.0
 20
0.0
 30
0.0
  9
$PUCSORGRIGHT
 10
0.0
 20
0.0
 30
0.0
  9
$PUCSORGFRONT
 10
0.0
 20
0.0
 30
0.0
  9
$PUCSORGBACK
 10
0.0
 20
0.0
 30
0.0
  9
$USERI1
 70
     0
  9
$USERI2
 70
     0
  9
$USERI3
 70
     0
  9
$USERI4
 70
     0
  9
$USERI5
 70
     0
  9
$USERR1
 40
0.0
  9
$USERR2
 40
0.0
  9
$USERR3
 40
0.0
  9
$USERR4
 40
0.0
  9
$USERR5
 40
0.0
  9
$WORLDVIEW
 70
     1
  9
$SHADEDGE
 70
     3
  9
$SHADEDIF
 70
    70
  9
$TILEMODE
 70
     1
  9
$MAXACTVP
 70
    64
  9
$PINSBASE
 10
0.0
 20
0.0
 30
0.0
  9
$PLIMCHECK
 70
     0
  9
$PEXTMIN
 10
0.0
 20
0.0
 30
0.0
  9
$PEXTMAX
 10
0.0
 20
0.0
 30
0.0
  9
$PLIMMIN
 10
0.0
 20
0.0
  9
$PLIMMAX
 10
12.0
 20
9.0
  9
$UNITMODE
 70
     0
  9
$VISRETAIN
 70
     1
  9
$PLINEGEN
 70
     0
  9
$PSLTSCALE
 70
     1
  9
$TREEDEPTH
 70
  3020
  9
$CMLSTYLE
  2
Standard
  9
$CMLJUST
 70
     0
  9
$CMLSCALE
 40
20.0
  9
$PROXYGRAPHICS
 70
     1
  9
$MEASUREMENT
 70
     1
  9
$CELWEIGHT
370
    -1
  9
$ENDCAPS
280
     0
  9
$JOINSTYLE
280
     0
  9
$LWDISPLAY
290
     0
  9
$INSUNITS
 70
     4
  9
$HYPERLINKBASE
  1

  9
$STYLESHEET
  1

  9
$XEDIT
290
     1
  9
$CEPSNTYPE
380
     0
  9
$PSTYLEMODE
290
     1
  9
$FINGERPRINTGUID
  2
{A1E31DAB-0B47-4E55-A573-340F7E1FE749}
  9
$VERSIONGUID
  2
{0B0B3E65-C28A-7643-8E05-EC481F313334}
  9
$EXTNAMES
290
     1
  9
$PSVPSCALE
 40
0.0
  9
$OLESTARTUP
290
     0
  9
$SORTENTS
280
   127
  9
$INDEXCTL
280
     0
  9
$HIDETEXT
280
     1
  9
$XCLIPFRAME
280
     0
  9
$HALOGAP
280
     0
  9
$OBSCOLOR
 70
   257
  9
$OBSLTYPE
280
     0
  9
$INTERSECTIONDISPLAY
280
     0
  9
$INTERSECTIONCOLOR
 70
   257
  9
$DIMASSOC
280
     2
  9
$PROJECTNAME
  1

  9
$CAMERADISPLAY
290
     0
  9
$LENSLENGTH
 40
50.0
  9
$CAMERAHEIGHT
 40
0.0
  9
$STEPSPERSEC
 40
2.0
  9
$STEPSIZE
 40
6.0
  9
$3DDWFPREC
 40
2.0
  9
$PSOLWIDTH
 40
0.25
  9
$PSOLHEIGHT
 40
4.0
  9
$LOFTANG1
 40
1.570796326794896
  9
$LOFTANG2
 40
1.570796326794896
  9
$LOFTMAG1
 40
0.0
  9
$LOFTMAG2
 40
0.0
  9
$LOFTPARAM
 70
     7
  9
$LOFTNORMALS
280
     1
  9
$LATITUDE
 40
37.795
  9
$LONGITUDE
 40
-122.394
  9
$NORTHDIRECTION
 40
0.0
  9
$TIMEZONE
 70
 -8000
  9
$LIGHTGLYPHDISPLAY
280
     1
  9
$TILEMODELIGHTSYNCH
280
     1
  9
$CMATERIAL
347
1973
  9
$SOLIDHIST
280
     0
  9
$SHOWHIST
280
     1
  9
$DWFFRAME
280
     2
  9
$DGNFRAME
280
     0
  9
$REALWORLDSCALE
290
     1
  9
$INTERFERECOLOR
 62
     1
  9
$INTERFEREOBJVS
345
1995
  9
$INTERFEREVPVS
346
1992
  9
$CSHADOW
280
     0
  9
$SHADOWPLANELOCATION
 40
0.0
  0
ENDSEC
  0
SECTION
  2
CLASSES
  0
CLASS
  1
ACDBDICTIONARYWDFLT
  2
AcDbDictionaryWithDefault
  3
ObjectDBX Classes
 90
        0
 91
        1
280
     0
281
     0
  0
CLASS
  1
DICTIONARYVAR
  2
AcDbDictionaryVar
  3
ObjectDBX Classes
 90
        0
 91
       52
280
     0
281
     0
  0
CLASS
  1
TABLESTYLE
  2
AcDbTableStyle
  3
ObjectDBX Classes
 90
     4095
 91
        1
280
     0
281
     0
  0
CLASS
  1
DIMASSOC
  2
AcDbDimAssoc
  3
"AcDbDimAssoc|Product Desc:     AcDim ARX App For Dimension|Company:          Autodesk, Inc.|WEB Address:      www.autodesk.com"
 90
        0
 91
       39
280
     0
281
     0
  0
CLASS
  1
SORTENTSTABLE
  2
AcDbSortentsTable
  3
ObjectDBX Classes
 90
        0
 91
        3
280
     0
281
     0
  0
CLASS
  1
MATERIAL
  2
AcDbMaterial
  3
ObjectDBX Classes
 90
     1153
 91
        3
280
     0
281
     0
  0
CLASS
  1
VISUALSTYLE
  2
AcDbVisualStyle
  3
ObjectDBX Classes
 90
     4095
 91
       24
280
     0
281
     0
  0
CLASS
  1
SCALE
  2
AcDbScale
  3
ObjectDBX Classes
 90
     1153
 91
       17
280
     0
281
     0
  0
CLASS
  1
MLEADERSTYLE
  2
AcDbMLeaderStyle
  3
ACDB_MLEADERSTYLE_CLASS
 90
     4095
 91
        1
280
     0
281
     0
  0
CLASS
  1
ACDBSECTIONVIEWSTYLE
  2
AcDbSectionViewStyle
  3
ObjectDBX Classes
 90
     1025
 91
        1
280
     0
281
     0
  0
CLASS
  1
ACDBDETAILVIEWSTYLE
  2
AcDbDetailViewStyle
  3
ObjectDBX Classes
 90
     1025
 91
        1
280
     0
281
     0
  0
CLASS
  1
CELLSTYLEMAP
  2
AcDbCellStyleMap
  3
ObjectDBX Classes
 90
     1152
 91
        3
280
     0
281
     0
  0
CLASS
  1
PLOTSETTINGS
  2
AcDbPlotSettings
  3
ObjectDBX Classes
 90
        0
 91
        1
280
     0
281
     0
  0
ENDSEC
  0
SECTION
  2
TABLES
  0
TABLE
  2
VPORT
  5
8
330
0
100
AcDbSymbolTable
 70
     1
  0
VPORT
  5
1971
330
8
100
AcDbSymbolTableRecord
100
AcDbViewportTableRecord
  2
*Active
 70
     0
 10
0.0
 20
0.0
 11
1.0
 21
1.0
 12
1388.545662351761
 22
291.4908383985748
 13
0.0
 23
0.0
 14
10.0
 24
10.0
 15
10.0
 25
10.0
 16
0.0
 26
0.0
 36
1.0
 17
0.0
 27
0.0
 37
0.0
 40
1267.853014430345
 41
1.913595933926302
 42
50.0
 43
0.0
 44
0.0
 50
0.0
 51
0.0
 71
     0
 72
  1000
 73
     1
 74
     3
 75
     0
 76
     0
 77
     0
 78
     0
281
     0
 65
     1
110
0.0
120
0.0
130
0.0
111
1.0
121
0.0
131
0.0
112
0.0
122
1.0
132
0.0
 79
     0
146
0.0
348
1991
 60
     3
 61
     5
292
     1
282
     1
141
0.0
142
0.0
 63
   250
421
  3355443
1001
ACAD_NAV_VCDISPLAY
1070
     3
  0
ENDTAB
  0
TABLE
  2
LTYPE
  5
5
330
0
100
AcDbSymbolTable
 70
     4
  0
LTYPE
  5
14
330
5
100
AcDbSymbolTableRecord
100
AcDbLinetypeTableRecord
  2
ByBlock
 70
     0
  3

 72
    65
 73
     0
 40
0.0
  0
LTYPE
  5
15
330
5
100
AcDbSymbolTableRecord
100
AcDbLinetypeTableRecord
  2
ByLayer
 70
     0
  3

 72
    65
 73
     0
 40
0.0
  0
LTYPE
  5
16
330
5
100
AcDbSymbolTableRecord
100
AcDbLinetypeTableRecord
  2
Continuous
 70
     0
  3
Solid line
 72
    65
 73
     0
 40
0.0
  0
LTYPE
  5
9D1
330
5
100
AcDbSymbolTableRecord
100
AcDbLinetypeTableRecord
  2
CENTER
 70
     0
  3
Center ____ _ ____ _ ____ _ ____ _ ____ _ ____
 72
    65
 73
     4
 40
50.8
 49
31.75
 74
     0
 49
-6.349999999999999
 74
     0
 49
6.349999999999999
 74
     0
 49
-6.349999999999999
 74
     0
  0
LTYPE
  5
9D2
330
5
100
AcDbSymbolTableRecord
100
AcDbLinetypeTableRecord
  2
DASHED
 70
     0
  3
Dashed __ __ __ __ __ __ __ __ __ __ __ __ __ _
 72
    65
 73
     2
 40
19.05
 49
12.7
 74
     0
 49
-6.349999999999999
 74
     0
  0
ENDTAB
  0
TABLE
  2
LAYER
  5
2
102
{ACAD_XDICTIONARY
360
F5
102
}
330
0
100
AcDbSymbolTable
 70
     6
  0
LAYER
  5
10
102
{ACAD_XDICTIONARY
360
1A98
102
}
330
2
100
AcDbSymbolTableRecord
100
AcDbLayerTableRecord
  2
0
 70
     0
 62
     7
  6
Continuous
370
    -3
390
F
347
1983
348
0
  0
LAYER
  5
F1
102
{ACAD_XDICTIONARY
360
1A9A
102
}
330
2
100
AcDbSymbolTableRecord
100
AcDbLayerTableRecord
  2
图层1
 70
     0
 62
     7
  6
CENTER
370
    18
390
F
347
1983
348
0
1001
AcAecLayerStandard
1000

1000

1001
AcadStringInfo
1000
MIFCodePage
1070
     5
  0
LAYER
  5
F3
102
{ACAD_XDICTIONARY
360
1A9C
102
}
330
2
100
AcDbSymbolTableRecord
100
AcDbLayerTableRecord
  2
图层2
 70
     0
 62
     7
  6
Continuous
370
    30
390
F
347
1983
348
0
1001
AcAecLayerStandard
1000

1000

1001
AcadStringInfo
1000
MIFCodePage
1070
     5
  0
LAYER
  5
F4
102
{ACAD_XDICTIONARY
360
1A9E
102
}
330
2
100
AcDbSymbolTableRecord
100
AcDbLayerTableRecord
  2
图层3
 70
     0
 62
     7
  6
Continuous
370
    20
390
F
347
1983
348
0
1001
AcAecLayerStandard
1000

1000

1001
AcadStringInfo
1000
MIFCodePage
1070
     5
  0
LAYER
  5
14C
330
2
100
AcDbSymbolTableRecord
100
AcDbLayerTableRecord
  2
Defpoints
 70
     0
 62
     7
  6
Continuous
290
     0
370
    -3
390
F
347
1983
348
0
  0
LAYER
  5
9CE
102
{ACAD_XDICTIONARY
360
1AA0
102
}
330
2
100
AcDbSymbolTableRecord
100
AcDbLayerTableRecord
  2
图层4
 70
     0
 62
     7
  6
DASHED
370
    18
390
F
347
1983
348
0
1001
AcAecLayerStandard
1000

1000

1001
AcadStringInfo
1000
MIFCodePage
1070
     5
  0
ENDTAB
  0
TABLE
  2
STYLE
  5
3
330
0
100
AcDbSymbolTable
 70
     4
  0
STYLE
  5
11
330
3
100
AcDbSymbolTableRecord
100
AcDbTextStyleTableRecord
  2
Standard
 70
     0
 40
0.0
 41
1.0
 50
0.0
 71
     0
 42
2.5
  3
txt
  4
gbcbig.shx
  0
STYLE
  5
9D0
330
3
100
AcDbSymbolTableRecord
100
AcDbTextStyleTableRecord
  2

 70
     1
 40
0.0
 41
1.0
 50
0.0
 71
     0
 42
2.5
  3
ltypeshp.shx
  4

  0
STYLE
  5
9D5
330
3
100
AcDbSymbolTableRecord
100
AcDbTextStyleTableRecord
  2
样式 1
 70
     0
 40
0.0
 41
1.1
 50
0.0
 71
     0
 42
2.5
  3
txt.shx
  4
gbcbig.shx
1001
AcadStringInfo
1000
MIFCodePage
1070
     5
  0
STYLE
  5
9D6
330
3
100
AcDbSymbolTableRecord
100
AcDbTextStyleTableRecord
  2
样式 2
 70
     0
 40
0.0
 41
0.35
 50
0.0
 71
     0
 42
2.5
  3
txt.shx
  4
gbcbig.shx
1001
AcadStringInfo
1000
MIFCodePage
1070
     5
  0
ENDTAB
  0
TABLE
  2
VIEW
  5
6
330
0
100
AcDbSymbolTable
 70
     4
  0
ENDTAB
  0
TABLE
  2
UCS
  5
7
330
0
100
AcDbSymbolTable
 70
     0
  0
ENDTAB
  0
TABLE
  2
APPID
  5
9
330
0
100
AcDbSymbolTable
 70
     8
  0
APPID
  5
12
330
9
100
AcDbSymbolTableRecord
100
AcDbRegAppTableRecord
  2
ACAD
 70
     0
  0
APPID
  5
9E
330
9
100
AcDbSymbolTableRecord
100
AcDbRegAppTableRecord
  2
ACAD_PSEXT
 70
     0
  0
APPID
  5
F2
330
9
100
AcDbSymbolTableRecord
100
AcDbRegAppTableRecord
  2
AcAecLayerStandard
 70
     0
  0
APPID
  5
FA
330
9
100
AcDbSymbolTableRecord
100
AcDbRegAppTableRecord
  2
ACAD_DSTYLE_DIMTEXT_FILL
 70
     0
  0
APPID
  5
19A4
330
9
100
AcDbSymbolTableRecord
100
AcDbRegAppTableRecord
  2
AcadStringInfo
 70
     0
  0
APPID
  5
19CA
330
9
100
AcDbSymbolTableRecord
100
AcDbRegAppTableRecord
  2
AcadAnnoMonitorAlertIconDisabled
 70
     0
  0
APPID
  5
19CB
330
9
100
AcDbSymbolTableRecord
100
AcDbRegAppTableRecord
  2
ACAD_EXEMPT_FROM_CAD_STANDARDS
 70
     0
  0
APPID
  5
1AA2
330
9
100
AcDbSymbolTableRecord
100
AcDbRegAppTableRecord
  2
ACAD_NAV_VCDISPLAY
 70
     0
  0
ENDTAB
  0
TABLE
  2
DIMSTYLE
  5
A
330
0
100
AcDbSymbolTable
 70
     1
100
AcDbDimStyleTable
 71
     1
340
27
  0
DIMSTYLE
105
27
102
{ACAD_REACTORS
330
AE3
330
AFE
330
B7E
330
B96
330
C11
330
C29
330
C41
330
C59
330
C95
330
CA7
330
14A2
330
1954
330
121E
330
120E
330
11FE
330
11EE
330
11E1
330
11D4
330
11C7
330
11AE
330
118C
330
1174
330
115A
330
112B
330
16BB
330
125F
330
124E
330
123E
330
18DC
330
102C
330
FCA
330
FA7
330
F7B
330
F63
330
ECC
330
EB4
330
F4B
330
F3E
330
F14
330
EFC
330
EE4
330
10AB
330
108C
330
1074
330
105C
330
1044
102
}
330
A
100
AcDbSymbolTableRecord
100
AcDbDimStyleTableRecord
  2
ISO-25
 70
     0
 41
16.0
 42
0.0
 43
3.75
 44
1.25
 73
     0
 77
     1
 78
     8
140
17.0
141
80.0
143
0.03937007874016
147
5.0
171
     3
172
     1
271
     2
272
     2
273
     7
274
     3
283
     0
284
     8
340
11
  0
ENDTAB
  0
TABLE
  2
BLOCK_RECORD
  5
1
330
0
100
AcDbSymbolTable
 70
    55
  0
BLOCK_RECORD
  5
1F
102
{ACAD_XDICTIONARY
360
201
102
}
330
1
100
AcDbSymbolTableRecord
100
AcDbBlockTableRecord
  2
*Model_Space
340
22
 70
     0
280
     1
281
     0
  0
BLOCK_RECORD
  5
D2
330
1
100
AcDbSymbolTableRecord
100
AcDbBlockTableRecord
  2
*Paper_Space
340
D3
 70
     0
280
     1
281
     0
  0
BLOCK_RECORD
  5
D6
330
1
100
AcDbSymbolTableRecord
100
AcDbBlockTableRecord
  2
*Paper_Space0
340
D7
 70
     0
280
     1
281
     0
  0
BLOCK_RECORD
  5
AE4
330
1
100
AcDbSymbolTableRecord
100
AcDbBlockTableRecord
  2
*D1
340
0
 70
     0
280
     1
281
     0
  0
BLOCK_RECORD
  5
AFF
330
1
100
AcDbSymbolTableRecord
100
AcDbBlockTableRecord
  2
*D2
340
0
 70
     0
280
     1
281
     0
  0
BLOCK_RECORD
  5
B7F
330
1
100
AcDbSymbolTableRecord
100
AcDbBlockTableRecord
  2
*D3
340
0
 70
     0
280
     1
281
     0
  0
BLOCK_RECORD
  5
B97
330
1
100
AcDbSymbolTableRecord
100
AcDbBlockTableRecord
  2
*D4
340
0
 70
     0
280
     1
281
     0
  0
BLOCK_RECORD
  5
C12
330
1
100
AcDbSymbolTableRecord
100
AcDbBlockTableRecord
  2
*D5
340
0
 70
     0
280
     1
281
     0
  0
BLOCK_RECORD
  5
C2A
330
1
100
AcDbSymbolTableRecord
100
AcDbBlockTableRecord
  2
*D6
340
0
 70
     0
280
     1
281
     0
  0
BLOCK_RECORD
  5
C42
330
1
100
AcDbSymbolTableRecord
100
AcDbBlockTableRecord
  2
*D7
340
0
 70
     0
280
     1
281
     0
  0
BLOCK_RECORD
  5
C5A
330
1
100
AcDbSymbolTableRecord
100
AcDbBlockTableRecord
  2
*D8
340
0
 70
     0
280
     1
281
     0
  0
BLOCK_RECORD
  5
C96
330
1
100
AcDbSymbolTableRecord
100
AcDbBlockTableRecord
  2
*D10
340
0
 70
     0
280
     1
281
     0
  0
BLOCK_RECORD
  5
CA8
330
1
100
AcDbSymbolTableRecord
100
AcDbBlockTableRecord
  2
*D11
340
0
 70
     0
280
     1
281
     0
  0
BLOCK_RECORD
  5
CB8
102
{ACAD_XDICTIONARY
360
CCC
102
}
330
1
100
AcDbSymbolTableRecord
100
AcDbBlockTableRecord
  2
c
340
0
102
{BLKREFS
331
CD4
102
}
 70
     4
280
     1
281
     0
  0
BLOCK_RECORD
  5
EB5
330
1
100
AcDbSymbolTableRecord
100
AcDbBlockTableRecord
  2
*D13
340
0
 70
     0
280
     1
281
     0
  0
BLOCK_RECORD
  5
ECD
330
1
100
AcDbSymbolTableRecord
100
AcDbBlockTableRecord
  2
*D14
340
0
 70
     0
280
     1
281
     0
  0
BLOCK_RECORD
  5
EE5
330
1
100
AcDbSymbolTableRecord
100
AcDbBlockTableRecord
  2
*D15
340
0
 70
     0
280
     1
281
     0
  0
BLOCK_RECORD
  5
EFD
330
1
100
AcDbSymbolTableRecord
100
AcDbBlockTableRecord
  2
*D16
340
0
 70
     0
280
     1
281
     0
  0
BLOCK_RECORD
  5
F15
330
1
100
AcDbSymbolTableRecord
100
AcDbBlockTableRecord
  2
*D17
340
0
 70
     0
280
     1
281
     0
  0
BLOCK_RECORD
  5
F3F
330
1
100
AcDbSymbolTableRecord
100
AcDbBlockTableRecord
  2
*D18
340
0
 70
     0
280
     1
281
     0
  0
BLOCK_RECORD
  5
F4C
330
1
100
AcDbSymbolTableRecord
100
AcDbBlockTableRecord
  2
*D19
340
0
 70
     0
280
     1
281
     0
  0
BLOCK_RECORD
  5
F64
330
1
100
AcDbSymbolTableRecord
100
AcDbBlockTableRecord
  2
*D20
340
0
 70
     0
280
     1
281
     0
  0
BLOCK_RECORD
  5
F7C
330
1
100
AcDbSymbolTableRecord
100
AcDbBlockTableRecord
  2
*D21
340
0
 70
     0
280
     1
281
     0
  0
BLOCK_RECORD
  5
FA8
330
1
100
AcDbSymbolTableRecord
100
AcDbBlockTableRecord
  2
*D22
340
0
 70
     0
280
     1
281
     0
  0
BLOCK_RECORD
  5
FCB
330
1
100
AcDbSymbolTableRecord
100
AcDbBlockTableRecord
  2
*D23
340
0
 70
     0
280
     1
281
     0
  0
BLOCK_RECORD
  5
102D
330
1
100
AcDbSymbolTableRecord
100
AcDbBlockTableRecord
  2
*D24
340
0
 70
     0
280
     1
281
     0
  0
BLOCK_RECORD
  5
1045
330
1
100
AcDbSymbolTableRecord
100
AcDbBlockTableRecord
  2
*D25
340
0
 70
     0
280
     1
281
     0
  0
BLOCK_RECORD
  5
105D
330
1
100
AcDbSymbolTableRecord
100
AcDbBlockTableRecord
  2
*D26
340
0
 70
     0
280
     1
281
     0
  0
BLOCK_RECORD
  5
1075
330
1
100
AcDbSymbolTableRecord
100
AcDbBlockTableRecord
  2
*D27
340
0
 70
     0
280
     1
281
     0
  0
BLOCK_RECORD
  5
108D
330
1
100
AcDbSymbolTableRecord
100
AcDbBlockTableRecord
  2
*D28
340
0
 70
     0
280
     1
281
     0
  0
BLOCK_RECORD
  5
10AC
330
1
100
AcDbSymbolTableRecord
100
AcDbBlockTableRecord
  2
*D29
340
0
 70
     0
280
     1
281
     0
  0
BLOCK_RECORD
  5
112C
330
1
100
AcDbSymbolTableRecord
100
AcDbBlockTableRecord
  2
*D31
340
0
 70
     0
280
     1
281
     0
  0
BLOCK_RECORD
  5
115B
330
1
100
AcDbSymbolTableRecord
100
AcDbBlockTableRecord
  2
*D32
340
0
 70
     0
280
     1
281
     0
  0
BLOCK_RECORD
  5
1175
330
1
100
AcDbSymbolTableRecord
100
AcDbBlockTableRecord
  2
*D33
340
0
 70
     0
280
     1
281
     0
  0
BLOCK_RECORD
  5
118D
330
1
100
AcDbSymbolTableRecord
100
AcDbBlockTableRecord
  2
*D34
340
0
 70
     0
280
     1
281
     0
  0
BLOCK_RECORD
  5
11AF
330
1
100
AcDbSymbolTableRecord
100
AcDbBlockTableRecord
  2
*D35
340
0
 70
     0
280
     1
281
     0
  0
BLOCK_RECORD
  5
11C8
330
1
100
AcDbSymbolTableRecord
100
AcDbBlockTableRecord
  2
*D36
340
0
 70
     0
280
     1
281
     0
  0
BLOCK_RECORD
  5
11D5
330
1
100
AcDbSymbolTableRecord
100
AcDbBlockTableRecord
  2
*D37
340
0
 70
     0
280
     1
281
     0
  0
BLOCK_RECORD
  5
11E2
330
1
100
AcDbSymbolTableRecord
100
AcDbBlockTableRecord
  2
*D38
340
0
 70
     0
280
     1
281
     0
  0
BLOCK_RECORD
  5
11EF
330
1
100
AcDbSymbolTableRecord
100
AcDbBlockTableRecord
  2
*D39
340
0
 70
     0
280
     1
281
     0
  0
BLOCK_RECORD
  5
11FF
330
1
100
AcDbSymbolTableRecord
100
AcDbBlockTableRecord
  2
*D40
340
0
 70
     0
280
     1
281
     0
  0
BLOCK_RECORD
  5
120F
330
1
100
AcDbSymbolTableRecord
100
AcDbBlockTableRecord
  2
*D41
340
0
 70
     0
280
     1
281
     0
  0
BLOCK_RECORD
  5
121F
330
1
100
AcDbSymbolTableRecord
100
AcDbBlockTableRecord
  2
*D42
340
0
 70
     0
280
     1
281
     0
  0
BLOCK_RECORD
  5
123F
330
1
100
AcDbSymbolTableRecord
100
AcDbBlockTableRecord
  2
*D44
340
0
 70
     0
280
     1
281
     0
  0
BLOCK_RECORD
  5
124F
330
1
100
AcDbSymbolTableRecord
100
AcDbBlockTableRecord
  2
*D45
340
0
 70
     0
280
     1
281
     0
  0
BLOCK_RECORD
  5
1260
330
1
100
AcDbSymbolTableRecord
100
AcDbBlockTableRecord
  2
*D46
340
0
 70
     0
280
     1
281
     0
  0
BLOCK_RECORD
  5
143F
330
1
100
AcDbSymbolTableRecord
100
AcDbBlockTableRecord
  2
h
340
0
310
2800000020000000200000000100080000000000000400000000000000000000000000000000000000000000000080000080000000808000800000008000800080800000C0C0C000C0DCC000F0CAA6000020400000206000002080000020A0000020C0000020E00000400000004020000040400000406000004080000040A0
310
000040C0000040E00000600000006020000060400000606000006080000060A0000060C0000060E00000800000008020000080400000806000008080000080A0000080C0000080E00000A0000000A0200000A0400000A0600000A0800000A0A00000A0C00000A0E00000C0000000C0200000C0400000C0600000C0800000C0
310
A00000C0C00000C0E00000E0000000E0200000E0400000E0600000E0800000E0A00000E0C00000E0E00040000000400020004000400040006000400080004000A0004000C0004000E00040200000402020004020400040206000402080004020A0004020C0004020E000404000004040200040404000404060004040800040
310
40A0004040C0004040E00040600000406020004060400040606000406080004060A0004060C0004060E00040800000408020004080400040806000408080004080A0004080C0004080E00040A0000040A0200040A0400040A0600040A0800040A0A00040A0C00040A0E00040C0000040C0200040C0400040C0600040C08000
310
40C0A00040C0C00040C0E00040E0000040E0200040E0400040E0600040E0800040E0A00040E0C00040E0E00080000000800020008000400080006000800080008000A0008000C0008000E00080200000802020008020400080206000802080008020A0008020C0008020E00080400000804020008040400080406000804080
310
008040A0008040C0008040E00080600000806020008060400080606000806080008060A0008060C0008060E00080800000808020008080400080806000808080008080A0008080C0008080E00080A0000080A0200080A0400080A0600080A0800080A0A00080A0C00080A0E00080C0000080C0200080C0400080C0600080C0
310
800080C0A00080C0C00080C0E00080E0000080E0200080E0400080E0600080E0800080E0A00080E0C00080E0E000C0000000C0002000C0004000C0006000C0008000C000A000C000C000C000E000C0200000C0202000C0204000C0206000C0208000C020A000C020C000C020E000C0400000C0402000C0404000C0406000C0
310
408000C040A000C040C000C040E000C0600000C0602000C0604000C0606000C0608000C060A000C060C000C060E000C0800000C0802000C0804000C0806000C0808000C080A000C080C000C080E000C0A00000C0A02000C0A04000C0A06000C0A08000C0A0A000C0A0C000C0A0E000C0C00000C0C02000C0C04000C0C06000
310
C0C08000C0C0A000F0FBFF00A4A0A000808080000000FF0000FF000000FFFF00FF000000FF00FF00FFFF0000FFFFFF0000000000000000000000000000000000000000000000000000000000000000000000000000000000000000000000000000000000000000000000000000000000000000000000000000000000000000
310
00000000000000000000000000000000000000000000000000000000000000000000000000000000000000000000000000000000000000000000000000000000000000000000000000000000000000000000000000000000000000000000000000000000000000000000000000000000000000000000000000000000000000
310
00000000000000000000000000000000000000000000000000000000000000000000000000000000000000000000000000000000000000000000000000000000000000000000000000000000000000000000000000000000000000000000000000000000000000000000000000000000000000000000000000000000000000
310
00000000000000000000000000000000000000000000000000000000000000000000000000000000000000000000000000000000000000000000000000000000000000000000000000000000000000000000000000000000000000000000000000000000000000000000000000000000000000000000000000000000000000
310
000000000000000000000000000000000000000000FAFAFAFAFAFAFAFAFAFAFAFAFAFAFAFAFAFAFAFAFAFAFAFAFAFAFA000000000000FAFAFAFAFAFAFAFAFAFAFAFAFAFAFAFAFAFAFAFAFAFAFAFAFAFA0000000000000000000000000000000000000000000000000000000000000000000000000000000000000000000000
310
00000000000000000000000000000000000000000000000000000000000000000000000000000000000000000000000000000000000000000000000000000000000000000000000000000000000000000000000000000000000000000000000000000000000000000000000000000000000000000000000000000000000000
310
00000000000000000000000000000000000000000000000000000000000000000000000000000000000000000000000000000000000000000000000000000000000000000000000000000000000000000000000000000000000000000000000000000000000000000000000000000000000000000000000000000000000000
310
00000000000000000000000000000000000000000000000000000000000000000000000000000000000000000000000000000000000000000000000000000000000000000000000000000000000000000000000000000000000000000000000000000000000000000000000000000000000000000000000000000000000000
310
0000000000000000000000000000000000000000000000000000000000000000000000000000000000000000000000000000000000000000
 70
     4
280
     1
281
     0
  0
BLOCK_RECORD
  5
1443
102
{ACAD_XDICTIONARY
360
1463
102
}
330
1
100
AcDbSymbolTableRecord
100
AcDbBlockTableRecord
  2
D
340
0
 70
     4
280
     1
281
     0
  0
BLOCK_RECORD
  5
14A3
330
1
100
AcDbSymbolTableRecord
100
AcDbBlockTableRecord
  2
*D51
340
0
 70
     0
280
     1
281
     0
  0
BLOCK_RECORD
  5
16BC
330
1
100
AcDbSymbolTableRecord
100
AcDbBlockTableRecord
  2
*D52
340
0
 70
     0
280
     1
281
     0
  0
BLOCK_RECORD
  5
18DD
330
1
100
AcDbSymbolTableRecord
100
AcDbBlockTableRecord
  2
*D53
340
0
 70
     0
280
     1
281
     0
  0
BLOCK_RECORD
  5
1955
330
1
100
AcDbSymbolTableRecord
100
AcDbBlockTableRecord
  2
*D54
340
0
 70
     0
280
     1
281
     0
  0
ENDTAB
  0
ENDSEC
  0
SECTION
  2
BLOCKS
  0
BLOCK
  5
20
330
1F
100
AcDbEntity
  8
0
100
AcDbBlockBegin
  2
*Model_Space
 70
     0
 10
0.0
 20
0.0
 30
0.0
  3
*Model_Space
  1

  0
ENDBLK
  5
21
330
1F
100
AcDbEntity
  8
0
100
AcDbBlockEnd
  0
BLOCK
  5
D4
330
D2
100
AcDbEntity
 67
     1
  8
0
100
AcDbBlockBegin
  2
*Paper_Space
 70
     0
 10
0.0
 20
0.0
 30
0.0
  3
*Paper_Space
  1

  0
ENDBLK
  5
D5
330
D2
100
AcDbEntity
 67
     1
  8
0
100
AcDbBlockEnd
  0
BLOCK
  5
D8
330
D6
100
AcDbEntity
 67
     1
  8
0
100
AcDbBlockBegin
  2
*Paper_Space0
 70
     0
 10
0.0
 20
0.0
 30
0.0
  3
*Paper_Space0
  1

  0
ENDBLK
  5
D9
330
D6
100
AcDbEntity
 67
     1
  8
0
100
AcDbBlockEnd
  0
BLOCK
  5
AEB
330
AE4
100
AcDbEntity
  8
0
100
AcDbBlockBegin
  2
*D1
 70
     1
 10
0.0
 20
0.0
 30
0.0
  3
*D1
  1

  0
LINE
  5
187F
330
AE4
100
AcDbEntity
  8
图层3
 62
     0
440
 16777216
370
    -2
100
AcDbLine
 10
932.1590939696047
 20
1222.928072917197
 30
0.0
 11
988.1590939696048
 21
1222.928072917197
 31
0.0
  0
LINE
  5
1880
330
AE4
100
AcDbEntity
  8
图层3
 62
     0
440
 16777216
370
    -2
100
AcDbLine
 10
988.1590939696048
 20
1222.928072917197
 30
0.0
 11
1014.67035274266
 21
1261.130208436931
 31
0.0
  0
MTEXT
  5
1881
330
AE4
100
AcDbEntity
  8
图层3
 62
     0
440
 16777216
100
AcDbMText
 10
957.6590939696046
 20
1236.428072917197
 30
0.0
 40
17.0
 41
0.0
 46
0.0
 71
     5
 72
     1
  1
R2.5
 73
     1
 44
1.0
  0
SOLID
  5
1882
330
AE4
100
AcDbEntity
  8
图层3
 62
     0
440
 16777216
100
AcDbTrace
 10
1012.479549271994
 20
1262.650567362984
 30
0.0
 11
1016.861156213326
 21
1259.609849510878
 31
0.0
 12
1023.79250629898
 22
1274.275029260925
 32
0.0
 13
1023.79250629898
 23
1274.275029260925
 33
0.0
  0
POINT
  5
1883
330
AE4
100
AcDbEntity
  8
Defpoints
 62
     0
440
 16777216
100
AcDbPoint
 10
1023.79250629898
 20
1274.275029260925
 30
0.0
  0
POINT
  5
1884
330
AE4
100
AcDbEntity
  8
Defpoints
 62
     0
440
 16777216
100
AcDbPoint
 10
1022.367169805805
 20
1272.221151007175
 30
0.0
  0
ENDBLK
  5
AEC
330
AE4
100
AcDbEntity
  8
0
100
AcDbBlockEnd
  0
BLOCK
  5
B09
330
AFF
100
AcDbEntity
  8
0
100
AcDbBlockBegin
  2
*D2
 70
     1
 10
0.0
 20
0.0
 30
0.0
  3
*D2
  1

  0
LINE
  5
19E8
330
AFF
100
AcDbEntity
  8
图层3
 62
     0
440
 16777216
370
    -2
100
AcDbLine
 10
602.1339416026536
 20
1045.894960903479
 30
0.0
 11
602.1339416026536
 21
1211.088602520794
 31
0.0
  0
LINE
  5
19E9
330
AFF
100
AcDbEntity
  8
图层3
 62
     0
440
 16777216
370
    -2
100
AcDbLine
 10
824.1339416026523
 20
1045.894960903479
 30
0.0
 11
824.1339416026523
 21
1211.088602520794
 31
0.0
  0
LINE
  5
19EA
330
AFF
100
AcDbEntity
  8
图层3
 62
     0
440
 16777216
370
    -2
100
AcDbLine
 10
618.1339416026536
 20
1209.838602520794
 30
0.0
 11
808.1339416026523
 21
1209.838602520794
 31
0.0
  0
SOLID
  5
19EB
330
AFF
100
AcDbEntity
  8
图层3
 62
     0
440
 16777216
100
AcDbTrace
 10
618.1339416026536
 20
1212.505269187461
 30
0.0
 11
618.1339416026536
 21
1207.171935854127
 31
0.0
 12
602.1339416026536
 22
1209.838602520794
 32
0.0
 13
602.1339416026536
 23
1209.838602520794
 33
0.0
  0
SOLID
  5
19EC
330
AFF
100
AcDbEntity
  8
图层3
 62
     0
440
 16777216
100
AcDbTrace
 10
808.1339416026523
 20
1212.505269187461
 30
0.0
 11
808.1339416026523
 21
1207.171935854127
 31
0.0
 12
824.1339416026523
 22
1209.838602520794
 32
0.0
 13
824.1339416026523
 23
1209.838602520794
 33
0.0
  0
MTEXT
  5
19ED
330
AFF
100
AcDbEntity
  8
图层3
 62
     0
440
 16777216
100
AcDbMText
 10
713.1339416026529
 20
1223.338602520794
 30
0.0
 40
17.0
 41
0.0
 46
0.0
 71
     5
 72
     1
  1
%%C111 [4.37"]
 73
     1
 44
1.0
  0
POINT
  5
19EE
330
AFF
100
AcDbEntity
  8
Defpoints
 62
     0
440
 16777216
100
AcDbPoint
 10
602.1339416026536
 20
1045.894960903479
 30
0.0
  0
POINT
  5
19EF
330
AFF
100
AcDbEntity
  8
Defpoints
 62
     0
440
 16777216
100
AcDbPoint
 10
824.1339416026523
 20
1045.894960903479
 30
0.0
  0
POINT
  5
19F0
330
AFF
100
AcDbEntity
  8
Defpoints
 62
     0
440
 16777216
100
AcDbPoint
 10
824.1339416026523
 20
1209.838602520794
 30
0.0
  0
ENDBLK
  5
B0A
330
AFF
100
AcDbEntity
  8
0
100
AcDbBlockEnd
  0
BLOCK
  5
B89
330
B7F
100
AcDbEntity
  8
0
100
AcDbBlockBegin
  2
*D3
 70
     1
 10
0.0
 20
0.0
 30
0.0
  3
*D3
  1

  0
LINE
  5
19D6
330
B7F
100
AcDbEntity
  8
图层3
 62
     0
440
 16777216
370
    -2
100
AcDbLine
 10
589.1339416026539
 20
1052.894960903478
 30
0.0
 11
589.1339416026539
 21
1249.396817571676
 31
0.0
  0
LINE
  5
19D7
330
B7F
100
AcDbEntity
  8
图层3
 62
     0
440
 16777216
370
    -2
100
AcDbLine
 10
837.1339416026534
 20
1052.894960903478
 30
0.0
 11
837.1339416026534
 21
1249.396817571676
 31
0.0
  0
LINE
  5
19D8
330
B7F
100
AcDbEntity
  8
图层3
 62
     0
440
 16777216
370
    -2
100
AcDbLine
 10
605.1339416026539
 20
1248.146817571676
 30
0.0
 11
821.1339416026534
 21
1248.146817571676
 31
0.0
  0
SOLID
  5
19D9
330
B7F
100
AcDbEntity
  8
图层3
 62
     0
440
 16777216
100
AcDbTrace
 10
605.1339416026539
 20
1250.813484238342
 30
0.0
 11
605.1339416026539
 21
1245.480150905009
 31
0.0
 12
589.1339416026539
 22
1248.146817571676
 32
0.0
 13
589.1339416026539
 23
1248.146817571676
 33
0.0
  0
SOLID
  5
19DA
330
B7F
100
AcDbEntity
  8
图层3
 62
     0
440
 16777216
100
AcDbTrace
 10
821.1339416026534
 20
1250.813484238342
 30
0.0
 11
821.1339416026534
 21
1245.480150905009
 31
0.0
 12
837.1339416026534
 22
1248.146817571676
 32
0.0
 13
837.1339416026534
 23
1248.146817571676
 33
0.0
  0
MTEXT
  5
19DB
330
B7F
100
AcDbEntity
  8
图层3
 62
     0
440
 16777216
100
AcDbMText
 10
713.1339416026537
 20
1261.646817571676
 30
0.0
 40
17.0
 41
0.0
 46
0.0
 71
     5
 72
     1
  1
%%C124 [4.88"]
 73
     1
 44
1.0
  0
POINT
  5
19DC
330
B7F
100
AcDbEntity
  8
Defpoints
 62
     0
440
 16777216
100
AcDbPoint
 10
589.1339416026539
 20
1052.894960903478
 30
0.0
  0
POINT
  5
19DD
330
B7F
100
AcDbEntity
  8
Defpoints
 62
     0
440
 16777216
100
AcDbPoint
 10
837.1339416026534
 20
1052.894960903478
 30
0.0
  0
POINT
  5
19DE
330
B7F
100
AcDbEntity
  8
Defpoints
 62
     0
440
 16777216
100
AcDbPoint
 10
837.1339416026534
 20
1248.146817571676
 30
0.0
  0
ENDBLK
  5
B8A
330
B7F
100
AcDbEntity
  8
0
100
AcDbBlockEnd
  0
BLOCK
  5
BA4
330
B97
100
AcDbEntity
  8
0
100
AcDbBlockBegin
  2
*D4
 70
     1
 10
0.0
 20
0.0
 30
0.0
  3
*D4
  1

  0
LINE
  5
19FD
330
B97
100
AcDbEntity
  8
图层3
 62
     0
440
 16777216
370
    -2
100
AcDbLine
 10
589.1339416026531
 20
1052.894960903479
 30
0.0
 11
559.1961584409774
 21
1052.894960903479
 31
0.0
  0
LINE
  5
19FE
330
B97
100
AcDbEntity
  8
图层3
 62
     0
440
 16777216
370
    -2
100
AcDbLine
 10
620.6339416026532
 20
1042.294960903479
 30
0.0
 11
559.1961584409774
 21
1042.294960903479
 31
0.0
  0
LINE
  5
19FF
330
B97
100
AcDbEntity
  8
图层3
 62
     0
440
 16777216
370
    -2
100
AcDbLine
 10
560.4461584409774
 20
1068.894960903479
 30
0.0
 11
560.4461584409774
 21
1084.894960903479
 31
0.0
  0
LINE
  5
1A00
330
B97
100
AcDbEntity
  8
图层3
 62
     0
440
 16777216
370
    -2
100
AcDbLine
 10
560.4461584409774
 20
1026.294960903479
 30
0.0
 11
560.4461584409774
 21
982.5905504011755
 31
0.0
  0
LINE
  5
1A01
330
B97
100
AcDbEntity
  8
图层3
 62
     0
440
 16777216
370
    -2
100
AcDbLine
 10
560.4461584409774
 20
982.5905504011755
 30
0.0
 11
447.7794917743107
 21
982.5905504011755
 31
0.0
  0
LINE
  5
1A02
330
B97
100
AcDbEntity
  8
图层3
 62
     0
440
 16777216
370
    -2
100
AcDbLine
 10
560.4461584409774
 20
1052.894960903479
 30
0.0
 11
560.4461584409774
 21
1042.294960903479
 31
0.0
  0
SOLID
  5
1A03
330
B97
100
AcDbEntity
  8
图层3
 62
     0
440
 16777216
100
AcDbTrace
 10
557.7794917743108
 20
1068.894960903479
 30
0.0
 11
563.112825107644
 21
1068.894960903479
 31
0.0
 12
560.4461584409774
 22
1052.894960903479
 32
0.0
 13
560.4461584409774
 23
1052.894960903479
 33
0.0
  0
SOLID
  5
1A04
330
B97
100
AcDbEntity
  8
图层3
 62
     0
440
 16777216
100
AcDbTrace
 10
557.7794917743108
 20
1026.294960903479
 30
0.0
 11
563.112825107644
 21
1026.294960903479
 31
0.0
 12
560.4461584409774
 22
1042.294960903479
 32
0.0
 13
560.4461584409774
 23
1042.294960903479
 33
0.0
  0
MTEXT
  5
1A05
330
B97
100
AcDbEntity
  8
图层3
 62
     0
440
 16777216
100
AcDbMText
 10
501.6128251076443
 20
996.0905504011753
 30
0.0
 40
17.0
 41
0.0
 46
0.0
 71
     5
 72
     1
  1
5.3 [.2"]
 73
     1
 44
1.0
  0
POINT
  5
1A06
330
B97
100
AcDbEntity
  8
Defpoints
 62
     0
440
 16777216
100
AcDbPoint
 10
589.1339416026531
 20
1052.894960903479
 30
0.0
  0
POINT
  5
1A07
330
B97
100
AcDbEntity
  8
Defpoints
 62
     0
440
 16777216
100
AcDbPoint
 10
620.6339416026532
 20
1042.294960903479
 30
0.0
  0
POINT
  5
1A08
330
B97
100
AcDbEntity
  8
Defpoints
 62
     0
440
 16777216
100
AcDbPoint
 10
560.4461584409774
 20
1042.294960903479
 30
0.0
  0
ENDBLK
  5
BA5
330
B97
100
AcDbEntity
  8
0
100
AcDbBlockEnd
  0
BLOCK
  5
C1C
330
C12
100
AcDbEntity
  8
0
100
AcDbBlockBegin
  2
*D5
 70
     1
 10
0.0
 20
0.0
 30
0.0
  3
*D5
  1

  0
LINE
  5
1A12
330
C12
100
AcDbEntity
  8
图层3
 62
     0
440
 16777216
370
    -2
100
AcDbLine
 10
1249.739577768514
 20
1274.721151007176
 30
0.0
 11
906.4216805696204
 21
1274.721151007176
 31
0.0
  0
LINE
  5
1A13
330
C12
100
AcDbEntity
  8
图层3
 62
     0
440
 16777216
370
    -2
100
AcDbLine
 10
1249.739577768515
 20
1046.721151007176
 30
0.0
 11
906.4216805696204
 21
1046.721151007176
 31
0.0
  0
LINE
  5
1A14
330
C12
100
AcDbEntity
  8
图层3
 62
     0
440
 16777216
370
    -2
100
AcDbLine
 10
907.6716805696205
 20
1258.721151007176
 30
0.0
 11
907.6716805696205
 21
1062.721151007176
 31
0.0
  0
SOLID
  5
1A15
330
C12
100
AcDbEntity
  8
图层3
 62
     0
440
 16777216
100
AcDbTrace
 10
905.0050139029538
 20
1258.721151007176
 30
0.0
 11
910.3383472362871
 21
1258.721151007176
 31
0.0
 12
907.6716805696205
 22
1274.721151007176
 32
0.0
 13
907.6716805696205
 23
1274.721151007176
 33
0.0
  0
SOLID
  5
1A16
330
C12
100
AcDbEntity
  8
图层3
 62
     0
440
 16777216
100
AcDbTrace
 10
905.0050139029538
 20
1062.721151007176
 30
0.0
 11
910.3383472362871
 21
1062.721151007176
 31
0.0
 12
907.6716805696205
 22
1046.721151007176
 32
0.0
 13
907.6716805696205
 23
1046.721151007176
 33
0.0
  0
MTEXT
  5
1A17
330
C12
100
AcDbEntity
  8
图层3
 62
     0
440
 16777216
100
AcDbMText
 10
894.1716805696206
 20
1160.721151007175
 30
0.0
 40
17.0
 41
0.0
 46
0.0
 71
     5
 72
     1
  1
228 [9"]
 11
0.0000000000000001
 21
1.0
 31
0.0
 73
     1
 44
1.0
  0
POINT
  5
1A18
330
C12
100
AcDbEntity
  8
Defpoints
 62
     0
440
 16777216
100
AcDbPoint
 10
1249.739577768514
 20
1274.721151007176
 30
0.0
  0
POINT
  5
1A19
330
C12
100
AcDbEntity
  8
Defpoints
 62
     0
440
 16777216
100
AcDbPoint
 10
1249.739577768515
 20
1046.721151007176
 30
0.0
  0
POINT
  5
1A1A
330
C12
100
AcDbEntity
  8
Defpoints
 62
     0
440
 16777216
100
AcDbPoint
 10
907.6716805696205
 20
1046.721151007176
 30
0.0
  0
ENDBLK
  5
C1D
330
C12
100
AcDbEntity
  8
0
100
AcDbBlockEnd
  0
BLOCK
  5
C34
330
C2A
100
AcDbEntity
  8
0
100
AcDbBlockBegin
  2
*D6
 70
     1
 10
0.0
 20
0.0
 30
0.0
  3
*D6
  1

  0
ARC
  5
1738
330
C2A
100
AcDbEntity
  8
图层3
 62
     0
440
 16777216
370
    -2
100
AcDbCircle
 10
1474.739574314436
 20
1274.721151007176
 30
0.0
 40
80.13852164919262
100
AcDbArc
 50
191.4584338742205
 51
255.5415661257794
  0
SOLID
  5
1739
330
C2A
100
AcDbEntity
  8
图层3
 62
     0
440
 16777216
100
AcDbTrace
 10
1393.544940902904
 20
1258.534868572455
 30
0.0
 11
1398.851633139156
 21
1259.067280024383
 31
0.0
 12
1394.601052665243
 22
1274.721151007176
 32
0.0
 13
1394.601052665243
 23
1274.721151007176
 33
0.0
  0
SOLID
  5
173A
330
C2A
100
AcDbEntity
  8
图层3
 62
     0
440
 16777216
100
AcDbTrace
 10
1455.135488449065
 20
1199.756471924611
 30
0.0
 11
1454.326075835856
 21
1194.484916588088
 31
0.0
 12
1470.545448152029
 22
1194.692456416723
 32
0.0
 13
1470.545448152029
 23
1194.692456416723
 33
0.0
  0
MTEXT
  5
173B
330
C2A
100
AcDbEntity
  8
图层3
 62
     0
440
 16777216
100
AcDbMText
 10
1426.741717824376
 20
1229.172885919843
 30
0.0
 40
17.0
 41
0.0
 46
0.0
 71
     5
 72
     1
  1
87°
 11
0.6883545756937533
 21
-0.7253743710122884
 31
0.0
 73
     1
 44
1.0
  0
POINT
  5
173C
330
C2A
100
AcDbEntity
  8
Defpoints
 62
     0
440
 16777216
100
AcDbPoint
 10
1404.648843979035
 20
1235.869224759328
 30
0.0
  0
POINT
  5
173D
330
C2A
100
AcDbEntity
  8
Defpoints
 62
     0
440
 16777216
100
AcDbPoint
 10
1477.111985731223
 20
1274.721151007176
 30
0.0
  0
POINT
  5
173E
330
C2A
100
AcDbEntity
  8
Defpoints
 62
     0
440
 16777216
100
AcDbPoint
 10
1474.615411894337
 20
1272.351990897783
 30
0.0
  0
POINT
  5
173F
330
C2A
100
AcDbEntity
  8
Defpoints
 62
     0
440
 16777216
100
AcDbPoint
 10
1465.151326342638
 20
1091.766480861477
 30
0.0
  0
POINT
  5
1740
330
C2A
100
AcDbEntity
  8
Defpoints
 62
     0
440
 16777216
100
AcDbPoint
 10
1022.367169805805
 20
1274.721151007176
 30
0.0
  0
ENDBLK
  5
C35
330
C2A
100
AcDbEntity
  8
0
100
AcDbBlockEnd
  0
BLOCK
  5
C4C
330
C42
100
AcDbEntity
  8
0
100
AcDbBlockBegin
  2
*D7
 70
     1
 10
0.0
 20
0.0
 30
0.0
  3
*D7
  1

  0
ARC
  5
1741
330
C42
100
AcDbEntity
  8
图层3
 62
     0
440
 16777216
370
    -2
100
AcDbCircle
 10
1769.739574314436
 20
1274.721151007176
 30
0.0
 40
65.5231981975224
100
AcDbArc
 50
194.02595618812
 51
252.9740438118801
  0
SOLID
  5
1742
330
C42
100
AcDbEntity
  8
图层3
 62
     0
440
 16777216
100
AcDbTrace
 10
1703.523166657574
 20
1258.515270230229
 30
0.0
 11
1708.816598772224
 21
1259.166439096225
 31
0.0
 12
1704.216376116913
 22
1274.721151007176
 32
0.0
 13
1704.216376116913
 23
1274.721151007176
 33
0.0
  0
SOLID
  5
1743
330
C42
100
AcDbEntity
  8
图层3
 62
     0
440
 16777216
100
AcDbTrace
 10
1751.017717413394
 20
1214.695739007536
 30
0.0
 11
1750.090404120172
 21
1209.443640902906
 31
0.0
 12
1766.310355080673
 22
1209.287750075552
 32
0.0
 13
1766.310355080673
 23
1209.287750075552
 33
0.0
  0
MTEXT
  5
1744
330
C42
100
AcDbEntity
  8
图层3
 62
     0
440
 16777216
100
AcDbMText
 10
1732.343298880272
 20
1239.233410693044
 30
0.0
 40
17.0
 41
0.0
 46
0.0
 71
     5
 72
     1
  1
87°
 11
0.6883545756937546
 21
-0.7253743710122871
 31
0.0
 73
     1
 44
1.0
  0
POINT
  5
1745
330
C42
100
AcDbEntity
  8
Defpoints
 62
     0
440
 16777216
100
AcDbPoint
 10
1712.431693896082
 20
1242.954874171709
 30
0.0
  0
POINT
  5
1746
330
C42
100
AcDbEntity
  8
Defpoints
 62
     0
440
 16777216
100
AcDbPoint
 10
1772.111985731223
 20
1274.721151007176
 30
0.0
  0
POINT
  5
1747
330
C42
100
AcDbEntity
  8
Defpoints
 62
     0
440
 16777216
100
AcDbPoint
 10
1769.615411894336
 20
1272.351990897783
 30
0.0
  0
POINT
  5
1748
330
C42
100
AcDbEntity
  8
Defpoints
 62
     0
440
 16777216
100
AcDbPoint
 10
1762.269806904558
 20
1132.189498033749
 30
0.0
  0
POINT
  5
1749
330
C42
100
AcDbEntity
  8
Defpoints
 62
     0
440
 16777216
100
AcDbPoint
 10
1502.367162897648
 20
1274.721151007175
 30
0.0
  0
ENDBLK
  5
C4D
330
C42
100
AcDbEntity
  8
0
100
AcDbBlockEnd
  0
BLOCK
  5
C64
330
C5A
100
AcDbEntity
  8
0
100
AcDbBlockBegin
  2
*D8
 70
     1
 10
0.0
 20
0.0
 30
0.0
  3
*D8
  1

  0
LINE
  5
1A24
330
C5A
100
AcDbEntity
  8
图层3
 62
     0
440
 16777216
370
    -2
100
AcDbLine
 10
1637.239574314437
 20
1096.721151007176
 30
0.0
 11
1638.489574314437
 21
1096.721151007176
 31
0.0
  0
LINE
  5
1A25
330
C5A
100
AcDbEntity
  8
图层3
 62
     0
440
 16777216
370
    -2
100
AcDbLine
 10
1637.239574314437
 20
1274.721151007176
 30
0.0
 11
1638.489574314437
 21
1274.721151007176
 31
0.0
  0
LINE
  5
1A26
330
C5A
100
AcDbEntity
  8
图层3
 62
     0
440
 16777216
370
    -2
100
AcDbLine
 10
1637.239574314438
 20
1112.721151007176
 30
0.0
 11
1637.239574314438
 21
1258.721151007176
 31
0.0
  0
SOLID
  5
1A27
330
C5A
100
AcDbEntity
  8
图层3
 62
     0
440
 16777216
100
AcDbTrace
 10
1634.572907647771
 20
1112.721151007176
 30
0.0
 11
1639.906240981104
 21
1112.721151007176
 31
0.0
 12
1637.239574314438
 22
1096.721151007176
 32
0.0
 13
1637.239574314438
 23
1096.721151007176
 33
0.0
  0
SOLID
  5
1A28
330
C5A
100
AcDbEntity
  8
图层3
 62
     0
440
 16777216
100
AcDbTrace
 10
1634.572907647771
 20
1258.721151007176
 30
0.0
 11
1639.906240981104
 21
1258.721151007176
 31
0.0
 12
1637.239574314438
 22
1274.721151007176
 32
0.0
 13
1637.239574314438
 23
1274.721151007176
 33
0.0
  0
MTEXT
  5
1A29
330
C5A
100
AcDbEntity
  8
图层3
 62
     0
440
 16777216
100
AcDbMText
 10
1623.739574314437
 20
1185.721151007175
 30
0.0
 40
17.0
 41
0.0
 46
0.0
 71
     5
 72
     1
  1
178 [7"]
 11
0.0000000000000001
 21
1.0
 31
0.0
 73
     1
 44
1.0
  0
POINT
  5
1A2A
330
C5A
100
AcDbEntity
  8
Defpoints
 62
     0
440
 16777216
100
AcDbPoint
 10
1637.239574314437
 20
1096.721151007176
 30
0.0
  0
POINT
  5
1A2B
330
C5A
100
AcDbEntity
  8
Defpoints
 62
     0
440
 16777216
100
AcDbPoint
 10
1637.239574314437
 20
1274.721151007176
 30
0.0
  0
POINT
  5
1A2C
330
C5A
100
AcDbEntity
  8
Defpoints
 62
     0
440
 16777216
100
AcDbPoint
 10
1637.239574314438
 20
1274.721151007176
 30
0.0
  0
ENDBLK
  5
C65
330
C5A
100
AcDbEntity
  8
0
100
AcDbBlockEnd
  0
BLOCK
  5
C9D
330
C96
100
AcDbEntity
  8
0
100
AcDbBlockBegin
  2
*D10
 70
     1
 10
0.0
 20
0.0
 30
0.0
  3
*D10
  1

  0
LINE
  5
1AD6
330
C96
100
AcDbEntity
  8
图层3
 62
     0
440
 16777216
370
    -2
100
AcDbLine
 10
1671.567051063124
 20
1175.239797156302
 30
0.0
 11
1742.595615308947
 21
1122.725791034556
 31
0.0
  0
MTEXT
  5
1AD7
330
C96
100
AcDbEntity
  8
图层3
 62
     0
440
 16777216
100
AcDbMText
 10
1717.096340605678
 20
1175.985461941939
 30
0.0
 40
17.0
 41
4.776231659125187
 46
0.0
 71
     5
 72
     1
  1
R35 [1.4"]
 11
0.8040969537262942
 21
-0.5944981825103369
 31
0.0
 73
     1
 44
1.0
  0
SOLID
  5
1AD8
330
C96
100
AcDbEntity
  8
图层3
 62
     0
440
 16777216
100
AcDbTrace
 10
1744.180943795641
 20
1124.870049577826
 30
0.0
 11
1741.010286822253
 21
1120.581532491285
 31
0.0
 12
1755.461166568568
 22
1113.21382011439
 32
0.0
 13
1755.461166568568
 23
1113.21382011439
 33
0.0
  0
POINT
  5
1AD9
330
C96
100
AcDbEntity
  8
Defpoints
 62
     0
440
 16777216
100
AcDbPoint
 10
1755.461166568568
 20
1113.21382011439
 30
0.0
  0
POINT
  5
1ADA
330
C96
100
AcDbEntity
  8
Defpoints
 62
     0
440
 16777216
100
AcDbPoint
 10
1727.317773188147
 20
1134.021256502252
 30
0.0
  0
ENDBLK
  5
C9E
330
C96
100
AcDbEntity
  8
0
100
AcDbBlockEnd
  0
BLOCK
  5
CAE
330
CA8
100
AcDbEntity
  8
0
100
AcDbBlockBegin
  2
*D11
 70
     1
 10
0.0
 20
0.0
 30
0.0
  3
*D11
  1

  0
LINE
  5
1ACB
330
CA8
100
AcDbEntity
  8
图层3
 62
     0
440
 16777216
370
    -2
100
AcDbLine
 10
1580.443675814955
 20
1287.056174366149
 30
0.0
 11
1574.331534420143
 21
1113.830638800474
 31
0.0
  0
MTEXT
  5
1ACC
330
CA8
100
AcDbEntity
  8
图层3
 62
     0
440
 16777216
100
AcDbMText
 10
1564.178099738829
 20
1208.91447308344
 30
0.0
 40
17.0
 41
0.0
 46
0.0
 71
     5
 72
     1
  1
R1800 [71"]
 11
0.0352623542008364
 21
0.9993780898019601
 31
0.0
 73
     1
 44
1.0
  0
SOLID
  5
1ACD
330
CA8
100
AcDbEntity
  8
图层3
 62
     0
440
 16777216
100
AcDbTrace
 10
1571.666526180671
 20
1113.92467174501
 30
0.0
 11
1576.996542659615
 21
1113.736605855939
 31
0.0
 12
1573.76733675293
 22
1097.840589363643
 32
0.0
 13
1573.76733675293
 23
1097.840589363643
 33
0.0
  0
POINT
  5
1ACE
330
CA8
100
AcDbEntity
  8
Defpoints
 62
     0
440
 16777216
100
AcDbPoint
 10
1573.76733675293
 20
1097.840589363643
 30
0.0
  0
POINT
  5
1ACF
330
CA8
100
AcDbEntity
  8
Defpoints
 62
     0
440
 16777216
100
AcDbPoint
 10
1637.239574314434
 20
2896.721151007178
 30
0.0
  0
ENDBLK
  5
CAF
330
CA8
100
AcDbEntity
  8
0
100
AcDbBlockEnd
  0
BLOCK
  5
CCE
330
CB8
100
AcDbEntity
  8
0
100
AcDbBlockBegin
  2
c
 70
     0
 10
0.0
 20
0.0
 30
0.0
  3
c
  1

  0
MTEXT
  5
CB9
330
CB8
100
AcDbEntity
  8
图层3
100
AcDbMText
 10
54.71600927374021
 20
226.3160909522091
 30
0.0
 40
3.7
 41
320.0
 46
0.0
 71
     1
 72
     5
  1
{\fMS Reference Sans Serif|b0|i0|c0|p34;M\H1.027x;odel no:5052A\P\PSU3041.2mm\P\PMfg. date:XXXXX\P\PComplies with ASME A112.19.3 and CSA B45}
 73
     1
 44
1.0
  0
LINE
  5
CBA
330
CB8
100
AcDbEntity
  8
图层3
100
AcDbLine
 10
133.5798802168802
 20
221.116722845646
 30
0.0
 11
152.5798802168802
 21
221.116722845646
 31
0.0
  0
LINE
  5
CBB
330
CB8
100
AcDbEntity
  8
图层3
100
AcDbLine
 10
133.5798802168802
 20
221.116722845646
 30
0.0
 11
133.5798802168802
 21
213.116722845646
 31
0.0
  0
LINE
  5
CBC
330
CB8
100
AcDbEntity
  8
图层3
100
AcDbLine
 10
152.5798802168802
 20
221.116722845646
 30
0.0
 11
152.5798802168802
 21
213.116722845646
 31
0.0
  0
ARC
  5
CBD
330
CB8
100
AcDbEntity
  8
图层3
100
AcDbCircle
 10
152.8175005163763
 20
218.5860889160803
 30
0.0
 40
20.0
100
AcDbArc
 50
195.8707558324607
 51
240.8642149372622
  0
ARC
  5
CBE
330
CB8
100
AcDbEntity
  8
图层3
100
AcDbCircle
 10
133.0798802168803
 20
218.7938061789792
 30
0.0
 40
20.3095857952251
100
AcDbArc
 50
299.4970227370384
 51
343.7680064932391
  0
LINE
  5
CBF
330
CB8
100
AcDbEntity
  8
图层3
100
AcDbLine
 10
133.5798802168802
 20
221.116722845646
 30
0.0
 11
152.5798802168802
 21
213.116722845646
 31
0.0
  0
LINE
  5
CC0
330
CB8
100
AcDbEntity
  8
图层3
100
AcDbLine
 10
133.5798802168802
 20
214.6065560683549
 30
0.0
 11
150.2515382165315
 21
207.5869105948175
 31
0.0
  0
MTEXT
  5
CC1
330
CB8
100
AcDbEntity
  8
图层3
100
AcDbMText
 10
138.1416580824129
 20
216.860014701051
 30
0.0
 40
2.5
 41
4.719320932013005
 46
0.0
 71
     1
 72
     5
  1
{\fMS Reference Sans Serif|b0|i0|c0|p34;U}
 73
     1
 44
1.0
  0
MTEXT
  5
CC2
330
CB8
100
AcDbEntity
  8
图层3
100
AcDbMText
 10
142.1117902545913
 20
215.3487572451774
 30
0.0
 40
2.5
 41
1.316350149343662
 46
0.0
 71
     1
 72
     5
  1
{\fMS Reference Sans Serif|b0|i0|c0|p34;P}
 73
     1
 44
1.0
  0
MTEXT
  5
CC3
330
CB8
100
AcDbEntity
  8
图层3
100
AcDbMText
 10
145.5147618524657
 20
213.4596856031385
 30
0.0
 40
2.5
 41
4.915402377500981
 46
0.0
 71
     1
 72
     5
  1
{\fMS Reference Sans Serif|b0|i0|c0|p34;C}
 73
     1
 44
1.0
  0
MTEXT
  5
CC4
330
CB8
100
AcDbEntity
  8
图层3
100
AcDbMText
 10
132.4700397036948
 20
203.2586964128373
 30
0.0
 40
3.5
 41
5.104456174004042
 46
0.0
 71
     1
 72
     5
  1
{\fMS Reference Sans Serif|b0|i0|c0|p34;C}
 73
     1
 44
1.0
  0
CIRCLE
  5
CC5
330
CB8
100
AcDbEntity
  8
图层3
100
AcDbCircle
 10
151.5644878241899
 20
201.7474389569638
 30
0.0
 40
1.946073200565057
  0
MTEXT
  5
CC6
330
CB8
100
AcDbEntity
  8
图层3
100
AcDbMText
 10
151.0444204230561
 20
202.8808819896013
 30
0.0
 40
2.0
 41
0.9452693901175734
 46
0.0
 71
     1
 72
     5
  1
{\fSimHei|b0|i0|c134|p2;R}
 73
     1
 44
1.0
  0
LINE
  5
CC7
330
CB8
100
AcDbEntity
  8
图层3
100
AcDbLine
 10
49.55519078950499
 20
169.0633290678566
 30
0.0
 11
177.555190789505
 21
169.0633290678566
 31
0.0
  0
LINE
  5
CC8
330
CB8
100
AcDbEntity
  8
图层3
100
AcDbLine
 10
177.555190789505
 20
169.0633290678566
 30
0.0
 11
177.555190789505
 21
232.0633290678566
 31
0.0
  0
LINE
  5
CC9
330
CB8
100
AcDbEntity
  8
图层3
100
AcDbLine
 10
177.555190789505
 20
232.0633290678566
 30
0.0
 11
49.55519078950499
 21
232.0633290678566
 31
0.0
  0
LINE
  5
CCA
330
CB8
100
AcDbEntity
  8
图层3
100
AcDbLine
 10
49.55519078950499
 20
232.0633290678566
 30
0.0
 11
49.55519078950499
 21
169.0633290678566
 31
0.0
  0
MTEXT
  5
CCB
330
CB8
100
AcDbEntity
  8
图层3
100
AcDbMText
 10
54.30222319700829
 20
178.23411561022
 30
0.0
 40
3.5
 41
123.2529675924967
 46
0.0
 71
     1
 72
     5
  1
{\fFranklin Gothic Medium|b0|i0|c0|p34;Jian\fMicrosoft Sans Serif|b0|i0|c0|p34;gmen XHHL Stainless Steel Manufacturing Co.Ltd.}
 73
     1
 44
1.0
  0
ENDBLK
  5
CCF
330
CB8
100
AcDbEntity
  8
0
100
AcDbBlockEnd
  0
BLOCK
  5
EBF
330
EB5
100
AcDbEntity
  8
0
100
AcDbBlockBegin
  2
*D13
 70
     1
 10
0.0
 20
0.0
 30
0.0
  3
*D13
  1

  0
LINE
  5
1DFA
330
EB5
100
AcDbEntity
  8
图层3
 62
     0
440
 16777216
370
    -2
100
AcDbLine
 10
999.7395812225922
 20
646.2084855128312
 30
0.0
 11
999.7395812225922
 21
807.2431325867647
 31
0.0
  0
LINE
  5
1DFB
330
EB5
100
AcDbEntity
  8
图层3
 62
     0
440
 16777216
370
    -2
100
AcDbLine
 10
1115.739581222592
 20
762.2084855128313
 30
0.0
 11
1115.739581222592
 21
807.2431325867647
 31
0.0
  0
LINE
  5
1DFC
330
EB5
100
AcDbEntity
  8
图层3
 62
     0
440
 16777216
370
    -2
100
AcDbLine
 10
1015.739581222592
 20
805.9931325867646
 30
0.0
 11
1099.739581222592
 21
805.9931325867646
 31
0.0
  0
SOLID
  5
1DFD
330
EB5
100
AcDbEntity
  8
图层3
 62
     0
440
 16777216
100
AcDbTrace
 10
1015.739581222592
 20
808.6597992534313
 30
0.0
 11
1015.739581222592
 21
803.326465920098
 31
0.0
 12
999.7395812225922
 22
805.9931325867646
 32
0.0
 13
999.7395812225922
 23
805.9931325867646
 33
0.0
  0
SOLID
  5
1DFE
330
EB5
100
AcDbEntity
  8
图层3
 62
     0
440
 16777216
100
AcDbTrace
 10
1099.739581222592
 20
808.6597992534313
 30
0.0
 11
1099.739581222592
 21
803.326465920098
 31
0.0
 12
1115.739581222592
 22
805.9931325867646
 32
0.0
 13
1115.739581222592
 23
805.9931325867646
 33
0.0
  0
MTEXT
  5
1DFF
330
EB5
100
AcDbEntity
  8
图层3
 62
     0
440
 16777216
100
AcDbMText
 10
1057.739581222592
 20
833.6597992534313
 30
0.0
 40
17.0
 41
17.58001853240421
 46
0.0
 71
     5
 72
     1
  1
116 [4.6"]
 73
     1
 44
1.0
  0
POINT
  5
1E00
330
EB5
100
AcDbEntity
  8
Defpoints
 62
     0
440
 16777216
100
AcDbPoint
 10
999.7395812225922
 20
646.2084855128312
 30
0.0
  0
POINT
  5
1E01
330
EB5
100
AcDbEntity
  8
Defpoints
 62
     0
440
 16777216
100
AcDbPoint
 10
1115.739581222592
 20
762.2084855128313
 30
0.0
  0
POINT
  5
1E02
330
EB5
100
AcDbEntity
  8
Defpoints
 62
     0
440
 16777216
100
AcDbPoint
 10
1115.739581222592
 20
805.9931325867646
 30
0.0
  0
ENDBLK
  5
EC0
330
EB5
100
AcDbEntity
  8
0
100
AcDbBlockEnd
  0
BLOCK
  5
ED7
330
ECD
100
AcDbEntity
  8
0
100
AcDbBlockBegin
  2
*D14
 70
     1
 10
0.0
 20
0.0
 30
0.0
  3
*D14
  1

  0
LINE
  5
1E0C
330
ECD
100
AcDbEntity
  8
图层3
 62
     0
440
 16777216
370
    -2
100
AcDbLine
 10
1115.739581222592
 20
762.2084855128313
 30
0.0
 11
1115.739581222592
 21
807.2431325867647
 31
0.0
  0
LINE
  5
1E0D
330
ECD
100
AcDbEntity
  8
图层3
 62
     0
440
 16777216
370
    -2
100
AcDbLine
 10
1374.739581222592
 20
762.2084855128313
 30
0.0
 11
1374.739581222592
 21
807.2431325867647
 31
0.0
  0
LINE
  5
1E0E
330
ECD
100
AcDbEntity
  8
图层3
 62
     0
440
 16777216
370
    -2
100
AcDbLine
 10
1131.739581222592
 20
805.9931325867646
 30
0.0
 11
1358.739581222592
 21
805.9931325867646
 31
0.0
  0
MTEXT
  5
1E0F
330
ECD
100
AcDbEntity
  8
图层3
 62
     0
440
 16777216
100
AcDbMText
 10
1294.333552951612
 20
821.2372379449144
 30
0.0
 40
17.0
 41
0.0
 46
0.0
 71
     5
 72
     1
  1
259 [10.2"]
 73
     1
 44
1.0
  0
SOLID
  5
1E10
330
ECD
100
AcDbEntity
  8
图层3
 62
     0
440
 16777216
100
AcDbTrace
 10
1131.739581222592
 20
808.6597992534313
 30
0.0
 11
1131.739581222592
 21
803.326465920098
 31
0.0
 12
1115.739581222592
 22
805.9931325867646
 32
0.0
 13
1115.739581222592
 23
805.9931325867646
 33
0.0
  0
SOLID
  5
1E11
330
ECD
100
AcDbEntity
  8
图层3
 62
     0
440
 16777216
100
AcDbTrace
 10
1358.739581222592
 20
808.6597992534313
 30
0.0
 11
1358.739581222592
 21
803.326465920098
 31
0.0
 12
1374.739581222592
 22
805.9931325867646
 32
0.0
 13
1374.739581222592
 23
805.9931325867646
 33
0.0
  0
POINT
  5
1E12
330
ECD
100
AcDbEntity
  8
Defpoints
 62
     0
440
 16777216
100
AcDbPoint
 10
1115.739581222592
 20
762.2084855128313
 30
0.0
  0
POINT
  5
1E13
330
ECD
100
AcDbEntity
  8
Defpoints
 62
     0
440
 16777216
100
AcDbPoint
 10
1374.739581222592
 20
762.2084855128313
 30
0.0
  0
POINT
  5
1E14
330
ECD
100
AcDbEntity
  8
Defpoints
 62
     0
440
 16777216
100
AcDbPoint
 10
1374.739581222592
 20
805.9931325867646
 30
0.0
  0
ENDBLK
  5
ED8
330
ECD
100
AcDbEntity
  8
0
100
AcDbBlockEnd
  0
BLOCK
  5
EEF
330
EE5
100
AcDbEntity
  8
0
100
AcDbBlockBegin
  2
*D15
 70
     1
 10
0.0
 20
0.0
 30
0.0
  3
*D15
  1

  0
LINE
  5
1E1E
330
EE5
100
AcDbEntity
  8
图层3
 62
     0
440
 16777216
370
    -2
100
AcDbLine
 10
1374.739581222592
 20
762.2084855128313
 30
0.0
 11
1374.739581222592
 21
807.2431325867647
 31
0.0
  0
LINE
  5
1E1F
330
EE5
100
AcDbEntity
  8
图层3
 62
     0
440
 16777216
370
    -2
100
AcDbLine
 10
1458.739574314436
 20
697.2084855128315
 30
0.0
 11
1458.739574314436
 21
807.2431325867647
 31
0.0
  0
LINE
  5
1E20
330
EE5
100
AcDbEntity
  8
图层3
 62
     0
440
 16777216
370
    -2
100
AcDbLine
 10
1390.739581222592
 20
805.9931325867646
 30
0.0
 11
1442.739574314436
 21
805.9931325867646
 31
0.0
  0
SOLID
  5
1E21
330
EE5
100
AcDbEntity
  8
图层3
 62
     0
440
 16777216
100
AcDbTrace
 10
1390.739581222592
 20
808.6597992534313
 30
0.0
 11
1390.739581222592
 21
803.326465920098
 31
0.0
 12
1374.739581222592
 22
805.9931325867646
 32
0.0
 13
1374.739581222592
 23
805.9931325867646
 33
0.0
  0
SOLID
  5
1E22
330
EE5
100
AcDbEntity
  8
图层3
 62
     0
440
 16777216
100
AcDbTrace
 10
1442.739574314436
 20
808.6597992534313
 30
0.0
 11
1442.739574314436
 21
803.326465920098
 31
0.0
 12
1458.739574314436
 22
805.9931325867646
 32
0.0
 13
1458.739574314436
 23
805.9931325867646
 33
0.0
  0
MTEXT
  5
1E23
330
EE5
100
AcDbEntity
  8
图层3
 62
     0
440
 16777216
100
AcDbMText
 10
1416.739577768514
 20
833.6597992534313
 30
0.0
 40
17.0
 41
4.7945214115025
 46
0.0
 71
     5
 72
     1
  1
84 [3.3"]
 73
     1
 44
1.0
  0
POINT
  5
1E24
330
EE5
100
AcDbEntity
  8
Defpoints
 62
     0
440
 16777216
100
AcDbPoint
 10
1374.739581222592
 20
762.2084855128313
 30
0.0
  0
POINT
  5
1E25
330
EE5
100
AcDbEntity
  8
Defpoints
 62
     0
440
 16777216
100
AcDbPoint
 10
1458.739574314436
 20
697.2084855128315
 30
0.0
  0
POINT
  5
1E26
330
EE5
100
AcDbEntity
  8
Defpoints
 62
     0
440
 16777216
100
AcDbPoint
 10
1458.739574314436
 20
805.9931325867646
 30
0.0
  0
ENDBLK
  5
EF0
330
EE5
100
AcDbEntity
  8
0
100
AcDbBlockEnd
  0
BLOCK
  5
F07
330
EFD
100
AcDbEntity
  8
0
100
AcDbBlockBegin
  2
*D16
 70
     1
 10
0.0
 20
0.0
 30
0.0
  3
*D16
  1

  0
LINE
  5
1E30
330
EFD
100
AcDbEntity
  8
图层3
 62
     0
440
 16777216
370
    -2
100
AcDbLine
 10
1458.739574314436
 20
697.2084855128315
 30
0.0
 11
1458.739574314436
 21
807.2431325867647
 31
0.0
  0
LINE
  5
1E31
330
EFD
100
AcDbEntity
  8
图层3
 62
     0
440
 16777216
370
    -2
100
AcDbLine
 10
1724.739574314436
 20
697.2084855128315
 30
0.0
 11
1724.739574314436
 21
807.2431325867647
 31
0.0
  0
LINE
  5
1E32
330
EFD
100
AcDbEntity
  8
图层3
 62
     0
440
 16777216
370
    -2
100
AcDbLine
 10
1474.739574314436
 20
805.9931325867646
 30
0.0
 11
1708.739574314436
 21
805.9931325867646
 31
0.0
  0
SOLID
  5
1E33
330
EFD
100
AcDbEntity
  8
图层3
 62
     0
440
 16777216
100
AcDbTrace
 10
1474.739574314436
 20
808.6597992534313
 30
0.0
 11
1474.739574314436
 21
803.326465920098
 31
0.0
 12
1458.739574314436
 22
805.9931325867646
 32
0.0
 13
1458.739574314436
 23
805.9931325867646
 33
0.0
  0
SOLID
  5
1E34
330
EFD
100
AcDbEntity
  8
图层3
 62
     0
440
 16777216
100
AcDbTrace
 10
1708.739574314436
 20
808.6597992534313
 30
0.0
 11
1708.739574314436
 21
803.326465920098
 31
0.0
 12
1724.739574314436
 22
805.9931325867646
 32
0.0
 13
1724.739574314436
 23
805.9931325867646
 33
0.0
  0
MTEXT
  5
1E35
330
EFD
100
AcDbEntity
  8
图层3
 62
     0
440
 16777216
100
AcDbMText
 10
1591.739574314436
 20
833.6597992534313
 30
0.0
 40
17.0
 41
45.33333333333334
 46
0.0
 71
     5
 72
     1
  1
266 [10.5"]
 73
     1
 44
1.0
  0
POINT
  5
1E36
330
EFD
100
AcDbEntity
  8
Defpoints
 62
     0
440
 16777216
100
AcDbPoint
 10
1458.739574314436
 20
697.2084855128315
 30
0.0
  0
POINT
  5
1E37
330
EFD
100
AcDbEntity
  8
Defpoints
 62
     0
440
 16777216
100
AcDbPoint
 10
1724.739574314436
 20
697.2084855128315
 30
0.0
  0
POINT
  5
1E38
330
EFD
100
AcDbEntity
  8
Defpoints
 62
     0
440
 16777216
100
AcDbPoint
 10
1724.739574314436
 20
805.9931325867646
 30
0.0
  0
ENDBLK
  5
F08
330
EFD
100
AcDbEntity
  8
0
100
AcDbBlockEnd
  0
BLOCK
  5
F1F
330
F15
100
AcDbEntity
  8
0
100
AcDbBlockBegin
  2
*D17
 70
     1
 10
0.0
 20
0.0
 30
0.0
  3
*D17
  1

  0
LINE
  5
21BC
330
F15
100
AcDbEntity
  8
图层3
 62
     0
440
 16777216
370
    -2
100
AcDbLine
 10
1724.739574314436
 20
700.5545813879836
 30
0.0
 11
1724.739574314436
 21
810.5892284619168
 31
0.0
  0
LINE
  5
21BD
330
F15
100
AcDbEntity
  8
图层3
 62
     0
440
 16777216
370
    -2
100
AcDbLine
 10
1794.739574314436
 20
630.5545813879835
 30
0.0
 11
1794.739574314436
 21
810.5892284619168
 31
0.0
  0
LINE
  5
21BE
330
F15
100
AcDbEntity
  8
图层3
 62
     0
440
 16777216
370
    -2
100
AcDbLine
 10
1740.739574314436
 20
809.3392284619167
 30
0.0
 11
1778.739574314436
 21
809.3392284619167
 31
0.0
  0
MTEXT
  5
21BF
330
F15
100
AcDbEntity
  8
图层3
 62
     0
440
 16777216
100
AcDbMText
 10
1758.809443661426
 20
826.5892284619166
 30
0.0
 40
17.0
 41
0.0
 46
0.0
 71
     5
 72
     1
  1
70 [2.8"]
 73
     1
 44
1.0
  0
SOLID
  5
21C0
330
F15
100
AcDbEntity
  8
图层3
 62
     0
440
 16777216
100
AcDbTrace
 10
1740.739574314436
 20
812.0058951285834
 30
0.0
 11
1740.739574314436
 21
806.6725617952501
 31
0.0
 12
1724.739574314436
 22
809.3392284619167
 32
0.0
 13
1724.739574314436
 23
809.3392284619167
 33
0.0
  0
SOLID
  5
21C1
330
F15
100
AcDbEntity
  8
图层3
 62
     0
440
 16777216
100
AcDbTrace
 10
1778.739574314436
 20
812.0058951285834
 30
0.0
 11
1778.739574314436
 21
806.6725617952501
 31
0.0
 12
1794.739574314436
 22
809.3392284619167
 32
0.0
 13
1794.739574314436
 23
809.3392284619167
 33
0.0
  0
POINT
  5
21C2
330
F15
100
AcDbEntity
  8
Defpoints
 62
     0
440
 16777216
100
AcDbPoint
 10
1724.739574314436
 20
700.5545813879836
 30
0.0
  0
POINT
  5
21C3
330
F15
100
AcDbEntity
  8
Defpoints
 62
     0
440
 16777216
100
AcDbPoint
 10
1794.739574314436
 20
630.5545813879835
 30
0.0
  0
POINT
  5
21C4
330
F15
100
AcDbEntity
  8
Defpoints
 62
     0
440
 16777216
100
AcDbPoint
 10
1794.739574314436
 20
809.3392284619167
 30
0.0
  0
ENDBLK
  5
F20
330
F15
100
AcDbEntity
  8
0
100
AcDbBlockEnd
  0
BLOCK
  5
F49
330
F3F
100
AcDbEntity
  8
0
100
AcDbBlockBegin
  2
*D18
 70
     1
 10
0.0
 20
0.0
 30
0.0
  3
*D18
  1

  0
LINE
  5
2207
330
F3F
100
AcDbEntity
  8
图层3
 62
     0
440
 16777216
370
    -2
100
AcDbLine
 10
999.7395812225928
 20
648.8751521794982
 30
0.0
 11
950.9700279177595
 21
648.8751521794982
 31
0.0
  0
LINE
  5
2208
330
F3F
100
AcDbEntity
  8
图层3
 62
     0
440
 16777216
370
    -2
100
AcDbLine
 10
1115.739581222592
 20
764.8751521794982
 30
0.0
 11
950.9700279177595
 21
764.8751521794982
 31
0.0
  0
LINE
  5
2209
330
F3F
100
AcDbEntity
  8
图层3
 62
     0
440
 16777216
370
    -2
100
AcDbLine
 10
952.2200279177596
 20
632.8751521794981
 30
0.0
 11
952.2200279177596
 21
616.8751521794981
 31
0.0
  0
LINE
  5
220A
330
F3F
100
AcDbEntity
  8
图层3
 62
     0
440
 16777216
370
    -2
100
AcDbLine
 10
952.2200279177594
 20
780.8751521794983
 30
0.0
 11
952.2200279177594
 21
796.8751521794983
 31
0.0
  0
MTEXT
  5
220B
330
F3F
100
AcDbEntity
  8
图层3
 62
     0
440
 16777216
100
AcDbMText
 10
939.9700279177586
 20
684.0670709600636
 30
0.0
 40
17.0
 41
0.0
 46
0.0
 71
     5
 72
     1
  1
116 [4.6"]
 11
0.0000000000000001
 21
1.0
 31
0.0
 73
     1
 44
1.0
  0
LINE
  5
220C
330
F3F
100
AcDbEntity
  8
图层3
 62
     0
440
 16777216
370
    -2
100
AcDbLine
 10
952.2200279177596
 20
648.8751521794982
 30
0.0
 11
952.2200279177596
 21
764.8751521794982
 31
0.0
  0
SOLID
  5
220D
330
F3F
100
AcDbEntity
  8
图层3
 62
     0
440
 16777216
100
AcDbTrace
 10
949.5533612510929
 20
632.8751521794981
 30
0.0
 11
954.8866945844261
 21
632.8751521794981
 31
0.0
 12
952.2200279177596
 22
648.8751521794982
 32
0.0
 13
952.2200279177596
 23
648.8751521794982
 33
0.0
  0
SOLID
  5
220E
330
F3F
100
AcDbEntity
  8
图层3
 62
     0
440
 16777216
100
AcDbTrace
 10
949.5533612510929
 20
780.8751521794983
 30
0.0
 11
954.8866945844261
 21
780.8751521794983
 31
0.0
 12
952.2200279177596
 22
764.8751521794982
 32
0.0
 13
952.2200279177596
 23
764.8751521794982
 33
0.0
  0
POINT
  5
220F
330
F3F
100
AcDbEntity
  8
Defpoints
 62
     0
440
 16777216
100
AcDbPoint
 10
999.7395812225928
 20
648.8751521794982
 30
0.0
  0
POINT
  5
2210
330
F3F
100
AcDbEntity
  8
Defpoints
 62
     0
440
 16777216
100
AcDbPoint
 10
1115.739581222592
 20
764.8751521794982
 30
0.0
  0
POINT
  5
2211
330
F3F
100
AcDbEntity
  8
Defpoints
 62
     0
440
 16777216
100
AcDbPoint
 10
952.2200279177596
 20
764.8751521794982
 30
0.0
  0
ENDBLK
  5
F4A
330
F3F
100
AcDbEntity
  8
0
100
AcDbBlockEnd
  0
BLOCK
  5
F56
330
F4C
100
AcDbEntity
  8
0
100
AcDbBlockBegin
  2
*D19
 70
     1
 10
0.0
 20
0.0
 30
0.0
  3
*D19
  1

  0
LINE
  5
2249
330
F4C
100
AcDbEntity
  8
图层3
 62
     0
440
 16777216
370
    -2
100
AcDbLine
 10
1027.153021069234
 20
242.2084855128315
 30
0.0
 11
951.6832237167259
 21
242.2084855128315
 31
0.0
  0
LINE
  5
224A
330
F4C
100
AcDbEntity
  8
图层3
 62
     0
440
 16777216
370
    -2
100
AcDbLine
 10
955.1530210692339
 20
314.2084855128315
 30
0.0
 11
951.6832237167257
 21
314.2084855128315
 31
0.0
  0
LINE
  5
224B
330
F4C
100
AcDbEntity
  8
图层3
 62
     0
440
 16777216
370
    -2
100
AcDbLine
 10
952.9332237167256
 20
298.2084855128316
 30
0.0
 11
952.9332237167256
 21
258.2084855128315
 31
0.0
  0
LINE
  5
224C
330
F4C
100
AcDbEntity
  8
图层3
 62
     0
440
 16777216
370
    -2
100
AcDbLine
 10
952.9332237167258
 20
242.2084855128315
 30
0.0
 11
952.9332237167258
 21
199.0385463712003
 31
0.0
  0
LINE
  5
224D
330
F4C
100
AcDbEntity
  8
图层3
 62
     0
440
 16777216
370
    -2
100
AcDbLine
 10
952.9332237167258
 20
199.0385463712003
 30
0.0
 11
828.9332237167258
 21
199.0385463712003
 31
0.0
  0
SOLID
  5
224E
330
F4C
100
AcDbEntity
  8
图层3
 62
     0
440
 16777216
100
AcDbTrace
 10
950.2665570500591
 20
298.2084855128316
 30
0.0
 11
955.5998903833923
 21
298.2084855128316
 31
0.0
 12
952.9332237167256
 22
314.2084855128315
 32
0.0
 13
952.9332237167256
 23
314.2084855128315
 33
0.0
  0
SOLID
  5
224F
330
F4C
100
AcDbEntity
  8
图层3
 62
     0
440
 16777216
100
AcDbTrace
 10
950.2665570500591
 20
258.2084855128315
 30
0.0
 11
955.5998903833923
 21
258.2084855128315
 31
0.0
 12
952.9332237167258
 22
242.2084855128315
 32
0.0
 13
952.9332237167258
 23
242.2084855128315
 33
0.0
  0
MTEXT
  5
2250
330
F4C
100
AcDbEntity
  8
图层3
 62
     0
440
 16777216
100
AcDbMText
 10
888.4332237167255
 20
212.5385463712
 30
0.0
 40
17.0
 41
0.0
 46
0.0
 71
     5
 72
     1
  1
72 [2.8"]
 73
     1
 44
1.0
  0
POINT
  5
2251
330
F4C
100
AcDbEntity
  8
Defpoints
 62
     0
440
 16777216
100
AcDbPoint
 10
1027.153021069234
 20
242.2084855128315
 30
0.0
  0
POINT
  5
2252
330
F4C
100
AcDbEntity
  8
Defpoints
 62
     0
440
 16777216
100
AcDbPoint
 10
955.1530210692339
 20
314.2084855128315
 30
0.0
  0
POINT
  5
2253
330
F4C
100
AcDbEntity
  8
Defpoints
 62
     0
440
 16777216
100
AcDbPoint
 10
952.9332237167256
 20
314.2084855128315
 30
0.0
  0
ENDBLK
  5
F57
330
F4C
100
AcDbEntity
  8
0
100
AcDbBlockEnd
  0
BLOCK
  5
F6E
330
F64
100
AcDbEntity
  8
0
100
AcDbBlockBegin
  2
*D20
 70
     1
 10
0.0
 20
0.0
 30
0.0
  3
*D20
  1

  0
LINE
  5
215A
330
F64
100
AcDbEntity
  8
图层3
 62
     0
440
 16777216
370
    -2
100
AcDbLine
 10
1169.739577768515
 20
592.2084855128312
 30
0.0
 11
909.0785633025602
 21
592.2084855128312
 31
0.0
  0
LINE
  5
215B
330
F64
100
AcDbEntity
  8
图层3
 62
     0
440
 16777216
370
    -2
100
AcDbLine
 10
1249.739577768515
 20
737.2084855128312
 30
0.0
 11
909.0785633025602
 21
737.2084855128312
 31
0.0
  0
LINE
  5
215C
330
F64
100
AcDbEntity
  8
图层3
 62
     0
440
 16777216
370
    -2
100
AcDbLine
 10
910.3285633025603
 20
608.2084855128312
 30
0.0
 11
910.3285633025603
 21
721.2084855128312
 31
0.0
  0
SOLID
  5
215D
330
F64
100
AcDbEntity
  8
图层3
 62
     0
440
 16777216
100
AcDbTrace
 10
907.6618966358935
 20
608.2084855128312
 30
0.0
 11
912.9952299692268
 21
608.2084855128312
 31
0.0
 12
910.3285633025603
 22
592.2084855128312
 32
0.0
 13
910.3285633025603
 23
592.2084855128312
 33
0.0
  0
SOLID
  5
215E
330
F64
100
AcDbEntity
  8
图层3
 62
     0
440
 16777216
100
AcDbTrace
 10
907.6618966358935
 20
721.2084855128312
 30
0.0
 11
912.9952299692268
 21
721.2084855128312
 31
0.0
 12
910.3285633025603
 22
737.2084855128312
 32
0.0
 13
910.3285633025603
 23
737.2084855128312
 33
0.0
  0
MTEXT
  5
215F
330
F64
100
AcDbEntity
  8
图层3
 62
     0
440
 16777216
100
AcDbMText
 10
896.8285633025601
 20
664.7084855128309
 30
0.0
 40
17.0
 41
0.0
 46
0.0
 71
     5
 72
     1
  1
145 \{5.7"]
 11
0.0000000000000001
 21
1.0
 31
0.0
 73
     1
 44
1.0
  0
POINT
  5
2160
330
F64
100
AcDbEntity
  8
Defpoints
 62
     0
440
 16777216
100
AcDbPoint
 10
1169.739577768515
 20
592.2084855128312
 30
0.0
  0
POINT
  5
2161
330
F64
100
AcDbEntity
  8
Defpoints
 62
     0
440
 16777216
100
AcDbPoint
 10
1249.739577768515
 20
737.2084855128312
 30
0.0
  0
POINT
  5
2162
330
F64
100
AcDbEntity
  8
Defpoints
 62
     0
440
 16777216
100
AcDbPoint
 10
910.3285633025603
 20
737.2084855128312
 30
0.0
  0
ENDBLK
  5
F6F
330
F64
100
AcDbEntity
  8
0
100
AcDbBlockEnd
  0
BLOCK
  5
F86
330
F7C
100
AcDbEntity
  8
0
100
AcDbBlockBegin
  2
*D21
 70
     1
 10
0.0
 20
0.0
 30
0.0
  3
*D21
  1

  0
LINE
  5
2148
330
F7C
100
AcDbEntity
  8
图层3
 62
     0
440
 16777216
370
    -2
100
AcDbLine
 10
999.7395812225928
 20
737.2084855128313
 30
0.0
 11
854.9687714475307
 21
737.2084855128313
 31
0.0
  0
LINE
  5
2149
330
F7C
100
AcDbEntity
  8
图层3
 62
     0
440
 16777216
370
    -2
100
AcDbLine
 10
1249.739577768515
 20
267.2084855128316
 30
0.0
 11
854.9687714475307
 21
267.2084855128314
 31
0.0
  0
LINE
  5
214A
330
F7C
100
AcDbEntity
  8
图层3
 62
     0
440
 16777216
370
    -2
100
AcDbLine
 10
856.2187714475308
 20
721.2084855128312
 30
0.0
 11
856.2187714475308
 21
283.2084855128314
 31
0.0
  0
SOLID
  5
214B
330
F7C
100
AcDbEntity
  8
图层3
 62
     0
440
 16777216
100
AcDbTrace
 10
853.5521047808641
 20
721.2084855128312
 30
0.0
 11
858.8854381141974
 21
721.2084855128312
 31
0.0
 12
856.2187714475308
 22
737.2084855128313
 32
0.0
 13
856.2187714475308
 23
737.2084855128313
 33
0.0
  0
SOLID
  5
214C
330
F7C
100
AcDbEntity
  8
图层3
 62
     0
440
 16777216
100
AcDbTrace
 10
853.5521047808641
 20
283.2084855128314
 30
0.0
 11
858.8854381141974
 21
283.2084855128314
 31
0.0
 12
856.2187714475308
 22
267.2084855128314
 32
0.0
 13
856.2187714475308
 23
267.2084855128314
 33
0.0
  0
MTEXT
  5
214D
330
F7C
100
AcDbEntity
  8
图层3
 62
     0
440
 16777216
100
AcDbMText
 10
842.7187714475307
 20
502.208485512831
 30
0.0
 40
17.0
 41
0.0
 46
0.0
 71
     5
 72
     1
  1
470 [18.5"]
 11
0.0000000000000001
 21
1.0
 31
0.0
 73
     1
 44
1.0
  0
POINT
  5
214E
330
F7C
100
AcDbEntity
  8
Defpoints
 62
     0
440
 16777216
100
AcDbPoint
 10
999.7395812225928
 20
737.2084855128313
 30
0.0
  0
POINT
  5
214F
330
F7C
100
AcDbEntity
  8
Defpoints
 62
     0
440
 16777216
100
AcDbPoint
 10
1249.739577768515
 20
267.2084855128316
 30
0.0
  0
POINT
  5
2150
330
F7C
100
AcDbEntity
  8
Defpoints
 62
     0
440
 16777216
100
AcDbPoint
 10
856.2187714475308
 20
267.2084855128314
 30
0.0
  0
ENDBLK
  5
F87
330
F7C
100
AcDbEntity
  8
0
100
AcDbBlockEnd
  0
BLOCK
  5
FB2
330
FA8
100
AcDbEntity
  8
0
100
AcDbBlockBegin
  2
*D22
 70
     1
 10
0.0
 20
0.0
 30
0.0
  3
*D22
  1

  0
LINE
  5
216C
330
FA8
100
AcDbEntity
  8
图层3
 62
     0
440
 16777216
370
    -2
100
AcDbLine
 10
975.3548045701746
 20
646.2084855128315
 30
0.0
 11
950.9700279177573
 21
646.2084855128315
 31
0.0
  0
LINE
  5
216D
330
FA8
100
AcDbEntity
  8
图层3
 62
     0
440
 16777216
370
    -2
100
AcDbLine
 10
950.0285900961538
 20
314.2084855128315
 30
0.0
 11
953.4700279177572
 21
314.2084855128315
 31
0.0
  0
LINE
  5
216E
330
FA8
100
AcDbEntity
  8
图层3
 62
     0
440
 16777216
370
    -2
100
AcDbLine
 10
952.2200279177573
 20
630.2084855128315
 30
0.0
 11
952.2200279177573
 21
330.2084855128315
 31
0.0
  0
SOLID
  5
216F
330
FA8
100
AcDbEntity
  8
图层3
 62
     0
440
 16777216
100
AcDbTrace
 10
949.5533612510907
 20
630.2084855128315
 30
0.0
 11
954.8866945844238
 21
630.2084855128315
 31
0.0
 12
952.2200279177573
 22
646.2084855128315
 32
0.0
 13
952.2200279177573
 23
646.2084855128315
 33
0.0
  0
SOLID
  5
2170
330
FA8
100
AcDbEntity
  8
图层3
 62
     0
440
 16777216
100
AcDbTrace
 10
949.5533612510907
 20
330.2084855128315
 30
0.0
 11
954.8866945844238
 21
330.2084855128315
 31
0.0
 12
952.2200279177573
 22
314.2084855128315
 32
0.0
 13
952.2200279177573
 23
314.2084855128315
 33
0.0
  0
MTEXT
  5
2171
330
FA8
100
AcDbEntity
  8
图层3
 62
     0
440
 16777216
100
AcDbMText
 10
938.7200279177571
 20
480.2084855128311
 30
0.0
 40
17.0
 41
0.0
 46
0.0
 71
     5
 72
     1
  1
332 [13"]
 11
0.0000000000000001
 21
1.0
 31
0.0
 73
     1
 44
1.0
  0
POINT
  5
2172
330
FA8
100
AcDbEntity
  8
Defpoints
 62
     0
440
 16777216
100
AcDbPoint
 10
975.3548045701746
 20
646.2084855128315
 30
0.0
  0
POINT
  5
2173
330
FA8
100
AcDbEntity
  8
Defpoints
 62
     0
440
 16777216
100
AcDbPoint
 10
950.0285900961538
 20
314.2084855128315
 30
0.0
  0
POINT
  5
2174
330
FA8
100
AcDbEntity
  8
Defpoints
 62
     0
440
 16777216
100
AcDbPoint
 10
952.2200279177573
 20
314.2084855128315
 30
0.0
  0
ENDBLK
  5
FB3
330
FA8
100
AcDbEntity
  8
0
100
AcDbBlockEnd
  0
BLOCK
  5
FD5
330
FCB
100
AcDbEntity
  8
0
100
AcDbBlockBegin
  2
*D23
 70
     1
 10
0.0
 20
0.0
 30
0.0
  3
*D23
  1

  0
LINE
  5
2136
330
FCB
100
AcDbEntity
  8
图层3
 62
     0
440
 16777216
370
    -2
100
AcDbLine
 10
1011.338015879672
 20
242.2084855128316
 30
0.0
 11
806.0954262563479
 21
242.2084855128315
 31
0.0
  0
LINE
  5
2137
330
FCB
100
AcDbEntity
  8
图层3
 62
     0
440
 16777216
370
    -2
100
AcDbLine
 10
999.7395812225928
 20
762.2084855128315
 30
0.0
 11
806.0954262563477
 21
762.2084855128315
 31
0.0
  0
LINE
  5
2138
330
FCB
100
AcDbEntity
  8
图层3
 62
     0
440
 16777216
370
    -2
100
AcDbLine
 10
807.3454262563478
 20
258.2084855128315
 30
0.0
 11
807.3454262563478
 21
746.2084855128315
 31
0.0
  0
SOLID
  5
2139
330
FCB
100
AcDbEntity
  8
图层3
 62
     0
440
 16777216
100
AcDbTrace
 10
804.6787595896811
 20
258.2084855128315
 30
0.0
 11
810.0120929230143
 21
258.2084855128315
 31
0.0
 12
807.3454262563478
 22
242.2084855128315
 32
0.0
 13
807.3454262563478
 23
242.2084855128315
 33
0.0
  0
SOLID
  5
213A
330
FCB
100
AcDbEntity
  8
图层3
 62
     0
440
 16777216
100
AcDbTrace
 10
804.6787595896811
 20
746.2084855128315
 30
0.0
 11
810.0120929230143
 21
746.2084855128315
 31
0.0
 12
807.3454262563478
 22
762.2084855128315
 32
0.0
 13
807.3454262563478
 23
762.2084855128315
 33
0.0
  0
MTEXT
  5
213B
330
FCB
100
AcDbEntity
  8
图层3
 62
     0
440
 16777216
100
AcDbMText
 10
793.8454262563476
 20
502.2084855128311
 30
0.0
 40
17.0
 41
0.0
 46
0.0
 71
     5
 72
     1
  1
520 [20.5"]
 11
0.0000000000000001
 21
1.0
 31
0.0
 73
     1
 44
1.0
  0
POINT
  5
213C
330
FCB
100
AcDbEntity
  8
Defpoints
 62
     0
440
 16777216
100
AcDbPoint
 10
1011.338015879672
 20
242.2084855128316
 30
0.0
  0
POINT
  5
213D
330
FCB
100
AcDbEntity
  8
Defpoints
 62
     0
440
 16777216
100
AcDbPoint
 10
999.7395812225928
 20
762.2084855128315
 30
0.0
  0
POINT
  5
213E
330
FCB
100
AcDbEntity
  8
Defpoints
 62
     0
440
 16777216
100
AcDbPoint
 10
807.3454262563478
 20
762.2084855128315
 30
0.0
  0
ENDBLK
  5
FD6
330
FCB
100
AcDbEntity
  8
0
100
AcDbBlockEnd
  0
BLOCK
  5
1037
330
102D
100
AcDbEntity
  8
0
100
AcDbBlockBegin
  2
*D24
 70
     1
 10
0.0
 20
0.0
 30
0.0
  3
*D24
  1

  0
LINE
  5
234D
330
102D
100
AcDbEntity
  8
图层3
 62
     0
440
 16777216
370
    -2
100
AcDbLine
 10
1717.239574314438
 20
542.2084855128316
 30
0.0
 11
1843.663388309753
 21
542.2084855128317
 31
0.0
  0
LINE
  5
234E
330
102D
100
AcDbEntity
  8
图层3
 62
     0
440
 16777216
370
    -2
100
AcDbLine
 10
1637.239574314438
 20
672.2084855128316
 30
0.0
 11
1843.663388309753
 21
672.2084855128318
 31
0.0
  0
LINE
  5
234F
330
102D
100
AcDbEntity
  8
图层3
 62
     0
440
 16777216
370
    -2
100
AcDbLine
 10
1842.413388309753
 20
558.2084855128317
 30
0.0
 11
1842.413388309753
 21
656.2084855128317
 31
0.0
  0
SOLID
  5
2350
330
102D
100
AcDbEntity
  8
图层3
 62
     0
440
 16777216
100
AcDbTrace
 10
1839.746721643086
 20
558.2084855128317
 30
0.0
 11
1845.08005497642
 21
558.2084855128317
 31
0.0
 12
1842.413388309753
 22
542.2084855128317
 32
0.0
 13
1842.413388309753
 23
542.2084855128317
 33
0.0
  0
SOLID
  5
2351
330
102D
100
AcDbEntity
  8
图层3
 62
     0
440
 16777216
100
AcDbTrace
 10
1839.746721643086
 20
656.2084855128317
 30
0.0
 11
1845.08005497642
 21
656.2084855128317
 31
0.0
 12
1842.413388309753
 22
672.2084855128318
 32
0.0
 13
1842.413388309753
 23
672.2084855128318
 33
0.0
  0
MTEXT
  5
2352
330
102D
100
AcDbEntity
  8
图层3
 62
     0
440
 16777216
100
AcDbMText
 10
1828.913388309753
 20
589.7219608525474
 30
0.0
 40
17.0
 41
0.0
 46
0.0
 71
     5
 72
     1
  1
130 [5"]
 11
0.0000000000000001
 21
1.0
 31
0.0
 73
     1
 44
1.0
  0
POINT
  5
2353
330
102D
100
AcDbEntity
  8
Defpoints
 62
     0
440
 16777216
100
AcDbPoint
 10
1717.239574314438
 20
542.2084855128316
 30
0.0
  0
POINT
  5
2354
330
102D
100
AcDbEntity
  8
Defpoints
 62
     0
440
 16777216
100
AcDbPoint
 10
1637.239574314438
 20
672.2084855128316
 30
0.0
  0
POINT
  5
2355
330
102D
100
AcDbEntity
  8
Defpoints
 62
     0
440
 16777216
100
AcDbPoint
 10
1842.413388309753
 20
672.2084855128318
 30
0.0
  0
ENDBLK
  5
1038
330
102D
100
AcDbEntity
  8
0
100
AcDbBlockEnd
  0
BLOCK
  5
104F
330
1045
100
AcDbEntity
  8
0
100
AcDbBlockBegin
  2
*D25
 70
     1
 10
0.0
 20
0.0
 30
0.0
  3
*D25
  1

  0
LINE
  5
20C0
330
1045
100
AcDbEntity
  8
图层3
 62
     0
440
 16777216
370
    -2
100
AcDbLine
 10
1637.239574314437
 20
267.2084855128316
 30
0.0
 11
1883.80938278096
 21
267.2084855128316
 31
0.0
  0
LINE
  5
20C1
330
1045
100
AcDbEntity
  8
图层3
 62
     0
440
 16777216
370
    -2
100
AcDbLine
 10
1794.739574314437
 20
672.2084855128315
 30
0.0
 11
1883.80938278096
 21
672.2084855128315
 31
0.0
  0
LINE
  5
20C2
330
1045
100
AcDbEntity
  8
图层3
 62
     0
440
 16777216
370
    -2
100
AcDbLine
 10
1882.55938278096
 20
283.2084855128316
 30
0.0
 11
1882.55938278096
 21
656.2084855128315
 31
0.0
  0
SOLID
  5
20C3
330
1045
100
AcDbEntity
  8
图层3
 62
     0
440
 16777216
100
AcDbTrace
 10
1879.892716114293
 20
283.2084855128316
 30
0.0
 11
1885.226049447627
 21
283.2084855128316
 31
0.0
 12
1882.55938278096
 22
267.2084855128316
 32
0.0
 13
1882.55938278096
 23
267.2084855128316
 33
0.0
  0
SOLID
  5
20C4
330
1045
100
AcDbEntity
  8
图层3
 62
     0
440
 16777216
100
AcDbTrace
 10
1879.892716114293
 20
656.2084855128315
 30
0.0
 11
1885.226049447626
 21
656.2084855128315
 31
0.0
 12
1882.55938278096
 22
672.2084855128315
 32
0.0
 13
1882.55938278096
 23
672.2084855128315
 33
0.0
  0
MTEXT
  5
20C5
330
1045
100
AcDbEntity
  8
图层3
 62
     0
440
 16777216
100
AcDbMText
 10
1869.05938278096
 20
469.7084855128309
 30
0.0
 40
17.0
 41
0.0
 46
0.0
 71
     5
 72
     1
  1
405 [16"]
 11
0.0000000000000001
 21
1.0
 31
0.0
 73
     1
 44
1.0
  0
POINT
  5
20C6
330
1045
100
AcDbEntity
  8
Defpoints
 62
     0
440
 16777216
100
AcDbPoint
 10
1637.239574314437
 20
267.2084855128316
 30
0.0
  0
POINT
  5
20C7
330
1045
100
AcDbEntity
  8
Defpoints
 62
     0
440
 16777216
100
AcDbPoint
 10
1794.739574314437
 20
672.2084855128315
 30
0.0
  0
POINT
  5
20C8
330
1045
100
AcDbEntity
  8
Defpoints
 62
     0
440
 16777216
100
AcDbPoint
 10
1882.55938278096
 20
672.2084855128315
 30
0.0
  0
ENDBLK
  5
1050
330
1045
100
AcDbEntity
  8
0
100
AcDbBlockEnd
  0
BLOCK
  5
1067
330
105D
100
AcDbEntity
  8
0
100
AcDbBlockBegin
  2
*D26
 70
     1
 10
0.0
 20
0.0
 30
0.0
  3
*D26
  1

  0
LINE
  5
2101
330
105D
100
AcDbEntity
  8
图层3
 62
     0
440
 16777216
370
    -2
100
AcDbLine
 10
1721.543257189688
 20
242.2084855128316
 30
0.0
 11
1947.030754862152
 21
242.2084855128316
 31
0.0
  0
LINE
  5
2102
330
105D
100
AcDbEntity
  8
图层3
 62
     0
440
 16777216
370
    -2
100
AcDbLine
 10
1791.543257189689
 20
312.2084855128316
 30
0.0
 11
1947.030754862152
 21
312.2084855128317
 31
0.0
  0
LINE
  5
2103
330
105D
100
AcDbEntity
  8
图层3
 62
     0
440
 16777216
370
    -2
100
AcDbLine
 10
1945.780754862152
 20
258.2084855128317
 30
0.0
 11
1945.780754862152
 21
296.2084855128317
 31
0.0
  0
SOLID
  5
2104
330
105D
100
AcDbEntity
  8
图层3
 62
     0
440
 16777216
100
AcDbTrace
 10
1943.114088195486
 20
258.2084855128317
 30
0.0
 11
1948.447421528819
 21
258.2084855128317
 31
0.0
 12
1945.780754862152
 22
242.2084855128316
 32
0.0
 13
1945.780754862152
 23
242.2084855128316
 33
0.0
  0
SOLID
  5
2105
330
105D
100
AcDbEntity
  8
图层3
 62
     0
440
 16777216
100
AcDbTrace
 10
1943.114088195486
 20
296.2084855128317
 30
0.0
 11
1948.447421528819
 21
296.2084855128317
 31
0.0
 12
1945.780754862152
 22
312.2084855128317
 32
0.0
 13
1945.780754862152
 23
312.2084855128317
 33
0.0
  0
MTEXT
  5
2106
330
105D
100
AcDbEntity
  8
图层3
 62
     0
440
 16777216
100
AcDbMText
 10
1918.114088195485
 20
267.2084855128316
 30
0.0
 40
17.0
 41
12.78549712089443
 46
0.0
 71
     5
 72
     1
  1
70 [2.8"]
 11
0.0000000000000001
 21
1.0
 31
0.0
 73
     1
 44
1.0
  0
POINT
  5
2107
330
105D
100
AcDbEntity
  8
Defpoints
 62
     0
440
 16777216
100
AcDbPoint
 10
1721.543257189688
 20
242.2084855128316
 30
0.0
  0
POINT
  5
2108
330
105D
100
AcDbEntity
  8
Defpoints
 62
     0
440
 16777216
100
AcDbPoint
 10
1791.543257189689
 20
312.2084855128316
 30
0.0
  0
POINT
  5
2109
330
105D
100
AcDbEntity
  8
Defpoints
 62
     0
440
 16777216
100
AcDbPoint
 10
1945.780754862152
 20
312.2084855128317
 30
0.0
  0
ENDBLK
  5
1068
330
105D
100
AcDbEntity
  8
0
100
AcDbBlockEnd
  0
BLOCK
  5
107F
330
1075
100
AcDbEntity
  8
0
100
AcDbBlockBegin
  2
*D27
 70
     1
 10
0.0
 20
0.0
 30
0.0
  3
*D27
  1

  0
LINE
  5
20AE
330
1075
100
AcDbEntity
  8
图层3
 62
     0
440
 16777216
370
    -2
100
AcDbLine
 10
1794.739574314437
 20
312.2084855128316
 30
0.0
 11
1929.191787684159
 21
312.2084855128317
 31
0.0
  0
LINE
  5
20AF
330
1075
100
AcDbEntity
  8
图层3
 62
     0
440
 16777216
370
    -2
100
AcDbLine
 10
1794.739574314437
 20
627.2084855128317
 30
0.0
 11
1929.191787684159
 21
627.2084855128317
 31
0.0
  0
LINE
  5
20B0
330
1075
100
AcDbEntity
  8
图层3
 62
     0
440
 16777216
370
    -2
100
AcDbLine
 10
1927.941787684159
 20
328.2084855128317
 30
0.0
 11
1927.941787684159
 21
611.2084855128317
 31
0.0
  0
SOLID
  5
20B1
330
1075
100
AcDbEntity
  8
图层3
 62
     0
440
 16777216
100
AcDbTrace
 10
1925.275121017493
 20
328.2084855128317
 30
0.0
 11
1930.608454350826
 21
328.2084855128317
 31
0.0
 12
1927.941787684159
 22
312.2084855128317
 32
0.0
 13
1927.941787684159
 23
312.2084855128317
 33
0.0
  0
SOLID
  5
20B2
330
1075
100
AcDbEntity
  8
图层3
 62
     0
440
 16777216
100
AcDbTrace
 10
1925.275121017492
 20
611.2084855128317
 30
0.0
 11
1930.608454350826
 21
611.2084855128317
 31
0.0
 12
1927.941787684159
 22
627.2084855128317
 32
0.0
 13
1927.941787684159
 23
627.2084855128317
 33
0.0
  0
MTEXT
  5
20B3
330
1075
100
AcDbEntity
  8
图层3
 62
     0
440
 16777216
100
AcDbMText
 10
1914.441787684159
 20
469.708485512831
 30
0.0
 40
17.0
 41
0.0
 46
0.0
 71
     5
 72
     1
  1
315 [12.4"]
 11
0.0000000000000001
 21
1.0
 31
0.0
 73
     1
 44
1.0
  0
POINT
  5
20B4
330
1075
100
AcDbEntity
  8
Defpoints
 62
     0
440
 16777216
100
AcDbPoint
 10
1794.739574314437
 20
312.2084855128316
 30
0.0
  0
POINT
  5
20B5
330
1075
100
AcDbEntity
  8
Defpoints
 62
     0
440
 16777216
100
AcDbPoint
 10
1794.739574314437
 20
627.2084855128317
 30
0.0
  0
POINT
  5
20B6
330
1075
100
AcDbEntity
  8
Defpoints
 62
     0
440
 16777216
100
AcDbPoint
 10
1927.941787684159
 20
627.2084855128317
 30
0.0
  0
ENDBLK
  5
1080
330
1075
100
AcDbEntity
  8
0
100
AcDbBlockEnd
  0
BLOCK
  5
1097
330
108D
100
AcDbEntity
  8
0
100
AcDbBlockBegin
  2
*D28
 70
     1
 10
0.0
 20
0.0
 30
0.0
  3
*D28
  1

  0
LINE
  5
2119
330
108D
100
AcDbEntity
  8
图层3
 62
     0
440
 16777216
370
    -2
100
AcDbLine
 10
1795.254445267858
 20
627.2084855128317
 30
0.0
 11
1929.706658637607
 21
627.2084855128317
 31
0.0
  0
LINE
  5
211A
330
108D
100
AcDbEntity
  8
图层3
 62
     0
440
 16777216
370
    -2
100
AcDbLine
 10
1725.254445267858
 20
697.2084855128318
 30
0.0
 11
1929.706658637607
 21
697.2084855128318
 31
0.0
  0
LINE
  5
211B
330
108D
100
AcDbEntity
  8
图层3
 62
     0
440
 16777216
370
    -2
100
AcDbLine
 10
1928.456658637607
 20
643.2084855128318
 30
0.0
 11
1928.456658637607
 21
681.2084855128318
 31
0.0
  0
LINE
  5
211C
330
108D
100
AcDbEntity
  8
图层3
 62
     0
440
 16777216
370
    -2
100
AcDbLine
 10
1928.456658637607
 20
662.2084855128317
 30
0.0
 11
1983.123158210467
 21
657.7111681618123
 31
0.0
  0
LINE
  5
211D
330
108D
100
AcDbEntity
  8
图层3
 62
     0
440
 16777216
370
    -2
100
AcDbLine
 10
1983.123158210467
 20
657.7111681618123
 30
0.0
 11
2061.123158210467
 21
657.7111681618123
 31
0.0
  0
MTEXT
  5
211E
330
108D
100
AcDbEntity
  8
图层3
 62
     0
440
 16777216
100
AcDbMText
 10
1992.91772534635
 20
708.0445014951449
 30
0.0
 40
17.0
 41
9.589134271765942
 46
0.0
 71
     2
 72
     1
  1
70 [2.8"]
 73
     1
 44
1.0
  0
SOLID
  5
211F
330
108D
100
AcDbEntity
  8
图层3
 62
     0
440
 16777216
100
AcDbTrace
 10
1925.78999197094
 20
643.2084855128318
 30
0.0
 11
1931.123325304273
 21
643.2084855128318
 31
0.0
 12
1928.456658637607
 22
627.2084855128317
 32
0.0
 13
1928.456658637607
 23
627.2084855128317
 33
0.0
  0
SOLID
  5
2120
330
108D
100
AcDbEntity
  8
图层3
 62
     0
440
 16777216
100
AcDbTrace
 10
1925.78999197094
 20
681.2084855128318
 30
0.0
 11
1931.123325304273
 21
681.2084855128318
 31
0.0
 12
1928.456658637607
 22
697.2084855128318
 32
0.0
 13
1928.456658637607
 23
697.2084855128318
 33
0.0
  0
POINT
  5
2121
330
108D
100
AcDbEntity
  8
Defpoints
 62
     0
440
 16777216
100
AcDbPoint
 10
1795.254445267858
 20
627.2084855128317
 30
0.0
  0
POINT
  5
2122
330
108D
100
AcDbEntity
  8
Defpoints
 62
     0
440
 16777216
100
AcDbPoint
 10
1725.254445267858
 20
697.2084855128318
 30
0.0
  0
POINT
  5
2123
330
108D
100
AcDbEntity
  8
Defpoints
 62
     0
440
 16777216
100
AcDbPoint
 10
1928.456658637607
 20
697.2084855128318
 30
0.0
  0
ENDBLK
  5
1098
330
108D
100
AcDbEntity
  8
0
100
AcDbBlockEnd
  0
BLOCK
  5
10B6
330
10AC
100
AcDbEntity
  8
0
100
AcDbBlockBegin
  2
*D29
 70
     1
 10
0.0
 20
0.0
 30
0.0
  3
*D29
  1

  0
LINE
  5
2371
330
10AC
100
AcDbEntity
  8
图层3
 62
     0
440
 16777216
370
    -2
100
AcDbLine
 10
1482.614547393924
 20
526.7655844343259
 30
0.0
 11
1318.947880727257
 21
526.7655844343259
 31
0.0
  0
LINE
  5
2372
330
10AC
100
AcDbEntity
  8
图层3
 62
     0
440
 16777216
370
    -2
100
AcDbLine
 10
1318.947880727257
 20
526.7655844343259
 30
0.0
 11
1294.970200962024
 21
549.4387155166426
 31
0.0
  0
LINE
  5
2373
330
10AC
100
AcDbEntity
  8
图层3
 62
     0
440
 16777216
370
    -2
100
AcDbLine
 10
1204.508954575006
 20
634.9782555090193
 30
0.0
 11
1192.88341287065
 21
645.9712887610516
 31
0.0
  0
MTEXT
  5
2374
330
10AC
100
AcDbEntity
  8
图层3
 62
     0
440
 16777216
100
AcDbMText
 10
1403.28121406059
 20
540.2655844343262
 30
0.0
 40
17.0
 41
0.0
 46
0.0
 71
     5
 72
     1
  1
∅92.5 [3.6"]
 73
     1
 44
1.0
  0
LINE
  5
2375
330
10AC
100
AcDbEntity
  8
图层3
 62
     0
440
 16777216
370
    -2
100
AcDbLine
 10
1216.134496279361
 20
623.985222256987
 30
0.0
 11
1283.344659257668
 21
560.4317487686748
 31
0.0
  0
SOLID
  5
2376
330
10AC
100
AcDbEntity
  8
图层3
 62
     0
440
 16777216
100
AcDbTrace
 10
1206.341126783678
 20
636.9158457930787
 30
0.0
 11
1202.676782366334
 21
633.04066522496
 31
0.0
 12
1216.134496279361
 22
623.985222256987
 32
0.0
 13
1216.134496279361
 23
623.985222256987
 33
0.0
  0
SOLID
  5
2377
330
10AC
100
AcDbEntity
  8
图层3
 62
     0
440
 16777216
100
AcDbTrace
 10
1296.802373170696
 20
551.3763058007021
 30
0.0
 11
1293.138028753351
 21
547.5011252325832
 31
0.0
 12
1283.344659257668
 22
560.4317487686748
 32
0.0
 13
1283.344659257668
 23
560.4317487686748
 33
0.0
  0
POINT
  5
2378
330
10AC
100
AcDbEntity
  8
Defpoints
 62
     0
440
 16777216
100
AcDbPoint
 10
1283.344659257668
 20
560.4317487686748
 30
0.0
  0
POINT
  5
2379
330
10AC
100
AcDbEntity
  8
Defpoints
 62
     0
440
 16777216
100
AcDbPoint
 10
1216.134496279361
 20
623.985222256987
 30
0.0
  0
ENDBLK
  5
10B7
330
10AC
100
AcDbEntity
  8
0
100
AcDbBlockEnd
  0
BLOCK
  5
1132
330
112C
100
AcDbEntity
  8
0
100
AcDbBlockBegin
  2
*D31
 70
     1
 10
0.0
 20
0.0
 30
0.0
  3
*D31
  1

  0
LINE
  5
237F
330
112C
100
AcDbEntity
  8
图层3
 62
     0
440
 16777216
370
    -2
100
AcDbLine
 10
1657.060794433721
 20
377.7763557948689
 30
0.0
 11
1729.231490975092
 21
304.9914634013699
 31
0.0
  0
MTEXT
  5
2380
330
112C
100
AcDbEntity
  8
图层3
 62
     0
440
 16777216
100
AcDbMText
 10
1707.159311327715
 20
366.5449022172343
 30
0.0
 40
17.0
 41
9.61016748700058
 46
0.0
 71
     5
 72
     1
  1
4-R90 [3.5"]
 11
0.7041043565011878
 21
-0.7100965111560881
 31
0.0
 73
     1
 44
1.0
  0
SOLID
  5
2381
330
112C
100
AcDbEntity
  8
图层3
 62
     0
440
 16777216
100
AcDbTrace
 10
1731.125081671509
 20
306.8690750187065
 30
0.0
 11
1727.337900278676
 21
303.1138517840334
 31
0.0
 12
1740.497160679112
 22
293.6299192228725
 32
0.0
 13
1740.497160679112
 23
293.6299192228725
 33
0.0
  0
POINT
  5
2382
330
112C
100
AcDbEntity
  8
Defpoints
 62
     0
440
 16777216
100
AcDbPoint
 10
1740.497160679112
 20
293.6299192228725
 30
0.0
  0
POINT
  5
2383
330
112C
100
AcDbEntity
  8
Defpoints
 62
     0
440
 16777216
100
AcDbPoint
 10
1677.127768594004
 20
357.5386052269205
 30
0.0
  0
ENDBLK
  5
1133
330
112C
100
AcDbEntity
  8
0
100
AcDbBlockEnd
  0
BLOCK
  5
1161
330
115B
100
AcDbEntity
  8
0
100
AcDbBlockBegin
  2
*D32
 70
     1
 10
0.0
 20
0.0
 30
0.0
  3
*D32
  1

  0
LINE
  5
23BB
330
115B
100
AcDbEntity
  8
图层3
 62
     0
440
 16777216
370
    -2
100
AcDbLine
 10
1655.095028135945
 20
412.8113468197707
 30
0.0
 11
1521.467533735494
 21
409.5755288342484
 31
0.0
  0
MTEXT
  5
23BC
330
115B
100
AcDbEntity
  8
图层3
 62
     0
440
 16777216
100
AcDbMText
 10
1595.609178623532
 20
439.0456614352138
 30
0.0
 40
17.0
 41
6.404885521393206
 46
0.0
 71
     5
 72
     1
  1
4-R2500 [98.4"]
 11
0.9997069406517471
 21
0.0242081146049047
 31
0.0
 73
     1
 44
1.0
  0
SOLID
  5
23BD
330
115B
100
AcDbEntity
  8
图层3
 62
     0
440
 16777216
100
AcDbTrace
 10
1521.402978763214
 20
412.2414140093197
 30
0.0
 11
1521.532088707774
 21
406.909643659177
 31
0.0
 12
1505.472222685066
 22
409.1881990005699
 32
0.0
 13
1505.472222685066
 23
409.1881990005699
 33
0.0
  0
POINT
  5
23BE
330
115B
100
AcDbEntity
  8
Defpoints
 62
     0
440
 16777216
100
AcDbPoint
 10
1505.472222685066
 20
409.1881990005699
 30
0.0
  0
POINT
  5
23BF
330
115B
100
AcDbEntity
  8
Defpoints
 62
     0
440
 16777216
100
AcDbPoint
 10
4004.739574314437
 20
469.708485512831
 30
0.0
  0
ENDBLK
  5
1162
330
115B
100
AcDbEntity
  8
0
100
AcDbBlockEnd
  0
BLOCK
  5
117F
330
1175
100
AcDbEntity
  8
0
100
AcDbBlockBegin
  2
*D33
 70
     1
 10
0.0
 20
0.0
 30
0.0
  3
*D33
  1

  0
LINE
  5
230A
330
1175
100
AcDbEntity
  8
图层3
 62
     0
440
 16777216
370
    -2
100
AcDbLine
 10
1024.739581222592
 20
467.552184588418
 30
0.0
 11
1024.739581222592
 21
171.0658910731659
 31
0.0
  0
LINE
  5
230B
330
1175
100
AcDbEntity
  8
图层3
 62
     0
440
 16777216
370
    -2
100
AcDbLine
 10
1474.739574314436
 20
467.5521845884131
 30
0.0
 11
1474.739574314436
 21
171.0658910731659
 31
0.0
  0
LINE
  5
230C
330
1175
100
AcDbEntity
  8
图层3
 62
     0
440
 16777216
370
    -2
100
AcDbLine
 10
1040.739581222592
 20
172.3158910731659
 30
0.0
 11
1458.739574314436
 21
172.3158910731659
 31
0.0
  0
SOLID
  5
230D
330
1175
100
AcDbEntity
  8
图层3
 62
     0
440
 16777216
100
AcDbTrace
 10
1040.739581222592
 20
174.9825577398326
 30
0.0
 11
1040.739581222592
 21
169.6492244064992
 31
0.0
 12
1024.739581222592
 22
172.3158910731659
 32
0.0
 13
1024.739581222592
 23
172.3158910731659
 33
0.0
  0
SOLID
  5
230E
330
1175
100
AcDbEntity
  8
图层3
 62
     0
440
 16777216
100
AcDbTrace
 10
1458.739574314436
 20
174.9825577398326
 30
0.0
 11
1458.739574314436
 21
169.6492244064992
 31
0.0
 12
1474.739574314436
 22
172.3158910731659
 32
0.0
 13
1474.739574314436
 23
172.3158910731659
 33
0.0
  0
MTEXT
  5
230F
330
1175
100
AcDbEntity
  8
图层3
 62
     0
440
 16777216
100
AcDbMText
 10
1249.739577768514
 20
185.8158910731659
 30
0.0
 40
17.0
 41
0.0
 46
0.0
 71
     5
 72
     1
  1
450 [17.72"]
 73
     1
 44
1.0
  0
POINT
  5
2310
330
1175
100
AcDbEntity
  8
Defpoints
 62
     0
440
 16777216
100
AcDbPoint
 10
1024.739581222592
 20
467.552184588418
 30
0.0
  0
POINT
  5
2311
330
1175
100
AcDbEntity
  8
Defpoints
 62
     0
440
 16777216
100
AcDbPoint
 10
1474.739574314436
 20
467.5521845884131
 30
0.0
  0
POINT
  5
2312
330
1175
100
AcDbEntity
  8
Defpoints
 62
     0
440
 16777216
100
AcDbPoint
 10
1474.739574314436
 20
172.3158910731659
 30
0.0
  0
ENDBLK
  5
1180
330
1175
100
AcDbEntity
  8
0
100
AcDbBlockEnd
  0
BLOCK
  5
119C
330
118D
100
AcDbEntity
  8
0
100
AcDbBlockBegin
  2
*D34
 70
     1
 10
0.0
 20
0.0
 30
0.0
  3
*D34
  1

  0
LINE
  5
1D7D
330
118D
100
AcDbEntity
  8
图层3
 62
     0
440
 16777216
370
    -2
100
AcDbLine
 10
1474.739574314436
 20
467.5521845883882
 30
0.0
 11
1474.739574314436
 21
171.065891073141
 31
0.0
  0
LINE
  5
1D7E
330
118D
100
AcDbEntity
  8
图层3
 62
     0
440
 16777216
370
    -2
100
AcDbLine
 10
1504.739574314436
 20
469.7084855128407
 30
0.0
 11
1504.739574314436
 21
171.065891073141
 31
0.0
  0
LINE
  5
1D7F
330
118D
100
AcDbEntity
  8
图层3
 62
     0
440
 16777216
370
    -2
100
AcDbLine
 10
1458.739574314436
 20
172.315891073141
 30
0.0
 11
1442.739574314436
 21
172.315891073141
 31
0.0
  0
LINE
  5
1D80
330
118D
100
AcDbEntity
  8
图层3
 62
     0
440
 16777216
370
    -2
100
AcDbLine
 10
1520.739574314436
 20
172.315891073141
 30
0.0
 11
1536.739574314436
 21
172.315891073141
 31
0.0
  0
LINE
  5
1D81
330
118D
100
AcDbEntity
  8
图层3
 62
     0
440
 16777216
370
    -2
100
AcDbLine
 10
1489.739574314436
 20
172.315891073141
 30
0.0
 11
1489.739574314436
 21
134.565891073141
 31
0.0
  0
LINE
  5
1D82
330
118D
100
AcDbEntity
  8
图层3
 62
     0
440
 16777216
370
    -2
100
AcDbLine
 10
1489.739574314436
 20
134.565891073141
 30
0.0
 11
1525.239574314436
 21
134.565891073141
 31
0.0
  0
MTEXT
  5
1D83
330
118D
100
AcDbEntity
  8
图层3
 62
     0
440
 16777216
100
AcDbMText
 10
1507.489574314436
 20
148.065891073141
 30
0.0
 40
17.0
 41
0.0
 46
0.0
 71
     5
 72
     1
  1
30
 73
     1
 44
1.0
  0
LINE
  5
1D84
330
118D
100
AcDbEntity
  8
图层3
 62
     0
440
 16777216
370
    -2
100
AcDbLine
 10
1474.739574314436
 20
172.315891073141
 30
0.0
 11
1504.739574314436
 21
172.315891073141
 31
0.0
  0
LINE
  5
1D85
330
118D
100
AcDbEntity
  8
图层3
 62
     0
440
 16777216
370
    -2
100
AcDbLine
 10
1474.739574314436
 20
172.315891073141
 30
0.0
 11
1504.739574314436
 21
172.315891073141
 31
0.0
  0
SOLID
  5
1D86
330
118D
100
AcDbEntity
  8
图层3
 62
     0
440
 16777216
100
AcDbTrace
 10
1458.739574314436
 20
174.9825577398077
 30
0.0
 11
1458.739574314436
 21
169.6492244064743
 31
0.0
 12
1474.739574314436
 22
172.315891073141
 32
0.0
 13
1474.739574314436
 23
172.315891073141
 33
0.0
  0
SOLID
  5
1D87
330
118D
100
AcDbEntity
  8
图层3
 62
     0
440
 16777216
100
AcDbTrace
 10
1520.739574314436
 20
174.9825577398077
 30
0.0
 11
1520.739574314436
 21
169.6492244064743
 31
0.0
 12
1504.739574314436
 22
172.315891073141
 32
0.0
 13
1504.739574314436
 23
172.315891073141
 33
0.0
  0
POINT
  5
1D88
330
118D
100
AcDbEntity
  8
Defpoints
 62
     0
440
 16777216
100
AcDbPoint
 10
1474.739574314436
 20
467.5521845883882
 30
0.0
  0
POINT
  5
1D89
330
118D
100
AcDbEntity
  8
Defpoints
 62
     0
440
 16777216
100
AcDbPoint
 10
1504.739574314436
 20
469.7084855128407
 30
0.0
  0
POINT
  5
1D8A
330
118D
100
AcDbEntity
  8
Defpoints
 62
     0
440
 16777216
100
AcDbPoint
 10
1504.739574314436
 20
172.315891073141
 30
0.0
  0
ENDBLK
  5
119D
330
118D
100
AcDbEntity
  8
0
100
AcDbBlockEnd
  0
BLOCK
  5
11B9
330
11AF
100
AcDbEntity
  8
0
100
AcDbBlockBegin
  2
*D35
 70
     1
 10
0.0
 20
0.0
 30
0.0
  3
*D35
  1

  0
LINE
  5
231C
330
11AF
100
AcDbEntity
  8
图层3
 62
     0
440
 16777216
370
    -2
100
AcDbLine
 10
1504.739574314436
 20
469.7084855128314
 30
0.0
 11
1504.739574314436
 21
171.0658910731317
 31
0.0
  0
LINE
  5
231D
330
11AF
100
AcDbEntity
  8
图层3
 62
     0
440
 16777216
370
    -2
100
AcDbLine
 10
1769.739574314436
 20
469.7084855128314
 30
0.0
 11
1769.739574314436
 21
171.0658910731317
 31
0.0
  0
LINE
  5
231E
330
11AF
100
AcDbEntity
  8
图层3
 62
     0
440
 16777216
370
    -2
100
AcDbLine
 10
1520.739574314436
 20
172.3158910731317
 30
0.0
 11
1753.739574314436
 21
172.3158910731317
 31
0.0
  0
SOLID
  5
231F
330
11AF
100
AcDbEntity
  8
图层3
 62
     0
440
 16777216
100
AcDbTrace
 10
1520.739574314436
 20
174.9825577397983
 30
0.0
 11
1520.739574314436
 21
169.649224406465
 31
0.0
 12
1504.739574314436
 22
172.3158910731317
 32
0.0
 13
1504.739574314436
 23
172.3158910731317
 33
0.0
  0
SOLID
  5
2320
330
11AF
100
AcDbEntity
  8
图层3
 62
     0
440
 16777216
100
AcDbTrace
 10
1753.739574314436
 20
174.9825577397983
 30
0.0
 11
1753.739574314436
 21
169.649224406465
 31
0.0
 12
1769.739574314436
 22
172.3158910731317
 32
0.0
 13
1769.739574314436
 23
172.3158910731317
 33
0.0
  0
MTEXT
  5
2321
330
11AF
100
AcDbEntity
  8
图层3
 62
     0
440
 16777216
100
AcDbMText
 10
1637.239574314436
 20
185.8158910731317
 30
0.0
 40
17.0
 41
0.0
 46
0.0
 71
     5
 72
     1
  1
265 [10.4"]
 73
     1
 44
1.0
  0
POINT
  5
2322
330
11AF
100
AcDbEntity
  8
Defpoints
 62
     0
440
 16777216
100
AcDbPoint
 10
1504.739574314436
 20
469.7084855128314
 30
0.0
  0
POINT
  5
2323
330
11AF
100
AcDbEntity
  8
Defpoints
 62
     0
440
 16777216
100
AcDbPoint
 10
1769.739574314436
 20
469.7084855128314
 30
0.0
  0
POINT
  5
2324
330
11AF
100
AcDbEntity
  8
Defpoints
 62
     0
440
 16777216
100
AcDbPoint
 10
1769.739574314436
 20
172.3158910731317
 30
0.0
  0
ENDBLK
  5
11BA
330
11AF
100
AcDbEntity
  8
0
100
AcDbBlockEnd
  0
BLOCK
  5
11D2
330
11C8
100
AcDbEntity
  8
0
100
AcDbBlockBegin
  2
*D36
 70
     1
 10
0.0
 20
0.0
 30
0.0
  3
*D36
  1

  0
LINE
  5
22D4
330
11C8
100
AcDbEntity
  8
图层3
 62
     0
440
 16777216
370
    -2
100
AcDbLine
 10
999.7395812225921
 20
314.2084855128314
 30
0.0
 11
999.7395812225921
 21
113.5795217712633
 31
0.0
  0
LINE
  5
22D5
330
11C8
100
AcDbEntity
  8
图层3
 62
     0
440
 16777216
370
    -2
100
AcDbLine
 10
1071.739581222592
 20
242.2084855128314
 30
0.0
 11
1071.739581222592
 21
113.5795217712633
 31
0.0
  0
LINE
  5
22D6
330
11C8
100
AcDbEntity
  8
图层3
 62
     0
440
 16777216
370
    -2
100
AcDbLine
 10
1015.739581222592
 20
114.8295217712633
 30
0.0
 11
1055.739581222592
 21
114.8295217712633
 31
0.0
  0
SOLID
  5
22D7
330
11C8
100
AcDbEntity
  8
图层3
 62
     0
440
 16777216
100
AcDbTrace
 10
1015.739581222592
 20
117.4961884379299
 30
0.0
 11
1015.739581222592
 21
112.1628551045966
 31
0.0
 12
999.7395812225921
 22
114.8295217712633
 32
0.0
 13
999.7395812225921
 23
114.8295217712633
 33
0.0
  0
SOLID
  5
22D8
330
11C8
100
AcDbEntity
  8
图层3
 62
     0
440
 16777216
100
AcDbTrace
 10
1055.739581222592
 20
117.4961884379299
 30
0.0
 11
1055.739581222592
 21
112.1628551045966
 31
0.0
 12
1071.739581222592
 22
114.8295217712633
 32
0.0
 13
1071.739581222592
 23
114.8295217712633
 33
0.0
  0
MTEXT
  5
22D9
330
11C8
100
AcDbEntity
  8
图层3
 62
     0
440
 16777216
100
AcDbMText
 10
1032.214874521814
 20
142.4961884379299
 30
0.0
 40
17.0
 41
11.21189255108766
 46
0.0
 71
     5
 72
     1
  1
72 [2.8"]
 73
     1
 44
1.0
  0
POINT
  5
22DA
330
11C8
100
AcDbEntity
  8
Defpoints
 62
     0
440
 16777216
100
AcDbPoint
 10
999.7395812225921
 20
314.2084855128314
 30
0.0
  0
POINT
  5
22DB
330
11C8
100
AcDbEntity
  8
Defpoints
 62
     0
440
 16777216
100
AcDbPoint
 10
1071.739581222592
 20
242.2084855128314
 30
0.0
  0
POINT
  5
22DC
330
11C8
100
AcDbEntity
  8
Defpoints
 62
     0
440
 16777216
100
AcDbPoint
 10
1071.739581222592
 20
114.8295217712633
 30
0.0
  0
ENDBLK
  5
11D3
330
11C8
100
AcDbEntity
  8
0
100
AcDbBlockEnd
  0
BLOCK
  5
11DF
330
11D5
100
AcDbEntity
  8
0
100
AcDbBlockBegin
  2
*D37
 70
     1
 10
0.0
 20
0.0
 30
0.0
  3
*D37
  1

  0
LINE
  5
22F8
330
11D5
100
AcDbEntity
  8
图层3
 62
     0
440
 16777216
370
    -2
100
AcDbLine
 10
1071.739581222592
 20
242.2084855128314
 30
0.0
 11
1071.739581222592
 21
113.5098452768061
 31
0.0
  0
LINE
  5
22F9
330
11D5
100
AcDbEntity
  8
图层3
 62
     0
440
 16777216
370
    -2
100
AcDbLine
 10
1724.739574314436
 20
242.2084855128315
 30
0.0
 11
1724.739574314436
 21
113.5098452768061
 31
0.0
  0
LINE
  5
22FA
330
11D5
100
AcDbEntity
  8
图层3
 62
     0
440
 16777216
370
    -2
100
AcDbLine
 10
1087.739581222592
 20
114.7598452768061
 30
0.0
 11
1708.739574314436
 21
114.7598452768061
 31
0.0
  0
SOLID
  5
22FB
330
11D5
100
AcDbEntity
  8
图层3
 62
     0
440
 16777216
100
AcDbTrace
 10
1087.739581222592
 20
117.4265119434728
 30
0.0
 11
1087.739581222592
 21
112.0931786101394
 31
0.0
 12
1071.739581222592
 22
114.7598452768061
 32
0.0
 13
1071.739581222592
 23
114.7598452768061
 33
0.0
  0
SOLID
  5
22FC
330
11D5
100
AcDbEntity
  8
图层3
 62
     0
440
 16777216
100
AcDbTrace
 10
1708.739574314436
 20
117.4265119434728
 30
0.0
 11
1708.739574314436
 21
112.0931786101394
 31
0.0
 12
1724.739574314436
 22
114.7598452768061
 32
0.0
 13
1724.739574314436
 23
114.7598452768061
 33
0.0
  0
MTEXT
  5
22FD
330
11D5
100
AcDbEntity
  8
图层3
 62
     0
440
 16777216
100
AcDbMText
 10
1398.239577768514
 20
128.2598452768061
 30
0.0
 40
17.0
 41
0.0
 46
0.0
 71
     5
 72
     1
  1
653 [25.7"]
 73
     1
 44
1.0
  0
POINT
  5
22FE
330
11D5
100
AcDbEntity
  8
Defpoints
 62
     0
440
 16777216
100
AcDbPoint
 10
1071.739581222592
 20
242.2084855128314
 30
0.0
  0
POINT
  5
22FF
330
11D5
100
AcDbEntity
  8
Defpoints
 62
     0
440
 16777216
100
AcDbPoint
 10
1724.739574314436
 20
242.2084855128315
 30
0.0
  0
POINT
  5
2300
330
11D5
100
AcDbEntity
  8
Defpoints
 62
     0
440
 16777216
100
AcDbPoint
 10
1724.739574314436
 20
114.7598452768061
 30
0.0
  0
ENDBLK
  5
11E0
330
11D5
100
AcDbEntity
  8
0
100
AcDbBlockEnd
  0
BLOCK
  5
11EC
330
11E2
100
AcDbEntity
  8
0
100
AcDbBlockBegin
  2
*D38
 70
     1
 10
0.0
 20
0.0
 30
0.0
  3
*D38
  1

  0
LINE
  5
233B
330
11E2
100
AcDbEntity
  8
图层3
 62
     0
440
 16777216
370
    -2
100
AcDbLine
 10
1724.739574314436
 20
242.2084855128315
 30
0.0
 11
1724.739574314436
 21
113.5098452768061
 31
0.0
  0
LINE
  5
233C
330
11E2
100
AcDbEntity
  8
图层3
 62
     0
440
 16777216
370
    -2
100
AcDbLine
 10
1794.739574314436
 20
312.2084855128315
 30
0.0
 11
1794.739574314436
 21
113.5098452768061
 31
0.0
  0
LINE
  5
233D
330
11E2
100
AcDbEntity
  8
图层3
 62
     0
440
 16777216
370
    -2
100
AcDbLine
 10
1740.739574314436
 20
114.7598452768061
 30
0.0
 11
1778.739574314436
 21
114.7598452768061
 31
0.0
  0
MTEXT
  5
233E
330
11E2
100
AcDbEntity
  8
图层3
 62
     0
440
 16777216
100
AcDbMText
 10
1764.739574314436
 20
138.6765119434728
 30
0.0
 40
17.0
 41
8.008488147293974
 46
0.0
 71
     5
 72
     1
  1
70 [2.8"]
 73
     1
 44
1.0
  0
SOLID
  5
233F
330
11E2
100
AcDbEntity
  8
图层3
 62
     0
440
 16777216
100
AcDbTrace
 10
1740.739574314436
 20
117.4265119434728
 30
0.0
 11
1740.739574314436
 21
112.0931786101394
 31
0.0
 12
1724.739574314436
 22
114.7598452768061
 32
0.0
 13
1724.739574314436
 23
114.7598452768061
 33
0.0
  0
SOLID
  5
2340
330
11E2
100
AcDbEntity
  8
图层3
 62
     0
440
 16777216
100
AcDbTrace
 10
1778.739574314436
 20
117.4265119434728
 30
0.0
 11
1778.739574314436
 21
112.0931786101394
 31
0.0
 12
1794.739574314436
 22
114.7598452768061
 32
0.0
 13
1794.739574314436
 23
114.7598452768061
 33
0.0
  0
POINT
  5
2341
330
11E2
100
AcDbEntity
  8
Defpoints
 62
     0
440
 16777216
100
AcDbPoint
 10
1724.739574314436
 20
242.2084855128315
 30
0.0
  0
POINT
  5
2342
330
11E2
100
AcDbEntity
  8
Defpoints
 62
     0
440
 16777216
100
AcDbPoint
 10
1794.739574314436
 20
312.2084855128315
 30
0.0
  0
POINT
  5
2343
330
11E2
100
AcDbEntity
  8
Defpoints
 62
     0
440
 16777216
100
AcDbPoint
 10
1794.739574314436
 20
114.7598452768061
 30
0.0
  0
ENDBLK
  5
11ED
330
11E2
100
AcDbEntity
  8
0
100
AcDbBlockEnd
  0
BLOCK
  5
11F5
330
11EF
100
AcDbEntity
  8
0
100
AcDbBlockBegin
  2
*D39
 70
     1
 10
0.0
 20
0.0
 30
0.0
  3
*D39
  1

  0
LINE
  5
23B1
330
11EF
100
AcDbEntity
  8
图层3
 62
     0
440
 16777216
370
    -2
100
AcDbLine
 10
1322.166797952858
 20
628.7142698236094
 30
0.0
 11
1338.527504229639
 21
712.6343347075507
 31
0.0
  0
MTEXT
  5
23B2
330
11EF
100
AcDbEntity
  8
图层3
 62
     0
440
 16777216
100
AcDbMText
 10
1301.660904167233
 20
668.1162401359829
 30
0.0
 40
17.0
 41
6.406763083206897
 46
0.0
 71
     5
 72
     1
  1
R480 [19"]
 11
0.1913532897869153
 21
0.9815212267127618
 31
0.0
 73
     1
 44
1.0
  0
SOLID
  5
23B3
330
11EF
100
AcDbEntity
  8
图层3
 62
     0
440
 16777216
100
AcDbTrace
 10
1335.910114291738
 20
713.1446101469824
 30
0.0
 11
1341.14489416754
 21
712.1240592681189
 31
0.0
 12
1341.58915686623
 22
728.3386743349548
 32
0.0
 13
1341.58915686623
 23
728.3386743349548
 33
0.0
  0
POINT
  5
23B4
330
11EF
100
AcDbEntity
  8
Defpoints
 62
     0
440
 16777216
100
AcDbPoint
 10
1341.58915686623
 20
728.3386743349548
 30
0.0
  0
POINT
  5
23B5
330
11EF
100
AcDbEntity
  8
Defpoints
 62
     0
440
 16777216
100
AcDbPoint
 10
1249.739577768511
 20
257.208485512831
 30
0.0
  0
ENDBLK
  5
11F6
330
11EF
100
AcDbEntity
  8
0
100
AcDbBlockEnd
  0
BLOCK
  5
1205
330
11FF
100
AcDbEntity
  8
0
100
AcDbBlockBegin
  2
*D40
 70
     1
 10
0.0
 20
0.0
 30
0.0
  3
*D40
  1

  0
LINE
  5
23A7
330
11FF
100
AcDbEntity
  8
图层3
 62
     0
440
 16777216
370
    -2
100
AcDbLine
 10
1358.356987136858
 20
593.693496726618
 30
0.0
 11
1441.826145946083
 21
636.9242673383061
 31
0.0
  0
MTEXT
  5
23A8
330
11FF
100
AcDbEntity
  8
图层3
 62
     0
440
 16777216
100
AcDbMText
 10
1380.263858129443
 20
636.1968312753171
 30
0.0
 40
17.0
 41
4.266769128481242
 46
0.0
 71
     5
 72
     1
  1
R160 [6.3"]
 11
0.887969774566222
 21
0.4599018150179588
 31
0.0
 73
     1
 44
1.0
  0
SOLID
  5
23A9
330
11FF
100
AcDbEntity
  8
图层3
 62
     0
440
 16777216
100
AcDbTrace
 10
1440.599741106035
 20
639.2921867371494
 30
0.0
 11
1443.052550786131
 21
634.5563479394628
 31
0.0
 12
1456.033662339142
 22
644.2826963785933
 32
0.0
 13
1456.033662339142
 23
644.2826963785933
 33
0.0
  0
POINT
  5
23AA
330
11FF
100
AcDbEntity
  8
Defpoints
 62
     0
440
 16777216
100
AcDbPoint
 10
1456.033662339142
 20
644.2826963785933
 30
0.0
  0
POINT
  5
23AB
330
11FF
100
AcDbEntity
  8
Defpoints
 62
     0
440
 16777216
100
AcDbPoint
 10
1313.958498408547
 20
570.6984059757204
 30
0.0
  0
ENDBLK
  5
1206
330
11FF
100
AcDbEntity
  8
0
100
AcDbBlockEnd
  0
BLOCK
  5
1215
330
120F
100
AcDbEntity
  8
0
100
AcDbBlockBegin
  2
*D41
 70
     1
 10
0.0
 20
0.0
 30
0.0
  3
*D41
  1

  0
LINE
  5
239D
330
120F
100
AcDbEntity
  8
图层3
 62
     0
440
 16777216
370
    -2
100
AcDbLine
 10
1142.166933403154
 20
595.607332872479
 30
0.0
 11
1060.661932799539
 21
642.4361154383832
 31
0.0
  0
MTEXT
  5
239E
330
120F
100
AcDbEntity
  8
图层3
 62
     0
440
 16777216
100
AcDbMText
 10
1122.133968446938
 20
639.0253563132976
 30
0.0
 40
17.0
 41
4.757704243889988
 46
0.0
 71
     5
 72
     1
  1
R160 [6.3"]
 11
0.8670744745065416
 21
-0.4981785379351509
 31
0.0
 73
     1
 44
1.0
  0
SOLID
  5
239F
330
120F
100
AcDbEntity
  8
图层3
 62
     0
440
 16777216
100
AcDbTrace
 10
1061.990408900699
 20
644.7483140370673
 30
0.0
 11
1059.333456698379
 21
640.123916839699
 31
0.0
 12
1046.788741207435
 22
650.4069720453456
 32
0.0
 13
1046.788741207435
 23
650.4069720453456
 33
0.0
  0
POINT
  5
23A0
330
120F
100
AcDbEntity
  8
Defpoints
 62
     0
440
 16777216
100
AcDbPoint
 10
1046.788741207435
 20
650.4069720453456
 30
0.0
  0
POINT
  5
23A1
330
120F
100
AcDbEntity
  8
Defpoints
 62
     0
440
 16777216
100
AcDbPoint
 10
1185.520657128481
 20
570.6984059757214
 30
0.0
  0
ENDBLK
  5
1216
330
120F
100
AcDbEntity
  8
0
100
AcDbBlockEnd
  0
BLOCK
  5
1225
330
121F
100
AcDbEntity
  8
0
100
AcDbBlockBegin
  2
*D42
 70
     1
 10
0.0
 20
0.0
 30
0.0
  3
*D42
  1

  0
LINE
  5
1D90
330
121F
100
AcDbEntity
  8
图层3
 62
     0
440
 16777216
370
    -2
100
AcDbLine
 10
1137.603321103865
 20
487.7987566634385
 30
0.0
 11
1040.770415334145
 21
488.0865146119249
 31
0.0
  0
MTEXT
  5
1D91
330
121F
100
AcDbEntity
  8
图层3
 62
     0
440
 16777216
100
AcDbMText
 10
1097.226950612764
 20
501.418802566804
 30
0.0
 40
17.0
 41
0.0
 46
0.0
 71
     5
 72
     1
  1
R7000
 11
0.9999955845410012
 21
-0.0029716827726651
 31
0.0
 73
     1
 44
1.0
  0
SOLID
  5
1D92
330
121F
100
AcDbEntity
  8
图层3
 62
     0
440
 16777216
100
AcDbTrace
 10
1040.778339821538
 20
490.7531695040343
 30
0.0
 11
1040.762490846751
 21
485.4198597198156
 31
0.0
 12
1024.770485981489
 22
488.1340615362876
 32
0.0
 13
1024.770485981489
 23
488.1340615362876
 33
0.0
  0
POINT
  5
1D93
330
121F
100
AcDbEntity
  8
Defpoints
 62
     0
440
 16777216
100
AcDbPoint
 10
1024.770485981489
 20
488.1340615362876
 30
0.0
  0
POINT
  5
1D94
330
121F
100
AcDbEntity
  8
Defpoints
 62
     0
440
 16777216
100
AcDbPoint
 10
8024.739577768515
 20
467.3322821276304
 30
0.0
  0
ENDBLK
  5
1226
330
121F
100
AcDbEntity
  8
0
100
AcDbBlockEnd
  0
BLOCK
  5
1245
330
123F
100
AcDbEntity
  8
0
100
AcDbBlockBegin
  2
*D44
 70
     1
 10
0.0
 20
0.0
 30
0.0
  3
*D44
  1

  0
LINE
  5
1D9A
330
123F
100
AcDbEntity
  8
图层3
 62
     0
440
 16777216
370
    -2
100
AcDbLine
 10
1297.533080952728
 20
380.2076523854104
 30
0.0
 11
1298.205056011413
 21
283.3766506661007
 31
0.0
  0
MTEXT
  5
1D9B
330
123F
100
AcDbEntity
  8
图层3
 62
     0
440
 16777216
100
AcDbMText
 10
1311.31322740883
 20
339.8856421665134
 30
0.0
 40
17.0
 41
0.0
 46
0.0
 71
     5
 72
     1
  1
R7000
 11
0.006939501466627
 21
-0.9999759213698071
 31
0.0
 73
     1
 44
1.0
  0
SOLID
  5
1D9C
330
123F
100
AcDbEntity
  8
图层3
 62
     0
440
 16777216
100
AcDbTrace
 10
1300.8716584684
 20
283.3951560033451
 30
0.0
 11
1295.538453554427
 21
283.3581453288564
 31
0.0
 12
1298.316088034879
 22
267.3770359241838
 32
0.0
 13
1298.316088034879
 23
267.3770359241838
 33
0.0
  0
POINT
  5
1D9D
330
123F
100
AcDbEntity
  8
Defpoints
 62
     0
440
 16777216
100
AcDbPoint
 10
1298.316088034879
 20
267.3770359241838
 30
0.0
  0
POINT
  5
1D9E
330
123F
100
AcDbEntity
  8
Defpoints
 62
     0
440
 16777216
100
AcDbPoint
 10
1249.73957776849
 20
7267.208485512831
 30
0.0
  0
ENDBLK
  5
1246
330
123F
100
AcDbEntity
  8
0
100
AcDbBlockEnd
  0
BLOCK
  5
1256
330
124F
100
AcDbEntity
  8
0
100
AcDbBlockBegin
  2
*D45
 70
     1
 10
0.0
 20
0.0
 30
0.0
  3
*D45
  1

  0
LINE
  5
2393
330
124F
100
AcDbEntity
  8
图层3
 62
     0
440
 16777216
370
    -2
100
AcDbLine
 10
1131.147557822366
 20
374.0048118220595
 30
0.0
 11
1064.557828331789
 21
307.6586896567674
 31
0.0
  0
MTEXT
  5
2394
330
124F
100
AcDbEntity
  8
图层3
 62
     0
440
 16777216
100
AcDbMText
 10
1083.992499346775
 20
366.0773340007073
 30
0.0
 40
17.0
 41
4.528918680767313
 46
0.0
 71
     5
 72
     1
  1
R95 [3.5"]
 11
0.7084013775593227
 21
0.7058098102690654
 31
0.0
 73
     1
 44
1.0
  0
SOLID
  5
2395
330
124F
100
AcDbEntity
  8
图层3
 62
     0
440
 16777216
100
AcDbTrace
 10
1062.675668837738
 20
309.5477599969255
 30
0.0
 11
1066.43998782584
 21
305.7696193166092
 31
0.0
 12
1053.22340629084
 22
296.3657326924623
 32
0.0
 13
1053.22340629084
 23
296.3657326924623
 33
0.0
  0
POINT
  5
2396
330
124F
100
AcDbEntity
  8
Defpoints
 62
     0
440
 16777216
100
AcDbPoint
 10
1053.22340629084
 20
296.3657326924623
 30
0.0
  0
POINT
  5
2397
330
124F
100
AcDbEntity
  8
Defpoints
 62
     0
440
 16777216
100
AcDbPoint
 10
1120.521537158976
 20
363.4176646680233
 30
0.0
  0
ENDBLK
  5
1257
330
124F
100
AcDbEntity
  8
0
100
AcDbBlockEnd
  0
BLOCK
  5
1266
330
1260
100
AcDbEntity
  8
0
100
AcDbBlockBegin
  2
*D46
 70
     1
 10
0.0
 20
0.0
 30
0.0
  3
*D46
  1

  0
LINE
  5
2389
330
1260
100
AcDbEntity
  8
图层3
 62
     0
440
 16777216
370
    -2
100
AcDbLine
 10
1369.098324678832
 20
374.7222799977223
 30
0.0
 11
1430.883231860628
 21
303.8800239316079
 31
0.0
  0
MTEXT
  5
238A
330
1260
100
AcDbEntity
  8
图层3
 62
     0
440
 16777216
100
AcDbMText
 10
1415.583223238256
 20
363.5151996301823
 30
0.0
 40
17.0
 41
8.008488147293974
 46
0.0
 71
     5
 72
     1
  1
R95 [3.5"]
 11
0.6572862466148458
 21
-0.75364102197994
 31
0.0
 73
     1
 44
1.0
  0
SOLID
  5
238B
330
1260
100
AcDbEntity
  8
图层3
 62
     0
440
 16777216
100
AcDbTrace
 10
1432.892941252574
 20
305.6327872559142
 30
0.0
 11
1428.873522468681
 21
302.1272606073016
 31
0.0
 12
1441.399811806465
 22
291.8217675799289
 32
0.0
 13
1441.399811806465
 23
291.8217675799289
 33
0.0
  0
POINT
  5
238C
330
1260
100
AcDbEntity
  8
Defpoints
 62
     0
440
 16777216
100
AcDbPoint
 10
1441.399811806465
 20
291.8217675799289
 30
0.0
  0
POINT
  5
238D
330
1260
100
AcDbEntity
  8
Defpoints
 62
     0
440
 16777216
100
AcDbPoint
 10
1378.957618378054
 20
363.4176646680237
 30
0.0
  0
ENDBLK
  5
1267
330
1260
100
AcDbEntity
  8
0
100
AcDbBlockEnd
  0
BLOCK
  5
1440
330
143F
100
AcDbEntity
  8
0
100
AcDbBlockBegin
  2
h
 70
     0
 10
0.0
 20
0.0
 30
0.0
  3
h
  1

  0
MTEXT
  5
1441
330
143F
100
AcDbEntity
  8
图层3
100
AcDbMText
 10
140.7184734209531
 20
394.6528108057309
 30
0.0
 40
2.5
 41
49.1928157029788
 46
0.0
 71
     1
 72
     5
  1
{\fSimSun|b0|i0|c134|p2;Jiangmen XHHL Stainless Steel Manufacturing Co.Ltd.}
 73
     1
 44
1.0
  0
ENDBLK
  5
1442
330
143F
100
AcDbEntity
  8
0
100
AcDbBlockEnd
  0
BLOCK
  5
1465
330
1443
100
AcDbEntity
  8
0
100
AcDbBlockBegin
  2
D
 70
     0
 10
0.0
 20
0.0
 30
0.0
  3
D
  1

  0
LINE
  5
1444
330
1443
100
AcDbEntity
  8
图层3
100
AcDbLine
 10
138.2786312043299
 20
409.9405853190591
 30
0.0
 11
250.27863120433
 21
409.9405853190591
 31
0.0
  0
LINE
  5
1445
330
1443
100
AcDbEntity
  8
图层3
100
AcDbLine
 10
250.27863120433
 20
409.9405853190591
 30
0.0
 11
250.27863120433
 21
385.9405853190592
 31
0.0
  0
LINE
  5
1446
330
1443
100
AcDbEntity
  8
图层3
100
AcDbLine
 10
250.27863120433
 20
385.9405853190592
 30
0.0
 11
138.2786312043299
 21
385.9405853190592
 31
0.0
  0
LINE
  5
1447
330
1443
100
AcDbEntity
  8
图层3
100
AcDbLine
 10
138.2786312043299
 20
385.9405853190592
 30
0.0
 11
138.2786312043299
 21
409.9405853190591
 31
0.0
  0
LINE
  5
1448
330
1443
100
AcDbEntity
  8
图层3
100
AcDbLine
 10
250.27863120433
 20
405.7405853190592
 30
0.0
 11
138.2786312043299
 21
405.7405853190592
 31
0.0
  0
LINE
  5
1449
330
1443
100
AcDbEntity
  8
图层3
100
AcDbLine
 10
250.27863120433
 20
392.5405853190592
 30
0.0
 11
188.2786312043299
 21
392.5405853190593
 31
0.0
  0
LINE
  5
144A
330
1443
100
AcDbEntity
  8
图层3
100
AcDbLine
 10
250.27863120433
 20
399.1405853190593
 30
0.0
 11
138.2786312043299
 21
399.1405853190593
 31
0.0
  0
LINE
  5
144B
330
1443
100
AcDbEntity
  8
图层3
100
AcDbLine
 10
188.2786312043299
 20
385.9405853190592
 30
0.0
 11
188.2786312043299
 21
399.1405853190593
 31
0.0
  0
LINE
  5
144C
330
1443
100
AcDbEntity
  8
图层3
100
AcDbLine
 10
227.7786312043299
 20
385.9405853190592
 30
0.0
 11
227.7786312043299
 21
392.5405853190593
 31
0.0
  0
LINE
  5
144D
330
1443
100
AcDbEntity
  8
图层3
100
AcDbLine
 10
236.77863120433
 20
405.7405853190592
 30
0.0
 11
236.7786312043299
 21
399.1405853190593
 31
0.0
  0
LINE
  5
144E
330
1443
100
AcDbEntity
  8
图层3
100
AcDbLine
 10
236.7786312043299
 20
392.5405853190592
 30
0.0
 11
236.7786312043299
 21
385.9405853190592
 31
0.0
  0
LINE
  5
144F
330
1443
100
AcDbEntity
  8
图层3
100
AcDbLine
 10
158.7786312043299
 20
399.1405853190593
 30
0.0
 11
158.7786312043299
 21
409.9405853190591
 31
0.0
  0
LINE
  5
1450
330
1443
100
AcDbEntity
  8
图层3
100
AcDbLine
 10
175.2786312043299
 20
399.1405853190593
 30
0.0
 11
175.2786312043299
 21
409.9405853190591
 31
0.0
  0
LINE
  5
1451
330
1443
100
AcDbEntity
  8
图层3
100
AcDbLine
 10
216.2786312043299
 20
399.1405853190593
 30
0.0
 11
216.2786312043299
 21
409.9405853190591
 31
0.0
  0
LINE
  5
1452
330
1443
100
AcDbEntity
  8
图层3
100
AcDbLine
 10
200.27863120433
 20
399.1405853190593
 30
0.0
 11
200.27863120433
 21
405.7405853190592
 31
0.0
  0
MTEXT
  5
1453
330
1443
100
AcDbEntity
  8
图层3
100
AcDbMText
 10
142.3137583141513
 20
394.6976827191662
 30
0.0
 40
3.5
 41
42.36062869033571
 46
0.0
 71
     1
 72
     5
  1
{\fEstrangelo Edessa|b0|i0|c0|p66;Jiangmen XHHL Stainless Steel Manufacturing Co.Ltd.}
  7
样式 2
 73
     1
 44
1.0
  0
LINE
  5
1454
330
1443
100
AcDbEntity
  8
图层3
100
AcDbLine
 10
148.2786312043299
 20
405.7405853190592
 30
0.0
 11
148.2786312043299
 21
409.9405853190591
 31
0.0
  0
MTEXT
  5
1455
330
1443
100
AcDbEntity
  8
图层3
100
AcDbMText
 10
140.0498430556535
 20
408.7391633010699
 30
0.0
 40
1.6
 41
7.79562295153596
 46
0.0
 71
     1
 72
     5
  1
{\fISOCPEUR|b0|i0|c0|p34;Itemref}
  7
样式 1
 73
     1
 44
1.0
  0
MTEXT
  5
1456
330
1443
100
AcDbEntity
  8
图层3
100
AcDbMText
 10
149.3612815810993
 20
408.6309745936029
 30
0.0
 40
1.6
 41
8.661803279484388
 46
0.0
 71
     1
 72
     5
  1
{\fISOCPEUR|b0|i0|c0|p34;Quantity}
  7
样式 1
 73
     1
 44
1.0
  0
MTEXT
  5
1457
330
1443
100
AcDbEntity
  8
图层3
100
AcDbMText
 10
160.080262928994
 20
408.7391630562454
 30
0.0
 40
1.6
 41
11.80170717876467
 46
0.0
 71
     1
 72
     5
  1
{\fISOCPEUR|b0|i0|c0|p34;Material}
  7
样式 1
 73
     1
 44
1.0
  0
MTEXT
  5
1458
330
1443
100
AcDbEntity
  8
图层3
100
AcDbMText
 10
177.0799122794671
 20
408.9754183409924
 30
0.0
 40
1.8
 41
20.56636873026793
 46
0.0
 71
     1
 72
     5
  1
{\fTahoma|b0|i0|c0|p34;SUS304 1.2mm}
  7
样式 1
 73
     1
 44
1.0
  0
MTEXT
  5
1459
330
1443
100
AcDbEntity
  8
图层3
100
AcDbMText
 10
217.9289763273547
 20
408.691964308652
 30
0.0
 40
1.8
 41
22.8357617282889
 46
0.0
 71
     1
 72
     5
  1
{\fISOCPEUR|b0|i0|c0|p34;Article No.}
  7
样式 1
 73
     1
 44
1.0
  0
MTEXT
  5
145A
330
1443
100
AcDbEntity
  8
图层3
100
AcDbMText
 10
141.6206547808366
 20
405.0070642099059
 30
0.0
 40
1.6
 41
14.18370265968843
 46
0.0
 71
     1
 72
     5
  1
{\fISOCPEUR|b0|i0|c0|p34;Designed by\PDESIGNED_BY}
  7
样式 1
 73
     1
 44
1.0
  0
MTEXT
  5
145B
330
1443
100
AcDbEntity
  8
图层3
100
AcDbMText
 10
160.0594691895904
 20
404.7236098732931
 30
0.0
 40
1.6
 41
12.76533256209336
 46
0.0
 71
     1
 72
     5
  1
{\fISOCPEUR|b0|i0|c0|p34;Checked by\PCHECKED_BY}
  7
样式 1
 73
     1
 44
1.0
  0
MTEXT
  5
145C
330
1443
100
AcDbEntity
  8
图层3
100
AcDbMText
 10
176.5125644263653
 20
405.1487908105777
 30
0.0
 40
1.6
 41
23.26127254710025
 46
0.0
 71
     1
 72
     5
  1
{\fISOCPEUR|b0|i0|c0|p34;Approved by - date}
  7
样式 1
 73
     1
 44
1.0
  0
MTEXT
  5
145D
330
1443
100
AcDbEntity
  8
图层3
100
AcDbMText
 10
201.901391909391
 20
405.0070640763076
 30
0.0
 40
1.6
 41
14.3255398799152
 46
0.0
 71
     1
 72
     5
  1
{\fISOCPEUR|b0|i0|c0|p34;File name}
  7
样式 1
 73
     1
 44
1.0
  0
MTEXT
  5
145E
330
1443
100
AcDbEntity
  8
图层3
100
AcDbMText
 10
217.9289763273546
 20
405.1487910554024
 30
0.0
 40
1.6
 41
16.31125843748271
 46
0.0
 71
     1
 72
     5
  1
{\fISOCPEUR|b0|i0|c0|p34;Oate}
  7
样式 1
 73
     1
 44
1.0
  0
MTEXT
  5
145F
330
1443
100
AcDbEntity
  8
图层3
100
AcDbMText
 10
238.211671459038
 20
405.1487910554024
 30
0.0
 40
1.6
 41
8.93573266718505
 46
0.0
 71
     1
 72
     5
  1
{\fISOCPEUR|b0|i0|c0|p34;Scale}
  7
样式 1
 73
     1
 44
1.0
  0
MTEXT
  5
1460
330
1443
100
AcDbEntity
  8
图层3
100
AcDbMText
 10
195.2350518192924
 20
397.9207178146328
 30
0.0
 40
3.5
 41
37.72864922630765
 46
0.0
 71
     1
 72
     5
  1
{\fGautami|b0|i0|c0|p2;Kitchen Sink}
  7
样式 1
 73
     1
 44
1.0
  0
MTEXT
  5
1461
330
1443
100
AcDbEntity
  8
图层3
100
AcDbMText
 10
229.1341015716263
 20
391.6847324482292
 30
0.0
 40
1.6
 41
6.240829271287168
 46
0.0
 71
     1
 72
     5
  1
{\fISOCPEUR|b0|i0|c0|p34;Edition}
  7
样式 1
 73
     1
 44
1.0
  0
MTEXT
  5
1462
330
1443
100
AcDbEntity
  8
图层3
100
AcDbMText
 10
237.3606489795466
 20
391.6847324482293
 30
0.0
 40
1.6
 41
11.06328844497926
 46
0.0
 71
     1
 72
     5
  1
{\fISOCPEUR|b0|i0|c0|p34;Sheet}
  7
样式 1
 73
     1
 44
1.0
  0
ENDBLK
  5
1466
330
1443
100
AcDbEntity
  8
0
100
AcDbBlockEnd
  0
BLOCK
  5
14A9
330
14A3
100
AcDbEntity
  8
0
100
AcDbBlockBegin
  2
*D51
 70
     1
 10
0.0
 20
0.0
 30
0.0
  3
*D51
  1

  0
LINE
  5
1A93
330
14A3
100
AcDbEntity
  8
图层3
 62
     0
440
 16777216
370
    -2
100
AcDbLine
 10
1120.371010335968
 20
1138.734769491982
 30
0.0
 11
1057.075829330166
 21
1077.1190422852
 31
0.0
  0
MTEXT
  5
1A94
330
14A3
100
AcDbEntity
  8
图层3
 62
     0
440
 16777216
100
AcDbMText
 10
1075.157302799016
 20
1133.331726554419
 30
0.0
 40
17.0
 41
7.96043182293215
 46
0.0
 71
     5
 72
     1
  1
R40 [1.6"]
 11
0.7165492189336089
 21
0.6975365344163953
 31
0.0
 73
     1
 44
1.0
  0
SOLID
  5
1A95
330
14A3
100
AcDbEntity
  8
图层3
 62
     0
440
 16777216
100
AcDbTrace
 10
1055.215731905056
 20
1079.029840202357
 30
0.0
 11
1058.935926755276
 21
1075.208244368044
 31
0.0
 12
1045.611041827228
 22
1065.958457734538
 32
0.0
 13
1045.611041827228
 23
1065.958457734538
 33
0.0
  0
POINT
  5
1A96
330
14A3
100
AcDbEntity
  8
Defpoints
 62
     0
440
 16777216
100
AcDbPoint
 10
1045.611041827228
 20
1065.958457734538
 30
0.0
  0
POINT
  5
1A97
330
14A3
100
AcDbEntity
  8
Defpoints
 62
     0
440
 16777216
100
AcDbPoint
 10
1074.273010584572
 20
1093.859919111193
 30
0.0
  0
ENDBLK
  5
14AA
330
14A3
100
AcDbEntity
  8
0
100
AcDbBlockEnd
  0
BLOCK
  5
16C2
330
16BC
100
AcDbEntity
  8
0
100
AcDbBlockBegin
  2
*D52
 70
     1
 10
0.0
 20
0.0
 30
0.0
  3
*D52
  1

  0
LINE
  5
1D8B
330
16BC
100
AcDbEntity
  8
图层3
 62
     0
440
 16777216
370
    -2
100
AcDbLine
 10
1361.850940816724
 20
439.7321477669511
 30
0.0
 11
1458.683496583029
 21
439.3440907995584
 31
0.0
  0
MTEXT
  5
1D8C
330
16BC
100
AcDbEntity
  8
图层3
 62
     0
440
 16777216
100
AcDbMText
 10
1402.321383824792
 20
453.0700706627824
 30
0.0
 40
17.0
 41
0.0
 46
0.0
 71
     5
 72
     1
  1
R7000
 11
0.9999919700478969
 21
-0.0040074729851229
 31
0.0
 73
     1
 44
1.0
  0
SOLID
  5
1D8D
330
16BC
100
AcDbEntity
  8
图层3
 62
     0
440
 16777216
100
AcDbTrace
 10
1458.694183177656
 20
442.0107360530194
 30
0.0
 11
1458.672809988402
 21
436.6774455460973
 31
0.0
 12
1474.683368103796
 22
439.2799712317964
 32
0.0
 13
1474.683368103796
 23
439.2799712317964
 33
0.0
  0
POINT
  5
1D8E
330
16BC
100
AcDbEntity
  8
Defpoints
 62
     0
440
 16777216
100
AcDbPoint
 10
1474.683368103796
 20
439.2799712317964
 30
0.0
  0
POINT
  5
1D8F
330
16BC
100
AcDbEntity
  8
Defpoints
 62
     0
440
 16777216
100
AcDbPoint
 10
-5525.260422231485
 20
467.3322821276574
 30
0.0
  0
ENDBLK
  5
16C3
330
16BC
100
AcDbEntity
  8
0
100
AcDbBlockEnd
  0
BLOCK
  5
18E7
330
18DD
100
AcDbEntity
  8
0
100
AcDbBlockBegin
  2
*D53
 70
     1
 10
0.0
 20
0.0
 30
0.0
  3
*D53
  1

  0
LINE
  5
235F
330
18DD
100
AcDbEntity
  8
图层3
 62
     0
440
 16777216
370
    -2
100
AcDbLine
 10
1735.032512114232
 20
637.9957373087377
 30
0.0
 11
1571.365845447565
 21
637.9957373087377
 31
0.0
  0
LINE
  5
2360
330
18DD
100
AcDbEntity
  8
图层3
 62
     0
440
 16777216
370
    -2
100
AcDbLine
 10
1571.365845447565
 20
637.9957373087377
 30
0.0
 11
1601.965885671765
 21
593.5000968107801
 31
0.0
  0
LINE
  5
2361
330
18DD
100
AcDbEntity
  8
图层3
 62
     0
440
 16777216
370
    -2
100
AcDbLine
 10
1672.513262957109
 20
490.9168742148829
 30
0.0
 11
1681.579592568077
 21
477.7334881784624
 31
0.0
  0
MTEXT
  5
2362
330
18DD
100
AcDbEntity
  8
图层3
 62
     0
440
 16777216
100
AcDbMText
 10
1655.699178780898
 20
651.4957373087375
 30
0.0
 40
17.0
 41
0.0
 46
0.0
 71
     5
 72
     1
  1
∅92.5 [3.6"]
 73
     1
 44
1.0
  0
LINE
  5
2363
330
18DD
100
AcDbEntity
  8
图层3
 62
     0
440
 16777216
370
    -2
100
AcDbLine
 10
1663.446933346141
 20
504.1002602513033
 30
0.0
 11
1611.032215282733
 21
580.3167107743596
 31
0.0
  0
SOLID
  5
2364
330
18DD
100
AcDbEntity
  8
图层3
 62
     0
440
 16777216
100
AcDbTrace
 10
1674.710493963179
 20
492.4279291500443
 30
0.0
 11
1670.316031951039
 21
489.4058192797215
 31
0.0
 12
1663.446933346141
 22
504.1002602513033
 32
0.0
 13
1663.446933346141
 23
504.1002602513033
 33
0.0
  0
SOLID
  5
2365
330
18DD
100
AcDbEntity
  8
图层3
 62
     0
440
 16777216
100
AcDbTrace
 10
1604.163116677835
 20
595.0111517459415
 30
0.0
 11
1599.768654665695
 21
591.9890418756188
 31
0.0
 12
1611.032215282733
 22
580.3167107743596
 32
0.0
 13
1611.032215282733
 23
580.3167107743596
 33
0.0
  0
POINT
  5
2366
330
18DD
100
AcDbEntity
  8
Defpoints
 62
     0
440
 16777216
100
AcDbPoint
 10
1611.032215282733
 20
580.3167107743596
 30
0.0
  0
POINT
  5
2367
330
18DD
100
AcDbEntity
  8
Defpoints
 62
     0
440
 16777216
100
AcDbPoint
 10
1663.446933346141
 20
504.1002602513033
 30
0.0
  0
ENDBLK
  5
18E8
330
18DD
100
AcDbEntity
  8
0
100
AcDbBlockEnd
  0
BLOCK
  5
195B
330
1955
100
AcDbEntity
  8
0
100
AcDbBlockBegin
  2
*D54
 70
     1
 10
0.0
 20
0.0
 30
0.0
  3
*D54
  1

  0
LINE
  5
1AB0
330
1955
100
AcDbEntity
  8
图层3
 62
     0
440
 16777216
370
    -2
100
AcDbLine
 10
1178.193220491041
 20
1271.349735330764
 30
0.0
 11
1170.688695326355
 21
1064.152261376172
 31
0.0
  0
MTEXT
  5
1AB1
330
1955
100
AcDbEntity
  8
图层3
 62
     0
440
 16777216
100
AcDbMText
 10
1161.239367729906
 20
1176.234394887358
 30
0.0
 40
17.0
 41
0.0
 46
0.0
 71
     5
 72
     1
  1
R2200 [86.6"]
 11
0.0361954589936632
 21
0.9993447296845261
 31
0.0
 73
     1
 44
1.0
  0
SOLID
  5
1AB2
330
1955
100
AcDbEntity
  8
图层3
 62
     0
440
 16777216
100
AcDbTrace
 10
1168.023776047196
 20
1064.248782600155
 30
0.0
 11
1173.353614605513
 21
1064.055740152189
 31
0.0
 12
1170.109567982456
 22
1048.162745701219
 32
0.0
 13
1170.109567982456
 23
1048.162745701219
 33
0.0
  0
POINT
  5
1AB3
330
1955
100
AcDbEntity
  8
Defpoints
 62
     0
440
 16777216
100
AcDbPoint
 10
1170.109567982456
 20
1048.162745701219
 30
0.0
  0
POINT
  5
1AB4
330
1955
100
AcDbEntity
  8
Defpoints
 62
     0
440
 16777216
100
AcDbPoint
 10
1249.739577768514
 20
3246.721151007176
 30
0.0
  0
ENDBLK
  5
195C
330
1955
100
AcDbEntity
  8
0
100
AcDbBlockEnd
  0
ENDSEC
  0
SECTION
  2
ENTITIES
  0
ARC
  5
4BB
102
{ACAD_REACTORS
330
F7A
330
11FD
102
}
330
1F
100
AcDbEntity
  8
图层2
100
AcDbCircle
 10
1249.739577768511
 20
257.208485512831
 30
0.0
 40
480.0
100
AcDbArc
 50
78.42303224005674
 51
101.5769677599422
  0
CIRCLE
  5
51B
330
1F
100
AcDbEntity
  8
图层2
100
AcDbCircle
 10
911.1330206652244
 20
709.6916178509669
 30
0.0
 40
4340.0
  0
CIRCLE
  5
51C
330
1F
100
AcDbEntity
  8
图层2
100
AcDbCircle
 10
974.1465554075462
 20
503.7000781119404
 30
0.0
 40
4405.0
  0
ARC
  5
51D
330
1F
100
AcDbEntity
  8
图层2
100
AcDbCircle
 10
-3428.446699289875
 20
649.294149738368
 30
0.0
 40
4500.0
100
AcDbArc
 50
18.29275616933049
 51
341.70724383067
  0
ARC
  5
57E
102
{ACAD_REACTORS
330
118B
330
11AD
330
16CA
102
}
330
1F
100
AcDbEntity
  8
图层2
100
AcDbCircle
 10
-5525.260422231486
 20
467.3322821276574
 30
0.0
 40
7000.0
100
AcDbArc
 50
359.137712705325
 51
0.8658871469340136
  0
ARC
  5
59B
102
{ACAD_REACTORS
330
118B
330
122D
102
}
330
1F
100
AcDbEntity
  8
图层2
100
AcDbCircle
 10
8024.739577768514
 20
467.3322821276303
 30
0.0
 40
7000.0
100
AcDbArc
 50
179.1341128530651
 51
180.8622872946749
  0
ARC
  5
5C8
102
{ACAD_REACTORS
330
121D
102
}
330
1F
100
AcDbEntity
  8
图层2
100
AcDbCircle
 10
1185.520657128481
 20
570.6984059757214
 30
0.0
 40
160.0
100
AcDbArc
 50
101.5769677599421
 51
179.1341128530643
  0
ARC
  5
5C9
102
{ACAD_REACTORS
330
120D
102
}
330
1F
100
AcDbEntity
  8
图层2
100
AcDbCircle
 10
1313.958498408548
 20
570.6984059757203
 30
0.0
 40
160.0
100
AcDbArc
 50
0.8658871469340136
 51
78.42303224005672
  0
ARC
  5
5CB
102
{ACAD_REACTORS
330
F92
330
124D
102
}
330
1F
100
AcDbEntity
  8
图层2
100
AcDbCircle
 10
1249.73957776849
 20
7267.208485512831
 30
0.0
 40
7000.0
100
AcDbArc
 50
268.9277218593705
 51
271.0722781406299
  0
ARC
  5
5CC
102
{ACAD_REACTORS
330
126E
102
}
330
1F
100
AcDbEntity
  8
图层2
100
AcDbCircle
 10
1378.957618378054
 20
363.4176646680235
 30
0.0
 40
95.0
100
AcDbArc
 50
271.0722781406281
 51
359.1377127053225
  0
ARC
  5
5CE
102
{ACAD_REACTORS
330
125E
102
}
330
1F
100
AcDbEntity
  8
图层2
100
AcDbCircle
 10
1120.521537158976
 20
363.4176646680232
 30
0.0
 40
95.0
100
AcDbArc
 50
180.8622872946749
 51
268.9277218593705
  0
ARC
  5
63B
102
{ACAD_REACTORS
330
1169
330
11AD
330
11C5
102
}
330
1F
100
AcDbEntity
  8
图层2
100
AcDbCircle
 10
4004.739574314436
 20
469.708485512831
 30
0.0
 40
2500.0
100
AcDbArc
 50
177.3322890410947
 51
182.6677109589053
  0
ARC
  5
63C
102
{ACAD_REACTORS
330
11C5
102
}
330
1F
100
AcDbEntity
  8
图层2
100
AcDbCircle
 10
-730.2604256855638
 20
469.7084855128314
 30
0.0
 40
2500.0
100
AcDbArc
 50
357.3322890410946
 51
2.667710958905348
  0
ARC
  5
63F
102
{ACAD_REACTORS
330
1043
102
}
330
1F
100
AcDbEntity
  8
图层2
100
AcDbCircle
 10
1637.239574314434
 20
-1827.791514487168
 30
0.0
 40
2500.0
100
AcDbArc
 50
89.05164749286731
 51
90.94835250713259
  0
ARC
  5
640
102
{ACAD_REACTORS
330
105B
102
}
330
1F
100
AcDbEntity
  8
图层2
100
AcDbCircle
 10
1637.239574314459
 20
2767.208485512832
 30
0.0
 40
2500.0
100
AcDbArc
 50
269.0516474928668
 51
270.9483525071321
  0
ARC
  5
641
330
1F
100
AcDbEntity
  8
图层2
100
AcDbCircle
 10
1677.127768594005
 20
581.8783657987419
 30
0.0
 40
90.0
100
AcDbArc
 50
2.667710958905349
 51
89.05164749286726
  0
ARC
  5
642
330
1F
100
AcDbEntity
  8
图层2
100
AcDbCircle
 10
1597.351380034867
 20
581.8783657987423
 30
0.0
 40
90.0
100
AcDbArc
 50
90.94835250713215
 51
177.3322890410947
  0
ARC
  5
643
330
1F
100
AcDbEntity
  8
图层2
100
AcDbCircle
 10
1597.351380034867
 20
357.5386052269208
 30
0.0
 40
90.0
100
AcDbArc
 50
182.6677109589045
 51
269.0516474928671
  0
ARC
  5
644
102
{ACAD_REACTORS
330
113A
102
}
330
1F
100
AcDbEntity
  8
图层2
100
AcDbCircle
 10
1677.127768594004
 20
357.5386052269205
 30
0.0
 40
90.0
100
AcDbArc
 50
270.9483525071318
 51
357.3322890410946
  0
LINE
  5
66C
330
1F
100
AcDbEntity
  8
图层2
100
AcDbLine
 10
1724.739574314436
 20
242.2084855128315
 30
0.0
 11
1071.739581222592
 21
242.2084855128314
 31
0.0
  0
LINE
  5
66D
330
1F
100
AcDbEntity
  8
图层2
100
AcDbLine
 10
999.7395812225922
 20
646.2084855128312
 30
0.0
 11
999.7395812225921
 21
314.2084855128314
 31
0.0
  0
LINE
  5
6AC
330
1F
100
AcDbEntity
  8
图层2
100
AcDbLine
 10
1724.739574314436
 20
242.2084855128315
 30
0.0
 11
1794.739574314436
 21
312.2084855128315
 31
0.0
  0
LINE
  5
6AD
330
1F
100
AcDbEntity
  8
图层2
100
AcDbLine
 10
1724.739574314436
 20
697.2084855128315
 30
0.0
 11
1794.739574314436
 21
627.2084855128315
 31
0.0
  0
LINE
  5
6AE
102
{ACAD_REACTORS
330
108B
102
}
330
1F
100
AcDbEntity
  8
图层2
100
AcDbLine
 10
1794.739574314436
 20
312.2084855128315
 30
0.0
 11
1794.739574314436
 21
627.2084855128315
 31
0.0
  0
CIRCLE
  5
A7F
102
{ACAD_REACTORS
330
10C2
102
}
330
1F
100
AcDbEntity
  8
图层2
100
AcDbCircle
 10
1249.739577768514
 20
592.208485512831
 30
0.0
 40
46.25
  0
CIRCLE
  5
A80
102
{ACAD_REACTORS
330
18F3
102
}
330
1F
100
AcDbEntity
  8
图层2
100
AcDbCircle
 10
1637.239574314437
 20
542.2084855128314
 30
0.0
 40
46.25
  0
CIRCLE
  5
A81
330
1F
100
AcDbEntity
  8
图层2
100
AcDbCircle
 10
1637.239574314437
 20
542.2084855128314
 30
0.0
 40
55.5
  0
CIRCLE
  5
A82
330
1F
100
AcDbEntity
  8
图层2
100
AcDbCircle
 10
1249.739577768514
 20
592.208485512831
 30
0.0
 40
55.5
  0
CIRCLE
  5
A83
330
1F
100
AcDbEntity
  8
图层2
100
AcDbCircle
 10
1249.739577768514
 20
592.208485512831
 30
0.0
 40
62.0
  0
CIRCLE
  5
A84
330
1F
100
AcDbEntity
  8
图层2
100
AcDbCircle
 10
1637.239574314437
 20
542.2084855128314
 30
0.0
 40
62.0
  0
LINE
  5
A96
330
1F
100
AcDbEntity
  8
图层2
100
AcDbLine
 10
999.7395812225921
 20
1274.721151007176
 30
0.0
 11
1022.367169805805
 21
1274.721151007176
 31
0.0
  0
ARC
  5
AAC
102
{ACAD_REACTORS
330
1963
330
C28
102
}
330
1F
100
AcDbEntity
  8
图层2
100
AcDbCircle
 10
1249.739577768514
 20
3246.721151007176
 30
0.0
 40
2200.0
100
AcDbArc
 50
265.3404703901268
 51
274.6595296098732
  0
ARC
  5
AAE
102
{ACAD_REACTORS
330
C70
102
}
330
1F
100
AcDbEntity
  8
图层2
100
AcDbCircle
 10
1637.239574314433
 20
2896.721151007176
 30
0.0
 40
1800.0
100
AcDbArc
 50
267.0745927866324
 51
272.9254072133678
  0
LINE
  5
AAF
330
1F
100
AcDbEntity
  8
图层2
100
AcDbLine
 10
1024.863743642691
 20
1272.351990897783
 30
0.0
 11
1034.32782919439
 21
1091.766480861476
 31
0.0
  0
LINE
  5
AB0
102
{ACAD_REACTORS
330
C40
102
}
330
1F
100
AcDbEntity
  8
图层2
100
AcDbLine
 10
1474.615411894337
 20
1272.351990897783
 30
0.0
 11
1465.151326342638
 21
1091.766480861476
 31
0.0
  0
LINE
  5
AB1
330
1F
100
AcDbEntity
  8
图层2
100
AcDbLine
 10
1504.863736734535
 20
1272.351990897783
 30
0.0
 11
1512.209341724314
 21
1132.189498033749
 31
0.0
  0
LINE
  5
AB2
102
{ACAD_REACTORS
330
C58
102
}
330
1F
100
AcDbEntity
  8
图层2
100
AcDbLine
 10
1769.615411894336
 20
1272.351990897783
 30
0.0
 11
1762.269806904557
 21
1132.189498033749
 31
0.0
  0
ARC
  5
AB5
330
1F
100
AcDbEntity
  8
图层2
100
AcDbCircle
 10
1547.161375440724
 20
1134.021256502252
 30
0.0
 40
35.0
100
AcDbArc
 50
182.9999999999996
 51
267.0745927866311
  0
ARC
  5
AB6
102
{ACAD_REACTORS
330
CA6
102
}
330
1F
100
AcDbEntity
  8
图层2
100
AcDbCircle
 10
1727.317773188147
 20
1134.021256502252
 30
0.0
 40
35.0
100
AcDbArc
 50
272.9254072133664
 51
357.0
  0
ARC
  5
AB7
330
1F
100
AcDbEntity
  8
图层2
100
AcDbCircle
 10
1074.273010584573
 20
1093.859919111194
 30
0.0
 40
40.0
100
AcDbArc
 50
183.0
 51
265.3404703901272
  0
ARC
  5
AB8
330
1F
100
AcDbEntity
  8
图层2
100
AcDbCircle
 10
1425.206144952455
 20
1093.859919111194
 30
0.0
 40
40.0
100
AcDbArc
 50
274.6595296098732
 51
356.9999999999999
  0
LINE
  5
AC6
330
1F
100
AcDbEntity
  8
图层2
100
AcDbLine
 10
1194.239577768515
 20
1044.094960903479
 30
0.0
 11
1305.239577768514
 21
1044.094960903479
 31
0.0
  0
LINE
  5
AC7
330
1F
100
AcDbEntity
  8
图层2
100
AcDbLine
 10
1203.489577768515
 20
1042.294960903479
 30
0.0
 11
1295.989577768515
 21
1042.294960903479
 31
0.0
  0
LINE
  5
AC8
330
1F
100
AcDbEntity
  8
图层2
100
AcDbLine
 10
1311.739577768515
 20
1047.594960903479
 30
0.0
 11
1305.239577768515
 21
1044.094960903479
 31
0.0
  0
LINE
  5
AC9
330
1F
100
AcDbEntity
  8
图层2
100
AcDbLine
 10
1305.239577768515
 20
1044.094960903479
 30
0.0
 11
1295.989577768515
 21
1042.294960903479
 31
0.0
  0
LINE
  5
ACA
330
1F
100
AcDbEntity
  8
图层2
100
AcDbLine
 10
1187.739577768514
 20
1047.594960903479
 30
0.0
 11
1194.239577768515
 21
1044.094960903479
 31
0.0
  0
LINE
  5
ACB
330
1F
100
AcDbEntity
  8
图层2
100
AcDbLine
 10
1194.239577768515
 20
1044.094960903479
 30
0.0
 11
1203.489577768515
 21
1042.294960903479
 31
0.0
  0
LINE
  5
ACD
330
1F
100
AcDbEntity
  8
图层2
100
AcDbLine
 10
1581.739574314436
 20
1094.289245681129
 30
0.0
 11
1692.739574314436
 21
1094.289245681129
 31
0.0
  0
LINE
  5
ACE
330
1F
100
AcDbEntity
  8
图层2
100
AcDbLine
 10
1590.989574314436
 20
1092.489245681129
 30
0.0
 11
1683.489574314437
 21
1092.489245681129
 31
0.0
  0
LINE
  5
ACF
330
1F
100
AcDbEntity
  8
图层2
100
AcDbLine
 10
1699.239574314437
 20
1097.789245681129
 30
0.0
 11
1692.739574314437
 21
1094.289245681129
 31
0.0
  0
LINE
  5
AD0
330
1F
100
AcDbEntity
  8
图层2
100
AcDbLine
 10
1692.739574314437
 20
1094.289245681129
 30
0.0
 11
1683.489574314437
 21
1092.489245681129
 31
0.0
  0
LINE
  5
AD1
330
1F
100
AcDbEntity
  8
图层2
100
AcDbLine
 10
1575.239574314437
 20
1097.789245681129
 30
0.0
 11
1581.739574314436
 21
1094.289245681129
 31
0.0
  0
LINE
  5
AD2
330
1F
100
AcDbEntity
  8
图层2
100
AcDbLine
 10
1581.739574314436
 20
1094.289245681129
 30
0.0
 11
1590.989574314436
 21
1092.489245681129
 31
0.0
  0
LINE
  5
AD4
330
1F
100
AcDbEntity
  8
图层2
100
AcDbLine
 10
1772.111985731223
 20
1274.721151007176
 30
0.0
 11
1794.739574314436
 21
1274.721151007176
 31
0.0
  0
LINE
  5
AD5
330
1F
100
AcDbEntity
  8
图层2
100
AcDbLine
 10
1477.111985731223
 20
1274.721151007176
 30
0.0
 11
1502.367162897648
 21
1274.721151007175
 31
0.0
  0
ARC
  5
AD6
102
{ACAD_REACTORS
330
AF4
102
}
330
1F
100
AcDbEntity
  8
图层2
100
AcDbCircle
 10
1022.367169805805
 20
1272.221151007175
 30
0.0
 40
2.5
100
AcDbArc
 50
3.000000000000016
 51
90.0
  0
ARC
  5
AD7
330
1F
100
AcDbEntity
  8
图层2
100
AcDbCircle
 10
1477.111985731223
 20
1272.221151007175
 30
0.0
 40
2.5
100
AcDbArc
 50
90.0
 51
176.9999999999999
  0
ARC
  5
AD8
330
1F
100
AcDbEntity
  8
图层2
100
AcDbCircle
 10
1502.367162897648
 20
1272.221151007175
 30
0.0
 40
2.5
100
AcDbArc
 50
3.000000000000016
 51
90.0
  0
ARC
  5
AD9
330
1F
100
AcDbEntity
  8
图层2
100
AcDbCircle
 10
1772.111985731223
 20
1272.221151007175
 30
0.0
 40
2.5
100
AcDbArc
 50
90.0
 51
177.0
  0
LINE
  5
ADA
102
{ACAD_REACTORS
330
C58
330
C70
102
}
330
1F
100
AcDbEntity
  8
图层2
100
AcDbLine
 10
1772.111985731223
 20
1274.721151007176
 30
0.0
 11
1502.367162897648
 21
1274.721151007175
 31
0.0
  0
LINE
  5
ADB
102
{ACAD_REACTORS
330
C28
330
C40
102
}
330
1F
100
AcDbEntity
  8
图层2
100
AcDbLine
 10
1477.111985731223
 20
1274.721151007176
 30
0.0
 11
1022.367169805805
 21
1274.721151007176
 31
0.0
  0
LINE
  5
ADC
102
{ACAD_REACTORS
330
1043
102
}
330
1F
100
AcDbEntity
  8
图层1
100
AcDbLine
 10
1557.239574314437
 20
542.2084855128314
 30
0.0
 11
1717.239574314437
 21
542.2084855128314
 31
0.0
  0
LINE
  5
ADD
330
1F
100
AcDbEntity
  8
图层1
100
AcDbLine
 10
1637.239574314437
 20
462.2084855128314
 30
0.0
 11
1637.239574314437
 21
622.2084855128314
 31
0.0
  0
LINE
  5
ADE
102
{ACAD_REACTORS
330
F7A
102
}
330
1F
100
AcDbEntity
  8
图层1
100
AcDbLine
 10
1169.739577768514
 20
592.208485512831
 30
0.0
 11
1329.739577768515
 21
592.208485512831
 31
0.0
  0
LINE
  5
ADF
330
1F
100
AcDbEntity
  8
图层1
100
AcDbLine
 10
1249.739577768514
 20
512.2084855128309
 30
0.0
 11
1249.739577768514
 21
672.208485512831
 31
0.0
  0
LINE
  5
AE0
102
{ACAD_REACTORS
330
F7A
330
F92
102
}
330
1F
100
AcDbEntity
  8
图层1
100
AcDbLine
 10
1249.739577768514
 20
786.9850099082205
 30
0.0
 11
1249.739577768514
 21
221.951560874334
 31
0.0
  0
LINE
  5
AE1
102
{ACAD_REACTORS
330
C28
102
}
330
1F
100
AcDbEntity
  8
图层1
100
AcDbLine
 10
1249.739577768514
 20
921.8509385777396
 30
0.0
 11
1249.739577768514
 21
1090.00577872679
 31
0.0
  0
CIRCLE
  5
AE2
330
1F
100
AcDbEntity
  8
图层4
100
AcDbCircle
 10
1249.739577768514
 20
1044.094960903479
 30
0.0
 40
69.86599962561001
  0
DIMENSION
  5
AE3
102
{ACAD_XDICTIONARY
360
AED
102
}
102
{ACAD_REACTORS
330
AF4
102
}
330
1F
100
AcDbEntity
  8
图层3
100
AcDbDimension
280
     0
  2
*D1
 10
1022.367169805805
 20
1272.221151007175
 30
0.0
 11
988.1590939696048
 21
1222.928072917197
 31
0.0
 70
   164
 71
     5
 42
2.500000000000909
 73
     0
 74
     0
 75
     0
  3
ISO-25
100
AcDbRadialDimension
 15
1023.79250629898
 25
1274.275029260925
 35
0.0
 40
0.0
1001
ACAD
1000
DSTYLE
1002
{
1070
   279
1070
     1
1070
   288
1070
     1
1002
}
  0
ARC
  5
AF5
102
{ACAD_REACTORS
330
B95
102
}
330
1F
100
AcDbEntity
  8
图层2
100
AcDbCircle
 10
713.1339416026527
 20
5451.147341110871
 30
0.0
 40
4400.0
100
AcDbArc
 50
268.1827363357747
 51
271.8172636642253
  0
LINE
  5
AF6
102
{ACAD_REACTORS
330
B15
102
}
330
1F
100
AcDbEntity
  8
图层2
100
AcDbLine
 10
602.1339416026536
 20
1045.894960903479
 30
0.0
 11
824.1339416026523
 21
1045.894960903479
 31
0.0
  0
LINE
  5
AF7
330
1F
100
AcDbEntity
  8
图层2
100
AcDbLine
 10
620.6339416026525
 20
1042.294960903479
 30
0.0
 11
805.6339416026542
 21
1042.294960903479
 31
0.0
  0
LINE
  5
AF8
102
{ACAD_REACTORS
330
B95
102
}
330
1F
100
AcDbEntity
  8
图层2
100
AcDbLine
 10
837.1339416026531
 20
1052.894960903479
 30
0.0
 11
824.1339416026526
 21
1045.894960903479
 31
0.0
  0
LINE
  5
AF9
330
1F
100
AcDbEntity
  8
图层2
100
AcDbLine
 10
824.1339416026526
 20
1045.894960903479
 30
0.0
 11
805.633941602653
 21
1042.294960903479
 31
0.0
  0
LINE
  5
AFA
102
{ACAD_REACTORS
330
B95
330
BB3
102
}
330
1F
100
AcDbEntity
  8
图层2
100
AcDbLine
 10
589.1339416026529
 20
1052.894960903479
 30
0.0
 11
602.1339416026529
 21
1045.894960903479
 31
0.0
  0
LINE
  5
AFB
102
{ACAD_REACTORS
330
BB3
102
}
330
1F
100
AcDbEntity
  8
图层2
100
AcDbLine
 10
602.1339416026529
 20
1045.894960903479
 30
0.0
 11
620.6339416026529
 21
1042.294960903479
 31
0.0
  0
LINE
  5
AFC
330
1F
100
AcDbEntity
  8
图层1
100
AcDbLine
 10
713.1339416026529
 20
906.1629616522587
 30
0.0
 11
713.1339416026529
 21
1103.801140938409
 31
0.0
  0
CIRCLE
  5
AFD
330
1F
100
AcDbEntity
  8
图层4
100
AcDbCircle
 10
713.1339416026529
 20
1045.894960903479
 30
0.0
 40
139.73199925122
  0
DIMENSION
  5
AFE
102
{ACAD_XDICTIONARY
360
B0B
102
}
102
{ACAD_REACTORS
330
B15
102
}
330
1F
100
AcDbEntity
  8
图层3
100
AcDbDimension
280
     0
  2
*D2
 10
824.1339416026523
 20
1209.838602520794
 30
0.0
 11
713.1339416026529
 21
1223.338602520794
 31
0.0
 70
    32
  1
%%C111 [4.37"]
 71
     5
 42
221.9999999999986
 73
     0
 74
     0
 75
     0
  3
ISO-25
100
AcDbAlignedDimension
 13
602.1339416026536
 23
1045.894960903479
 33
0.0
 14
824.1339416026523
 24
1045.894960903479
 34
0.0
100
AcDbRotatedDimension
  0
DIMENSION
  5
B7E
102
{ACAD_XDICTIONARY
360
B8B
102
}
102
{ACAD_REACTORS
330
B95
102
}
330
1F
100
AcDbEntity
  8
图层3
100
AcDbDimension
280
     0
  2
*D3
 10
837.1339416026534
 20
1248.146817571676
 30
0.0
 11
713.1339416026537
 21
1261.646817571676
 31
0.0
 70
    32
  1
%%C124 [4.88"]
 71
     5
 42
247.9999999999995
 73
     0
 74
     0
 75
     0
  3
ISO-25
100
AcDbAlignedDimension
 13
589.1339416026539
 23
1052.894960903478
 33
0.0
 14
837.1339416026534
 24
1052.894960903478
 34
0.0
100
AcDbRotatedDimension
  0
DIMENSION
  5
B96
102
{ACAD_XDICTIONARY
360
BA6
102
}
102
{ACAD_REACTORS
330
BB3
102
}
330
1F
100
AcDbEntity
  8
图层3
100
AcDbDimension
280
     0
  2
*D4
 10
560.4461584409774
 20
1042.294960903479
 30
0.0
 11
501.6128251076443
 21
982.5905504011753
 31
0.0
 70
   160
  1
5.3 [.2"]
 71
     5
 42
10.59999999999991
 73
     0
 74
     0
 75
     0
  3
ISO-25
100
AcDbAlignedDimension
 13
589.1339416026529
 23
1052.894960903479
 33
0.0
 14
620.6339416026529
 24
1042.294960903479
 34
0.0
 50
90.0
100
AcDbRotatedDimension
  0
DIMENSION
  5
C11
102
{ACAD_XDICTIONARY
360
C1E
102
}
102
{ACAD_REACTORS
330
C28
102
}
330
1F
100
AcDbEntity
  8
图层3
100
AcDbDimension
280
     0
  2
*D5
 10
907.6716805696205
 20
1046.721151007176
 30
0.0
 11
894.1716805696206
 21
1160.721151007175
 31
0.0
 70
    32
  1
<> [9"]
 71
     5
 42
228.0
 73
     0
 74
     0
 75
     0
  3
ISO-25
100
AcDbAlignedDimension
 13
1249.739577768514
 23
1274.721151007176
 33
0.0
 14
1249.739577768514
 24
1046.721151007175
 34
0.0
 50
90.0
100
AcDbRotatedDimension
  0
DIMENSION
  5
C29
102
{ACAD_XDICTIONARY
360
C36
102
}
102
{ACAD_REACTORS
330
C40
102
}
330
1F
100
AcDbEntity
  8
图层3
100
AcDbDimension
280
     0
  2
*D6
 10
1022.367169805805
 20
1274.721151007176
 30
0.0
 11
1426.741717824376
 21
1229.172885919843
 31
0.0
 70
    34
 71
     5
 42
1.518436449235065
 73
     0
 74
     0
 75
     0
  3
ISO-25
100
AcDb2LineAngularDimension
 13
1474.615411894337
 23
1272.351990897783
 33
0.0
 14
1465.151326342638
 24
1091.766480861476
 34
0.0
 15
1477.111985731223
 25
1274.721151007176
 35
0.0
 16
1404.648843979035
 26
1235.869224759328
 36
0.0
  0
DIMENSION
  5
C41
102
{ACAD_XDICTIONARY
360
C4E
102
}
102
{ACAD_REACTORS
330
C58
102
}
330
1F
100
AcDbEntity
  8
图层3
100
AcDbDimension
280
     0
  2
*D7
 10
1502.367162897648
 20
1274.721151007175
 30
0.0
 11
1732.343298880272
 21
1239.233410693044
 31
0.0
 70
    34
 71
     5
 42
1.518436449235067
 73
     0
 74
     0
 75
     0
  3
ISO-25
100
AcDb2LineAngularDimension
 13
1769.615411894336
 23
1272.351990897783
 33
0.0
 14
1762.269806904557
 24
1132.189498033749
 34
0.0
 15
1772.111985731223
 25
1274.721151007176
 35
0.0
 16
1712.431693896082
 26
1242.954874171709
 36
0.0
  0
DIMENSION
  5
C59
102
{ACAD_XDICTIONARY
360
C66
102
}
102
{ACAD_REACTORS
330
C70
102
}
330
1F
100
AcDbEntity
  8
图层3
100
AcDbDimension
280
     0
  2
*D8
 10
1637.239574314438
 20
1274.721151007176
 30
0.0
 11
1623.739574314437
 21
1185.721151007175
 31
0.0
 70
    32
  1
<> [7"]
 71
     5
 42
178.0
 73
     0
 74
     0
 75
     0
  3
ISO-25
100
AcDbAlignedDimension
 13
1637.239574314436
 23
1096.721151007175
 33
0.0
 14
1637.239574314436
 24
1274.721151007176
 34
0.0
 50
90.0
100
AcDbRotatedDimension
  0
DIMENSION
  5
C95
102
{ACAD_XDICTIONARY
360
C9F
102
}
102
{ACAD_REACTORS
330
CA6
102
}
330
1F
100
AcDbEntity
  8
图层3
100
AcDbDimension
280
     0
  2
*D10
 10
1727.317773188147
 20
1134.021256502252
 30
0.0
 11
1700.648557556225
 21
1153.738779555512
 31
0.0
 70
   164
  1
<> [1.4"]
 71
     5
 42
35.0
 73
     0
 74
     0
 75
     0
  3
ISO-25
100
AcDbRadialDimension
 15
1755.461166568568
 25
1113.21382011439
 35
0.0
 40
0.0
1001
ACAD
1000
DSTYLE
1002
{
1070
   279
1070
     1
1070
   288
1070
     1
1002
}
  0
DIMENSION
  5
CA7
330
1F
100
AcDbEntity
  8
图层3
100
AcDbDimension
280
     0
  2
*D11
 10
1637.239574314434
 20
2896.721151007178
 30
0.0
 11
1577.669703951156
 21
1208.438431301728
 31
0.0
 70
   164
  1
<> [71"]
 71
     5
 42
1800.000000000006
 73
     0
 74
     0
 75
     0
  3
ISO-25
100
AcDbRadialDimension
 15
1573.76733675293
 25
1097.840589363643
 35
0.0
 40
0.0
1001
ACAD
1000
DSTYLE
1002
{
1070
   288
1070
     1
1002
}
  0
INSERT
  5
CD4
330
1F
100
AcDbEntity
  8
图层3
100
AcDbBlockReference
  2
c
 10
1140.628965147143
 20
1023.635722704103
 30
0.0
 41
0.9
 42
0.9
 43
0.9
  0
LINE
  5
E1E
102
{ACAD_REACTORS
330
ECB
102
}
330
1F
100
AcDbEntity
  8
图层2
100
AcDbLine
 10
999.7395812225922
 20
646.2084855128312
 30
0.0
 11
1115.739581222592
 21
762.2084855128313
 31
0.0
  0
LINE
  5
E1F
330
1F
100
AcDbEntity
  8
图层2
100
AcDbLine
 10
999.7395812225921
 20
314.2084855128314
 30
0.0
 11
1071.739581222592
 21
242.2084855128314
 31
0.0
  0
LINE
  5
E38
102
{ACAD_REACTORS
330
ECB
330
EE3
102
}
330
1F
100
AcDbEntity
  8
图层2
100
AcDbLine
 10
1115.739581222592
 20
762.2084855128313
 30
0.0
 11
1374.739581222592
 21
762.2084855128313
 31
0.0
  0
LINE
  5
EB2
102
{ACAD_REACTORS
330
F13
102
}
330
1F
100
AcDbEntity
  8
图层2
100
AcDbLine
 10
1724.739574314436
 20
697.2084855128315
 30
0.0
 11
1458.739574314436
 21
697.2084855128315
 31
0.0
  0
LINE
  5
EB3
102
{ACAD_REACTORS
330
EE3
330
EFB
102
}
330
1F
100
AcDbEntity
  8
图层2
100
AcDbLine
 10
1374.739581222592
 20
762.2084855128313
 30
0.0
 11
1458.739574314436
 21
697.2084855128315
 31
0.0
  0
DIMENSION
  5
EB4
102
{ACAD_XDICTIONARY
360
EC1
102
}
102
{ACAD_REACTORS
330
ECB
102
}
330
1F
100
AcDbEntity
  8
图层3
100
AcDbDimension
280
     0
  2
*D13
 10
1115.739581222592
 20
805.9931325867646
 30
0.0
 11
1057.739581222592
 21
833.6597992534313
 31
0.0
 70
    32
  1
<> [4.6"]
 71
     5
 42
116.0
 73
     0
 74
     0
 75
     0
  3
ISO-25
100
AcDbAlignedDimension
 13
999.7395812225922
 23
646.2084855128312
 33
0.0
 14
1115.739581222592
 24
762.2084855128313
 34
0.0
100
AcDbRotatedDimension
  0
DIMENSION
  5
ECC
102
{ACAD_XDICTIONARY
360
ED9
102
}
102
{ACAD_REACTORS
330
EE3
102
}
330
1F
100
AcDbEntity
  8
图层3
100
AcDbDimension
280
     0
  2
*D14
 10
1374.739581222592
 20
805.9931325867646
 30
0.0
 11
1294.333552951612
 21
807.7372379449142
 31
0.0
 70
   160
  1
<> [10.2"]
 71
     5
 42
259.0
 73
     0
 74
     0
 75
     0
  3
ISO-25
100
AcDbAlignedDimension
 13
1115.739581222592
 23
762.2084855128313
 33
0.0
 14
1374.739581222592
 24
762.2084855128313
 34
0.0
100
AcDbRotatedDimension
1001
ACAD
1000
DSTYLE
1002
{
1070
   279
1070
     1
1002
}
  0
DIMENSION
  5
EE4
102
{ACAD_XDICTIONARY
360
EF1
102
}
102
{ACAD_REACTORS
330
EFB
102
}
330
1F
100
AcDbEntity
  8
图层3
100
AcDbDimension
280
     0
  2
*D15
 10
1458.739574314436
 20
805.9931325867646
 30
0.0
 11
1416.739577768514
 21
833.6597992534313
 31
0.0
 70
    32
  1
<> [3.3"]
 71
     5
 42
83.99999309184364
 73
     0
 74
     0
 75
     0
  3
ISO-25
100
AcDbAlignedDimension
 13
1374.739581222592
 23
762.2084855128313
 33
0.0
 14
1458.739574314436
 24
697.2084855128315
 34
0.0
100
AcDbRotatedDimension
1001
ACAD
1000
DSTYLE
1002
{
1070
   279
1070
     1
1002
}
  0
DIMENSION
  5
EFC
102
{ACAD_XDICTIONARY
360
F09
102
}
102
{ACAD_REACTORS
330
F13
102
}
330
1F
100
AcDbEntity
  8
图层3
100
AcDbDimension
280
     0
  2
*D16
 10
1724.739574314436
 20
805.9931325867646
 30
0.0
 11
1591.739574314436
 21
833.6597992534313
 31
0.0
 70
    32
  1
<> [10.5"]
 71
     5
 42
266.0
 73
     0
 74
     0
 75
     0
  3
ISO-25
100
AcDbAlignedDimension
 13
1458.739574314436
 23
697.2084855128315
 33
0.0
 14
1724.739574314436
 24
697.2084855128315
 34
0.0
100
AcDbRotatedDimension
1001
ACAD
1000
DSTYLE
1002
{
1070
   279
1070
     1
1002
}
  0
DIMENSION
  5
F14
330
1F
100
AcDbEntity
  8
图层3
100
AcDbDimension
280
     0
  2
*D17
 10
1794.739574314436
 20
809.3392284619167
 30
0.0
 11
1758.809443661426
 21
813.0892284619166
 31
0.0
 70
   160
  1
<> [2.8"]
 71
     5
 42
70.0
 73
     0
 74
     0
 75
     0
  3
ISO-25
100
AcDbAlignedDimension
 13
1724.739574314436
 23
700.5545813879836
 33
0.0
 14
1794.739574314436
 24
630.5545813879835
 34
0.0
100
AcDbRotatedDimension
1001
ACAD
1000
DSTYLE
1002
{
1070
   279
1070
     1
1002
}
  0
DIMENSION
  5
F3E
330
1F
100
AcDbEntity
  8
图层3
100
AcDbDimension
280
     0
  2
*D18
 10
952.2200279177596
 20
764.8751521794982
 30
0.0
 11
939.9700279177586
 21
684.0670709600636
 31
0.0
 70
   160
  1
<> [4.6"]
 71
     5
 42
116.0
 73
     0
 74
     0
 75
     0
  3
ISO-25
100
AcDbAlignedDimension
 13
999.7395812225922
 23
648.8751521794979
 33
0.0
 14
1115.739581222592
 24
764.8751521794979
 34
0.0
 50
90.0
100
AcDbRotatedDimension
1001
ACAD
1000
DSTYLE
1002
{
1070
   279
1070
     2
1002
}
  0
DIMENSION
  5
F4B
330
1F
100
AcDbEntity
  8
图层3
100
AcDbDimension
280
     0
  2
*D19
 10
952.9332237167256
 20
314.2084855128315
 30
0.0
 11
888.4332237167255
 21
199.0385463712
 31
0.0
 70
   160
  1
<> [2.8"]
 71
     5
 42
72.00000000000002
 73
     0
 74
     0
 75
     0
  3
ISO-25
100
AcDbAlignedDimension
 13
1027.153021069233
 23
242.2084855128314
 33
0.0
 14
955.1530210692336
 24
314.2084855128314
 34
0.0
 50
90.0
100
AcDbRotatedDimension
  0
DIMENSION
  5
F63
102
{ACAD_XDICTIONARY
360
F70
102
}
102
{ACAD_REACTORS
330
F7A
102
}
330
1F
100
AcDbEntity
  8
图层3
100
AcDbDimension
280
     0
  2
*D20
 10
910.3285633025603
 20
737.2084855128312
 30
0.0
 11
896.8285633025601
 21
664.7084855128309
 31
0.0
 70
    32
  1
<> \{5.7"]
 71
     5
 42
145.0
 73
     0
 74
     0
 75
     0
  3
ISO-25
100
AcDbAlignedDimension
 13
1169.739577768514
 23
592.208485512831
 33
0.0
 14
1249.739577768514
 24
737.2084855128309
 34
0.0
 50
90.0
100
AcDbRotatedDimension
  0
DIMENSION
  5
F7B
102
{ACAD_XDICTIONARY
360
F88
102
}
102
{ACAD_REACTORS
330
F92
102
}
330
1F
100
AcDbEntity
  8
图层3
100
AcDbDimension
280
     0
  2
*D21
 10
856.2187714475308
 20
267.2084855128314
 30
0.0
 11
842.7187714475307
 21
502.208485512831
 31
0.0
 70
    32
  1
<> [18.5"]
 71
     5
 42
469.9999999999997
 73
     0
 74
     0
 75
     0
  3
ISO-25
100
AcDbAlignedDimension
 13
999.7395812225922
 23
737.2084855128311
 33
0.0
 14
1249.739577768514
 24
267.2084855128314
 34
0.0
 50
90.0
100
AcDbRotatedDimension
  0
DIMENSION
  5
FA7
330
1F
100
AcDbEntity
  8
图层3
100
AcDbDimension
280
     0
  2
*D22
 10
952.2200279177573
 20
314.2084855128315
 30
0.0
 11
938.7200279177571
 21
480.2084855128311
 31
0.0
 70
    32
  1
<> [13"]
 71
     5
 42
331.9999999999999
 73
     0
 74
     0
 75
     0
  3
ISO-25
100
AcDbAlignedDimension
 13
975.3548045701741
 23
646.2084855128312
 33
0.0
 14
950.0285900961534
 24
314.2084855128314
 34
0.0
 50
90.0
100
AcDbRotatedDimension
  0
DIMENSION
  5
FCA
330
1F
100
AcDbEntity
  8
图层3
100
AcDbDimension
280
     0
  2
*D23
 10
807.3454262563478
 20
762.2084855128315
 30
0.0
 11
793.8454262563476
 21
502.2084855128311
 31
0.0
 70
    32
  1
<> [20.5"]
 71
     5
 42
520.0
 73
     0
 74
     0
 75
     0
  3
ISO-25
100
AcDbAlignedDimension
 13
1011.338015879671
 23
242.2084855128314
 33
0.0
 14
999.7395812225922
 24
762.2084855128313
 34
0.0
 50
90.0
100
AcDbRotatedDimension
  0
DIMENSION
  5
102C
102
{ACAD_XDICTIONARY
360
1039
102
}
102
{ACAD_REACTORS
330
1043
102
}
330
1F
100
AcDbEntity
  8
图层3
100
AcDbDimension
280
     0
  2
*D24
 10
1842.413388309753
 20
672.2084855128318
 30
0.0
 11
1842.413388309753
 21
589.7219608525474
 31
0.0
 70
   160
  1
<> [5"]
 71
     5
 42
130.0
 73
     0
 74
     0
 75
     0
  3
ISO-25
100
AcDbAlignedDimension
 13
1717.239574314437
 23
542.2084855128314
 33
0.0
 14
1637.239574314437
 24
672.2084855128314
 34
0.0
 50
90.0
100
AcDbRotatedDimension
  0
DIMENSION
  5
1044
102
{ACAD_XDICTIONARY
360
1051
102
}
102
{ACAD_REACTORS
330
105B
102
}
330
1F
100
AcDbEntity
  8
图层3
100
AcDbDimension
280
     0
  2
*D25
 10
1882.55938278096
 20
672.2084855128315
 30
0.0
 11
1869.05938278096
 21
469.7084855128309
 31
0.0
 70
    32
  1
<> [16"]
 71
     5
 42
404.9999999999998
 73
     0
 74
     0
 75
     0
  3
ISO-25
100
AcDbAlignedDimension
 13
1637.239574314436
 23
267.2084855128314
 33
0.0
 14
1794.739574314436
 24
672.2084855128313
 34
0.0
 50
90.0
100
AcDbRotatedDimension
  0
DIMENSION
  5
105C
330
1F
100
AcDbEntity
  8
图层3
100
AcDbDimension
280
     0
  2
*D26
 10
1945.780754862152
 20
312.2084855128317
 30
0.0
 11
1945.780754862152
 21
267.2084855128316
 31
0.0
 70
   160
  1
<> [2.8"]
 71
     5
 42
69.99999999999997
 73
     0
 74
     0
 75
     0
  3
ISO-25
100
AcDbAlignedDimension
 13
1721.543257189688
 23
242.2084855128315
 33
0.0
 14
1791.543257189688
 24
312.2084855128315
 34
0.0
 50
90.0
100
AcDbRotatedDimension
  0
DIMENSION
  5
1074
102
{ACAD_XDICTIONARY
360
1081
102
}
102
{ACAD_REACTORS
330
108B
102
}
330
1F
100
AcDbEntity
  8
图层3
100
AcDbDimension
280
     0
  2
*D27
 10
1927.941787684159
 20
627.2084855128317
 30
0.0
 11
1914.441787684159
 21
469.708485512831
 31
0.0
 70
    32
  1
<> [12.4"]
 71
     5
 42
315.0000000000001
 73
     0
 74
     0
 75
     0
  3
ISO-25
100
AcDbAlignedDimension
 13
1794.739574314436
 23
312.2084855128315
 33
0.0
 14
1794.739574314436
 24
627.2084855128315
 34
0.0
 50
90.0
100
AcDbRotatedDimension
1001
ACAD
1000
DSTYLE
1002
{
1070
   279
1070
     1
1002
}
  0
DIMENSION
  5
108C
330
1F
100
AcDbEntity
  8
图层3
100
AcDbDimension
280
     0
  2
*D28
 10
1928.456658637607
 20
697.2084855128318
 30
0.0
 11
1988.123158210466
 21
657.7111681618116
 31
0.0
 70
   160
  1
<> [2.8"]
 71
     2
 42
70.00000000000011
 73
     0
 74
     0
 75
     0
  3
ISO-25
100
AcDbAlignedDimension
 13
1795.254445267857
 23
627.2084855128315
 33
0.0
 14
1725.254445267857
 24
697.2084855128315
 34
0.0
 50
90.0
100
AcDbRotatedDimension
1001
ACAD
1000
DSTYLE
1002
{
1070
   279
1070
     1
1002
}
  0
DIMENSION
  5
10AB
102
{ACAD_XDICTIONARY
360
10B8
102
}
102
{ACAD_REACTORS
330
10C2
102
}
330
1F
100
AcDbEntity
  8
图层3
100
AcDbDimension
280
     0
  2
*D29
 10
1216.134496279361
 20
623.985222256987
 30
0.0
 11
1403.28121406059
 21
540.2655844343262
 31
0.0
 70
    35
  1
<> [3.6"]
 71
     5
 42
92.50000000000056
 73
     0
 74
     0
 75
     0
  3
ISO-25
100
AcDbDiametricDimension
 15
1283.344659257668
 25
560.4317487686748
 35
0.0
 40
0.0
1001
ACAD
1000
DSTYLE
1002
{
1070
   288
1070
     1
1002
}
  0
DIMENSION
  5
112B
102
{ACAD_XDICTIONARY
360
1134
102
}
102
{ACAD_REACTORS
330
113A
102
}
330
1F
100
AcDbEntity
  8
图层3
100
AcDbDimension
280
     0
  2
*D31
 10
1677.127768594004
 20
357.5386052269205
 30
0.0
 11
1687.513307852397
 21
347.0646816873681
 31
0.0
 70
   164
  1
4-<> [3.5"]
 71
     5
 42
90.00000000000012
 73
     0
 74
     0
 75
     0
  3
ISO-25
100
AcDbRadialDimension
 15
1740.497160679112
 25
293.6299192228725
 35
0.0
 40
0.0
1001
ACAD
1000
DSTYLE
1002
{
1070
   288
1070
     1
1002
}
  0
DIMENSION
  5
115A
102
{ACAD_XDICTIONARY
360
1163
102
}
102
{ACAD_REACTORS
330
1169
102
}
330
1F
100
AcDbEntity
  8
图层3
100
AcDbDimension
280
     0
  2
*D32
 10
4004.739574314437
 20
469.708485512831
 30
0.0
 11
1596.278936460934
 21
411.3871027438488
 31
0.0
 70
   164
  1
4-<> [98.4"]
 71
     5
 42
2500.000000000003
 73
     0
 74
     0
 75
     0
  3
ISO-25
100
AcDbRadialDimension
 15
1505.472222685066
 25
409.1881990005699
 35
0.0
 40
0.0
1001
ACAD
1000
DSTYLE
1002
{
1070
   288
1070
     1
1002
}
  0
DIMENSION
  5
1174
102
{ACAD_XDICTIONARY
360
1181
102
}
102
{ACAD_REACTORS
330
118B
102
}
330
1F
100
AcDbEntity
  8
图层3
100
AcDbDimension
280
     0
  2
*D33
 10
1474.739574314436
 20
172.3158910731659
 30
0.0
 11
1249.739577768514
 21
185.8158910731659
 31
0.0
 70
    32
  1
<> [17.72"]
 71
     5
 42
449.9999930918439
 73
     0
 74
     0
 75
     0
  3
ISO-25
100
AcDbAlignedDimension
 13
1024.739581222592
 23
467.552184588418
 33
0.0
 14
1474.739574314436
 24
467.5521845884131
 34
0.0
100
AcDbRotatedDimension
  0
DIMENSION
  5
118C
102
{ACAD_XDICTIONARY
360
119E
102
}
102
{ACAD_REACTORS
330
11AD
102
}
330
1F
100
AcDbEntity
  8
图层3
100
AcDbDimension
280
     0
  2
*D34
 10
1504.739574314436
 20
172.315891073141
 30
0.0
 11
1494.739574314436
 21
148.065891073141
 31
0.0
 70
    32
 71
     5
 42
30.0
 73
     0
 74
     0
 75
     0
  3
ISO-25
100
AcDbAlignedDimension
 13
1474.739574314436
 23
467.5521845883882
 33
0.0
 14
1504.739574314436
 24
469.7084855128407
 34
0.0
100
AcDbRotatedDimension
1001
ACAD
1000
DSTYLE
1002
{
1070
   279
1070
     1
1002
}
  0
DIMENSION
  5
11AE
102
{ACAD_XDICTIONARY
360
11BB
102
}
102
{ACAD_REACTORS
330
11C5
102
}
330
1F
100
AcDbEntity
  8
图层3
100
AcDbDimension
280
     0
  2
*D35
 10
1769.739574314436
 20
172.3158910731317
 30
0.0
 11
1637.239574314436
 21
185.8158910731317
 31
0.0
 70
    32
  1
<> [10.4"]
 71
     5
 42
265.0
 73
     0
 74
     0
 75
     0
  3
ISO-25
100
AcDbAlignedDimension
 13
1504.739574314436
 23
469.7084855128314
 33
0.0
 14
1769.739574314436
 24
469.7084855128314
 34
0.0
100
AcDbRotatedDimension
1001
ACAD
1000
DSTYLE
1002
{
1070
   279
1070
     1
1002
}
  0
DIMENSION
  5
11C7
330
1F
100
AcDbEntity
  8
图层3
100
AcDbDimension
280
     0
  2
*D36
 10
1071.739581222592
 20
114.8295217712633
 30
0.0
 11
1032.214874521814
 21
114.8295217712633
 31
0.0
 70
   160
  1
<> [2.8"]
 71
     5
 42
72.00000000000011
 73
     0
 74
     0
 75
     0
  3
ISO-25
100
AcDbAlignedDimension
 13
999.7395812225921
 23
314.2084855128314
 33
0.0
 14
1071.739581222592
 24
242.2084855128314
 34
0.0
100
AcDbRotatedDimension
  0
DIMENSION
  5
11D4
330
1F
100
AcDbEntity
  8
图层3
100
AcDbDimension
280
     0
  2
*D37
 10
1724.739574314436
 20
114.7598452768061
 30
0.0
 11
1398.239577768514
 21
128.2598452768061
 31
0.0
 70
    32
  1
<> [25.7"]
 71
     5
 42
652.9999930918436
 73
     0
 74
     0
 75
     0
  3
ISO-25
100
AcDbAlignedDimension
 13
1071.739581222592
 23
242.2084855128314
 33
0.0
 14
1724.739574314436
 24
242.2084855128315
 34
0.0
100
AcDbRotatedDimension
1001
ACAD
1000
DSTYLE
1002
{
1070
   279
1070
     1
1002
}
  0
DIMENSION
  5
11E1
330
1F
100
AcDbEntity
  8
图层3
100
AcDbDimension
280
     0
  2
*D38
 10
1794.739574314436
 20
114.7598452768061
 30
0.0
 11
1764.739574314436
 21
111.0098452768061
 31
0.0
 70
   160
  1
<> [2.8"]
 71
     5
 42
70.0
 73
     0
 74
     0
 75
     0
  3
ISO-25
100
AcDbAlignedDimension
 13
1724.739574314436
 23
242.2084855128315
 33
0.0
 14
1794.739574314436
 24
312.2084855128315
 34
0.0
100
AcDbRotatedDimension
1001
ACAD
1000
DSTYLE
1002
{
1070
   279
1070
     1
1002
}
  0
DIMENSION
  5
11EE
102
{ACAD_XDICTIONARY
360
11F7
102
}
102
{ACAD_REACTORS
330
11FD
102
}
330
1F
100
AcDbEntity
  8
图层3
100
AcDbDimension
280
     0
  2
*D39
 10
1249.739577768511
 20
257.208485512831
 30
0.0
 11
1328.816324772953
 21
662.8221324518782
 31
0.0
 70
   164
  1
<> [19"]
 71
     5
 42
479.9999999999981
 73
     0
 74
     0
 75
     0
  3
ISO-25
100
AcDbRadialDimension
 15
1341.58915686623
 25
728.3386743349548
 35
0.0
 40
0.0
1001
ACAD
1000
DSTYLE
1002
{
1070
   288
1070
     1
1002
}
  0
DIMENSION
  5
11FE
102
{ACAD_XDICTIONARY
360
1207
102
}
102
{ACAD_REACTORS
330
120D
102
}
330
1F
100
AcDbEntity
  8
图层3
100
AcDbDimension
280
     0
  2
*D40
 10
1313.958498408547
 20
570.6984059757204
 30
0.0
 11
1392.98780834494
 21
611.6296675123184
 31
0.0
 70
   164
  1
<> [6.3"]
 71
     5
 42
159.9999999999991
 73
     0
 74
     0
 75
     0
  3
ISO-25
100
AcDbRadialDimension
 15
1456.033662339142
 25
644.2826963785933
 35
0.0
 40
0.0
1001
ACAD
1000
DSTYLE
1002
{
1070
   288
1070
     1
1002
}
  0
DIMENSION
  5
120E
102
{ACAD_XDICTIONARY
360
1217
102
}
102
{ACAD_REACTORS
330
121D
102
}
330
1F
100
AcDbEntity
  8
图层3
100
AcDbDimension
280
     0
  2
*D41
 10
1185.520657128481
 20
570.6984059757214
 30
0.0
 11
1108.351028897399
 21
615.0362958519498
 31
0.0
 70
   164
  1
<> [6.3"]
 71
     5
 42
159.9999999999999
 73
     0
 74
     0
 75
     0
  3
ISO-25
100
AcDbRadialDimension
 15
1046.788741207435
 25
650.4069720453456
 35
0.0
 40
0.0
1001
ACAD
1000
DSTYLE
1002
{
1070
   288
1070
     1
1002
}
  0
DIMENSION
  5
121E
102
{ACAD_XDICTIONARY
360
1227
102
}
102
{ACAD_REACTORS
330
122D
102
}
330
1F
100
AcDbEntity
  8
图层3
100
AcDbDimension
280
     0
  2
*D42
 10
8024.739577768515
 20
467.3322821276304
 30
0.0
 11
1097.186832895333
 21
487.9188621755004
 31
0.0
 70
   164
 71
     5
 42
7000.000000000018
 73
     0
 74
     0
 75
     0
  3
ISO-25
100
AcDbRadialDimension
 15
1024.770485981489
 25
488.1340615362876
 35
0.0
 40
0.0
1001
ACAD
1000
DSTYLE
1002
{
1070
   288
1070
     1
1002
}
  0
DIMENSION
  5
123E
102
{ACAD_XDICTIONARY
360
1247
102
}
102
{ACAD_REACTORS
330
124D
102
}
330
1F
100
AcDbEntity
  8
图层3
100
AcDbDimension
280
     0
  2
*D44
 10
1249.73957776849
 20
7267.208485512831
 30
0.0
 11
1297.813552470338
 21
339.7919588967139
 31
0.0
 70
   164
 71
     5
 42
6999.999999999999
 73
     0
 74
     0
 75
     0
  3
ISO-25
100
AcDbRadialDimension
 15
1298.316088034879
 25
267.3770359241838
 35
0.0
 40
0.0
1001
ACAD
1000
DSTYLE
1002
{
1070
   288
1070
     1
1002
}
  0
DIMENSION
  5
124E
102
{ACAD_XDICTIONARY
360
1258
102
}
102
{ACAD_REACTORS
330
125E
102
}
330
1F
100
AcDbEntity
  8
图层3
100
AcDbDimension
280
     0
  2
*D45
 10
1120.521537158976
 20
363.4176646680233
 30
0.0
 11
1103.519904097552
 21
346.4782292215661
 31
0.0
 70
   164
  1
<> [3.5"]
 71
     5
 42
94.99999999999966
 73
     0
 74
     0
 75
     0
  3
ISO-25
100
AcDbRadialDimension
 15
1053.22340629084
 25
296.3657326924623
 35
0.0
 40
0.0
1001
ACAD
1000
DSTYLE
1002
{
1070
   288
1070
     1
1002
}
  0
DIMENSION
  5
125F
102
{ACAD_XDICTIONARY
360
1268
102
}
102
{ACAD_REACTORS
330
126E
102
}
330
1F
100
AcDbEntity
  8
图层3
100
AcDbDimension
280
     0
  2
*D46
 10
1378.957618378054
 20
363.4176646680237
 30
0.0
 11
1394.732488296811
 21
345.3302801405047
 31
0.0
 70
   164
  1
<> [3.5"]
 71
     5
 42
95.00000000000079
 73
     0
 74
     0
 75
     0
  3
ISO-25
100
AcDbRadialDimension
 15
1441.399811806465
 25
291.8217675799289
 35
0.0
 40
0.0
1001
ACAD
1000
DSTYLE
1002
{
1070
   288
1070
     1
1002
}
  0
MTEXT
  5
126F
330
1F
100
AcDbEntity
  8
图层3
100
AcDbMText
 10
1500.530261711719
 20
1030.286028377191
 30
0.0
 40
18.0
 41
307.6403538204613
 46
0.0
 71
     1
 72
     5
  1
{\fKartika|b0|i0|c0|p18;Adhesive Lable}
 73
     1
 44
1.0
  0
MTEXT
  5
127B
330
1F
100
AcDbEntity
  8
图层3
100
AcDbMText
 10
1283.464973909045
 20
1011.758928029237
 30
0.0
 40
17.0
 41
0.0
 46
0.0
 71
     1
 72
     1
  1

 73
     1
 44
1.0
  0
MTEXT
  5
127C
330
1F
100
AcDbEntity
  8
图层3
100
AcDbMText
 10
457.0142241613793
 20
906.061595304749
 30
0.0
 40
18.0
 41
196.8897931117826
 46
0.0
 71
     1
 72
     5
  1
{\fKartika|b0|i0|c0|p18;\LSCALE 2:1}
 73
     1
 44
1.0
  0
LINE
  5
147E
330
1F
100
AcDbEntity
  8
图层4
100
AcDbLine
 10
1188.956053108872
 20
1007.285220302368
 30
0.0
 11
1015.412636248555
 21
975.9870633311583
 31
0.0
  0
LINE
  5
147F
330
1F
100
AcDbEntity
  8
图层4
100
AcDbLine
 10
1015.412636248555
 20
975.9870633311583
 30
0.0
 11
850.334744203683
 21
1012.360587875013
 31
0.0
  0
DIMENSION
  5
14A2
330
1F
100
AcDbEntity
  8
图层3
100
AcDbDimension
280
     0
  2
*D51
 10
1074.273010584572
 20
1093.859919111193
 30
0.0
 11
1094.455813584536
 21
1113.507198163922
 31
0.0
 70
   164
  1
<> [1.6"]
 71
     5
 42
39.99999999999909
 73
     0
 74
     0
 75
     0
  3
ISO-25
100
AcDbRadialDimension
 15
1045.611041827228
 25
1065.958457734538
 35
0.0
 40
0.0
1001
ACAD
1000
DSTYLE
1002
{
1070
   279
1070
     1
1070
   288
1070
     1
1002
}
  0
DIMENSION
  5
16BB
102
{ACAD_XDICTIONARY
360
16C4
102
}
102
{ACAD_REACTORS
330
16CA
102
}
330
1F
100
AcDbEntity
  8
图层3
100
AcDbDimension
280
     0
  2
*D52
 10
-5525.260422231485
 20
467.3322821276574
 30
0.0
 11
1402.267282939493
 21
439.5701790671358
 31
0.0
 70
   164
 71
     5
 42
7000.000000000006
 73
     0
 74
     0
 75
     0
  3
ISO-25
100
AcDbRadialDimension
 15
1474.683368103796
 25
439.2799712317964
 35
0.0
 40
0.0
1001
ACAD
1000
DSTYLE
1002
{
1070
   288
1070
     1
1002
}
  0
DIMENSION
  5
18DC
102
{ACAD_XDICTIONARY
360
18E9
102
}
102
{ACAD_REACTORS
330
18F3
102
}
330
1F
100
AcDbEntity
  8
图层3
100
AcDbDimension
280
     0
  2
*D53
 10
1663.446933346141
 20
504.1002602513033
 30
0.0
 11
1655.699178780898
 21
637.9957373087375
 31
0.0
 70
   163
  1
<> [3.6"]
 71
     5
 42
92.50000000000046
 73
     0
 74
     0
 75
     0
  3
ISO-25
100
AcDbDiametricDimension
 15
1611.032215282733
 25
580.3167107743596
 35
0.0
 40
0.0
1001
ACAD
1000
DSTYLE
1002
{
1070
   288
1070
     1
1002
}
  0
DIMENSION
  5
1954
102
{ACAD_XDICTIONARY
360
195D
102
}
102
{ACAD_REACTORS
330
1963
102
}
330
1F
100
AcDbEntity
  8
图层3
100
AcDbDimension
280
     0
  2
*D54
 10
1249.739577768514
 20
3246.721151007176
 30
0.0
 11
1174.730521580647
 21
1175.745756190944
 31
0.0
 70
   164
  1
<> [86.6"]
 71
     5
 42
2199.999999999999
 73
     0
 74
     0
 75
     0
  3
ISO-25
100
AcDbRadialDimension
 15
1170.109567982456
 25
1048.162745701219
 35
0.0
 40
0.0
1001
ACAD
1000
DSTYLE
1002
{
1070
   288
1070
     1
1002
}
  0
LEADER
  5
1967
330
1F
100
AcDbEntity
  8
图层3
100
AcDbLeader
  3
ISO-25
 73
     0
 40
17.0
 76
     3
 10
1302.481661121092
 20
1165.444413955298
 30
0.0
 10
1497.563803645629
 20
1005.73480847328
 30
0.0
 10
1684.137722544707
 20
1005.73480847328
 30
0.0
340
1968
213
0.0
223
-8.5
233
0.0
1001
ACAD
1000
DSTYLE
1002
{
1070
   147
1040
5.0
1070
    77
1070
     0
1002
}
  0
MTEXT
  5
1968
102
{ACAD_REACTORS
330
1967
102
}
330
1F
100
AcDbEntity
  8
图层3
100
AcDbMText
 10
1689.137722544707
 20
1014.23480847328
 30
0.0
 40
17.0
 41
0.0
 46
0.0
 71
     1
 72
     1
  1

 73
     1
 44
1.0
  0
LINE
  5
1DC4
330
1F
100
AcDbEntity
  8
图层1
100
AcDbLine
 10
1249.716912860441
 20
842.6557115596304
 30
0.0
 11
1249.716912860441
 21
1010.810551708681
 31
0.0
  0
LINE
  5
1DC5
330
1F
100
AcDbEntity
  8
图层1
100
AcDbLine
 10
1249.716912860438
 20
817.6557115596304
 30
0.0
 11
1249.716912860438
 21
985.8105517086812
 31
0.0
  0
LINE
  5
1DC6
330
1F
100
AcDbEntity
  8
图层1
100
AcDbLine
 10
1249.739577768514
 20
800.4541357882445
 30
0.0
 11
1249.739577768514
 21
968.6089759372952
 31
0.0
  0
LINE
  5
1DC7
330
1F
100
AcDbEntity
  8
图层1
100
AcDbLine
 10
1249.739577768514
 20
734.6557074169037
 30
0.0
 11
1249.739577768514
 21
902.8105475659545
 31
0.0
  0
LINE
  5
1DC8
330
1F
100
AcDbEntity
  8
图层1
100
AcDbLine
 10
1249.716912860441
 20
867.4322359550197
 30
0.0
 11
1249.716912860441
 21
1035.58707610407
 31
0.0
  0
LINE
  5
1DC9
330
1F
100
AcDbEntity
  8
图层1
100
AcDbLine
 10
1249.694247952367
 20
923.1029376064297
 30
0.0
 11
1249.694247952367
 21
1091.257777755481
 31
0.0
  0
LINE
  5
1DCA
330
1F
100
AcDbEntity
  8
图层1
100
AcDbLine
 10
1249.694247952367
 20
923.1029376064297
 30
0.0
 11
1249.694247952367
 21
1091.257777755481
 31
0.0
  0
LINE
  5
1DCB
330
1F
100
AcDbEntity
  8
图层1
100
AcDbLine
 10
1249.694247952367
 20
923.1029376064297
 30
0.0
 11
1249.694247952367
 21
1091.257777755481
 31
0.0
  0
LINE
  5
1DCC
330
1F
100
AcDbEntity
  8
图层1
100
AcDbLine
 10
1249.739577768514
 20
923.1029376064297
 30
0.0
 11
1249.739577768514
 21
1091.257777755481
 31
0.0
  0
LINE
  5
1DCD
330
1F
100
AcDbEntity
  8
图层1
100
AcDbLine
 10
1249.694247952364
 20
886.4403586335638
 30
0.0
 11
1249.694247952364
 21
1054.595198782614
 31
0.0
  0
ENDSEC
  0
SECTION
  2
OBJECTS
  0
DICTIONARY
  5
C
330
0
100
AcDbDictionary
281
     1
  3
ACAD_CIP_PREVIOUS_PRODUCT_INFO
350
19C9
  3
ACAD_COLOR
350
6B
  3
ACAD_DETAILVIEWSTYLE
350
19BB
  3
ACAD_GROUP
350
D
  3
ACAD_LAYOUT
350
1A
  3
ACAD_MATERIAL
350
6A
  3
ACAD_MLEADERSTYLE
350
19B7
  3
ACAD_MLINESTYLE
350
17
  3
ACAD_PLOTSETTINGS
350
19
  3
ACAD_PLOTSTYLENAME
350
E
  3
ACAD_SCALELIST
350
19A5
  3
ACAD_SECTIONVIEWSTYLE
350
19B9
  3
ACAD_TABLESTYLE
350
7E
  3
ACAD_VISUALSTYLE
350
198B
  3
ACDB_RECOMPOSE_DATA
350
23DD
  3
AcDbVariableDictionary
350
5E
  0
DICTIONARY
  5
F5
330
2
100
AcDbDictionary
280
     1
281
     1
  3
ACAD_LAYERFILTERS
360
1966
  3
ACAD_LAYERSTATES
360
CB7
  3
ACLYDICTIONARY
360
1965
  0
DICTIONARY
  5
1A98
330
10
100
AcDbDictionary
280
     1
281
     1
  3
ADSK_XREC_LAYER_RECONCILED
360
1A99
  0
DICTIONARY
  5
1A9A
330
F1
100
AcDbDictionary
280
     1
281
     1
  3
ADSK_XREC_LAYER_RECONCILED
360
1A9B
  0
DICTIONARY
  5
1A9C
330
F3
100
AcDbDictionary
280
     1
281
     1
  3
ADSK_XREC_LAYER_RECONCILED
360
1A9D
  0
DICTIONARY
  5
1A9E
330
F4
100
AcDbDictionary
280
     1
281
     1
  3
ADSK_XREC_LAYER_RECONCILED
360
1A9F
  0
DICTIONARY
  5
1AA0
330
9CE
100
AcDbDictionary
280
     1
281
     1
  3
ADSK_XREC_LAYER_RECONCILED
360
1AA1
  0
DICTIONARY
  5
201
330
1F
100
AcDbDictionary
280
     1
281
     1
  3
ACAD_SORTENTS
360
202
  0
DICTIONARY
  5
CCC
330
CB8
100
AcDbDictionary
280
     1
281
     1
  3
ACAD_SORTENTS
360
CCD
  0
DICTIONARY
  5
1463
330
1443
100
AcDbDictionary
280
     1
281
     1
  3
ACAD_SORTENTS
360
1464
  0
DICTIONARY
  5
AED
330
AE3
100
AcDbDictionary
280
     1
281
     1
  3
ACAD_DIMASSOC
360
AF4
  0
DICTIONARY
  5
B0B
330
AFE
100
AcDbDictionary
280
     1
281
     1
  3
ACAD_DIMASSOC
360
B15
  0
DICTIONARY
  5
B8B
330
B7E
100
AcDbDictionary
280
     1
281
     1
  3
ACAD_DIMASSOC
360
B95
  0
DICTIONARY
  5
BA6
330
B96
100
AcDbDictionary
280
     1
281
     1
  3
ACAD_DIMASSOC
360
BB3
  0
DICTIONARY
  5
C1E
330
C11
100
AcDbDictionary
280
     1
281
     1
  3
ACAD_DIMASSOC
360
C28
  0
DICTIONARY
  5
C36
330
C29
100
AcDbDictionary
280
     1
281
     1
  3
ACAD_DIMASSOC
360
C40
  0
DICTIONARY
  5
C4E
330
C41
100
AcDbDictionary
280
     1
281
     1
  3
ACAD_DIMASSOC
360
C58
  0
DICTIONARY
  5
C66
330
C59
100
AcDbDictionary
280
     1
281
     1
  3
ACAD_DIMASSOC
360
C70
  0
DICTIONARY
  5
C9F
330
C95
100
AcDbDictionary
280
     1
281
     1
  3
ACAD_DIMASSOC
360
CA6
  0
DICTIONARY
  5
EC1
330
EB4
100
AcDbDictionary
280
     1
281
     1
  3
ACAD_DIMASSOC
360
ECB
  0
DICTIONARY
  5
ED9
330
ECC
100
AcDbDictionary
280
     1
281
     1
  3
ACAD_DIMASSOC
360
EE3
  0
DICTIONARY
  5
EF1
330
EE4
100
AcDbDictionary
280
     1
281
     1
  3
ACAD_DIMASSOC
360
EFB
  0
DICTIONARY
  5
F09
330
EFC
100
AcDbDictionary
280
     1
281
     1
  3
ACAD_DIMASSOC
360
F13
  0
DICTIONARY
  5
F70
330
F63
100
AcDbDictionary
280
     1
281
     1
  3
ACAD_DIMASSOC
360
F7A
  0
DICTIONARY
  5
F88
330
F7B
100
AcDbDictionary
280
     1
281
     1
  3
ACAD_DIMASSOC
360
F92
  0
DICTIONARY
  5
1039
330
102C
100
AcDbDictionary
280
     1
281
     1
  3
ACAD_DIMASSOC
360
1043
  0
DICTIONARY
  5
1051
330
1044
100
AcDbDictionary
280
     1
281
     1
  3
ACAD_DIMASSOC
360
105B
  0
DICTIONARY
  5
1081
330
1074
100
AcDbDictionary
280
     1
281
     1
  3
ACAD_DIMASSOC
360
108B
  0
DICTIONARY
  5
10B8
330
10AB
100
AcDbDictionary
280
     1
281
     1
  3
ACAD_DIMASSOC
360
10C2
  0
DICTIONARY
  5
1134
330
112B
100
AcDbDictionary
280
     1
281
     1
  3
ACAD_DIMASSOC
360
113A
  0
DICTIONARY
  5
1163
330
115A
100
AcDbDictionary
280
     1
281
     1
  3
ACAD_DIMASSOC
360
1169
  0
DICTIONARY
  5
1181
330
1174
100
AcDbDictionary
280
     1
281
     1
  3
ACAD_DIMASSOC
360
118B
  0
DICTIONARY
  5
119E
330
118C
100
AcDbDictionary
280
     1
281
     1
  3
ACAD_DIMASSOC
360
11AD
  0
DICTIONARY
  5
11BB
330
11AE
100
AcDbDictionary
280
     1
281
     1
  3
ACAD_DIMASSOC
360
11C5
  0
DICTIONARY
  5
11F7
330
11EE
100
AcDbDictionary
280
     1
281
     1
  3
ACAD_DIMASSOC
360
11FD
  0
DICTIONARY
  5
1207
330
11FE
100
AcDbDictionary
280
     1
281
     1
  3
ACAD_DIMASSOC
360
120D
  0
DICTIONARY
  5
1217
330
120E
100
AcDbDictionary
280
     1
281
     1
  3
ACAD_DIMASSOC
360
121D
  0
DICTIONARY
  5
1227
330
121E
100
AcDbDictionary
280
     1
281
     1
  3
ACAD_DIMASSOC
360
122D
  0
DICTIONARY
  5
1247
330
123E
100
AcDbDictionary
280
     1
281
     1
  3
ACAD_DIMASSOC
360
124D
  0
DICTIONARY
  5
1258
330
124E
100
AcDbDictionary
280
     1
281
     1
  3
ACAD_DIMASSOC
360
125E
  0
DICTIONARY
  5
1268
330
125F
100
AcDbDictionary
280
     1
281
     1
  3
ACAD_DIMASSOC
360
126E
  0
DICTIONARY
  5
16C4
330
16BB
100
AcDbDictionary
280
     1
281
     1
  3
ACAD_DIMASSOC
360
16CA
  0
DICTIONARY
  5
18E9
330
18DC
100
AcDbDictionary
280
     1
281
     1
  3
ACAD_DIMASSOC
360
18F3
  0
DICTIONARY
  5
195D
330
1954
100
AcDbDictionary
280
     1
281
     1
  3
ACAD_DIMASSOC
360
1963
  0
XRECORD
  5
19C9
102
{ACAD_REACTORS
330
C
102
}
330
C
100
AcDbXrecord
280
     1
300
ACDLT
300
2018
300

  0
DICTIONARY
  5
6B
102
{ACAD_REACTORS
330
C
102
}
330
C
100
AcDbDictionary
281
     1
  0
DICTIONARY
  5
19BB
102
{ACAD_REACTORS
330
C
102
}
330
C
100
AcDbDictionary
281
     1
  3
Metric50
350
19BC
  0
DICTIONARY
  5
D
102
{ACAD_REACTORS
330
C
102
}
330
C
100
AcDbDictionary
281
     1
  0
DICTIONARY
  5
1A
102
{ACAD_REACTORS
330
C
102
}
330
C
100
AcDbDictionary
281
     1
  3
Model
350
22
  3
布局1
350
D3
  3
布局2
350
D7
1001
AcadStringInfo
1000
MIFCodePage
1070
     5
  0
DICTIONARY
  5
6A
102
{ACAD_REACTORS
330
C
102
}
330
C
100
AcDbDictionary
281
     1
  3
ByBlock
350
197B
  3
ByLayer
350
1973
  3
Global
350
1983
  0
DICTIONARY
  5
19B7
102
{ACAD_REACTORS
330
C
102
}
330
C
100
AcDbDictionary
281
     1
  3
Standard
350
19B8
  0
DICTIONARY
  5
17
102
{ACAD_REACTORS
330
C
102
}
330
C
100
AcDbDictionary
281
     1
  3
Standard
350
18
  0
DICTIONARY
  5
19
102
{ACAD_REACTORS
330
C
102
}
330
C
100
AcDbDictionary
281
     1
  0
ACDBDICTIONARYWDFLT
  5
E
102
{ACAD_REACTORS
330
C
102
}
330
C
100
AcDbDictionary
281
     1
  3
Normal
350
F
100
AcDbDictionaryWithDefault
340
F
  0
DICTIONARY
  5
19A5
102
{ACAD_REACTORS
330
C
102
}
330
C
100
AcDbDictionary
281
     1
  3
A0
350
19A6
  3
A1
350
19A7
  3
A2
350
19A8
  3
A3
350
19A9
  3
A4
350
19AA
  3
A5
350
19AB
  3
A6
350
19AC
  3
A7
350
19AD
  3
A8
350
19AE
  3
A9
350
19AF
  3
B0
350
19B0
  3
B1
350
19B1
  3
B2
350
19B2
  3
B3
350
19B3
  3
B4
350
19B4
  3
B5
350
19B5
  3
B6
350
19B6
  0
DICTIONARY
  5
19B9
102
{ACAD_REACTORS
330
C
102
}
330
C
100
AcDbDictionary
281
     1
  3
Metric50
350
19BA
  0
DICTIONARY
  5
7E
102
{ACAD_REACTORS
330
C
102
}
330
C
100
AcDbDictionary
281
     1
  3
Standard
350
7F
  0
DICTIONARY
  5
198B
102
{ACAD_REACTORS
330
C
102
}
330
C
100
AcDbDictionary
281
     1
  3
2dWireframe
350
1991
  3
Basic
350
1990
  3
Brighten
350
1997
  3
ColorChange
350
199B
  3
Conceptual
350
1994
  3
Dim
350
1996
  3
EdgeColorOff
350
19A3
  3
Facepattern
350
199A
  3
Flat
350
198C
  3
FlatWithEdges
350
198D
  3
Gouraud
350
198E
  3
GouraudWithEdges
350
198F
  3
Hidden
350
1993
  3
JitterOff
350
19A1
  3
Linepattern
350
1999
  3
OverhangOff
350
19A2
  3
Realistic
350
1995
  3
Shaded
350
19A0
  3
Shaded with edges
350
199F
  3
Shades of Gray
350
199C
  3
Sketchy
350
199D
  3
Thicken
350
1998
  3
Wireframe
350
1992
  3
X-Ray
350
199E
  0
XRECORD
  5
23DD
102
{ACAD_REACTORS
330
C
102
}
330
C
100
AcDbXrecord
280
     1
 90
        1
330
7F
330
F3E
  0
DICTIONARY
  5
5E
102
{ACAD_REACTORS
330
C
102
}
330
C
100
AcDbDictionary
281
     1
  3
CANNOSCALE
350
23C4
  3
CMLEADERSTYLE
350
23C0
  3
CTABLESTYLE
350
84
  3
CVIEWDETAILSTYLE
350
23C1
  3
CVIEWSECTIONSTYLE
350
23C2
  3
DIMASSOC
350
5F
  3
HIDETEXT
350
63
  3
LAYEREVAL
350
23C6
  3
LAYERNOTIFY
350
23C7
  3
LIGHTINGUNITS
350
23C5
  3
MSLTSCALE
350
23C3
  0
DICTIONARY
  5
1966
102
{ACAD_REACTORS
330
F5
102
}
330
F5
100
AcDbDictionary
281
     1
  0
DICTIONARY
  5
CB7
102
{ACAD_REACTORS
330
F5
102
}
330
F5
100
AcDbDictionary
281
     1
  0
DICTIONARY
  5
1965
102
{ACAD_REACTORS
330
F5
102
}
330
F5
100
AcDbDictionary
281
     1
1001
ACAD
1000
<All
  0
XRECORD
  5
1A99
102
{ACAD_REACTORS
330
1A98
102
}
330
1A98
100
AcDbXrecord
280
     1
290
     1
  0
XRECORD
  5
1A9B
102
{ACAD_REACTORS
330
1A9A
102
}
330
1A9A
100
AcDbXrecord
280
     1
290
     1
  0
XRECORD
  5
1A9D
102
{ACAD_REACTORS
330
1A9C
102
}
330
1A9C
100
AcDbXrecord
280
     1
290
     1
  0
XRECORD
  5
1A9F
102
{ACAD_REACTORS
330
1A9E
102
}
330
1A9E
100
AcDbXrecord
280
     1
290
     1
  0
XRECORD
  5
1AA1
102
{ACAD_REACTORS
330
1AA0
102
}
330
1AA0
100
AcDbXrecord
280
     1
290
     1
  0
SORTENTSTABLE
  5
202
102
{ACAD_REACTORS
330
201
102
}
330
201
100
AcDbSortentsTable
330
1F
331
59B
  5
5CA
331
A7F
  5
A81
331
66D
  5
68E
331
ACA
  5
AD4
331
ADB
  5
ADD
331
AFD
  5
B7E
331
CA7
  5
CED
331
57E
  5
5C9
331
AD6
  5
AC9
331
AFB
  5
AFD
331
4BB
  5
50F
331
A81
  5
A83
331
AE1
  5
AE3
331
AB2
  5
ACE
331
ACF
  5
AD8
331
ADC
  5
ADE
331
AF6
  5
AF8
331
C11
  5
C41
331
63B
  5
63C
331
66C
  5
66B
331
ADA
  5
ADC
331
AFC
  5
AFE
331
AB8
  5
AB6
331
C41
  5
C71
331
5CE
  5
5CC
331
AD1
  5
ADA
331
A96
  5
AAE
331
AFA
  5
AFC
331
641
  5
644
331
6AE
  5
6D2
331
A80
  5
A82
331
63C
  5
640
331
AE0
  5
AE2
331
AAC
  5
AB5
331
C95
  5
CD4
331
ADF
  5
AE1
331
ACE
  5
AD7
331
C29
  5
C59
331
E1F
  5
66F
331
C59
  5
C95
331
5C9
  5
555
331
AB6
  5
AC6
331
AD0
  5
AD9
331
640
  5
667
331
51D
  5
5C8
331
A83
  5
A97
331
63F
  5
641
331
AC9
  5
AD2
331
AAF
  5
AC8
331
ADE
  5
AE0
331
AE3
  5
AF6
331
E1E
  5
6AD
331
51B
  5
55A
331
AD5
  5
AAF
331
AFE
  5
B96
331
A84
  5
AAC
331
5C8
  5
559
331
AB1
  5
ACB
331
AF5
  5
AF7
331
643
  5
63F
331
51C
  5
57E
331
A82
  5
A84
331
AE2
  5
AF5
331
AD9
  5
AB2
331
AAE
  5
AB8
331
AC8
  5
AD1
331
CD4
  5
D1D
331
AC7
  5
AD0
331
AD4
  5
AB1
331
B96
  5
C29
331
AF9
  5
AFB
331
5CB
  5
5CE
331
6AD
  5
6AE
331
644
  5
669
331
AD2
  5
ADB
331
AB0
  5
ACA
331
B7E
  5
C11
331
ACD
  5
AD6
331
642
  5
643
331
ACB
  5
AD5
331
AD8
  5
ACD
331
5CC
  5
63B
331
AD7
  5
AB0
331
AC6
  5
ACF
331
AB5
  5
AC7
331
AF8
  5
AFA
331
6AC
  5
6D0
331
AF7
  5
AF9
331
ADD
  5
ADF
  0
SORTENTSTABLE
  5
CCD
102
{ACAD_REACTORS
330
CCC
102
}
330
CCC
100
AcDbSortentsTable
330
CB8
331
CBC
  5
CBB
331
CBB
  5
CBC
  0
SORTENTSTABLE
  5
1464
102
{ACAD_REACTORS
330
1463
102
}
330
1463
100
AcDbSortentsTable
330
1443
331
144B
  5
1452
331
1448
  5
144B
331
144E
  5
1447
331
1452
  5
1450
331
144F
  5
144E
331
1453
  5
1454
331
144C
  5
1453
331
1450
  5
144F
331
144D
  5
1446
331
1454
  5
144D
331
1446
  5
1448
331
1447
  5
144C
  0
DIMASSOC
  5
AF4
102
{ACAD_REACTORS
330
AED
102
}
330
AED
100
AcDbDimAssoc
330
AE3
 90
        2
 70
     0
 71
     0
  1
AcDbOsnapPointRef
 72
     3
331
AD6
 73
     2
 91
        0
 40
0.0
 10
0.0
 20
0.0
 30
0.0
 75
     0
  0
DIMASSOC
  5
B15
102
{ACAD_REACTORS
330
B0B
102
}
330
B0B
100
AcDbDimAssoc
330
AFE
 90
        3
 70
     0
 71
     0
  1
AcDbOsnapPointRef
 72
    13
331
AF6
 73
     2
 91
        0
 40
0.0
 10
0.0
 20
0.0
 30
2.000000000000000E+50
 75
     0
  1
AcDbOsnapPointRef
 72
     1
331
AF6
 73
     2
 91
        0
 40
1.0
 10
0.0
 20
0.0
 30
2.000000000000000E+50
 75
     0
  0
DIMASSOC
  5
B95
102
{ACAD_REACTORS
330
B8B
102
}
330
B8B
100
AcDbDimAssoc
330
B7E
 90
        3
 70
     0
 71
     0
  1
AcDbOsnapPointRef
 72
     6
331
AFA
 73
     2
 91
        0
 40
0.0
 10
0.0
 20
0.0
 30
0.0
332
AF5
 74
     2
 92
        0
 75
     0
  1
AcDbOsnapPointRef
 72
     6
331
AF8
 73
     2
 91
        0
 40
0.0
 10
0.0
 20
0.0
 30
0.0
332
AF5
 74
     2
 92
        0
 75
     0
  0
DIMASSOC
  5
BB3
102
{ACAD_REACTORS
330
BA6
102
}
330
BA6
100
AcDbDimAssoc
330
B96
 90
        3
 70
     0
 71
     0
  1
AcDbOsnapPointRef
 72
    13
331
AFA
 73
     2
 91
        0
 40
0.0
 10
0.0
 20
0.0
 30
2.000000000000000E+50
 75
     0
  1
AcDbOsnapPointRef
 72
     1
331
AFB
 73
     2
 91
        0
 40
1.0
 10
0.0
 20
0.0
 30
2.000000000000000E+50
 75
     0
  0
DIMASSOC
  5
C28
102
{ACAD_REACTORS
330
C1E
102
}
330
C1E
100
AcDbDimAssoc
330
C11
 90
        3
 70
     0
 71
     0
  1
AcDbOsnapPointRef
 72
     2
331
ADB
 73
     2
 91
        0
 40
0.5
 10
0.0
 20
0.0
 30
0.0
 75
     0
  1
AcDbOsnapPointRef
 72
     6
331
AE1
 73
     2
 91
        0
 40
0.8202821040360001
 10
0.0
 20
0.0
 30
0.0
332
AAC
 74
     2
 92
        0
 75
     0
  0
DIMASSOC
  5
C40
102
{ACAD_REACTORS
330
C36
102
}
330
C36
100
AcDbDimAssoc
330
C29
 90
       15
 70
     0
 71
     0
  1
AcDbOsnapPointRef
 72
    13
331
AB0
 73
     2
 91
        0
 40
0.0
 10
0.0
 20
0.0
 30
2.000000000000000E+50
 75
     0
  1
AcDbOsnapPointRef
 72
     1
331
AB0
 73
     2
 91
        0
 40
1.0
 10
0.0
 20
0.0
 30
2.000000000000000E+50
 75
     0
  1
AcDbOsnapPointRef
 72
    13
331
ADB
 73
     2
 91
        0
 40
0.0
 10
0.0
 20
0.0
 30
2.000000000000000E+50
 75
     0
  1
AcDbOsnapPointRef
 72
     1
331
ADB
 73
     2
 91
        0
 40
0.9999999999999998
 10
0.0
 20
0.0
 30
2.000000000000000E+50
 75
     0
  0
DIMASSOC
  5
C58
102
{ACAD_REACTORS
330
C4E
102
}
330
C4E
100
AcDbDimAssoc
330
C41
 90
       15
 70
     0
 71
     0
  1
AcDbOsnapPointRef
 72
    13
331
AB2
 73
     2
 91
        0
 40
0.0
 10
0.0
 20
0.0
 30
2.000000000000000E+50
 75
     0
  1
AcDbOsnapPointRef
 72
     1
331
AB2
 73
     2
 91
        0
 40
0.9999999999999998
 10
0.0
 20
0.0
 30
2.000000000000000E+50
 75
     0
  1
AcDbOsnapPointRef
 72
    13
331
ADA
 73
     2
 91
        0
 40
0.0
 10
0.0
 20
0.0
 30
2.000000000000000E+50
 75
     0
  1
AcDbOsnapPointRef
 72
     1
331
ADA
 73
     2
 91
        0
 40
1.0
 10
0.0
 20
0.0
 30
2.000000000000000E+50
 75
     0
  0
DIMASSOC
  5
C70
102
{ACAD_REACTORS
330
C66
102
}
330
C66
100
AcDbDimAssoc
330
C59
 90
        3
 70
     0
 71
     0
  1
AcDbOsnapPointRef
 72
     2
331
AAE
 73
     2
 91
        0
 40
4.712388980384691
 10
0.0
 20
0.0
 30
0.0
 75
     0
  1
AcDbOsnapPointRef
 72
     2
331
ADA
 73
     2
 91
        0
 40
0.5
 10
0.0
 20
0.0
 30
0.0
 75
     0
  0
DIMASSOC
  5
CA6
102
{ACAD_REACTORS
330
C9F
102
}
330
C9F
100
AcDbDimAssoc
330
C95
 90
        2
 70
     0
 71
     0
  1
AcDbOsnapPointRef
 72
     3
331
AB6
 73
     2
 91
        0
 40
0.0
 10
0.0
 20
0.0
 30
0.0
 75
     0
  0
DIMASSOC
  5
ECB
102
{ACAD_REACTORS
330
EC1
102
}
330
EC1
100
AcDbDimAssoc
330
EB4
 90
        3
 70
     0
 71
     0
  1
AcDbOsnapPointRef
 72
    13
331
E1E
 73
     2
 91
        0
 40
0.0
 10
0.0
 20
0.0
 30
2.000000000000000E+50
 75
     0
  1
AcDbOsnapPointRef
 72
    13
331
E38
 73
     2
 91
        0
 40
0.0
 10
0.0
 20
0.0
 30
2.000000000000000E+50
 75
     0
  0
DIMASSOC
  5
EE3
102
{ACAD_REACTORS
330
ED9
102
}
330
ED9
100
AcDbDimAssoc
330
ECC
 90
        3
 70
     0
 71
     0
  1
AcDbOsnapPointRef
 72
    13
331
E38
 73
     2
 91
        0
 40
0.0
 10
0.0
 20
0.0
 30
2.000000000000000E+50
 75
     0
  1
AcDbOsnapPointRef
 72
    13
331
EB3
 73
     2
 91
        0
 40
0.0
 10
0.0
 20
0.0
 30
2.000000000000000E+50
 75
     0
  0
DIMASSOC
  5
EFB
102
{ACAD_REACTORS
330
EF1
102
}
330
EF1
100
AcDbDimAssoc
330
EE4
 90
        3
 70
     0
 71
     0
  1
AcDbOsnapPointRef
 72
    13
331
EB3
 73
     2
 91
        0
 40
0.0
 10
0.0
 20
0.0
 30
2.000000000000000E+50
 75
     0
  1
AcDbOsnapPointRef
 72
     1
331
EB3
 73
     2
 91
        0
 40
1.0
 10
0.0
 20
0.0
 30
2.000000000000000E+50
 75
     0
  0
DIMASSOC
  5
F13
102
{ACAD_REACTORS
330
F09
102
}
330
F09
100
AcDbDimAssoc
330
EFC
 90
        3
 70
     0
 71
     0
  1
AcDbOsnapPointRef
 72
     1
331
EB2
 73
     2
 91
        0
 40
1.0
 10
0.0
 20
0.0
 30
2.000000000000000E+50
 75
     0
  1
AcDbOsnapPointRef
 72
    13
331
EB2
 73
     2
 91
        0
 40
0.0
 10
0.0
 20
0.0
 30
2.000000000000000E+50
 75
     0
  0
DIMASSOC
  5
F7A
102
{ACAD_REACTORS
330
F70
102
}
330
F70
100
AcDbDimAssoc
330
F63
 90
        3
 70
     0
 71
     0
  1
AcDbOsnapPointRef
 72
    13
331
ADE
 73
     2
 91
        0
 40
0.0
 10
0.0
 20
0.0
 30
2.000000000000000E+50
 75
     0
  1
AcDbOsnapPointRef
 72
     6
331
AE0
 73
     2
 91
        0
 40
0.088094827802671
 10
0.0
 20
0.0
 30
0.0
332
4BB
 74
     2
 92
        0
 75
     0
  0
DIMASSOC
  5
F92
102
{ACAD_REACTORS
330
F88
102
}
330
F88
100
AcDbDimAssoc
330
F7B
 90
        2
 70
     0
 71
     0
  1
AcDbOsnapPointRef
 72
     6
331
AE0
 73
     2
 91
        0
 40
0.9199039902577816
 10
0.0
 20
0.0
 30
0.0
332
5CB
 74
     2
 92
        0
 75
     0
  0
DIMASSOC
  5
1043
102
{ACAD_REACTORS
330
1039
102
}
330
1039
100
AcDbDimAssoc
330
102C
 90
        3
 70
     0
 71
     0
  1
AcDbOsnapPointRef
 72
     1
331
ADC
 73
     2
 91
        0
 40
1.0
 10
0.0
 20
0.0
 30
2.000000000000000E+50
 75
     0
  1
AcDbOsnapPointRef
 72
     2
331
63F
 73
     2
 91
        0
 40
1.570796326794895
 10
0.0
 20
0.0
 30
0.0
 75
     0
  0
DIMASSOC
  5
105B
102
{ACAD_REACTORS
330
1051
102
}
330
1051
100
AcDbDimAssoc
330
1044
 90
        1
 70
     0
 71
     0
  1
AcDbOsnapPointRef
 72
     2
331
640
 73
     2
 91
        0
 40
4.71238898038468
 10
0.0
 20
0.0
 30
0.0
 75
     0
  0
DIMASSOC
  5
108B
102
{ACAD_REACTORS
330
1081
102
}
330
1081
100
AcDbDimAssoc
330
1074
 90
        1
 70
     0
 71
     0
  1
AcDbOsnapPointRef
 72
    13
331
6AE
 73
     2
 91
        0
 40
0.0
 10
0.0
 20
0.0
 30
2.000000000000000E+50
 75
     0
  0
DIMASSOC
  5
10C2
102
{ACAD_REACTORS
330
10B8
102
}
330
10B8
100
AcDbDimAssoc
330
10AB
 90
        2
 70
     0
 71
     0
  1
AcDbOsnapPointRef
 72
     3
331
A7F
 73
     2
 91
        0
 40
0.0
 10
0.0
 20
0.0
 30
0.0
 75
     0
  0
DIMASSOC
  5
113A
102
{ACAD_REACTORS
330
1134
102
}
330
1134
100
AcDbDimAssoc
330
112B
 90
        2
 70
     0
 71
     0
  1
AcDbOsnapPointRef
 72
     3
331
644
 73
     2
 91
        0
 40
0.0
 10
0.0
 20
0.0
 30
0.0
 75
     0
  0
DIMASSOC
  5
1169
102
{ACAD_REACTORS
330
1163
102
}
330
1163
100
AcDbDimAssoc
330
115A
 90
        2
 70
     0
 71
     0
  1
AcDbOsnapPointRef
 72
     3
331
63B
 73
     2
 91
        0
 40
0.0
 10
0.0
 20
0.0
 30
0.0
 75
     0
  0
DIMASSOC
  5
118B
102
{ACAD_REACTORS
330
1181
102
}
330
1181
100
AcDbDimAssoc
330
1174
 90
        3
 70
     0
 71
     0
  1
AcDbOsnapPointRef
 72
     2
331
59B
 73
     2
 91
        0
 40
3.141561238952537
 10
0.0
 20
0.0
 30
0.0
 75
     0
  1
AcDbOsnapPointRef
 72
     2
331
57E
 73
     2
 91
        0
 40
6.283216721816837
 10
0.0
 20
0.0
 30
0.0
 75
     0
  0
DIMASSOC
  5
11AD
102
{ACAD_REACTORS
330
119E
102
}
330
119E
100
AcDbDimAssoc
330
118C
 90
        3
 70
     0
 71
     0
  1
AcDbOsnapPointRef
 72
     2
331
57E
 73
     2
 91
        0
 40
6.283216721816837
 10
0.0
 20
0.0
 30
0.0
 75
     0
  1
AcDbOsnapPointRef
 72
     2
331
63B
 73
     2
 91
        0
 40
3.141592653589793
 10
0.0
 20
0.0
 30
0.0
 75
     0
  0
DIMASSOC
  5
11C5
102
{ACAD_REACTORS
330
11BB
102
}
330
11BB
100
AcDbDimAssoc
330
11AE
 90
        3
 70
     0
 71
     0
  1
AcDbOsnapPointRef
 72
     2
331
63B
 73
     2
 91
        0
 40
3.141592653589793
 10
0.0
 20
0.0
 30
0.0
 75
     0
  1
AcDbOsnapPointRef
 72
     2
331
63C
 73
     2
 91
        0
 40
6.283185307179586
 10
0.0
 20
0.0
 30
0.0
 75
     0
  0
DIMASSOC
  5
11FD
102
{ACAD_REACTORS
330
11F7
102
}
330
11F7
100
AcDbDimAssoc
330
11EE
 90
        2
 70
     0
 71
     0
  1
AcDbOsnapPointRef
 72
     3
331
4BB
 73
     2
 91
        0
 40
0.0
 10
0.0
 20
0.0
 30
0.0
 75
     0
  0
DIMASSOC
  5
120D
102
{ACAD_REACTORS
330
1207
102
}
330
1207
100
AcDbDimAssoc
330
11FE
 90
        2
 70
     0
 71
     0
  1
AcDbOsnapPointRef
 72
     3
331
5C9
 73
     2
 91
        0
 40
0.0
 10
0.0
 20
0.0
 30
0.0
 75
     0
  0
DIMASSOC
  5
121D
102
{ACAD_REACTORS
330
1217
102
}
330
1217
100
AcDbDimAssoc
330
120E
 90
        2
 70
     0
 71
     0
  1
AcDbOsnapPointRef
 72
     3
331
5C8
 73
     2
 91
        0
 40
0.0
 10
0.0
 20
0.0
 30
0.0
 75
     0
  0
DIMASSOC
  5
122D
102
{ACAD_REACTORS
330
1227
102
}
330
1227
100
AcDbDimAssoc
330
121E
 90
        2
 70
     0
 71
     0
  1
AcDbOsnapPointRef
 72
     3
331
59B
 73
     2
 91
        0
 40
0.0
 10
0.0
 20
0.0
 30
0.0
 75
     0
  0
DIMASSOC
  5
124D
102
{ACAD_REACTORS
330
1247
102
}
330
1247
100
AcDbDimAssoc
330
123E
 90
        2
 70
     0
 71
     0
  1
AcDbOsnapPointRef
 72
     3
331
5CB
 73
     2
 91
        0
 40
0.0
 10
0.0
 20
0.0
 30
0.0
 75
     0
  0
DIMASSOC
  5
125E
102
{ACAD_REACTORS
330
1258
102
}
330
1258
100
AcDbDimAssoc
330
124E
 90
        2
 70
     0
 71
     0
  1
AcDbOsnapPointRef
 72
     3
331
5CE
 73
     2
 91
        0
 40
0.0
 10
0.0
 20
0.0
 30
0.0
 75
     0
  0
DIMASSOC
  5
126E
102
{ACAD_REACTORS
330
1268
102
}
330
1268
100
AcDbDimAssoc
330
125F
 90
        2
 70
     0
 71
     0
  1
AcDbOsnapPointRef
 72
     3
331
5CC
 73
     2
 91
        0
 40
0.0
 10
0.0
 20
0.0
 30
0.0
 75
     0
  0
DIMASSOC
  5
16CA
102
{ACAD_REACTORS
330
16C4
102
}
330
16C4
100
AcDbDimAssoc
330
16BB
 90
        2
 70
     0
 71
     0
  1
AcDbOsnapPointRef
 72
     3
331
57E
 73
     2
 91
        0
 40
0.0
 10
0.0
 20
0.0
 30
0.0
 75
     0
  0
DIMASSOC
  5
18F3
102
{ACAD_REACTORS
330
18E9
102
}
330
18E9
100
AcDbDimAssoc
330
18DC
 90
        2
 70
     0
 71
     0
  1
AcDbOsnapPointRef
 72
     3
331
A80
 73
     2
 91
        0
 40
0.0
 10
0.0
 20
0.0
 30
0.0
 75
     0
  0
DIMASSOC
  5
1963
102
{ACAD_REACTORS
330
195D
102
}
330
195D
100
AcDbDimAssoc
330
1954
 90
        2
 70
     0
 71
     0
  1
AcDbOsnapPointRef
 72
     3
331
AAC
 73
     2
 91
        0
 40
0.0
 10
0.0
 20
0.0
 30
0.0
 75
     0
  0
ACDBDETAILVIEWSTYLE
  5
19BC
102
{ACAD_REACTORS
330
19BB
102
}
330
19BB
100
AcDbModelDocViewStyle
 70
     0
  3
Metric50
290
     1
300
Metric50
 90
        0
100
AcDbDetailViewStyle
 70
     0
 71
     0
 90
        3
 71
     1
340
11
 62
   256
 40
5.0
340
0
 62
   256
 40
5.0
300

 40
0.0
280
     1
 71
     2
340
16
 90
       25
 62
   256
 71
     3
340
11
 62
   256
 40
5.0
 90
        0
 40
15.0
 90
        1
300
%<\AcVar ViewDetailId>% (%<\AcVar ViewScale \f "%sn">%)
 71
     4
340
16
 90
       25
 62
   256
340
16
 90
       25
 62
   256
280
     0
  0
LAYOUT
  5
22
102
{ACAD_XDICTIONARY
360
23D0
102
}
102
{ACAD_REACTORS
330
1A
102
}
330
1A
100
AcDbPlotSettings
  1

  2
none_device
  4
ISO_A4_(210.00_x_297.00_MM)
  6

 40
7.5
 41
20.0
 42
7.5
 43
20.0
 44
210.0
 45
297.0
 46
11.54999923706054
 47
-13.65000009536743
 48
0.0
 49
0.0
140
0.0
141
0.0
142
1.0
143
8.704084754739808
 70
 11952
 72
     1
 73
     0
 74
     0
  7

 75
     0
147
0.1148885871608098
 76
     0
 77
     2
 78
   300
148
0.0
149
0.0
100
AcDbLayout
  1
Model
 70
     1
 71
     0
 10
0.0
 20
0.0
 11
12.0
 21
9.0
 12
0.0
 22
0.0
 32
0.0
 14
0.0
 24
0.0
 34
0.0
 15
0.0
 25
0.0
 35
0.0
146
0.0
 13
0.0
 23
0.0
 33
0.0
 16
1.0
 26
0.0
 36
0.0
 17
0.0
 27
1.0
 37
0.0
 76
     0
330
1F
331
1971
1001
ACAD_PSEXT
1000
None
1000
None
1000
Not applicable
1000
The layout will not be plotted unless a new plotter configuration name is selected.
1070
     0
  0
LAYOUT
  5
D3
102
{ACAD_REACTORS
330
1A
102
}
330
1A
100
AcDbPlotSettings
  1

  2
C:\Documents and Settings\basas\Application Data\Autodesk\AutoCAD 2005\R16.1\enu\plotters\Default Windows System Printer.pc3
  4

  6

 40
0.0
 41
0.0
 42
0.0
 43
0.0
 44
0.0
 45
0.0
 46
0.0
 47
0.0
 48
0.0
 49
0.0
140
0.0
141
0.0
142
1.0
143
1.0
 70
   688
 72
     0
 73
     0
 74
     5
  7

 75
    16
147
1.0
 76
     0
 77
     2
 78
   300
148
0.0
149
0.0
100
AcDbLayout
  1
布局1
 70
     1
 71
     1
 10
0.0
 20
0.0
 11
12.0
 21
9.0
 12
0.0
 22
0.0
 32
0.0
 14
0.0
 24
0.0
 34
0.0
 15
0.0
 25
0.0
 35
0.0
146
0.0
 13
0.0
 23
0.0
 33
0.0
 16
1.0
 26
0.0
 36
0.0
 17
0.0
 27
1.0
 37
0.0
 76
     0
330
D2
1001
AcadStringInfo
1000
MIFCodePage
1070
     5
  0
LAYOUT
  5
D7
102
{ACAD_REACTORS
330
1A
102
}
330
1A
100
AcDbPlotSettings
  1

  2
C:\Documents and Settings\basas\Application Data\Autodesk\AutoCAD 2005\R16.1\enu\plotters\Default Windows System Printer.pc3
  4

  6

 40
0.0
 41
0.0
 42
0.0
 43
0.0
 44
0.0
 45
0.0
 46
0.0
 47
0.0
 48
0.0
 49
0.0
140
0.0
141
0.0
142
1.0
143
1.0
 70
   688
 72
     0
 73
     0
 74
     5
  7

 75
    16
147
1.0
 76
     0
 77
     2
 78
   300
148
0.0
149
0.0
100
AcDbLayout
  1
布局2
 70
     1
 71
     2
 10
0.0
 20
0.0
 11
12.0
 21
9.0
 12
0.0
 22
0.0
 32
0.0
 14
0.0
 24
0.0
 34
0.0
 15
0.0
 25
0.0
 35
0.0
146
0.0
 13
0.0
 23
0.0
 33
0.0
 16
1.0
 26
0.0
 36
0.0
 17
0.0
 27
1.0
 37
0.0
 76
     0
330
D6
1001
AcadStringInfo
1000
MIFCodePage
1070
     5
  0
MATERIAL
  5
197B
102
{ACAD_XDICTIONARY
360
197C
102
}
102
{ACAD_REACTORS
330
6A
102
}
330
6A
100
AcDbMaterial
  1
ByBlock
 72
     0
 43
0.0008202099737533
 43
0.0
 43
0.0
 43
0.0
 43
0.0
 43
0.0008202099737533
 43
0.0
 43
0.0
 43
0.0
 43
0.0
 43
1.0
 43
0.0
 43
0.0
 43
0.0
 43
0.0
 43
1.0
 77
     0
 47
0.0008202099737533
 47
0.0
 47
0.0
 47
0.0
 47
0.0
 47
0.0008202099737533
 47
0.0
 47
0.0
 47
0.0
 47
0.0
 47
1.0
 47
0.0
 47
0.0
 47
0.0
 47
0.0
 47
1.0
171
     0
 49
0.0008202099737533
 49
0.0
 49
0.0
 49
0.0
 49
0.0
 49
0.0008202099737533
 49
0.0
 49
0.0
 49
0.0
 49
0.0
 49
1.0
 49
0.0
 49
0.0
 49
0.0
 49
0.0
 49
1.0
175
     0
142
0.0008202099737533
142
0.0
142
0.0
142
0.0
142
0.0
142
0.0008202099737533
142
0.0
142
0.0
142
0.0
142
0.0
142
1.0
142
0.0
142
0.0
142
0.0
142
0.0
142
1.0
179
     0
144
0.0008202099737533
144
0.0
144
0.0
144
0.0
144
0.0
144
0.0008202099737533
144
0.0
144
0.0
144
0.0
144
0.0
144
1.0
144
0.0
144
0.0
144
0.0
144
0.0
144
1.0
147
0.0008202099737533
147
0.0
147
0.0
147
0.0
147
0.0
147
0.0008202099737533
147
0.0
147
0.0
147
0.0
147
0.0
147
1.0
147
0.0
147
0.0
147
0.0
147
0.0
147
1.0
  0
MATERIAL
  5
1973
102
{ACAD_XDICTIONARY
360
1974
102
}
102
{ACAD_REACTORS
330
6A
102
}
330
6A
100
AcDbMaterial
  1
ByLayer
 72
     0
 43
0.0008202099737533
 43
0.0
 43
0.0
 43
0.0
 43
0.0
 43
0.0008202099737533
 43
0.0
 43
0.0
 43
0.0
 43
0.0
 43
1.0
 43
0.0
 43
0.0
 43
0.0
 43
0.0
 43
1.0
 77
     0
 47
0.0008202099737533
 47
0.0
 47
0.0
 47
0.0
 47
0.0
 47
0.0008202099737533
 47
0.0
 47
0.0
 47
0.0
 47
0.0
 47
1.0
 47
0.0
 47
0.0
 47
0.0
 47
0.0
 47
1.0
171
     0
 49
0.0008202099737533
 49
0.0
 49
0.0
 49
0.0
 49
0.0
 49
0.0008202099737533
 49
0.0
 49
0.0
 49
0.0
 49
0.0
 49
1.0
 49
0.0
 49
0.0
 49
0.0
 49
0.0
 49
1.0
175
     0
142
0.0008202099737533
142
0.0
142
0.0
142
0.0
142
0.0
142
0.0008202099737533
142
0.0
142
0.0
142
0.0
142
0.0
142
1.0
142
0.0
142
0.0
142
0.0
142
0.0
142
1.0
179
     0
144
0.0008202099737533
144
0.0
144
0.0
144
0.0
144
0.0
144
0.0008202099737533
144
0.0
144
0.0
144
0.0
144
0.0
144
1.0
144
0.0
144
0.0
144
0.0
144
0.0
144
1.0
147
0.0008202099737533
147
0.0
147
0.0
147
0.0
147
0.0
147
0.0008202099737533
147
0.0
147
0.0
147
0.0
147
0.0
147
1.0
147
0.0
147
0.0
147
0.0
147
0.0
147
1.0
  0
MATERIAL
  5
1983
102
{ACAD_XDICTIONARY
360
1984
102
}
102
{ACAD_REACTORS
330
6A
102
}
330
6A
100
AcDbMaterial
  1
Global
 72
     0
 43
0.0008202099737533
 43
0.0
 43
0.0
 43
0.0
 43
0.0
 43
0.0008202099737533
 43
0.0
 43
0.0
 43
0.0
 43
0.0
 43
1.0
 43
0.0
 43
0.0
 43
0.0
 43
0.0
 43
1.0
 77
     0
 47
0.0008202099737533
 47
0.0
 47
0.0
 47
0.0
 47
0.0
 47
0.0008202099737533
 47
0.0
 47
0.0
 47
0.0
 47
0.0
 47
1.0
 47
0.0
 47
0.0
 47
0.0
 47
0.0
 47
1.0
171
     0
 49
0.0008202099737533
 49
0.0
 49
0.0
 49
0.0
 49
0.0
 49
0.0008202099737533
 49
0.0
 49
0.0
 49
0.0
 49
0.0
 49
1.0
 49
0.0
 49
0.0
 49
0.0
 49
0.0
 49
1.0
175
     0
142
0.0008202099737533
142
0.0
142
0.0
142
0.0
142
0.0
142
0.0008202099737533
142
0.0
142
0.0
142
0.0
142
0.0
142
1.0
142
0.0
142
0.0
142
0.0
142
0.0
142
1.0
179
     0
144
0.0008202099737533
144
0.0
144
0.0
144
0.0
144
0.0
144
0.0008202099737533
144
0.0
144
0.0
144
0.0
144
0.0
144
1.0
144
0.0
144
0.0
144
0.0
144
0.0
144
1.0
147
0.0008202099737533
147
0.0
147
0.0
147
0.0
147
0.0
147
0.0008202099737533
147
0.0
147
0.0
147
0.0
147
0.0
147
1.0
147
0.0
147
0.0
147
0.0
147
0.0
147
1.0
  0
MLEADERSTYLE
  5
19B8
102
{ACAD_REACTORS
330
19B7
102
}
330
19B7
100
AcDbMLeaderStyle
179
     2
170
     2
171
     1
172
     0
 90
        2
 40
0.0
 41
0.0
173
     1
 91
-1056964608
340
14
 92
       -2
290
     1
 42
2.0
291
     1
 43
0.36
  3
Standard
 44
4.0
300

342
11
174
     1
178
     6
175
     1
176
     0
 93
-1056964608
 45
4.0
292
     0
297
     0
 46
4.0
 94
-1056964608
 47
1.0
 49
1.0
140
1.0
293
     1
141
0.0
294
     1
177
     0
142
1.0
295
     1
296
     0
143
0.125
271
     0
272
     9
273
     9
298
     1
  0
MLINESTYLE
  5
18
102
{ACAD_REACTORS
330
17
102
}
330
17
100
AcDbMlineStyle
  2
STANDARD
 70
     0
  3

 62
   256
 51
90.0
 52
90.0
 71
     2
 49
0.5
 62
   256
  6
BYLAYER
 49
-0.5
 62
   256
  6
BYLAYER
  0
ACDBPLACEHOLDER
  5
F
102
{ACAD_REACTORS
330
E
102
}
330
E
  0
SCALE
  5
19A6
102
{ACAD_REACTORS
330
19A5
102
}
330
19A5
100
AcDbScale
 70
     0
300
1:1
140
1.0
141
1.0
290
     1
  0
SCALE
  5
19A7
102
{ACAD_REACTORS
330
19A5
102
}
330
19A5
100
AcDbScale
 70
     0
300
1:2
140
1.0
141
2.0
290
     0
  0
SCALE
  5
19A8
102
{ACAD_REACTORS
330
19A5
102
}
330
19A5
100
AcDbScale
 70
     0
300
1:4
140
1.0
141
4.0
290
     0
  0
SCALE
  5
19A9
102
{ACAD_REACTORS
330
19A5
102
}
330
19A5
100
AcDbScale
 70
     0
300
1:5
140
1.0
141
5.0
290
     0
  0
SCALE
  5
19AA
102
{ACAD_REACTORS
330
19A5
102
}
330
19A5
100
AcDbScale
 70
     0
300
1:8
140
1.0
141
8.0
290
     0
  0
SCALE
  5
19AB
102
{ACAD_REACTORS
330
19A5
102
}
330
19A5
100
AcDbScale
 70
     0
300
1:10
140
1.0
141
10.0
290
     0
  0
SCALE
  5
19AC
102
{ACAD_REACTORS
330
19A5
102
}
330
19A5
100
AcDbScale
 70
     0
300
1:16
140
1.0
141
16.0
290
     0
  0
SCALE
  5
19AD
102
{ACAD_REACTORS
330
19A5
102
}
330
19A5
100
AcDbScale
 70
     0
300
1:20
140
1.0
141
20.0
290
     0
  0
SCALE
  5
19AE
102
{ACAD_REACTORS
330
19A5
102
}
330
19A5
100
AcDbScale
 70
     0
300
1:30
140
1.0
141
30.0
290
     0
  0
SCALE
  5
19AF
102
{ACAD_REACTORS
330
19A5
102
}
330
19A5
100
AcDbScale
 70
     0
300
1:40
140
1.0
141
40.0
290
     0
  0
SCALE
  5
19B0
102
{ACAD_REACTORS
330
19A5
102
}
330
19A5
100
AcDbScale
 70
     0
300
1:50
140
1.0
141
50.0
290
     0
  0
SCALE
  5
19B1
102
{ACAD_REACTORS
330
19A5
102
}
330
19A5
100
AcDbScale
 70
     0
300
1:100
140
1.0
141
100.0
290
     0
  0
SCALE
  5
19B2
102
{ACAD_REACTORS
330
19A5
102
}
330
19A5
100
AcDbScale
 70
     0
300
2:1
140
2.0
141
1.0
290
     0
  0
SCALE
  5
19B3
102
{ACAD_REACTORS
330
19A5
102
}
330
19A5
100
AcDbScale
 70
     0
300
4:1
140
4.0
141
1.0
290
     0
  0
SCALE
  5
19B4
102
{ACAD_REACTORS
330
19A5
102
}
330
19A5
100
AcDbScale
 70
     0
300
8:1
140
8.0
141
1.0
290
     0
  0
SCALE
  5
19B5
102
{ACAD_REACTORS
330
19A5
102
}
330
19A5
100
AcDbScale
 70
     0
300
10:1
140
10.0
141
1.0
290
     0
  0
SCALE
  5
19B6
102
{ACAD_REACTORS
330
19A5
102
}
330
19A5
100
AcDbScale
 70
     0
300
100:1
140
100.0
141
1.0
290
     0
  0
ACDBSECTIONVIEWSTYLE
  5
19BA
102
{ACAD_REACTORS
330
19B9
102
}
330
19B9
100
AcDbModelDocViewStyle
 70
     0
  3
Metric50
290
     1
300
Metric50
 90
        0
100
AcDbSectionViewStyle
 70
     0
 71
     0
 90
      102
 71
     1
340
11
 62
   256
 40
5.0
340
0
340
0
 62
   256
 40
5.0
300
I, O, Q, S, X, Z
 40
10.0
 90
        0
 40
2.5
 90
        0
 71
     2
340
16
 90
       25
 62
   256
340
16
 90
       50
 62
   256
 40
5.0
 40
2.5
 40
5.0
 71
     3
340
11
 62
   256
 40
5.0
 90
        0
 40
15.0
 90
        1
300
%<\AcVar ViewSectionStartId>%-%<\AcVar ViewSectionEndId>% (%<\AcVar ViewScale \f "%sn">%)
 71
     4
 62
   256
 62
   257
300
ANSI31
 40
1.0
 90
        0
290
     0
290
     0
 90
        6
 40
0.0
 40
1.570796326794896
 40
0.2617993877991494
 40
1.308996938995747
 40
-0.2617993877991494
 40
1.832595714594046
  0
TABLESTYLE
  5
7F
102
{ACAD_XDICTIONARY
360
23DB
102
}
102
{ACAD_REACTORS
330
7E
102
}
330
7E
100
AcDbTableStyle
280
     0
  3
Standard
 70
     0
 71
     0
 40
1.5
 41
1.5
280
     0
281
     0
  7
Standard
140
4.5
170
     2
 62
     0
 63
     7
283
     0
 90
        4
 91
        0
  1

274
    -2
284
     1
 64
     0
275
    -2
285
     1
 65
     0
276
    -2
286
     1
 66
     0
277
    -2
287
     1
 67
     0
278
    -2
288
     1
 68
     0
279
    -2
289
     1
 69
     0
  7
Standard
140
6.0
170
     5
 62
     0
 63
     7
283
     0
 90
        4
 91
        0
  1

274
    -2
284
     1
 64
     0
275
    -2
285
     1
 65
     0
276
    -2
286
     1
 66
     0
277
    -2
287
     1
 67
     0
278
    -2
288
     1
 68
     0
279
    -2
289
     1
 69
     0
  7
Standard
140
4.5
170
     5
 62
     0
 63
     7
283
     0
 90
        4
 91
        0
  1

274
    -2
284
     1
 64
     0
275
    -2
285
     1
 65
     0
276
    -2
286
     1
 66
     0
277
    -2
287
     1
 67
     0
278
    -2
288
     1
 68
     0
279
    -2
289
     1
 69
     0
  0
VISUALSTYLE
  5
1991
102
{ACAD_REACTORS
330
198B
102
}
330
198B
100
AcDbVisualStyle
  2
2dWireframe
 70
     4
177
     3
291
     0
 70
    58
 90
        0
176
     1
 90
        2
176
     1
 90
        0
176
     1
 90
        0
176
     1
 40
0.6
176
     1
 40
30.0
176
     1
 62
     7
420
 16777215
176
     1
 90
        1
176
     1
 90
        4
176
     1
 62
     7
176
     1
 62
   257
176
     1
 90
        1
176
     1
 90
        1
176
     1
 40
1.0
176
     1
 90
        0
176
     1
 62
   257
176
     1
 40
1.0
176
     1
 90
        1
176
     1
 90
        6
176
     1
 90
        2
176
     1
 62
     7
176
     1
 90
        5
176
     1
 90
        0
176
     1
 90
        0
176
     1
290
     0
176
     1
 90
        1
176
     1
 40
0.0
176
     1
 90
        0
176
     1
290
     1
176
     1
290
     1
176
     1
290
     0
176
     1
290
     0
176
     1
290
     0
176
     1
290
     0
176
     1
290
     0
176
     1
290
     0
176
     1
290
     0
176
     1
 90
       50
176
     1
 40
0.0
176
     1
 40
1.0
176
     1
 90
        0
176
     1
 62
    18
420
        0
176
     1
 90
       50
176
     1
 90
        3
176
     1
 62
     5
420
      255
176
     1
290
     0
176
     1
 90
       50
176
     1
 90
       50
176
     1
 90
       50
176
     1
290
     0
176
     1
 90
       50
176
     1
 62
   256
176
     0
 40
1.0
176
     0
 90
        2
176
     1
  1
strokes_ogs.tif
176
     1
290
     0
176
     1
 40
1.0
176
     1
 40
1.0
176
     1
  0
VISUALSTYLE
  5
1990
102
{ACAD_REACTORS
330
198B
102
}
330
198B
100
AcDbVisualStyle
  2
Basic
 70
     7
177
     3
291
     1
 70
    58
 90
        1
176
     1
 90
        0
176
     1
 90
        1
176
     1
 90
        0
176
     1
 40
0.6
176
     1
 40
30.0
176
     1
 62
     7
420
 16777215
176
     1
 90
        0
176
     1
 90
        4
176
     1
 62
     7
176
     1
 62
   257
176
     1
 90
        1
176
     1
 90
        1
176
     1
 40
1.0
176
     1
 90
        8
176
     1
 62
     7
176
     1
 40
1.0
176
     1
 90
        1
176
     1
 90
        6
176
     1
 90
        2
176
     1
 62
     7
176
     1
 90
        5
176
     1
 90
        0
176
     1
 90
        0
176
     1
290
     0
176
     1
 90
        1
176
     1
 40
0.0
176
     1
 90
        0
176
     1
290
     0
176
     1
290
     1
176
     1
290
     1
176
     1
290
     0
176
     1
290
     0
176
     1
290
     0
176
     1
290
     0
176
     1
290
     0
176
     1
290
     0
176
     1
 90
       50
176
     1
 40
0.0
176
     1
 40
1.0
176
     1
 90
        0
176
     1
 62
    18
420
        0
176
     1
 90
       50
176
     1
 90
        3
176
     1
 62
     5
420
      255
176
     1
290
     0
176
     1
 90
       50
176
     1
 90
       50
176
     1
 90
       50
176
     1
290
     0
176
     1
 90
       50
176
     1
 62
   256
176
     0
 40
1.0
176
     0
 90
        2
176
     1
  1
strokes_ogs.tif
176
     1
290
     0
176
     1
 40
1.0
176
     1
 40
1.0
176
     1
  0
VISUALSTYLE
  5
1997
102
{ACAD_REACTORS
330
198B
102
}
330
198B
100
AcDbVisualStyle
  2
Brighten
 70
    12
177
     3
291
     1
 70
    58
 90
        2
176
     1
 90
        2
176
     1
 90
        0
176
     1
 90
        0
176
     1
 40
0.6
176
     1
 40
30.0
176
     1
 62
     7
420
 16777215
176
     1
 90
        1
176
     1
 90
        4
176
     1
 62
     7
176
     1
 62
   257
176
     1
 90
        1
176
     1
 90
        1
176
     1
 40
1.0
176
     1
 90
        8
176
     1
 62
     7
176
     1
 40
1.0
176
     1
 90
        1
176
     1
 90
        6
176
     1
 90
        2
176
     1
 62
     7
176
     1
 90
        5
176
     1
 90
        0
176
     1
 90
        0
176
     1
290
     0
176
     1
 90
        1
176
     1
 40
50.0
176
     1
 90
        0
176
     1
290
     0
176
     1
290
     1
176
     1
290
     1
176
     1
290
     0
176
     1
290
     0
176
     1
290
     0
176
     1
290
     0
176
     1
290
     0
176
     1
290
     0
176
     1
 90
       50
176
     1
 40
0.0
176
     1
 40
1.0
176
     1
 90
        0
176
     1
 62
    18
420
        0
176
     1
 90
       50
176
     1
 90
        3
176
     1
 62
     5
420
      255
176
     1
290
     0
176
     1
 90
       50
176
     1
 90
       50
176
     1
 90
       50
176
     1
290
     0
176
     1
 90
       50
176
     1
 62
   256
176
     0
 40
1.0
176
     0
 90
        2
176
     1
  1
strokes_ogs.tif
176
     1
290
     0
176
     1
 40
1.0
176
     1
 40
1.0
176
     1
  0
VISUALSTYLE
  5
199B
102
{ACAD_REACTORS
330
198B
102
}
330
198B
100
AcDbVisualStyle
  2
ColorChange
 70
    16
177
     3
291
     1
 70
    58
 90
        2
176
     1
 90
        2
176
     1
 90
        3
176
     1
 90
        0
176
     1
 40
0.6
176
     1
 40
30.0
176
     1
 62
     8
420
  8421504
176
     1
 90
        1
176
     1
 90
        4
176
     1
 62
     7
176
     1
 62
   257
176
     1
 90
        1
176
     1
 90
        1
176
     1
 40
1.0
176
     1
 90
        8
176
     1
 62
     8
420
  8421504
176
     1
 40
1.0
176
     1
 90
        1
176
     1
 90
        6
176
     1
 90
        2
176
     1
 62
     7
176
     1
 90
        5
176
     1
 90
        0
176
     1
 90
        0
176
     1
290
     0
176
     1
 90
        1
176
     1
 40
0.0
176
     1
 90
        0
176
     1
290
     0
176
     1
290
     1
176
     1
290
     1
176
     1
290
     0
176
     1
290
     0
176
     1
290
     0
176
     1
290
     0
176
     1
290
     0
176
     1
290
     0
176
     1
 90
       50
176
     1
 40
0.0
176
     1
 40
1.0
176
     1
 90
        0
176
     1
 62
    18
420
        0
176
     1
 90
       50
176
     1
 90
        3
176
     1
 62
     5
420
      255
176
     1
290
     0
176
     1
 90
       50
176
     1
 90
       50
176
     1
 90
       50
176
     1
290
     0
176
     1
 90
       50
176
     1
 62
   256
176
     0
 40
1.0
176
     0
 90
        2
176
     1
  1
strokes_ogs.tif
176
     1
290
     0
176
     1
 40
1.0
176
     1
 40
1.0
176
     1
  0
VISUALSTYLE
  5
1994
102
{ACAD_REACTORS
330
198B
102
}
330
198B
100
AcDbVisualStyle
  2
Conceptual
 70
     9
177
     3
291
     0
 70
    58
 90
        3
176
     1
 90
        2
176
     1
 90
        0
176
     1
 90
        0
176
     1
 40
0.6
176
     1
 40
30.0
176
     1
 62
     7
420
 16777215
176
     1
 90
        2
176
     1
 90
        2
176
     1
 62
     7
176
     1
 62
   257
176
     1
 90
        1
176
     1
 90
        1
176
     1
 40
179.0
176
     1
 90
        8
176
     1
 62
     7
176
     1
 40
1.0
176
     1
 90
        1
176
     1
 90
        6
176
     1
 90
        2
176
     1
 62
     7
176
     1
 90
        3
176
     1
 90
        0
176
     1
 90
        0
176
     1
290
     0
176
     1
 90
        1
176
     1
 40
0.0
176
     1
 90
        0
176
     1
290
     0
176
     1
290
     1
176
     1
290
     1
176
     1
290
     0
176
     1
290
     0
176
     1
290
     0
176
     1
290
     0
176
     1
290
     0
176
     1
290
     0
176
     1
 90
       50
176
     1
 40
0.0
176
     1
 40
1.0
176
     1
 90
        0
176
     1
 62
    18
420
        0
176
     1
 90
       50
176
     1
 90
        3
176
     1
 62
     5
420
      255
176
     1
290
     0
176
     1
 90
       50
176
     1
 90
       50
176
     1
 90
       50
176
     1
290
     0
176
     1
 90
       50
176
     1
 62
   256
176
     0
 40
1.0
176
     0
 90
        2
176
     1
  1
strokes_ogs.tif
176
     1
290
     0
176
     1
 40
1.0
176
     1
 40
1.0
176
     1
  0
VISUALSTYLE
  5
1996
102
{ACAD_REACTORS
330
198B
102
}
330
198B
100
AcDbVisualStyle
  2
Dim
 70
    11
177
     3
291
     1
 70
    58
 90
        2
176
     1
 90
        2
176
     1
 90
        0
176
     1
 90
        0
176
     1
 40
0.6
176
     1
 40
30.0
176
     1
 62
     7
420
 16777215
176
     1
 90
        1
176
     1
 90
        4
176
     1
 62
     7
176
     1
 62
   257
176
     1
 90
        1
176
     1
 90
        1
176
     1
 40
1.0
176
     1
 90
        8
176
     1
 62
     7
176
     1
 40
1.0
176
     1
 90
        1
176
     1
 90
        6
176
     1
 90
        2
176
     1
 62
     7
176
     1
 90
        5
176
     1
 90
        0
176
     1
 90
        0
176
     1
290
     0
176
     1
 90
        1
176
     1
 40
-50.0
176
     1
 90
        0
176
     1
290
     0
176
     1
290
     1
176
     1
290
     1
176
     1
290
     0
176
     1
290
     0
176
     1
290
     0
176
     1
290
     0
176
     1
290
     0
176
     1
290
     0
176
     1
 90
       50
176
     1
 40
0.0
176
     1
 40
1.0
176
     1
 90
        0
176
     1
 62
    18
420
        0
176
     1
 90
       50
176
     1
 90
        3
176
     1
 62
     5
420
      255
176
     1
290
     0
176
     1
 90
       50
176
     1
 90
       50
176
     1
 90
       50
176
     1
290
     0
176
     1
 90
       50
176
     1
 62
   256
176
     0
 40
1.0
176
     0
 90
        2
176
     1
  1
strokes_ogs.tif
176
     1
290
     0
176
     1
 40
1.0
176
     1
 40
1.0
176
     1
  0
VISUALSTYLE
  5
19A3
102
{ACAD_REACTORS
330
198B
102
}
330
198B
100
AcDbVisualStyle
  2
EdgeColorOff
 70
    22
177
     3
291
     1
 70
    58
 90
        2
176
     0
 90
        2
176
     0
 90
        0
176
     0
 90
        0
176
     0
 40
0.6
176
     0
 40
30.0
176
     0
 62
     7
420
 16777215
176
     0
 90
        1
176
     0
 90
        4
176
     0
 62
     7
176
     0
 62
   257
176
     0
 90
        1
176
     0
 90
        1
176
     0
 40
1.0
176
     0
 90
        8
176
     2
 62
     7
176
     0
 40
1.0
176
     0
 90
        1
176
     0
 90
        6
176
     0
 90
        2
176
     0
 62
     7
176
     0
 90
        5
176
     0
 90
        0
176
     0
 90
        0
176
     0
290
     0
176
     0
 90
        1
176
     0
 40
0.0
176
     0
 90
        0
176
     0
290
     0
176
     0
290
     1
176
     0
290
     1
176
     0
290
     0
176
     0
290
     0
176
     0
290
     0
176
     0
290
     0
176
     0
290
     0
176
     0
290
     0
176
     0
 90
       50
176
     0
 40
0.0
176
     0
 40
1.0
176
     0
 90
        0
176
     0
 62
    18
420
        0
176
     0
 90
       50
176
     0
 90
        3
176
     0
 62
     5
420
      255
176
     0
290
     0
176
     0
 90
       50
176
     0
 90
       50
176
     0
 90
       50
176
     0
290
     0
176
     0
 90
       50
176
     0
 62
   256
176
     0
 40
1.0
176
     0
 90
        2
176
     0
  1
strokes_ogs.tif
176
     0
290
     0
176
     0
 40
1.0
176
     0
 40
1.0
176
     0
  0
VISUALSTYLE
  5
199A
102
{ACAD_REACTORS
330
198B
102
}
330
198B
100
AcDbVisualStyle
  2
Facepattern
 70
    15
177
     3
291
     1
 70
    58
 90
        2
176
     1
 90
        2
176
     1
 90
        0
176
     1
 90
        0
176
     1
 40
0.6
176
     1
 40
30.0
176
     1
 62
     7
420
 16777215
176
     1
 90
        1
176
     1
 90
        4
176
     1
 62
     7
176
     1
 62
   257
176
     1
 90
        1
176
     1
 90
        1
176
     1
 40
1.0
176
     1
 90
        8
176
     1
 62
     7
176
     1
 40
1.0
176
     1
 90
        1
176
     1
 90
        6
176
     1
 90
        2
176
     1
 62
     7
176
     1
 90
        5
176
     1
 90
        0
176
     1
 90
        0
176
     1
290
     0
176
     1
 90
        1
176
     1
 40
0.0
176
     1
 90
        0
176
     1
290
     0
176
     1
290
     1
176
     1
290
     1
176
     1
290
     0
176
     1
290
     0
176
     1
290
     0
176
     1
290
     0
176
     1
290
     0
176
     1
290
     0
176
     1
 90
       50
176
     1
 40
0.0
176
     1
 40
1.0
176
     1
 90
        0
176
     1
 62
    18
420
        0
176
     1
 90
       50
176
     1
 90
        3
176
     1
 62
     5
420
      255
176
     1
290
     0
176
     1
 90
       50
176
     1
 90
       50
176
     1
 90
       50
176
     1
290
     0
176
     1
 90
       50
176
     1
 62
   256
176
     0
 40
1.0
176
     0
 90
        2
176
     1
  1
strokes_ogs.tif
176
     1
290
     0
176
     1
 40
1.0
176
     1
 40
1.0
176
     1
  0
VISUALSTYLE
  5
198C
102
{ACAD_REACTORS
330
198B
102
}
330
198B
100
AcDbVisualStyle
  2
Flat
 70
     0
177
     3
291
     1
 70
    58
 90
        2
176
     1
 90
        1
176
     1
 90
        1
176
     1
 90
        2
176
     1
 40
0.6
176
     1
 40
30.0
176
     1
 62
     7
420
 16777215
176
     1
 90
        0
176
     1
 90
        0
176
     1
 62
     7
176
     1
 62
   257
176
     1
 90
        1
176
     1
 90
        1
176
     1
 40
1.0
176
     1
 90
        8
176
     1
 62
     7
176
     1
 40
1.0
176
     1
 90
        1
176
     1
 90
        6
176
     1
 90
        2
176
     1
 62
     7
176
     1
 90
        5
176
     1
 90
        0
176
     1
 90
        0
176
     1
290
     0
176
     1
 90
       13
176
     1
 40
0.0
176
     1
 90
        0
176
     1
290
     0
176
     1
290
     1
176
     1
290
     1
176
     1
290
     0
176
     1
290
     0
176
     1
290
     0
176
     1
290
     0
176
     1
290
     0
176
     1
290
     0
176
     1
 90
       50
176
     1
 40
0.0
176
     1
 40
1.0
176
     1
 90
        0
176
     1
 62
    18
420
        0
176
     1
 90
       50
176
     1
 90
        3
176
     1
 62
     5
420
      255
176
     1
290
     0
176
     1
 90
       50
176
     1
 90
       50
176
     1
 90
       50
176
     1
290
     0
176
     1
 90
       50
176
     1
 62
   256
176
     0
 40
1.0
176
     0
 90
        2
176
     1
  1
strokes_ogs.tif
176
     1
290
     0
176
     1
 40
1.0
176
     1
 40
1.0
176
     1
  0
VISUALSTYLE
  5
198D
102
{ACAD_REACTORS
330
198B
102
}
330
198B
100
AcDbVisualStyle
  2
FlatWithEdges
 70
     1
177
     3
291
     1
 70
    58
 90
        2
176
     1
 90
        1
176
     1
 90
        1
176
     1
 90
        2
176
     1
 40
0.6
176
     1
 40
30.0
176
     1
 62
     7
420
 16777215
176
     1
 90
        1
176
     1
 90
        0
176
     1
 62
     7
176
     1
 62
   257
176
     1
 90
        1
176
     1
 90
        1
176
     1
 40
1.0
176
     1
 90
        0
176
     1
 62
   257
176
     1
 40
1.0
176
     1
 90
        1
176
     1
 90
        6
176
     1
 90
        2
176
     1
 62
     7
176
     1
 90
        5
176
     1
 90
        0
176
     1
 90
        0
176
     1
290
     0
176
     1
 90
       13
176
     1
 40
0.0
176
     1
 90
        0
176
     1
290
     0
176
     1
290
     1
176
     1
290
     1
176
     1
290
     0
176
     1
290
     0
176
     1
290
     0
176
     1
290
     0
176
     1
290
     0
176
     1
290
     0
176
     1
 90
       50
176
     1
 40
0.0
176
     1
 40
1.0
176
     1
 90
        0
176
     1
 62
    18
420
        0
176
     1
 90
       50
176
     1
 90
        3
176
     1
 62
     5
420
      255
176
     1
290
     0
176
     1
 90
       50
176
     1
 90
       50
176
     1
 90
       50
176
     1
290
     0
176
     1
 90
       50
176
     1
 62
   256
176
     0
 40
1.0
176
     0
 90
        2
176
     1
  1
strokes_ogs.tif
176
     1
290
     0
176
     1
 40
1.0
176
     1
 40
1.0
176
     1
  0
VISUALSTYLE
  5
198E
102
{ACAD_REACTORS
330
198B
102
}
330
198B
100
AcDbVisualStyle
  2
Gouraud
 70
     2
177
     3
291
     1
 70
    58
 90
        2
176
     1
 90
        2
176
     1
 90
        1
176
     1
 90
        2
176
     1
 40
0.6
176
     1
 40
30.0
176
     1
 62
     7
420
 16777215
176
     1
 90
        0
176
     1
 90
        0
176
     1
 62
     7
176
     1
 62
   257
176
     1
 90
        1
176
     1
 90
        1
176
     1
 40
1.0
176
     1
 90
        0
176
     1
 62
     7
176
     1
 40
1.0
176
     1
 90
        1
176
     1
 90
        6
176
     1
 90
        2
176
     1
 62
     7
176
     1
 90
        5
176
     1
 90
        0
176
     1
 90
        0
176
     1
290
     0
176
     1
 90
       13
176
     1
 40
0.0
176
     1
 90
        0
176
     1
290
     0
176
     1
290
     1
176
     1
290
     1
176
     1
290
     0
176
     1
290
     0
176
     1
290
     0
176
     1
290
     0
176
     1
290
     0
176
     1
290
     0
176
     1
 90
       50
176
     1
 40
0.0
176
     1
 40
1.0
176
     1
 90
        0
176
     1
 62
    18
420
        0
176
     1
 90
       50
176
     1
 90
        3
176
     1
 62
     5
420
      255
176
     1
290
     0
176
     1
 90
       50
176
     1
 90
       50
176
     1
 90
       50
176
     1
290
     0
176
     1
 90
       50
176
     1
 62
   256
176
     0
 40
1.0
176
     0
 90
        2
176
     1
  1
strokes_ogs.tif
176
     1
290
     0
176
     1
 40
1.0
176
     1
 40
1.0
176
     1
  0
VISUALSTYLE
  5
198F
102
{ACAD_REACTORS
330
198B
102
}
330
198B
100
AcDbVisualStyle
  2
GouraudWithEdges
 70
     3
177
     3
291
     1
 70
    58
 90
        2
176
     1
 90
        2
176
     1
 90
        1
176
     1
 90
        2
176
     1
 40
0.6
176
     1
 40
30.0
176
     1
 62
     7
420
 16777215
176
     1
 90
        1
176
     1
 90
        0
176
     1
 62
     7
176
     1
 62
   257
176
     1
 90
        1
176
     1
 90
        1
176
     1
 40
1.0
176
     1
 90
        0
176
     1
 62
   257
176
     1
 40
1.0
176
     1
 90
        1
176
     1
 90
        6
176
     1
 90
        2
176
     1
 62
     7
176
     1
 90
        5
176
     1
 90
        0
176
     1
 90
        0
176
     1
290
     0
176
     1
 90
       13
176
     1
 40
0.0
176
     1
 90
        0
176
     1
290
     0
176
     1
290
     1
176
     1
290
     1
176
     1
290
     0
176
     1
290
     0
176
     1
290
     0
176
     1
290
     0
176
     1
290
     0
176
     1
290
     0
176
     1
 90
       50
176
     1
 40
0.0
176
     1
 40
1.0
176
     1
 90
        0
176
     1
 62
    18
420
        0
176
     1
 90
       50
176
     1
 90
        3
176
     1
 62
     5
420
      255
176
     1
290
     0
176
     1
 90
       50
176
     1
 90
       50
176
     1
 90
       50
176
     1
290
     0
176
     1
 90
       50
176
     1
 62
   256
176
     0
 40
1.0
176
     0
 90
        2
176
     1
  1
strokes_ogs.tif
176
     1
290
     0
176
     1
 40
1.0
176
     1
 40
1.0
176
     1
  0
VISUALSTYLE
  5
1993
102
{ACAD_REACTORS
330
198B
102
}
330
198B
100
AcDbVisualStyle
  2
Hidden
 70
     6
177
     3
291
     0
 70
    58
 90
        1
176
     1
 90
        2
176
     1
 90
        2
176
     1
 90
        0
176
     1
 40
0.6
176
     1
 40
30.0
176
     1
 62
     7
420
 16777215
176
     1
 90
        2
176
     1
 90
        2
176
     1
 62
     7
176
     1
 62
   257
176
     1
 90
        2
176
     1
 90
        1
176
     1
 40
40.0
176
     1
 90
        0
176
     1
 62
   257
176
     1
 40
1.0
176
     1
 90
        1
176
     1
 90
        6
176
     1
 90
        2
176
     1
 62
     7
176
     1
 90
        3
176
     1
 90
        0
176
     1
 90
        0
176
     1
290
     0
176
     1
 90
        1
176
     1
 40
0.0
176
     1
 90
        0
176
     1
290
     0
176
     1
290
     1
176
     1
290
     1
176
     1
290
     0
176
     1
290
     0
176
     1
290
     0
176
     1
290
     0
176
     1
290
     0
176
     1
290
     0
176
     1
 90
       50
176
     1
 40
0.0
176
     1
 40
1.0
176
     1
 90
        0
176
     1
 62
    18
420
        0
176
     1
 90
       50
176
     1
 90
        3
176
     1
 62
     5
420
      255
176
     1
290
     0
176
     1
 90
       50
176
     1
 90
       50
176
     1
 90
       50
176
     1
290
     0
176
     1
 90
       50
176
     1
 62
   256
176
     0
 40
1.0
176
     0
 90
        2
176
     1
  1
strokes_ogs.tif
176
     1
290
     0
176
     1
 40
1.0
176
     1
 40
1.0
176
     1
  0
VISUALSTYLE
  5
19A1
102
{ACAD_REACTORS
330
198B
102
}
330
198B
100
AcDbVisualStyle
  2
JitterOff
 70
    20
177
     3
291
     1
 70
    58
 90
        2
176
     0
 90
        2
176
     0
 90
        0
176
     0
 90
        0
176
     0
 40
0.6
176
     0
 40
30.0
176
     0
 62
     7
420
 16777215
176
     0
 90
        1
176
     0
 90
        4
176
     0
 62
     7
176
     0
 62
   257
176
     0
 90
        1
176
     0
 90
        1
176
     0
 40
1.0
176
     0
 90
       10
176
     2
 62
     7
176
     0
 40
1.0
176
     0
 90
        1
176
     0
 90
        6
176
     0
 90
        2
176
     0
 62
     7
176
     0
 90
        5
176
     0
 90
        0
176
     0
 90
        0
176
     0
290
     0
176
     0
 90
        1
176
     0
 40
0.0
176
     0
 90
        0
176
     0
290
     0
176
     0
290
     1
176
     0
290
     1
176
     0
290
     0
176
     0
290
     0
176
     0
290
     0
176
     0
290
     0
176
     0
290
     0
176
     0
290
     0
176
     0
 90
       50
176
     0
 40
0.0
176
     0
 40
1.0
176
     0
 90
        0
176
     0
 62
    18
420
        0
176
     0
 90
       50
176
     0
 90
        3
176
     0
 62
     5
420
      255
176
     0
290
     0
176
     0
 90
       50
176
     0
 90
       50
176
     0
 90
       50
176
     0
290
     0
176
     0
 90
       50
176
     0
 62
   256
176
     0
 40
1.0
176
     0
 90
        2
176
     0
  1
strokes_ogs.tif
176
     0
290
     0
176
     0
 40
1.0
176
     0
 40
1.0
176
     0
  0
VISUALSTYLE
  5
1999
102
{ACAD_REACTORS
330
198B
102
}
330
198B
100
AcDbVisualStyle
  2
Linepattern
 70
    14
177
     3
291
     1
 70
    58
 90
        2
176
     1
 90
        2
176
     1
 90
        0
176
     1
 90
        0
176
     1
 40
0.6
176
     1
 40
30.0
176
     1
 62
     7
420
 16777215
176
     1
 90
        1
176
     1
 90
        4
176
     1
 62
     7
176
     1
 62
   257
176
     1
 90
        7
176
     1
 90
        7
176
     1
 40
1.0
176
     1
 90
        8
176
     1
 62
     7
176
     1
 40
1.0
176
     1
 90
        1
176
     1
 90
        6
176
     1
 90
        2
176
     1
 62
     7
176
     1
 90
        5
176
     1
 90
        0
176
     1
 90
        0
176
     1
290
     0
176
     1
 90
        1
176
     1
 40
0.0
176
     1
 90
        0
176
     1
290
     0
176
     1
290
     1
176
     1
290
     1
176
     1
290
     0
176
     1
290
     0
176
     1
290
     0
176
     1
290
     0
176
     1
290
     0
176
     1
290
     0
176
     1
 90
       50
176
     1
 40
0.0
176
     1
 40
1.0
176
     1
 90
        0
176
     1
 62
    18
420
        0
176
     1
 90
       50
176
     1
 90
        3
176
     1
 62
     5
420
      255
176
     1
290
     0
176
     1
 90
       50
176
     1
 90
       50
176
     1
 90
       50
176
     1
290
     0
176
     1
 90
       50
176
     1
 62
   256
176
     0
 40
1.0
176
     0
 90
        2
176
     1
  1
strokes_ogs.tif
176
     1
290
     0
176
     1
 40
1.0
176
     1
 40
1.0
176
     1
  0
VISUALSTYLE
  5
19A2
102
{ACAD_REACTORS
330
198B
102
}
330
198B
100
AcDbVisualStyle
  2
OverhangOff
 70
    21
177
     3
291
     1
 70
    58
 90
        2
176
     0
 90
        2
176
     0
 90
        0
176
     0
 90
        0
176
     0
 40
0.6
176
     0
 40
30.0
176
     0
 62
     7
420
 16777215
176
     0
 90
        1
176
     0
 90
        4
176
     0
 62
     7
176
     0
 62
   257
176
     0
 90
        1
176
     0
 90
        1
176
     0
 40
1.0
176
     0
 90
        9
176
     2
 62
     7
176
     0
 40
1.0
176
     0
 90
        1
176
     0
 90
        6
176
     0
 90
        2
176
     0
 62
     7
176
     0
 90
        5
176
     0
 90
        0
176
     0
 90
        0
176
     0
290
     0
176
     0
 90
        1
176
     0
 40
0.0
176
     0
 90
        0
176
     0
290
     0
176
     0
290
     1
176
     0
290
     1
176
     0
290
     0
176
     0
290
     0
176
     0
290
     0
176
     0
290
     0
176
     0
290
     0
176
     0
290
     0
176
     0
 90
       50
176
     0
 40
0.0
176
     0
 40
1.0
176
     0
 90
        0
176
     0
 62
    18
420
        0
176
     0
 90
       50
176
     0
 90
        3
176
     0
 62
     5
420
      255
176
     0
290
     0
176
     0
 90
       50
176
     0
 90
       50
176
     0
 90
       50
176
     0
290
     0
176
     0
 90
       50
176
     0
 62
   256
176
     0
 40
1.0
176
     0
 90
        2
176
     0
  1
strokes_ogs.tif
176
     0
290
     0
176
     0
 40
1.0
176
     0
 40
1.0
176
     0
  0
VISUALSTYLE
  5
1995
102
{ACAD_REACTORS
330
198B
102
}
330
198B
100
AcDbVisualStyle
  2
Realistic
 70
     8
177
     3
291
     0
 70
    58
 90
        2
176
     1
 90
        3
176
     1
 90
        0
176
     1
 90
        2
176
     1
 40
0.6
176
     1
 40
30.0
176
     1
 62
     7
420
 16777215
176
     1
 90
        0
176
     1
 90
        0
176
     1
 62
     7
176
     1
 62
   257
176
     1
 90
        1
176
     1
 90
        1
176
     1
 40
1.0
176
     1
 90
        8
176
     1
 62
   257
176
     1
 40
1.0
176
     1
 90
        1
176
     1
 90
        6
176
     1
 90
        2
176
     1
 62
     7
176
     1
 90
        3
176
     1
 90
        0
176
     1
 90
        0
176
     1
290
     0
176
     1
 90
       13
176
     1
 40
0.0
176
     1
 90
        0
176
     1
290
     0
176
     1
290
     1
176
     1
290
     1
176
     1
290
     0
176
     1
290
     0
176
     1
290
     0
176
     1
290
     0
176
     1
290
     0
176
     1
290
     0
176
     1
 90
       50
176
     1
 40
0.0
176
     1
 40
1.0
176
     1
 90
        0
176
     1
 62
    18
420
        0
176
     1
 90
       50
176
     1
 90
        3
176
     1
 62
     5
420
      255
176
     1
290
     0
176
     1
 90
       50
176
     1
 90
       50
176
     1
 90
       50
176
     1
290
     0
176
     1
 90
       50
176
     1
 62
   256
176
     0
 40
1.0
176
     0
 90
        2
176
     1
  1
strokes_ogs.tif
176
     1
290
     0
176
     1
 40
1.0
176
     1
 40
1.0
176
     1
  0
VISUALSTYLE
  5
19A0
102
{ACAD_REACTORS
330
198B
102
}
330
198B
100
AcDbVisualStyle
  2
Shaded
 70
    27
177
     3
291
     0
 70
    58
 90
        2
176
     1
 90
        2
176
     1
 90
        1
176
     1
 90
        2
176
     1
 40
0.6
176
     1
 40
30.0
176
     1
 62
     7
420
 16777215
176
     1
 90
        0
176
     1
 90
        4
176
     1
 62
     7
176
     1
 62
   257
176
     1
 90
        1
176
     1
 90
        1
176
     1
 40
1.0
176
     1
 90
        8
176
     1
 62
   257
176
     1
 40
1.0
176
     1
 90
        1
176
     1
 90
        6
176
     1
 90
        2
176
     1
 62
     8
420
  7895160
176
     1
 90
        3
176
     1
 90
        0
176
     1
 90
        0
176
     1
290
     0
176
     1
 90
        5
176
     1
 40
0.0
176
     1
 90
        0
176
     1
290
     0
176
     1
290
     1
176
     1
290
     1
176
     1
290
     0
176
     1
290
     0
176
     1
290
     0
176
     1
290
     0
176
     1
290
     0
176
     1
290
     0
176
     1
 90
       50
176
     1
 40
0.0
176
     1
 40
1.0
176
     1
 90
        0
176
     1
 62
    18
420
        0
176
     1
 90
       50
176
     1
 90
        3
176
     1
 62
     5
420
      255
176
     1
290
     0
176
     1
 90
       50
176
     1
 90
       50
176
     1
 90
       50
176
     1
290
     0
176
     1
 90
       50
176
     1
 62
   256
176
     0
 40
1.0
176
     0
 90
        2
176
     1
  1
strokes_ogs.tif
176
     1
290
     0
176
     1
 40
1.0
176
     1
 40
1.0
176
     1
  0
VISUALSTYLE
  5
199F
102
{ACAD_REACTORS
330
198B
102
}
330
198B
100
AcDbVisualStyle
  2
Shaded with edges
 70
    26
177
     3
291
     0
 70
    58
 90
        2
176
     1
 90
        2
176
     1
 90
        1
176
     1
 90
        2
176
     1
 40
0.6
176
     1
 40
30.0
176
     1
 62
     7
420
 16777215
176
     1
 90
        1
176
     1
 90
        2
176
     1
 62
     7
176
     1
 62
   257
176
     1
 90
        2
176
     1
 90
        1
176
     1
 40
1.0
176
     1
 90
        8
176
     1
 62
   257
176
     1
 40
1.0
176
     1
 90
        1
176
     1
 90
        6
176
     1
 90
        2
176
     1
 62
     7
176
     1
 90
        3
176
     1
 90
        0
176
     1
 90
        0
176
     1
290
     0
176
     1
 90
        5
176
     1
 40
0.0
176
     1
 90
        0
176
     1
290
     0
176
     1
290
     1
176
     1
290
     1
176
     1
290
     0
176
     1
290
     0
176
     1
290
     0
176
     1
290
     0
176
     1
290
     0
176
     1
290
     0
176
     1
 90
       50
176
     1
 40
0.0
176
     1
 40
1.0
176
     1
 90
        0
176
     1
 62
    18
420
        0
176
     1
 90
       50
176
     1
 90
        3
176
     1
 62
     5
420
      255
176
     1
290
     0
176
     1
 90
       50
176
     1
 90
       50
176
     1
 90
       50
176
     1
290
     0
176
     1
 90
       50
176
     1
 62
   256
176
     0
 40
1.0
176
     0
 90
        2
176
     1
  1
strokes_ogs.tif
176
     1
290
     0
176
     1
 40
1.0
176
     1
 40
1.0
176
     1
  0
VISUALSTYLE
  5
199C
102
{ACAD_REACTORS
330
198B
102
}
330
198B
100
AcDbVisualStyle
  2
Shades of Gray
 70
    23
177
     3
291
     0
 70
    58
 90
        2
176
     1
 90
        2
176
     1
 90
        3
176
     1
 90
        0
176
     1
 40
0.6
176
     1
 40
30.0
176
     1
 62
     7
420
 16777215
176
     1
 90
        2
176
     1
 90
        2
176
     1
 62
     7
176
     1
 62
     7
176
     1
 90
        1
176
     1
 90
        1
176
     1
 40
40.0
176
     1
 90
        8
176
     1
 62
     7
176
     1
 40
1.0
176
     1
 90
        1
176
     1
 90
        6
176
     1
 90
        2
176
     1
 62
     7
176
     1
 90
        3
176
     1
 90
        0
176
     1
 90
        0
176
     1
290
     0
176
     1
 90
        1
176
     1
 40
0.0
176
     1
 90
        0
176
     1
290
     0
176
     1
290
     1
176
     1
290
     1
176
     1
290
     0
176
     1
290
     0
176
     1
290
     0
176
     1
290
     0
176
     1
290
     0
176
     1
290
     0
176
     1
 90
       50
176
     1
 40
0.0
176
     1
 40
1.0
176
     1
 90
        0
176
     1
 62
    18
420
        0
176
     1
 90
       50
176
     1
 90
        3
176
     1
 62
     5
420
      255
176
     1
290
     0
176
     1
 90
       50
176
     1
 90
       50
176
     1
 90
       50
176
     1
290
     0
176
     1
 90
       50
176
     1
 62
   256
176
     0
 40
1.0
176
     0
 90
        2
176
     1
  1
strokes_ogs.tif
176
     1
290
     0
176
     1
 40
1.0
176
     1
 40
1.0
176
     1
  0
VISUALSTYLE
  5
199D
102
{ACAD_REACTORS
330
198B
102
}
330
198B
100
AcDbVisualStyle
  2
Sketchy
 70
    24
177
     3
291
     0
 70
    58
 90
        1
176
     1
 90
        2
176
     1
 90
        2
176
     1
 90
        0
176
     1
 40
0.6
176
     1
 40
30.0
176
     1
 62
     7
420
 16777215
176
     1
 90
        2
176
     1
 90
        2
176
     1
 62
     7
176
     1
 62
     7
176
     1
 90
        1
176
     1
 90
        1
176
     1
 40
40.0
176
     1
 90
       11
176
     1
 62
     7
176
     1
 40
1.0
176
     1
 90
        1
176
     1
 90
        6
176
     1
 90
        2
176
     1
 62
     7
176
     1
 90
        6
176
     1
 90
        0
176
     1
 90
        0
176
     1
290
     0
176
     1
 90
        1
176
     1
 40
0.0
176
     1
 90
        0
176
     1
290
     0
176
     1
290
     1
176
     1
290
     1
176
     1
290
     0
176
     1
290
     0
176
     1
290
     0
176
     1
290
     0
176
     1
290
     0
176
     1
290
     0
176
     1
 90
       50
176
     1
 40
0.0
176
     1
 40
1.0
176
     1
 90
        0
176
     1
 62
    18
420
        0
176
     1
 90
       50
176
     1
 90
        3
176
     1
 62
     5
420
      255
176
     1
290
     0
176
     1
 90
       50
176
     1
 90
       50
176
     1
 90
       50
176
     1
290
     0
176
     1
 90
       50
176
     1
 62
   256
176
     0
 40
1.0
176
     0
 90
        2
176
     1
  1
strokes_ogs.tif
176
     1
290
     0
176
     1
 40
1.0
176
     1
 40
1.0
176
     1
  0
VISUALSTYLE
  5
1998
102
{ACAD_REACTORS
330
198B
102
}
330
198B
100
AcDbVisualStyle
  2
Thicken
 70
    13
177
     3
291
     1
 70
    58
 90
        2
176
     1
 90
        2
176
     1
 90
        0
176
     1
 90
        0
176
     1
 40
0.6
176
     1
 40
30.0
176
     1
 62
     7
420
 16777215
176
     1
 90
        1
176
     1
 90
        4
176
     1
 62
     7
176
     1
 62
   257
176
     1
 90
        1
176
     1
 90
        1
176
     1
 40
1.0
176
     1
 90
       12
176
     1
 62
     7
176
     1
 40
1.0
176
     1
 90
        1
176
     1
 90
        6
176
     1
 90
        2
176
     1
 62
     7
176
     1
 90
        5
176
     1
 90
        0
176
     1
 90
        0
176
     1
290
     0
176
     1
 90
        1
176
     1
 40
0.0
176
     1
 90
        0
176
     1
290
     0
176
     1
290
     1
176
     1
290
     1
176
     1
290
     0
176
     1
290
     0
176
     1
290
     0
176
     1
290
     0
176
     1
290
     0
176
     1
290
     0
176
     1
 90
       50
176
     1
 40
0.0
176
     1
 40
1.0
176
     1
 90
        0
176
     1
 62
    18
420
        0
176
     1
 90
       50
176
     1
 90
        3
176
     1
 62
     5
420
      255
176
     1
290
     0
176
     1
 90
       50
176
     1
 90
       50
176
     1
 90
       50
176
     1
290
     0
176
     1
 90
       50
176
     1
 62
   256
176
     0
 40
1.0
176
     0
 90
        2
176
     1
  1
strokes_ogs.tif
176
     1
290
     0
176
     1
 40
1.0
176
     1
 40
1.0
176
     1
  0
VISUALSTYLE
  5
1992
102
{ACAD_REACTORS
330
198B
102
}
330
198B
100
AcDbVisualStyle
  2
Wireframe
 70
     5
177
     3
291
     0
 70
    58
 90
        0
176
     1
 90
        2
176
     1
 90
        0
176
     1
 90
        0
176
     1
 40
0.6
176
     1
 40
30.0
176
     1
 62
     7
420
 16777215
176
     1
 90
        1
176
     1
 90
        4
176
     1
 62
     7
176
     1
 62
   257
176
     1
 90
        1
176
     1
 90
        1
176
     1
 40
1.0
176
     1
 90
        0
176
     1
 62
   257
176
     1
 40
1.0
176
     1
 90
        1
176
     1
 90
        6
176
     1
 90
        2
176
     1
 62
     7
176
     1
 90
        3
176
     1
 90
        0
176
     1
 90
        0
176
     1
290
     0
176
     1
 90
        1
176
     1
 40
0.0
176
     1
 90
        0
176
     1
290
     0
176
     1
290
     1
176
     1
290
     1
176
     1
290
     0
176
     1
290
     0
176
     1
290
     0
176
     1
290
     0
176
     1
290
     0
176
     1
290
     0
176
     1
 90
       50
176
     1
 40
0.0
176
     1
 40
1.0
176
     1
 90
        0
176
     1
 62
    18
420
        0
176
     1
 90
       50
176
     1
 90
        3
176
     1
 62
     5
420
      255
176
     1
290
     0
176
     1
 90
       50
176
     1
 90
       50
176
     1
 90
       50
176
     1
290
     0
176
     1
 90
       50
176
     1
 62
   256
176
     0
 40
1.0
176
     0
 90
        2
176
     1
  1
strokes_ogs.tif
176
     1
290
     0
176
     1
 40
1.0
176
     1
 40
1.0
176
     1
  0
VISUALSTYLE
  5
199E
102
{ACAD_REACTORS
330
198B
102
}
330
198B
100
AcDbVisualStyle
  2
X-Ray
 70
    25
177
     3
291
     0
 70
    58
 90
        2
176
     1
 90
        2
176
     1
 90
        1
176
     1
 90
        1
176
     1
 40
0.5
176
     1
 40
30.0
176
     1
 62
     7
420
 16777215
176
     1
 90
        1
176
     1
 90
        0
176
     1
 62
     7
176
     1
 62
   257
176
     1
 90
        1
176
     1
 90
        1
176
     1
 40
1.0
176
     1
 90
        8
176
     1
 62
     7
176
     1
 40
1.0
176
     1
 90
        1
176
     1
 90
        6
176
     1
 90
        2
176
     1
 62
     7
176
     1
 90
        3
176
     1
 90
        0
176
     1
 90
        0
176
     1
290
     0
176
     1
 90
       13
176
     1
 40
0.0
176
     1
 90
        0
176
     1
290
     0
176
     1
290
     1
176
     1
290
     1
176
     1
290
     0
176
     1
290
     0
176
     1
290
     0
176
     1
290
     0
176
     1
290
     0
176
     1
290
     0
176
     1
 90
       50
176
     1
 40
0.0
176
     1
 40
1.0
176
     1
 90
        0
176
     1
 62
    18
420
        0
176
     1
 90
       50
176
     1
 90
        3
176
     1
 62
     5
420
      255
176
     1
290
     0
176
     1
 90
       50
176
     1
 90
       50
176
     1
 90
       50
176
     1
290
     0
176
     1
 90
       50
176
     1
 62
   256
176
     0
 40
1.0
176
     0
 90
        2
176
     1
  1
strokes_ogs.tif
176
     1
290
     0
176
     1
 40
1.0
176
     1
 40
1.0
176
     1
  0
DICTIONARYVAR
  5
23C4
102
{ACAD_REACTORS
330
5E
102
}
330
5E
100
DictionaryVariables
280
     0
  1
1:1
  0
DICTIONARYVAR
  5
23C0
102
{ACAD_REACTORS
330
5E
102
}
330
5E
100
DictionaryVariables
280
     0
  1
STANDARD
  0
DICTIONARYVAR
  5
84
102
{ACAD_REACTORS
330
5E
102
}
330
5E
100
DictionaryVariables
280
     0
  1
STANDARD
  0
DICTIONARYVAR
  5
23C1
102
{ACAD_REACTORS
330
5E
102
}
330
5E
100
DictionaryVariables
280
     0
  1
Metric50
  0
DICTIONARYVAR
  5
23C2
102
{ACAD_REACTORS
330
5E
102
}
330
5E
100
DictionaryVariables
280
     0
  1
Metric50
  0
DICTIONARYVAR
  5
5F
102
{ACAD_REACTORS
330
5E
102
}
330
5E
100
DictionaryVariables
280
     0
  1
2
  0
DICTIONARYVAR
  5
63
102
{ACAD_REACTORS
330
5E
102
}
330
5E
100
DictionaryVariables
280
     0
  1
1
  0
DICTIONARYVAR
  5
23C6
102
{ACAD_REACTORS
330
5E
102
}
330
5E
100
DictionaryVariables
280
     0
  1
1
  0
DICTIONARYVAR
  5
23C7
102
{ACAD_REACTORS
330
5E
102
}
330
5E
100
DictionaryVariables
280
     0
  1
15
  0
DICTIONARYVAR
  5
23C5
102
{ACAD_REACTORS
330
5E
102
}
330
5E
100
DictionaryVariables
280
     0
  1
0
  0
DICTIONARYVAR
  5
23C3
102
{ACAD_REACTORS
330
5E
102
}
330
5E
100
DictionaryVariables
280
     0
  1
0
  0
DICTIONARY
  5
23D0
330
22
100
AcDbDictionary
280
     1
281
     1
  3
AcPublish_PlotSettingsOverride
360
23D1
  0
DICTIONARY
  5
197C
330
197B
100
AcDbDictionary
280
     1
281
     1
  3
BUMPTILE
360
197E
  3
DIFFUSETILE
360
197D
  3
OPACITYTILE
360
1981
  3
REFLECTIONTILE
360
1980
  3
REFRACTIONTILE
360
1982
  3
SPECULARTILE
360
197F
  0
DICTIONARY
  5
1974
330
1973
100
AcDbDictionary
280
     1
281
     1
  3
BUMPTILE
360
1976
  3
DIFFUSETILE
360
1975
  3
OPACITYTILE
360
1979
  3
REFLECTIONTILE
360
1978
  3
REFRACTIONTILE
360
197A
  3
SPECULARTILE
360
1977
  0
DICTIONARY
  5
1984
330
1983
100
AcDbDictionary
280
     1
281
     1
  3
BUMPTILE
360
1986
  3
DIFFUSETILE
360
1985
  3
OPACITYTILE
360
1989
  3
REFLECTIONTILE
360
1988
  3
REFRACTIONTILE
360
198A
  3
SPECULARTILE
360
1987
  0
DICTIONARY
  5
23DB
330
7F
100
AcDbDictionary
280
     1
281
     1
  3
ACAD_ROUNDTRIP_2008_TABLESTYLE_CELLSTYLEMAP
360
23DC
  0
PLOTSETTINGS
  5
23D1
102
{ACAD_REACTORS
330
23D0
102
}
330
23D0
100
AcDbPlotSettings
  1

  2
none_device
  4
ISO_A4_(210.00_x_297.00_MM)
  6

 40
7.5
 41
20.0
 42
7.5
 43
20.0
 44
210.0
 45
297.0
 46
11.54999923706054
 47
-13.65000009536743
 48
0.0
 49
0.0
140
0.0
141
0.0
142
1.0
143
19.84416771658413
 70
 11952
 72
     1
 73
     0
 74
     0
  7

 75
     0
147
0.05039264000799
 76
     0
 77
     2
 78
   300
148
524.9284609112874
149
498.5227546208152
1001
ACAD_PSEXT
1000
None
1000
None
1000
Not applicable
1000
The layout will not be plotted unless a new plotter configuration name is selected.
1070
     0
  0
XRECORD
  5
197E
102
{ACAD_REACTORS
330
197C
102
}
330
197C
100
AcDbXrecord
280
     1
270
     1
271
     1
  0
XRECORD
  5
197D
102
{ACAD_REACTORS
330
197C
102
}
330
197C
100
AcDbXrecord
280
     1
270
     1
271
     1
  0
XRECORD
  5
1981
102
{ACAD_REACTORS
330
197C
102
}
330
197C
100
AcDbXrecord
280
     1
270
     1
271
     1
  0
XRECORD
  5
1980
102
{ACAD_REACTORS
330
197C
102
}
330
197C
100
AcDbXrecord
280
     1
270
     1
271
     1
  0
XRECORD
  5
1982
102
{ACAD_REACTORS
330
197C
102
}
330
197C
100
AcDbXrecord
280
     1
270
     1
271
     1
  0
XRECORD
  5
197F
102
{ACAD_REACTORS
330
197C
102
}
330
197C
100
AcDbXrecord
280
     1
270
     1
271
     1
  0
XRECORD
  5
1976
102
{ACAD_REACTORS
330
1974
102
}
330
1974
100
AcDbXrecord
280
     1
270
     1
271
     1
  0
XRECORD
  5
1975
102
{ACAD_REACTORS
330
1974
102
}
330
1974
100
AcDbXrecord
280
     1
270
     1
271
     1
  0
XRECORD
  5
1979
102
{ACAD_REACTORS
330
1974
102
}
330
1974
100
AcDbXrecord
280
     1
270
     1
271
     1
  0
XRECORD
  5
1978
102
{ACAD_REACTORS
330
1974
102
}
330
1974
100
AcDbXrecord
280
     1
270
     1
271
     1
  0
XRECORD
  5
197A
102
{ACAD_REACTORS
330
1974
102
}
330
1974
100
AcDbXrecord
280
     1
270
     1
271
     1
  0
XRECORD
  5
1977
102
{ACAD_REACTORS
330
1974
102
}
330
1974
100
AcDbXrecord
280
     1
270
     1
271
     1
  0
XRECORD
  5
1986
102
{ACAD_REACTORS
330
1984
102
}
330
1984
100
AcDbXrecord
280
     1
270
     1
271
     1
  0
XRECORD
  5
1985
102
{ACAD_REACTORS
330
1984
102
}
330
1984
100
AcDbXrecord
280
     1
270
     1
271
     1
  0
XRECORD
  5
1989
102
{ACAD_REACTORS
330
1984
102
}
330
1984
100
AcDbXrecord
280
     1
270
     1
271
     1
  0
XRECORD
  5
1988
102
{ACAD_REACTORS
330
1984
102
}
330
1984
100
AcDbXrecord
280
     1
270
     1
271
     1
  0
XRECORD
  5
198A
102
{ACAD_REACTORS
330
1984
102
}
330
1984
100
AcDbXrecord
280
     1
270
     1
271
     1
  0
XRECORD
  5
1987
102
{ACAD_REACTORS
330
1984
102
}
330
1984
100
AcDbXrecord
280
     1
270
     1
271
     1
  0
CELLSTYLEMAP
  5
23DC
102
{ACAD_REACTORS
330
23DB
102
}
330
23DB
100
AcDbCellStyleMap
 90
        3
300
CELLSTYLE
  1
TABLEFORMAT_BEGIN
 90
        5
170
     1
 91
        0
 92
    32768
 62
   257
 93
        1
300
CONTENTFORMAT
  1
CONTENTFORMAT_BEGIN
 90
        0
 91
        0
 92
        4
 93
        0
300

 40
0.0
140
1.0
 94
        5
 62
     0
340
11
144
6.0
309
CONTENTFORMAT_END
171
     1
301
MARGIN
  1
CELLMARGIN_BEGIN
 40
1.5
 40
1.5
 40
1.5
 40
1.5
 40
0.18
 40
0.18
309
CELLMARGIN_END
 94
        6
 95
        1
302
GRIDFORMAT
  1
GRIDFORMAT_BEGIN
 90
        0
 91
        1
 62
     0
 92
       -2
340
0
 93
        0
 40
0.045
309
GRIDFORMAT_END
 95
        2
302
GRIDFORMAT
  1
GRIDFORMAT_BEGIN
 90
        0
 91
        1
 62
     0
 92
       -2
340
0
 93
        0
 40
0.045
309
GRIDFORMAT_END
 95
        4
302
GRIDFORMAT
  1
GRIDFORMAT_BEGIN
 90
        0
 91
        1
 62
     0
 92
       -2
340
0
 93
        0
 40
0.045
309
GRIDFORMAT_END
 95
        8
302
GRIDFORMAT
  1
GRIDFORMAT_BEGIN
 90
        0
 91
        1
 62
     0
 92
       -2
340
0
 93
        0
 40
0.045
309
GRIDFORMAT_END
 95
       16
302
GRIDFORMAT
  1
GRIDFORMAT_BEGIN
 90
        0
 91
        1
 62
     0
 92
       -2
340
0
 93
        0
 40
0.045
309
GRIDFORMAT_END
 95
       32
302
GRIDFORMAT
  1
GRIDFORMAT_BEGIN
 90
        0
 91
        1
 62
     0
 92
       -2
340
0
 93
        0
 40
0.045
309
GRIDFORMAT_END
309
TABLEFORMAT_END
  1
CELLSTYLE_BEGIN
 90
        1
 91
        1
300
_TITLE
309
CELLSTYLE_END
300
CELLSTYLE
  1
TABLEFORMAT_BEGIN
 90
        5
170
     1
 91
        0
 92
        0
 62
   257
 93
        1
300
CONTENTFORMAT
  1
CONTENTFORMAT_BEGIN
 90
        0
 91
        0
 92
        4
 93
        0
300

 40
0.0
140
1.0
 94
        5
 62
     0
340
11
144
4.5
309
CONTENTFORMAT_END
171
     1
301
MARGIN
  1
CELLMARGIN_BEGIN
 40
1.5
 40
1.5
 40
1.5
 40
1.5
 40
0.18
 40
0.18
309
CELLMARGIN_END
 94
        6
 95
        1
302
GRIDFORMAT
  1
GRIDFORMAT_BEGIN
 90
        0
 91
        1
 62
     0
 92
       -2
340
0
 93
        0
 40
0.045
309
GRIDFORMAT_END
 95
        2
302
GRIDFORMAT
  1
GRIDFORMAT_BEGIN
 90
        0
 91
        1
 62
     0
 92
       -2
340
0
 93
        0
 40
0.045
309
GRIDFORMAT_END
 95
        4
302
GRIDFORMAT
  1
GRIDFORMAT_BEGIN
 90
        0
 91
        1
 62
     0
 92
       -2
340
0
 93
        0
 40
0.045
309
GRIDFORMAT_END
 95
        8
302
GRIDFORMAT
  1
GRIDFORMAT_BEGIN
 90
        0
 91
        1
 62
     0
 92
       -2
340
0
 93
        0
 40
0.045
309
GRIDFORMAT_END
 95
       16
302
GRIDFORMAT
  1
GRIDFORMAT_BEGIN
 90
        0
 91
        1
 62
     0
 92
       -2
340
0
 93
        0
 40
0.045
309
GRIDFORMAT_END
 95
       32
302
GRIDFORMAT
  1
GRIDFORMAT_BEGIN
 90
        0
 91
        1
 62
     0
 92
       -2
340
0
 93
        0
 40
0.045
309
GRIDFORMAT_END
309
TABLEFORMAT_END
  1
CELLSTYLE_BEGIN
 90
        2
 91
        1
300
_HEADER
309
CELLSTYLE_END
300
CELLSTYLE
  1
TABLEFORMAT_BEGIN
 90
        5
170
     1
 91
        0
 92
        0
 62
   257
 93
        1
300
CONTENTFORMAT
  1
CONTENTFORMAT_BEGIN
 90
        0
 91
        0
 92
        4
 93
        0
300

 40
0.0
140
1.0
 94
        2
 62
     0
340
11
144
4.5
309
CONTENTFORMAT_END
171
     1
301
MARGIN
  1
CELLMARGIN_BEGIN
 40
1.5
 40
1.5
 40
1.5
 40
1.5
 40
0.18
 40
0.18
309
CELLMARGIN_END
 94
        6
 95
        1
302
GRIDFORMAT
  1
GRIDFORMAT_BEGIN
 90
        0
 91
        1
 62
     0
 92
       -2
340
0
 93
        0
 40
0.045
309
GRIDFORMAT_END
 95
        2
302
GRIDFORMAT
  1
GRIDFORMAT_BEGIN
 90
        0
 91
        1
 62
     0
 92
       -2
340
0
 93
        0
 40
0.045
309
GRIDFORMAT_END
 95
        4
302
GRIDFORMAT
  1
GRIDFORMAT_BEGIN
 90
        0
 91
        1
 62
     0
 92
       -2
340
0
 93
        0
 40
0.045
309
GRIDFORMAT_END
 95
        8
302
GRIDFORMAT
  1
GRIDFORMAT_BEGIN
 90
        0
 91
        1
 62
     0
 92
       -2
340
0
 93
        0
 40
0.045
309
GRIDFORMAT_END
 95
       16
302
GRIDFORMAT
  1
GRIDFORMAT_BEGIN
 90
        0
 91
        1
 62
     0
 92
       -2
340
0
 93
        0
 40
0.045
309
GRIDFORMAT_END
 95
       32
302
GRIDFORMAT
  1
GRIDFORMAT_BEGIN
 90
        0
 91
        1
 62
     0
 92
       -2
340
0
 93
        0
 40
0.045
309
GRIDFORMAT_END
309
TABLEFORMAT_END
  1
CELLSTYLE_BEGIN
 90
        3
 91
        2
300
_DATA
309
CELLSTYLE_END
  0
ENDSEC
  0
SECTION
  2
ACDSDATA
 70
     2
 71
     8
  0
ACDSSCHEMA
 90
        0
  1
AcDb_Thumbnail_Schema
  2
AcDbDs::ID
280
    10
 91
        8
  2
Thumbnail_Data
280
    15
 91
        0
101
ACDSRECORD
 95
        0
 90
        1
  2
AcDbDs::TreatedAsObjectData
280
     1
291
     1
101
ACDSRECORD
 95
        0
 90
        2
  2
AcDbDs::Legacy
280
     1
291
     1
101
ACDSRECORD
  1
AcDbDs::ID
 90
        3
  2
AcDs:Indexable
280
     1
291
     1
101
ACDSRECORD
  1
AcDbDs::ID
 90
        4
  2
AcDbDs::HandleAttribute
280
     7
282
     1
  0
ACDSSCHEMA
 90
        1
  1
AcDbDs::TreatedAsObjectDataSchema
  2
AcDbDs::TreatedAsObjectData
280
     1
 91
        0
  0
ACDSSCHEMA
 90
        2
  1
AcDbDs::LegacySchema
  2
AcDbDs::Legacy
280
     1
 91
        0
  0
ACDSSCHEMA
 90
        3
  1
AcDbDs::IndexedPropertySchema
  2
AcDs:Indexable
280
     1
 91
        0
  0
ACDSSCHEMA
 90
        4
  1
AcDbDs::HandleAttributeSchema
  2
AcDbDs::HandleAttribute
280
     7
 91
        1
284
     1
  0
ACDSRECORD
 90
        0
  2
AcDbDs::ID
280
    10
320
22
  2
Thumbnail_Data
280
    15
 94
     2395
310
89504E470D0A1A0A0000000D494844520000010000000085080300000083A6D68B00000300504C5445212830FFFFFF2128300000000000000000000000000000000000000000000000000000330000660000990000CC0000FF0033000033330033660033990033CC0033FF0066000066330066660066990066CC0066FF0099
310
000099330099660099990099CC0099FF00CC0000CC3300CC6600CC9900CCCC00CCFF00FF0000FF3300FF6600FF9900FFCC00FFFF3300003300333300663300993300CC3300FF3333003333333333663333993333CC3333FF3366003366333366663366993366CC3366FF3399003399333399663399993399CC3399FF33CC00
310
33CC3333CC6633CC9933CCCC33CCFF33FF0033FF3333FF6633FF9933FFCC33FFFF6600006600336600666600996600CC6600FF6633006633336633666633996633CC6633FF6666006666336666666666996666CC6666FF6699006699336699666699996699CC6699FF66CC0066CC3366CC6666CC9966CCCC66CCFF66FF0066
310
FF3366FF6666FF9966FFCC66FFFF9900009900339900669900999900CC9900FF9933009933339933669933999933CC9933FF9966009966339966669966999966CC9966FF9999009999339999669999999999CC9999FF99CC0099CC3399CC6699CC9999CCCC99CCFF99FF0099FF3399FF6699FF9999FFCC99FFFFCC0000CC00
310
33CC0066CC0099CC00CCCC00FFCC3300CC3333CC3366CC3399CC33CCCC33FFCC6600CC6633CC6666CC6699CC66CCCC66FFCC9900CC9933CC9966CC9999CC99CCCC99FFCCCC00CCCC33CCCC66CCCC99CCCCCCCCCCFFCCFF00CCFF33CCFF66CCFF99CCFFCCCCFFFFFF0000FF0033FF0066FF0099FF00CCFF00FFFF3300FF3333
310
FF3366FF3399FF33CCFF33FFFF6600FF6633FF6666FF6699FF66CCFF66FFFF9900FF9933FF9966FF9999FF99CCFF99FFFFCC00FFCC33FFCC66FFCC99FFCCCCFFCCFFFFFF00FFFF33FFFF66FFFF99FFFFCCFFFFFF0000000D0D0D1A1A1A2828283535354343435050505D5D5D6B6B6B787878868686939393A1A1A1AEAEAEBB
310
BBBBC9C9C9D6D6D6E4E4E4F1F1F1FFFFFF0000000000000000000000000000000000000000000000000000000000002E4550F1000004894944415478DAED9CEB8EA3300C85FDFEEF7BFEAF3453125F43605AAD5D7CB4DAA9545A950FC73E7102449705FCFE61AF2F7D9CEA0B43773E5CF05469FC7BC3895403402F003F2FDF
310
F2954583FD76C87F630E68000D603B819C033047FDA6DDEF00E0650D38477995E741006805E0558641E5B01C3FDAF715FC3F7994A9383F84506F60B895F30070BC4BC76BF3B971B21313558A007C40A5EA1C8B6092A1CB2FF6F1963E467E1D8AD54FE85F8B380962C71D140380A703785E04BC25B1D506B08E00AC8C10BE0D
310
C07155113B3FF7D3A5015C1C07A739A328001AFECE096D7811017666E50110A4FB173F9A797E190BC062DE5C1380F4015EEB1C22EA27825B005218E43802E09D1A464808E374AF802604C022C01FDB1873FCED2699572812CD8DA208107F0D009CBAC0F5D587D339C89103E6FC6EC43B3C006CF06371EA4EE278A51A64E912
310
F07C3723809FBF6C78B014C02EA7DB1262AF0C00092A1500700A326AC5BAE26CFDA806980380D871289203EC15927680B7C5206B8497F15F56AB1600D6E26397974650433700035FEC55CAAC4608B20C12EF8EB386A8E87F1AE748DE84520D818400F4EF83F26BAFCB4FC43C30E0B93DB7A7921F002200D3EDCD1A46BA752A
310
A650502B4635005C34B44E90C32985B378DA9944928618391D1078A96C4C9682AE800819F009436600E485AB07E0D86922A6423E009D2D8FEFCB380460B6CF8411E09C970FC066CBFC00B003406E2F3B2CD0B40F5050D958290340CF067D0234D77B412A299EB70190A40F20331BF37A0B006C9AA41DB18E0072226012CF3B
310
04D611A0FC615016D9BE3C0740C60888868037615F7031DB426C199486BB0000BBE3670780DD8CAB00500900FEDE9E2D001439C1D849A5B0C21C403477DD03301A00D586C0DA075C0320B342B91C800D002C491ED73BE8F6AAA6493E00741300CDF69FED87B90080224E7033024614802F1A3D088031426C2B650C209F15BE
310
3704BC9C6F1BA5B9012CCAE075007112280380D812C90D00A16D107B672B0138DF2D4E7CDD23983B662E836B00DE7E69DB208801F0B74F164F120370F646B2D3028411B22DB4D93E2A07E0E8005204809D22823E326CD7B15004A8954F1F0073831412A808C0F4CBD5DBDC0B1D474704AA0288F745EA9B82280070BC437500
310
605E62846550B43A26007F10502D00C40144F70D8AFEC1D8F6101E2FDFAB1301FED28006400C804F80EFC34DB845C207101A5607806CA3FA6E50DF5B9017804CF3E79BC3792BC8FBC4182108EA480E00082743EBFB29E0B63D4FE602B98780BD116EEFEE01903D45B62C901900E8F20D1361C18FDA45CE4EFB5C007CAB87FD
310
7EC0A291AE7300457B0CFE5F532C5EC9FEA428A9F466E93F47809BF5730118559F0DF20F03C876D5F54A282E1BD6D200606EF27F20005DE7ACE383BC7B2C02C09F3241004A0C016F06A3EC117B62046D01A0F1988DA200DE5DF42A02D8FFD1CED3DA646CD4034057AF5AE86D6E7C57BD08F836001B7655DD17B538BEDC6364
310
C83E0C28B20E6C970CCE136AC50878E483847867F0EF23F7280078FC83085BAD56ABD56AB55AAD56ABD56AB55AAD56ABD56AB55AAD56ABD56AB55AAD56ABD56AB55AAD56ABD5DAD53F772E872D40C701A60000000049454E44AE42608294034067014C3D4A39001F94FCB4B4B4B4B4B4B4B4B4B4B4B4B4B4B4B4B4B4B4B4B4
310
B4B4B4B4B4B4B4B424977FF29B12F6D91FBD9E0000000049454E44AE426082A17999DF47047D716B4500EC1A6D3BB5BA0E00BC9C007501B00C787B656A0FC071954D150047894CD0614FEE8C551252EB884A00C4019011003153CC2F9F8554D200FD3726A22AB1268DBA4F31BF634BE86576993520CEDD936B76F514838708
310
26B4EADDD49BC80644A763447FCD5F98200D08EE06878C00C0BD4094FCE3D93F523A4D0E460E95C80DA05709E112E08D84ACDFA0393749A60157B44D81A78AD81D9E9900F09EA1BE0D186CF7F86BEEEFEE24052073B5C2A70080BD9CE96CE8AF86A41C5A03045768003F6B4A29BFAAFFFB3A80A4D3FF7000331A20B7D60013
310
DD8BC4098E21007217EB1D00E04100AEF779152F50C007EFB9E4C34A02E82C8E05A01E80C965DBF44F05E6B1A00D987AE6A9983EEC41CC1E113DF922A5600BFBB136C9BA89728D35D658638D35D658638D35D658638D0BC73F1FDEE8829FAF7EF00000000049454E44AE426082
  0
ENDSEC
  0
EOF
