  0
SECTION
  2
HEADER
  9
$ACADVER
  1
AC1032
  9
$ACADMAINTVER
 90
        4
  9
$DWGCODEPAGE
  3
ANSI_1252
  9
$LASTSAVEDBY
  1
Siqi
  9
$REQUIREDVERSIONS
160
                 0
  9
$INSBASE
 10
0.0
 20
0.0
 30
0.0
  9
$EXTMIN
 10
37927.69730374975
 20
4244.985143528804
 30
0.0
  9
$EXTMAX
 10
39185.51932601209
 20
6199.162648810383
 30
0.0
  9
$LIMMIN
 10
0.0
 20
0.0
  9
$LIMMAX
 10
420.0
 20
297.0
  9
$ORTHOMODE
 70
     0
  9
$REGENMODE
 70
     1
  9
$FILLMODE
 70
     1
  9
$QTEXTMODE
 70
     0
  9
$MIRRTEXT
 70
     0
  9
$LTSCALE
 40
1.0
  9
$ATTMODE
 70
     1
  9
$TEXTSIZE
 40
2.5
  9
$TRACEWID
 40
1.0
  9
$TEXTSTYLE
  7
Standard
  9
$CLAYER
  8
DIM
  9
$CELTYPE
  6
ByLayer
  9
$CECOLOR
 62
   256
  9
$CELTSCALE
 40
1.0
  9
$DISPSILH
 70
     0
  9
$DIMSCALE
 40
1.0
  9
$DIMASZ
 40
8.0
  9
$DIMEXO
 40
1.0
  9
$DIMDLI
 40
3.75
  9
$DIMRND
 40
0.0
  9
$DIMDLE
 40
0.0
  9
$DIMEXE
 40
1.25
  9
$DIMTP
 40
0.0
  9
$DIMTM
 40
0.0
  9
$DIMTXT
 40
15.0
  9
$DIMCEN
 40
0.5
  9
$DIMTSZ
 40
0.0
  9
$DIMTOL
 70
     0
  9
$DIMLIM
 70
     0
  9
$DIMTIH
 70
     0
  9
$DIMTOH
 70
     0
  9
$DIMSE1
 70
     0
  9
$DIMSE2
 70
     0
  9
$DIMTAD
 70
     1
  9
$DIMZIN
 70
     8
  9
$DIMBLK
  1

  9
$DIMASO
 70
     1
  9
$DIMSHO
 70
     1
  9
$DIMPOST
  1

  9
$DIMAPOST
  1

  9
$DIMALT
 70
     1
  9
$DIMALTD
 70
     2
  9
$DIMALTF
 40
0.03937007874
  9
$DIMLFAC
 40
1.0
  9
$DIMTOFL
 70
     1
  9
$DIMTVP
 40
0.0
  9
$DIMTIX
 70
     0
  9
$DIMSOXD
 70
     0
  9
$DIMSAH
 70
     0
  9
$DIMBLK1
  1

  9
$DIMBLK2
  1

  9
$DIMSTYLE
  2
ISO-25
  9
$DIMCLRD
 70
     0
  9
$DIMCLRE
 70
     0
  9
$DIMCLRT
 70
     0
  9
$DIMTFAC
 40
1.0
  9
$DIMGAP
 40
3.0
  9
$DIMJUST
 70
     0
  9
$DIMSD1
 70
     0
  9
$DIMSD2
 70
     0
  9
$DIMTOLJ
 70
     0
  9
$DIMTZIN
 70
     8
  9
$DIMALTZ
 70
     0
  9
$DIMALTTZ
 70
     0
  9
$DIMUPT
 70
     0
  9
$DIMDEC
 70
     2
  9
$DIMTDEC
 70
     2
  9
$DIMALTU
 70
     2
  9
$DIMALTTD
 70
     2
  9
$DIMTXSTY
  7
Standard
  9
$DIMAUNIT
 70
     0
  9
$DIMADEC
 70
     2
  9
$DIMALTRND
 40
0.0
  9
$DIMAZIN
 70
     0
  9
$DIMDSEP
 70
    44
  9
$DIMATFIT
 70
     3
  9
$DIMFRAC
 70
     0
  9
$DIMLDRBLK
  1

  9
$DIMLUNIT
 70
     2
  9
$DIMLWD
 70
    -2
  9
$DIMLWE
 70
    -2
  9
$DIMTMOVE
 70
     0
  9
$DIMFXL
 40
1.0
  9
$DIMFXLON
 70
     0
  9
$DIMJOGANG
 40
0.7853981633974483
  9
$DIMTFILL
 70
     0
  9
$DIMTFILLCLR
 70
     0
  9
$DIMARCSYM
 70
     0
  9
$DIMLTYPE
  6

  9
$DIMLTEX1
  6

  9
$DIMLTEX2
  6

  9
$DIMTXTDIRECTION
 70
     0
  9
$LUNITS
 70
     2
  9
$LUPREC
 70
     4
  9
$SKETCHINC
 40
1.0
  9
$FILLETRAD
 40
70.0
  9
$AUNITS
 70
     0
  9
$AUPREC
 70
     0
  9
$MENU
  1
.
  9
$ELEVATION
 40
0.0
  9
$PELEVATION
 40
0.0
  9
$THICKNESS
 40
0.0
  9
$LIMCHECK
 70
     0
  9
$CHAMFERA
 40
0.0
  9
$CHAMFERB
 40
0.0
  9
$CHAMFERC
 40
0.0
  9
$CHAMFERD
 40
0.0
  9
$SKPOLY
 70
     0
  9
$TDCREATE
 40
2453649.060439815
  9
$TDUCREATE
 40
2453649.352115521
  9
$TDUPDATE
 40
2457974.700231481
  9
$TDUUPDATE
 40
2457974.991898149
  9
$TDINDWG
 40
0.7719329282
  9
$TDUSRTIMER
 40
0.7719282292
  9
$USRTIMER
 70
     1
  9
$ANGBASE
 50
0.0
  9
$ANGDIR
 70
     0
  9
$PDMODE
 70
     0
  9
$PDSIZE
 40
0.0
  9
$PLINEWID
 40
0.0
  9
$SPLFRAME
 70
     0
  9
$SPLINETYPE
 70
     6
  9
$SPLINESEGS
 70
     8
  9
$HANDSEED
  5
50E8
  9
$SURFTAB1
 70
     6
  9
$SURFTAB2
 70
     6
  9
$SURFTYPE
 70
     6
  9
$SURFU
 70
     6
  9
$SURFV
 70
     6
  9
$UCSBASE
  2

  9
$UCSNAME
  2

  9
$UCSORG
 10
20135.92273348905
 20
3420.432723209263
 30
0.0
  9
$UCSXDIR
 10
1.0
 20
0.0
 30
0.0
  9
$UCSYDIR
 10
0.0
 20
1.0
 30
0.0
  9
$UCSORTHOREF
  2

  9
$UCSORTHOVIEW
 70
     0
  9
$UCSORGTOP
 10
0.0
 20
0.0
 30
0.0
  9
$UCSORGBOTTOM
 10
0.0
 20
0.0
 30
0.0
  9
$UCSORGLEFT
 10
0.0
 20
0.0
 30
0.0
  9
$UCSORGRIGHT
 10
0.0
 20
0.0
 30
0.0
  9
$UCSORGFRONT
 10
0.0
 20
0.0
 30
0.0
  9
$UCSORGBACK
 10
0.0
 20
0.0
 30
0.0
  9
$PUCSBASE
  2

  9
$PUCSNAME
  2

  9
$PUCSORG
 10
0.0
 20
0.0
 30
0.0
  9
$PUCSXDIR
 10
1.0
 20
0.0
 30
0.0
  9
$PUCSYDIR
 10
0.0
 20
1.0
 30
0.0
  9
$PUCSORTHOREF
  2

  9
$PUCSORTHOVIEW
 70
     0
  9
$PUCSORGTOP
 10
0.0
 20
0.0
 30
0.0
  9
$PUCSORGBOTTOM
 10
0.0
 20
0.0
 30
0.0
  9
$PUCSORGLEFT
 10
0.0
 20
0.0
 30
0.0
  9
$PUCSORGRIGHT
 10
0.0
 20
0.0
 30
0.0
  9
$PUCSORGFRONT
 10
0.0
 20
0.0
 30
0.0
  9
$PUCSORGBACK
 10
0.0
 20
0.0
 30
0.0
  9
$USERI1
 70
     0
  9
$USERI2
 70
     0
  9
$USERI3
 70
     0
  9
$USERI4
 70
     0
  9
$USERI5
 70
     0
  9
$USERR1
 40
0.0
  9
$USERR2
 40
0.0
  9
$USERR3
 40
0.0
  9
$USERR4
 40
0.0
  9
$USERR5
 40
2.5
  9
$WORLDVIEW
 70
     1
  9
$SHADEDGE
 70
     3
  9
$SHADEDIF
 70
    70
  9
$TILEMODE
 70
     1
  9
$MAXACTVP
 70
    64
  9
$PINSBASE
 10
0.0
 20
0.0
 30
0.0
  9
$PLIMCHECK
 70
     0
  9
$PEXTMIN
 10
0.0
 20
0.0
 30
0.0
  9
$PEXTMAX
 10
0.0
 20
0.0
 30
0.0
  9
$PLIMMIN
 10
0.0
 20
0.0
  9
$PLIMMAX
 10
12.0
 20
9.0
  9
$UNITMODE
 70
     0
  9
$VISRETAIN
 70
     1
  9
$PLINEGEN
 70
     0
  9
$PSLTSCALE
 70
     1
  9
$TREEDEPTH
 70
  3020
  9
$CMLSTYLE
  2
Standard
  9
$CMLJUST
 70
     0
  9
$CMLSCALE
 40
20.0
  9
$PROXYGRAPHICS
 70
     1
  9
$MEASUREMENT
 70
     1
  9
$CELWEIGHT
370
    -1
  9
$ENDCAPS
280
     0
  9
$JOINSTYLE
280
     0
  9
$LWDISPLAY
290
     0
  9
$INSUNITS
 70
     4
  9
$HYPERLINKBASE
  1

  9
$STYLESHEET
  1

  9
$XEDIT
290
     1
  9
$CEPSNTYPE
380
     0
  9
$PSTYLEMODE
290
     1
  9
$FINGERPRINTGUID
  2
{FDEAD578-A652-11D2-9A35-0060089B3A3F}
  9
$VERSIONGUID
  2
{DA3C9B67-DDD8-5F43-BF3B-92FBADADBE68}
  9
$EXTNAMES
290
     1
  9
$PSVPSCALE
 40
0.0
  9
$OLESTARTUP
290
     0
  9
$SORTENTS
280
   127
  9
$INDEXCTL
280
     0
  9
$HIDETEXT
280
     1
  9
$XCLIPFRAME
280
     0
  9
$HALOGAP
280
     0
  9
$OBSCOLOR
 70
   257
  9
$OBSLTYPE
280
     0
  9
$INTERSECTIONDISPLAY
280
     0
  9
$INTERSECTIONCOLOR
 70
   257
  9
$DIMASSOC
280
     2
  9
$PROJECTNAME
  1

  9
$CAMERADISPLAY
290
     0
  9
$LENSLENGTH
 40
50.0
  9
$CAMERAHEIGHT
 40
0.0
  9
$STEPSPERSEC
 40
2.0
  9
$STEPSIZE
 40
6.0
  9
$3DDWFPREC
 40
2.0
  9
$PSOLWIDTH
 40
0.25
  9
$PSOLHEIGHT
 40
4.0
  9
$LOFTANG1
 40
1.570796326794896
  9
$LOFTANG2
 40
1.570796326794896
  9
$LOFTMAG1
 40
0.0
  9
$LOFTMAG2
 40
0.0
  9
$LOFTPARAM
 70
     7
  9
$LOFTNORMALS
280
     1
  9
$LATITUDE
 40
37.795
  9
$LONGITUDE
 40
-122.394
  9
$NORTHDIRECTION
 40
0.0
  9
$TIMEZONE
 70
 -8000
  9
$LIGHTGLYPHDISPLAY
280
     1
  9
$TILEMODELIGHTSYNCH
280
     1
  9
$CMATERIAL
347
507C
  9
$SOLIDHIST
280
     1
  9
$SHOWHIST
280
     1
  9
$DWFFRAME
280
     2
  9
$DGNFRAME
280
     0
  9
$REALWORLDSCALE
290
     1
  9
$INTERFERECOLOR
 62
     1
  9
$INTERFEREOBJVS
345
5089
  9
$INTERFEREVPVS
346
50A5
  9
$CSHADOW
280
     0
  9
$SHADOWPLANELOCATION
 40
0.0
  0
ENDSEC
  0
SECTION
  2
CLASSES
  0
CLASS
  1
ACDBDICTIONARYWDFLT
  2
AcDbDictionaryWithDefault
  3
ObjectDBX Classes
 90
        0
 91
        1
280
     0
281
     0
  0
CLASS
  1
ACDBPLACEHOLDER
  2
AcDbPlaceHolder
  3
ObjectDBX Classes
 90
        0
 91
        1
280
     0
281
     0
  0
CLASS
  1
LAYOUT
  2
AcDbLayout
  3
ObjectDBX Classes
 90
        0
 91
        3
280
     0
281
     0
  0
CLASS
  1
DICTIONARYVAR
  2
AcDbDictionaryVar
  3
ObjectDBX Classes
 90
        0
 91
       20
280
     0
281
     0
  0
CLASS
  1
DIMASSOC
  2
AcDbDimAssoc
  3
"AcDbDimAssoc|Product Desc:     AcDim ARX App For Dimension|Company:          Autodesk, Inc.|WEB Address:      www.autodesk.com"
 90
        0
 91
       13
280
     0
281
     0
  0
CLASS
  1
MATERIAL
  2
AcDbMaterial
  3
ObjectDBX Classes
 90
     1153
 91
        3
280
     0
281
     0
  0
CLASS
  1
VISUALSTYLE
  2
AcDbVisualStyle
  3
ObjectDBX Classes
 90
     4095
 91
       26
280
     0
281
     0
  0
CLASS
  1
TABLESTYLE
  2
AcDbTableStyle
  3
ObjectDBX Classes
 90
     4095
 91
        1
280
     0
281
     0
  0
CLASS
  1
VLO-VL
  2
vlo_VL
  3
VL|AutoLISP based application
 90
      129
 91
        2
280
     0
281
     0
  0
CLASS
  1
SCALE
  2
AcDbScale
  3
ObjectDBX Classes
 90
     1153
 91
       17
280
     0
281
     0
  0
CLASS
  1
MLEADERSTYLE
  2
AcDbMLeaderStyle
  3
ACDB_MLEADERSTYLE_CLASS
 90
     4095
 91
        1
280
     0
281
     0
  0
CLASS
  1
ACDBSECTIONVIEWSTYLE
  2
AcDbSectionViewStyle
  3
ObjectDBX Classes
 90
     1025
 91
        1
280
     0
281
     0
  0
CLASS
  1
ACDBDETAILVIEWSTYLE
  2
AcDbDetailViewStyle
  3
ObjectDBX Classes
 90
     1025
 91
        1
280
     0
281
     0
  0
CLASS
  1
CELLSTYLEMAP
  2
AcDbCellStyleMap
  3
ObjectDBX Classes
 90
     1152
 91
        1
280
     0
281
     0
  0
ENDSEC
  0
SECTION
  2
TABLES
  0
TABLE
  2
VPORT
  5
8
330
0
100
AcDbSymbolTable
 70
     1
  0
VPORT
  5
507A
330
8
100
AcDbSymbolTableRecord
100
AcDbViewportTableRecord
  2
*Active
 70
     0
 10
0.0
 20
0.0
 11
1.0
 21
1.0
 12
38821.94663854011
 22
5553.979652582053
 13
0.0
 23
0.0
 14
10.0
 24
10.0
 15
10.0
 25
10.0
 16
0.0
 26
0.0
 36
1.0
 17
0.0
 27
0.0
 37
0.0
 40
1463.590772468815
 41
1.913595933926302
 42
50.0
 43
0.0
 44
0.0
 50
0.0
 51
0.0
 71
     0
 72
  1000
 73
     1
 74
     3
 75
     0
 76
     0
 77
     0
 78
     0
281
     0
 65
     1
110
20135.92273348905
120
3420.432723209263
130
0.0
111
1.0
121
0.0
131
0.0
112
0.0
122
1.0
132
0.0
 79
     0
146
0.0
348
5085
 60
     3
 61
     5
292
     1
282
     1
141
0.0
142
0.0
 63
   250
421
  3355443
1001
ACAD_NAV_VCDISPLAY
1070
     3
  0
ENDTAB
  0
TABLE
  2
LTYPE
  5
5
330
0
100
AcDbSymbolTable
 70
     3
  0
LTYPE
  5
14
330
5
100
AcDbSymbolTableRecord
100
AcDbLinetypeTableRecord
  2
ByBlock
 70
     0
  3

 72
    65
 73
     0
 40
0.0
  0
LTYPE
  5
15
330
5
100
AcDbSymbolTableRecord
100
AcDbLinetypeTableRecord
  2
ByLayer
 70
     0
  3

 72
    65
 73
     0
 40
0.0
  0
LTYPE
  5
16
330
5
100
AcDbSymbolTableRecord
100
AcDbLinetypeTableRecord
  2
Continuous
 70
     0
  3
Solid line
 72
    65
 73
     0
 40
0.0
  0
LTYPE
  5
8F
330
5
100
AcDbSymbolTableRecord
100
AcDbLinetypeTableRecord
  2
ACAD_ISO02W100
 70
     0
  3
ISO dash __ __ __ __ __ __ __ __ __ __ __ __ __
 72
    65
 73
     2
 40
15.0
 49
12.0
 74
     0
 49
-3.0
 74
     0
  0
LTYPE
  5
2E41
330
5
100
AcDbSymbolTableRecord
100
AcDbLinetypeTableRecord
  2
CENTER
 70
     0
  3
Center ____ _ ____ _ ____ _ ____ _ ____ _ ____
 72
    65
 73
     4
 40
50.8
 49
31.75
 74
     0
 49
-6.349999999999999
 74
     0
 49
6.349999999999999
 74
     0
 49
-6.349999999999999
 74
     0
  0
ENDTAB
  0
TABLE
  2
LAYER
  5
2
330
0
100
AcDbSymbolTable
 70
     4
  0
LAYER
  5
10
102
{ACAD_XDICTIONARY
360
50CE
102
}
330
2
100
AcDbSymbolTableRecord
100
AcDbLayerTableRecord
  2
0
 70
     0
 62
     7
  6
Continuous
370
    25
390
F
347
507E
348
0
  0
LAYER
  5
84
102
{ACAD_XDICTIONARY
360
50D0
102
}
330
2
100
AcDbSymbolTableRecord
100
AcDbLayerTableRecord
  2
base
 70
     0
 62
     4
  6
Continuous
370
    40
390
F
347
507E
348
0
  0
LAYER
  5
1DA
330
2
100
AcDbSymbolTableRecord
100
AcDbLayerTableRecord
  2
Defpoints
 70
     0
 62
     7
  6
Continuous
290
     0
370
    -3
390
F
347
507E
348
0
  0
LAYER
  5
2D93
102
{ACAD_XDICTIONARY
360
50D2
102
}
330
2
100
AcDbSymbolTableRecord
100
AcDbLayerTableRecord
  2
DIM
 70
     0
 62
     7
  6
Continuous
370
     9
390
F
347
507E
348
0
  0
ENDTAB
  0
TABLE
  2
STYLE
  5
3
330
0
100
AcDbSymbolTable
 70
     2
  0
STYLE
  5
11
330
3
100
AcDbSymbolTableRecord
100
AcDbTextStyleTableRecord
  2
Standard
 70
     0
 40
0.0
 41
1.0
 50
0.0
 71
     0
 42
2.5
  3
txt
  4

  0
STYLE
  5
2E40
330
3
100
AcDbSymbolTableRecord
100
AcDbTextStyleTableRecord
  2

 70
     1
 40
0.0
 41
1.0
 50
0.0
 71
     0
 42
2.5
  3
ltypeshp.shx
  4

  0
ENDTAB
  0
TABLE
  2
VIEW
  5
6
330
0
100
AcDbSymbolTable
 70
     0
  0
ENDTAB
  0
TABLE
  2
UCS
  5
7
330
0
100
AcDbSymbolTable
 70
     0
  0
ENDTAB
  0
TABLE
  2
APPID
  5
9
330
0
100
AcDbSymbolTable
 70
     2
  0
APPID
  5
12
330
9
100
AcDbSymbolTableRecord
100
AcDbRegAppTableRecord
  2
ACAD
 70
     0
  0
APPID
  5
50D4
330
9
100
AcDbSymbolTableRecord
100
AcDbRegAppTableRecord
  2
ACAD_NAV_VCDISPLAY
 70
     0
  0
ENDTAB
  0
TABLE
  2
DIMSTYLE
  5
A
330
0
100
AcDbSymbolTable
 70
     1
100
AcDbDimStyleTable
 71
     1
340
27
  0
DIMSTYLE
105
27
102
{ACAD_REACTORS
330
3E5B
330
3E73
330
3E8B
330
43EF
330
45B1
330
4DA9
330
4DC1
330
4DD1
330
4DE9
330
4E01
330
4E19
330
4E31
330
4E82
102
}
330
A
100
AcDbSymbolTableRecord
100
AcDbDimStyleTableRecord
  2
ISO-25
 70
     0
 41
2.0
 42
1.0
 43
3.75
 44
1.25
 73
     0
 74
     0
 77
     1
 78
     8
140
3.0
141
2.5
143
0.03937007874016
147
5.0
171
     3
172
     1
271
     2
272
     2
274
     3
278
    44
283
     0
284
     8
340
11
  0
ENDTAB
  0
TABLE
  2
BLOCK_RECORD
  5
1
330
0
100
AcDbSymbolTable
 70
    14
  0
BLOCK_RECORD
  5
1F
330
1
100
AcDbSymbolTableRecord
100
AcDbBlockTableRecord
  2
*Model_Space
340
22
 70
     0
280
     1
281
     0
  0
BLOCK_RECORD
  5
50
330
1
100
AcDbSymbolTableRecord
100
AcDbBlockTableRecord
  2
*Paper_Space
340
51
 70
     0
280
     1
281
     0
  0
BLOCK_RECORD
  5
55
330
1
100
AcDbSymbolTableRecord
100
AcDbBlockTableRecord
  2
*Paper_Space0
340
56
 70
     0
280
     1
281
     0
  0
BLOCK_RECORD
  5
3E5C
330
1
100
AcDbSymbolTableRecord
100
AcDbBlockTableRecord
  2
*D1
340
0
 70
     0
280
     1
281
     0
  0
BLOCK_RECORD
  5
3E74
330
1
100
AcDbSymbolTableRecord
100
AcDbBlockTableRecord
  2
*D2
340
0
 70
     0
280
     1
281
     0
  0
BLOCK_RECORD
  5
3E8C
330
1
100
AcDbSymbolTableRecord
100
AcDbBlockTableRecord
  2
*D3
340
0
 70
     0
280
     1
281
     0
  0
BLOCK_RECORD
  5
43F0
330
1
100
AcDbSymbolTableRecord
100
AcDbBlockTableRecord
  2
*D4
340
0
 70
     0
280
     1
281
     0
  0
BLOCK_RECORD
  5
45B2
330
1
100
AcDbSymbolTableRecord
100
AcDbBlockTableRecord
  2
*D5
340
0
 70
     0
280
     1
281
     0
  0
BLOCK_RECORD
  5
4DAA
330
1
100
AcDbSymbolTableRecord
100
AcDbBlockTableRecord
  2
*D6
340
0
 70
     0
280
     1
281
     0
  0
BLOCK_RECORD
  5
4DC2
330
1
100
AcDbSymbolTableRecord
100
AcDbBlockTableRecord
  2
*D7
340
0
 70
     0
280
     1
281
     0
  0
BLOCK_RECORD
  5
4DD2
330
1
100
AcDbSymbolTableRecord
100
AcDbBlockTableRecord
  2
*D8
340
0
 70
     0
280
     1
281
     0
  0
BLOCK_RECORD
  5
4DEA
330
1
100
AcDbSymbolTableRecord
100
AcDbBlockTableRecord
  2
*D9
340
0
 70
     0
280
     1
281
     0
  0
BLOCK_RECORD
  5
4E02
330
1
100
AcDbSymbolTableRecord
100
AcDbBlockTableRecord
  2
*D10
340
0
 70
     0
280
     1
281
     0
  0
BLOCK_RECORD
  5
4E1A
330
1
100
AcDbSymbolTableRecord
100
AcDbBlockTableRecord
  2
*D11
340
0
 70
     0
280
     1
281
     0
  0
BLOCK_RECORD
  5
4E32
330
1
100
AcDbSymbolTableRecord
100
AcDbBlockTableRecord
  2
*D12
340
0
 70
     0
280
     1
281
     0
  0
BLOCK_RECORD
  5
4E83
330
1
100
AcDbSymbolTableRecord
100
AcDbBlockTableRecord
  2
*D13
340
0
 70
     0
280
     1
281
     0
  0
ENDTAB
  0
ENDSEC
  0
SECTION
  2
BLOCKS
  0
BLOCK
  5
20
330
1F
100
AcDbEntity
  8
0
100
AcDbBlockBegin
  2
*Model_Space
 70
     0
 10
0.0
 20
0.0
 30
0.0
  3
*Model_Space
  1

  0
ENDBLK
  5
21
330
1F
100
AcDbEntity
  8
0
100
AcDbBlockEnd
  0
BLOCK
  5
52
330
50
100
AcDbEntity
 67
     1
  8
0
100
AcDbBlockBegin
  2
*Paper_Space
 70
     0
 10
0.0
 20
0.0
 30
0.0
  3
*Paper_Space
  1

  0
ENDBLK
  5
53
330
50
100
AcDbEntity
 67
     1
  8
0
100
AcDbBlockEnd
  0
BLOCK
  5
57
330
55
100
AcDbEntity
 67
     1
  8
0
100
AcDbBlockBegin
  2
*Paper_Space0
 70
     0
 10
0.0
 20
0.0
 30
0.0
  3
*Paper_Space0
  1

  0
ENDBLK
  5
58
330
55
100
AcDbEntity
 67
     1
  8
0
100
AcDbBlockEnd
  0
BLOCK
  5
3E66
330
3E5C
100
AcDbEntity
  8
0
100
AcDbBlockBegin
  2
*D1
 70
     1
 10
0.0
 20
0.0
 30
0.0
  3
*D1
  1

  0
LINE
  5
509A
330
3E5C
100
AcDbEntity
  8
DIM
 62
     0
440
 16777216
370
    -2
100
AcDbLine
 10
38120.99677304228
 20
5511.682124022682
 30
0.0
 11
38120.99677304228
 21
5476.519272814392
 31
0.0
  0
LINE
  5
509B
330
3E5C
100
AcDbEntity
  8
DIM
 62
     0
440
 16777216
370
    -2
100
AcDbLine
 10
38296.99677304224
 20
5511.68212402268
 30
0.0
 11
38296.99677304224
 21
5476.519272814392
 31
0.0
  0
LINE
  5
509C
330
3E5C
100
AcDbEntity
  8
DIM
 62
     0
440
 16777216
370
    -2
100
AcDbLine
 10
38128.99677304228
 20
5477.769272814393
 30
0.0
 11
38288.99677304224
 21
5477.769272814393
 31
0.0
  0
SOLID
  5
509D
330
3E5C
100
AcDbEntity
  8
DIM
 62
     0
440
 16777216
100
AcDbTrace
 10
38128.99677304228
 20
5479.102606147726
 30
0.0
 11
38128.99677304228
 21
5476.43593948106
 31
0.0
 12
38120.99677304228
 22
5477.769272814393
 32
0.0
 13
38120.99677304228
 23
5477.769272814393
 33
0.0
  0
SOLID
  5
509E
330
3E5C
100
AcDbEntity
  8
DIM
 62
     0
440
 16777216
100
AcDbTrace
 10
38288.99677304224
 20
5479.102606147726
 30
0.0
 11
38288.99677304224
 21
5476.43593948106
 31
0.0
 12
38296.99677304224
 22
5477.769272814393
 32
0.0
 13
38296.99677304224
 23
5477.769272814393
 33
0.0
  0
MTEXT
  5
509F
330
3E5C
100
AcDbEntity
  8
DIM
 62
     0
440
 16777216
100
AcDbMText
 10
38208.99677304227
 20
5488.269272814393
 30
0.0
 40
15.0
 41
0.0
 46
0.0
 71
     5
 72
     1
  1
%%C90 [3.46]
 73
     1
 44
1.0
  0
POINT
  5
50A0
330
3E5C
100
AcDbEntity
  8
Defpoints
 62
     0
440
 16777216
100
AcDbPoint
 10
38120.99677304228
 20
5512.682124022681
 30
0.0
  0
POINT
  5
50A1
330
3E5C
100
AcDbEntity
  8
Defpoints
 62
     0
440
 16777216
100
AcDbPoint
 10
38296.99677304224
 20
5512.68212402268
 30
0.0
  0
POINT
  5
50A2
330
3E5C
100
AcDbEntity
  8
Defpoints
 62
     0
440
 16777216
100
AcDbPoint
 10
38296.99677304224
 20
5477.769272814393
 30
0.0
  0
ENDBLK
  5
3E67
330
3E5C
100
AcDbEntity
  8
0
100
AcDbBlockEnd
  0
BLOCK
  5
3E7E
330
3E74
100
AcDbEntity
  8
0
100
AcDbBlockBegin
  2
*D2
 70
     1
 10
0.0
 20
0.0
 30
0.0
  3
*D2
  1

  0
LINE
  5
4F36
330
3E74
100
AcDbEntity
  8
DIM
 62
     0
440
 16777216
370
    -2
100
AcDbLine
 10
38094.9935083022
 20
5517.685388762771
 30
0.0
 11
38094.9935083022
 21
5545.64568043175
 31
0.0
  0
LINE
  5
4F37
330
3E74
100
AcDbEntity
  8
DIM
 62
     0
440
 16777216
370
    -2
100
AcDbLine
 10
38323.00003778235
 20
5517.685388762771
 30
0.0
 11
38323.00003778235
 21
5545.64568043175
 31
0.0
  0
LINE
  5
4F38
330
3E74
100
AcDbEntity
  8
DIM
 62
     0
440
 16777216
370
    -2
100
AcDbLine
 10
38102.9935083022
 20
5544.395680431751
 30
0.0
 11
38315.00003778235
 21
5544.395680431751
 31
0.0
  0
SOLID
  5
4F39
330
3E74
100
AcDbEntity
  8
DIM
 62
     0
440
 16777216
100
AcDbTrace
 10
38102.9935083022
 20
5545.729013765083
 30
0.0
 11
38102.9935083022
 21
5543.062347098417
 31
0.0
 12
38094.9935083022
 22
5544.395680431751
 32
0.0
 13
38094.9935083022
 23
5544.395680431751
 33
0.0
  0
SOLID
  5
4F3A
330
3E74
100
AcDbEntity
  8
DIM
 62
     0
440
 16777216
100
AcDbTrace
 10
38315.00003778235
 20
5545.729013765083
 30
0.0
 11
38315.00003778235
 21
5543.062347098417
 31
0.0
 12
38323.00003778235
 22
5544.395680431751
 32
0.0
 13
38323.00003778235
 23
5544.395680431751
 33
0.0
  0
MTEXT
  5
4F3B
330
3E74
100
AcDbEntity
  8
DIM
 62
     0
440
 16777216
100
AcDbMText
 10
38208.99677304227
 20
5554.895680431751
 30
0.0
 40
15.0
 41
0.0
 46
0.0
 71
     5
 72
     1
  1
%%c114[4.49]
 73
     1
 44
1.0
  0
POINT
  5
4F3C
330
3E74
100
AcDbEntity
  8
Defpoints
 62
     0
440
 16777216
100
AcDbPoint
 10
38094.9935083022
 20
5516.685388762772
 30
0.0
  0
POINT
  5
4F3D
330
3E74
100
AcDbEntity
  8
Defpoints
 62
     0
440
 16777216
100
AcDbPoint
 10
38323.00003778235
 20
5516.685388762772
 30
0.0
  0
POINT
  5
4F3E
330
3E74
100
AcDbEntity
  8
Defpoints
 62
     0
440
 16777216
100
AcDbPoint
 10
38323.00003778235
 20
5544.395680431751
 30
0.0
  0
ENDBLK
  5
3E7F
330
3E74
100
AcDbEntity
  8
0
100
AcDbBlockEnd
  0
BLOCK
  5
3E96
330
3E8C
100
AcDbEntity
  8
0
100
AcDbBlockBegin
  2
*D3
 70
     1
 10
0.0
 20
0.0
 30
0.0
  3
*D3
  1

  0
LINE
  5
4F2D
330
3E8C
100
AcDbEntity
  8
DIM
 62
     0
440
 16777216
370
    -2
100
AcDbLine
 10
38088.99677304228
 20
5523.682124022684
 30
0.0
 11
38088.99677304228
 21
5582.39392035292
 31
0.0
  0
LINE
  5
4F2E
330
3E8C
100
AcDbEntity
  8
DIM
 62
     0
440
 16777216
370
    -2
100
AcDbLine
 10
38328.99677304225
 20
5523.682124022684
 30
0.0
 11
38328.99677304225
 21
5582.39392035292
 31
0.0
  0
LINE
  5
4F2F
330
3E8C
100
AcDbEntity
  8
DIM
 62
     0
440
 16777216
370
    -2
100
AcDbLine
 10
38096.99677304228
 20
5581.14392035292
 30
0.0
 11
38320.99677304225
 21
5581.14392035292
 31
0.0
  0
SOLID
  5
4F30
330
3E8C
100
AcDbEntity
  8
DIM
 62
     0
440
 16777216
100
AcDbTrace
 10
38096.99677304228
 20
5582.477253686253
 30
0.0
 11
38096.99677304228
 21
5579.810587019586
 31
0.0
 12
38088.99677304228
 22
5581.14392035292
 32
0.0
 13
38088.99677304228
 23
5581.14392035292
 33
0.0
  0
SOLID
  5
4F31
330
3E8C
100
AcDbEntity
  8
DIM
 62
     0
440
 16777216
100
AcDbTrace
 10
38320.99677304225
 20
5582.477253686253
 30
0.0
 11
38320.99677304225
 21
5579.810587019586
 31
0.0
 12
38328.99677304225
 22
5581.14392035292
 32
0.0
 13
38328.99677304225
 23
5581.14392035292
 33
0.0
  0
MTEXT
  5
4F32
330
3E8C
100
AcDbEntity
  8
DIM
 62
     0
440
 16777216
100
AcDbMText
 10
38208.99677304227
 20
5591.64392035292
 30
0.0
 40
15.0
 41
0.0
 46
0.0
 71
     5
 72
     1
  1
%%c120 [4.72]
 73
     1
 44
1.0
  0
POINT
  5
4F33
330
3E8C
100
AcDbEntity
  8
Defpoints
 62
     0
440
 16777216
100
AcDbPoint
 10
38088.99677304228
 20
5522.682124022685
 30
0.0
  0
POINT
  5
4F34
330
3E8C
100
AcDbEntity
  8
Defpoints
 62
     0
440
 16777216
100
AcDbPoint
 10
38328.99677304225
 20
5522.682124022684
 30
0.0
  0
POINT
  5
4F35
330
3E8C
100
AcDbEntity
  8
Defpoints
 62
     0
440
 16777216
100
AcDbPoint
 10
38328.99677304225
 20
5581.14392035292
 30
0.0
  0
ENDBLK
  5
3E97
330
3E8C
100
AcDbEntity
  8
0
100
AcDbBlockEnd
  0
BLOCK
  5
43FC
330
43F0
100
AcDbEntity
  8
0
100
AcDbBlockBegin
  2
*D4
 70
     1
 10
0.0
 20
0.0
 30
0.0
  3
*D4
  1

  0
LINE
  5
4F22
330
43F0
100
AcDbEntity
  8
DIM
 62
     0
440
 16777216
370
    -2
100
AcDbLine
 10
38329.99677304225
 20
5522.682124022684
 30
0.0
 11
38367.60991037076
 21
5522.682124022684
 31
0.0
  0
LINE
  5
4F23
330
43F0
100
AcDbEntity
  8
DIM
 62
     0
440
 16777216
370
    -2
100
AcDbLine
 10
38297.99677304225
 20
5512.68212402268
 30
0.0
 11
38367.60991037076
 21
5512.68212402268
 31
0.0
  0
LINE
  5
4F24
330
43F0
100
AcDbEntity
  8
DIM
 62
     0
440
 16777216
370
    -2
100
AcDbLine
 10
38366.35991037076
 20
5530.682124022684
 30
0.0
 11
38366.35991037076
 21
5538.682124022684
 31
0.0
  0
LINE
  5
4F25
330
43F0
100
AcDbEntity
  8
DIM
 62
     0
440
 16777216
370
    -2
100
AcDbLine
 10
38366.35991037076
 20
5504.682124022679
 30
0.0
 11
38366.35991037076
 21
5413.18212402268
 31
0.0
  0
LINE
  5
4F26
330
43F0
100
AcDbEntity
  8
DIM
 62
     0
440
 16777216
370
    -2
100
AcDbLine
 10
38366.35991037076
 20
5522.682124022684
 30
0.0
 11
38366.35991037076
 21
5512.68212402268
 31
0.0
  0
SOLID
  5
4F27
330
43F0
100
AcDbEntity
  8
DIM
 62
     0
440
 16777216
100
AcDbTrace
 10
38365.02657703742
 20
5530.682124022684
 30
0.0
 11
38367.6932437041
 21
5530.682124022684
 31
0.0
 12
38366.35991037076
 22
5522.682124022684
 32
0.0
 13
38366.35991037076
 23
5522.682124022684
 33
0.0
  0
SOLID
  5
4F28
330
43F0
100
AcDbEntity
  8
DIM
 62
     0
440
 16777216
100
AcDbTrace
 10
38365.02657703742
 20
5504.682124022679
 30
0.0
 11
38367.6932437041
 21
5504.682124022679
 31
0.0
 12
38366.35991037076
 22
5512.68212402268
 32
0.0
 13
38366.35991037076
 23
5512.68212402268
 33
0.0
  0
MTEXT
  5
4F29
330
43F0
100
AcDbEntity
  8
DIM
 62
     0
440
 16777216
100
AcDbMText
 10
38355.85991037076
 20
5454.932124022685
 30
0.0
 40
15.0
 41
0.0
 46
0.0
 71
     5
 72
     1
  1
5 [0.2]
 11
0.0000000000000001
 21
1.0
 31
0.0
 73
     1
 44
1.0
  0
POINT
  5
4F2A
330
43F0
100
AcDbEntity
  8
Defpoints
 62
     0
440
 16777216
100
AcDbPoint
 10
38328.99677304225
 20
5522.682124022684
 30
0.0
  0
POINT
  5
4F2B
330
43F0
100
AcDbEntity
  8
Defpoints
 62
     0
440
 16777216
100
AcDbPoint
 10
38296.99677304224
 20
5512.68212402268
 30
0.0
  0
POINT
  5
4F2C
330
43F0
100
AcDbEntity
  8
Defpoints
 62
     0
440
 16777216
100
AcDbPoint
 10
38366.35991037076
 20
5512.68212402268
 30
0.0
  0
ENDBLK
  5
43FD
330
43F0
100
AcDbEntity
  8
0
100
AcDbBlockEnd
  0
BLOCK
  5
45C2
330
45B2
100
AcDbEntity
  8
0
100
AcDbBlockBegin
  2
*D5
 70
     1
 10
0.0
 20
0.0
 30
0.0
  3
*D5
  1

  0
LINE
  5
490E
330
45B2
100
AcDbEntity
  8
DIM
 62
     0
440
 16777216
370
    -2
100
AcDbLine
 10
38708.68701227641
 20
5718.391580108374
 30
0.0
 11
38882.56410146208
 21
5718.391580108371
 31
0.0
  0
LINE
  5
490F
330
45B2
100
AcDbEntity
  8
DIM
 62
     0
440
 16777216
370
    -2
100
AcDbLine
 10
38795.84915874817
 20
5723.011962421786
 30
0.0
 11
38882.32443848913
 21
5727.54393979589
 31
0.0
  0
ARC
  5
4910
330
45B2
100
AcDbEntity
  8
DIM
 62
     0
440
 16777216
370
    -2
100
AcDbCircle
 10
38707.68701227642
 20
5718.391580108374
 30
0.0
 40
173.6270891856675
100
AcDbArc
 50
354.7182369204999
 51
359.9999999999994
  0
LINE
  5
4911
330
45B2
100
AcDbEntity
  8
DIM
 62
     0
440
 16777216
370
    -2
100
AcDbLine
 10
38880.57688931045
 20
5702.408572936896
 30
0.0
 11
38874.73148258188
 21
5639.178190839539
 31
0.0
  0
ARC
  5
4912
330
45B2
100
AcDbEntity
  8
DIM
 62
     0
440
 16777216
370
    -2
100
AcDbCircle
 10
38707.68701227642
 20
5718.391580108374
 30
0.0
 40
173.6270891856675
100
AcDbArc
 50
354.7196397314611
 51
357.3598198657302
  0
ARC
  5
4913
330
45B2
100
AcDbEntity
  8
DIM
 62
     0
440
 16777216
370
    -2
100
AcDbCircle
 10
38707.68701227642
 20
5718.391580108374
 30
0.0
 40
173.6270891856675
100
AcDbArc
 50
5.640180134270327
 51
8.280360268539542
  0
ARC
  5
4914
330
45B2
100
AcDbEntity
  8
DIM
 62
     0
440
 16777216
370
    -2
100
AcDbCircle
 10
38707.68701227642
 20
5718.391580108374
 30
0.0
 40
173.6270891856675
100
AcDbArc
 50
359.9999999999994
 51
3.000000000001098
  0
SOLID
  5
4915
330
45B2
100
AcDbEntity
  8
DIM
 62
     0
440
 16777216
100
AcDbTrace
 10
38879.79681896707
 20
5710.424420538732
 30
0.0
 11
38882.46277788127
 21
5710.362986192762
 31
0.0
 12
38881.31410146208
 22
5718.391580108371
 32
0.0
 13
38881.31410146208
 23
5718.391580108371
 33
0.0
  0
SOLID
  5
4916
330
45B2
100
AcDbEntity
  8
DIM
 62
     0
440
 16777216
100
AcDbTrace
 10
38881.80306962891
 20
5735.556227936078
 30
0.0
 11
38879.14397954399
 21
5735.355352274664
 31
0.0
 12
38881.07615157069
 22
5727.478519850587
 32
0.0
 13
38881.07615157069
 23
5727.478519850587
 33
0.0
  0
MTEXT
  5
4917
330
45B2
100
AcDbEntity
  8
DIM
 62
     0
440
 16777216
100
AcDbMText
 10
38889.3542960193
 20
5669.711751509314
 30
0.0
 40
15.0
 41
0.0
 46
0.0
 71
     5
 72
     1
  1
3,00°
 11
-0.0920536492689143
 21
-0.9957540487772448
 31
0.0
 73
     1
 44
1.0
  0
POINT
  5
4918
330
45B2
100
AcDbEntity
  8
Defpoints
 62
     0
440
 16777216
100
AcDbPoint
 10
38881.2083325306
 20
5724.451078134874
 30
0.0
  0
POINT
  5
4919
330
45B2
100
AcDbEntity
  8
Defpoints
 62
     0
440
 16777216
100
AcDbPoint
 10
38707.68701227642
 20
5718.391580108374
 30
0.0
  0
POINT
  5
491A
330
45B2
100
AcDbEntity
  8
Defpoints
 62
     0
440
 16777216
100
AcDbPoint
 10
38707.68701227642
 20
5718.391580108374
 30
0.0
  0
POINT
  5
491B
330
45B2
100
AcDbEntity
  8
Defpoints
 62
     0
440
 16777216
100
AcDbPoint
 10
38794.85052921341
 20
5722.959626465542
 30
0.0
  0
POINT
  5
491C
330
45B2
100
AcDbEntity
  8
Defpoints
 62
     0
440
 16777216
100
AcDbPoint
 10
38587.68701227641
 20
5718.391580108375
 30
0.0
  0
ENDBLK
  5
45C3
330
45B2
100
AcDbEntity
  8
0
100
AcDbBlockEnd
  0
BLOCK
  5
4DB4
330
4DAA
100
AcDbEntity
  8
0
100
AcDbBlockBegin
  2
*D6
 70
     1
 10
0.0
 20
0.0
 30
0.0
  3
*D6
  1

  0
LINE
  5
4DB7
330
4DAA
100
AcDbEntity
  8
DIM
 62
     0
440
 16777216
370
    -2
100
AcDbLine
 10
38589.68701227639
 20
5716.691580108373
 30
0.0
 11
38353.32222714828
 21
5716.691580108373
 31
0.0
  0
LINE
  5
4DB8
330
4DAA
100
AcDbEntity
  8
DIM
 62
     0
440
 16777216
370
    -2
100
AcDbLine
 10
38416.68701227639
 20
5956.691580108373
 30
0.0
 11
38353.32222714828
 21
5956.691580108373
 31
0.0
  0
LINE
  5
4DB9
330
4DAA
100
AcDbEntity
  8
DIM
 62
     0
440
 16777216
370
    -2
100
AcDbLine
 10
38354.57222714827
 20
5724.691580108373
 30
0.0
 11
38354.57222714827
 21
5948.691580108373
 31
0.0
  0
SOLID
  5
4DBA
330
4DAA
100
AcDbEntity
  8
DIM
 62
     0
440
 16777216
100
AcDbTrace
 10
38353.23889381494
 20
5724.691580108373
 30
0.0
 11
38355.90556048161
 21
5724.691580108373
 31
0.0
 12
38354.57222714827
 22
5716.691580108373
 32
0.0
 13
38354.57222714827
 23
5716.691580108373
 33
0.0
  0
SOLID
  5
4DBB
330
4DAA
100
AcDbEntity
  8
DIM
 62
     0
440
 16777216
100
AcDbTrace
 10
38353.23889381494
 20
5948.691580108373
 30
0.0
 11
38355.90556048161
 21
5948.691580108373
 31
0.0
 12
38354.57222714827
 22
5956.691580108373
 32
0.0
 13
38354.57222714827
 23
5956.691580108373
 33
0.0
  0
MTEXT
  5
4DBC
330
4DAA
100
AcDbEntity
  8
DIM
 62
     0
440
 16777216
100
AcDbMText
 10
38342.82222714827
 20
5836.691580108379
 30
0.0
 40
15.0
 41
0.0
 46
0.0
 71
     5
 72
     1
  1
240 [9,45]
 11
0.0000000000000001
 21
1.0
 31
0.0
 73
     1
 44
1.0
  0
POINT
  5
4DBD
330
4DAA
100
AcDbEntity
  8
Defpoints
 62
     0
440
 16777216
100
AcDbPoint
 10
38590.6870122764
 20
5716.691580108373
 30
0.0
  0
POINT
  5
4DBE
330
4DAA
100
AcDbEntity
  8
Defpoints
 62
     0
440
 16777216
100
AcDbPoint
 10
38417.68701227639
 20
5956.691580108373
 30
0.0
  0
POINT
  5
4DBF
330
4DAA
100
AcDbEntity
  8
Defpoints
 62
     0
440
 16777216
100
AcDbPoint
 10
38354.57222714827
 20
5956.691580108373
 30
0.0
  0
ENDBLK
  5
4DB5
330
4DAA
100
AcDbEntity
  8
0
100
AcDbBlockEnd
  0
BLOCK
  5
4DC8
330
4DC2
100
AcDbEntity
  8
0
100
AcDbBlockBegin
  2
*D7
 70
     1
 10
0.0
 20
0.0
 30
0.0
  3
*D7
  1

  0
LINE
  5
4FAA
330
4DC2
100
AcDbEntity
  8
DIM
 62
     0
440
 16777216
370
    -2
100
AcDbLine
 10
38563.73643786981
 20
5862.991191440307
 30
0.0
 11
38464.0558776374
 21
5745.603858598333
 31
0.0
  0
MTEXT
  5
4FAB
330
4DC2
100
AcDbEntity
  8
DIM
 62
     0
440
 16777216
100
AcDbMText
 10
38507.52876216942
 20
5814.952043942035
 30
0.0
 40
15.0
 41
0.0
 46
0.0
 71
     5
 72
     1
  1
R70 [R2,76]
 11
0.6472763651455429
 21
0.76225540806476
 31
0.0
 73
     1
 44
1.0
  0
SOLID
  5
4FAC
330
4DC2
100
AcDbEntity
  8
DIM
 62
     0
440
 16777216
100
AcDbTrace
 10
38463.03953709331
 20
5746.46689375186
 30
0.0
 11
38465.07221818148
 21
5744.740823444807
 31
0.0
 12
38458.87766671624
 22
5739.505815333816
 32
0.0
 13
38458.87766671624
 23
5739.505815333816
 33
0.0
  0
POINT
  5
4FAD
330
4DC2
100
AcDbEntity
  8
Defpoints
 62
     0
440
 16777216
100
AcDbPoint
 10
38458.87766671624
 20
5739.505815333816
 30
0.0
  0
POINT
  5
4FAE
330
4DC2
100
AcDbEntity
  8
Defpoints
 62
     0
440
 16777216
100
AcDbPoint
 10
38504.18701227645
 20
5792.863693898371
 30
0.0
  0
ENDBLK
  5
4DC9
330
4DC2
100
AcDbEntity
  8
0
100
AcDbBlockEnd
  0
BLOCK
  5
4DDC
330
4DD2
100
AcDbEntity
  8
0
100
AcDbBlockBegin
  2
*D8
 70
     1
 10
0.0
 20
0.0
 30
0.0
  3
*D8
  1

  0
LINE
  5
4F0E
330
4DD2
100
AcDbEntity
  8
DIM
 62
     0
440
 16777216
370
    -2
100
AcDbLine
 10
38417.68701227639
 20
5178.662134000333
 30
0.0
 11
38417.68701227639
 21
5373.117486828874
 31
0.0
  0
LINE
  5
4F0F
330
4DD2
100
AcDbEntity
  8
DIM
 62
     0
440
 16777216
370
    -2
100
AcDbLine
 10
38877.68701227639
 20
5178.662134000336
 30
0.0
 11
38877.68701227639
 21
5373.117486828874
 31
0.0
  0
LINE
  5
4F10
330
4DD2
100
AcDbEntity
  8
DIM
 62
     0
440
 16777216
370
    -2
100
AcDbLine
 10
38425.68701227639
 20
5371.867486828874
 30
0.0
 11
38869.68701227639
 21
5371.867486828874
 31
0.0
  0
SOLID
  5
4F11
330
4DD2
100
AcDbEntity
  8
DIM
 62
     0
440
 16777216
100
AcDbTrace
 10
38425.68701227639
 20
5373.200820162207
 30
0.0
 11
38425.68701227639
 21
5370.53415349554
 31
0.0
 12
38417.68701227639
 22
5371.867486828874
 32
0.0
 13
38417.68701227639
 23
5371.867486828874
 33
0.0
  0
SOLID
  5
4F12
330
4DD2
100
AcDbEntity
  8
DIM
 62
     0
440
 16777216
100
AcDbTrace
 10
38869.68701227639
 20
5373.200820162207
 30
0.0
 11
38869.68701227639
 21
5370.53415349554
 31
0.0
 12
38877.68701227639
 22
5371.867486828874
 32
0.0
 13
38877.68701227639
 23
5371.867486828874
 33
0.0
  0
MTEXT
  5
4F13
330
4DD2
100
AcDbEntity
  8
DIM
 62
     0
440
 16777216
100
AcDbMText
 10
38647.6870122764
 20
5383.617486828874
 30
0.0
 40
15.0
 41
0.0
 46
0.0
 71
     5
 72
     1
  1
460 [18,11]
 73
     1
 44
1.0
  0
POINT
  5
4F14
330
4DD2
100
AcDbEntity
  8
Defpoints
 62
     0
440
 16777216
100
AcDbPoint
 10
38417.68701227639
 20
5177.662134000333
 30
0.0
  0
POINT
  5
4F15
330
4DD2
100
AcDbEntity
  8
Defpoints
 62
     0
440
 16777216
100
AcDbPoint
 10
38877.68701227639
 20
5177.662134000335
 30
0.0
  0
POINT
  5
4F16
330
4DD2
100
AcDbEntity
  8
Defpoints
 62
     0
440
 16777216
100
AcDbPoint
 10
38877.68701227639
 20
5371.867486828874
 30
0.0
  0
ENDBLK
  5
4DDD
330
4DD2
100
AcDbEntity
  8
0
100
AcDbBlockEnd
  0
BLOCK
  5
4DF4
330
4DEA
100
AcDbEntity
  8
0
100
AcDbBlockBegin
  2
*D9
 70
     1
 10
0.0
 20
0.0
 30
0.0
  3
*D9
  1

  0
LINE
  5
4F05
330
4DEA
100
AcDbEntity
  8
DIM
 62
     0
440
 16777216
370
    -2
100
AcDbLine
 10
38536.68701227639
 20
5297.662134000333
 30
0.0
 11
38314.8425391168
 21
5297.662134000333
 31
0.0
  0
LINE
  5
4F06
330
4DEA
100
AcDbEntity
  8
DIM
 62
     0
440
 16777216
370
    -2
100
AcDbLine
 10
38536.68701227639
 20
4737.662134000332
 30
0.0
 11
38314.8425391168
 21
4737.662134000332
 31
0.0
  0
LINE
  5
4F07
330
4DEA
100
AcDbEntity
  8
DIM
 62
     0
440
 16777216
370
    -2
100
AcDbLine
 10
38316.0925391168
 20
5289.662134000333
 30
0.0
 11
38316.0925391168
 21
4745.662134000332
 31
0.0
  0
SOLID
  5
4F08
330
4DEA
100
AcDbEntity
  8
DIM
 62
     0
440
 16777216
100
AcDbTrace
 10
38314.75920578347
 20
5289.662134000333
 30
0.0
 11
38317.42587245014
 21
5289.662134000333
 31
0.0
 12
38316.0925391168
 22
5297.662134000333
 32
0.0
 13
38316.0925391168
 23
5297.662134000333
 33
0.0
  0
SOLID
  5
4F09
330
4DEA
100
AcDbEntity
  8
DIM
 62
     0
440
 16777216
100
AcDbTrace
 10
38314.75920578347
 20
4745.662134000332
 30
0.0
 11
38317.42587245014
 21
4745.662134000332
 31
0.0
 12
38316.0925391168
 22
4737.662134000332
 32
0.0
 13
38316.0925391168
 23
4737.662134000332
 33
0.0
  0
MTEXT
  5
4F0A
330
4DEA
100
AcDbEntity
  8
DIM
 62
     0
440
 16777216
100
AcDbMText
 10
38304.3425391168
 20
5017.662134000338
 30
0.0
 40
15.0
 41
0.0
 46
0.0
 71
     5
 72
     1
  1
560 [22,05]
 11
0.0000000000000001
 21
1.0
 31
0.0
 73
     1
 44
1.0
  0
POINT
  5
4F0B
330
4DEA
100
AcDbEntity
  8
Defpoints
 62
     0
440
 16777216
100
AcDbPoint
 10
38537.6870122764
 20
5297.662134000333
 30
0.0
  0
POINT
  5
4F0C
330
4DEA
100
AcDbEntity
  8
Defpoints
 62
     0
440
 16777216
100
AcDbPoint
 10
38537.6870122764
 20
4737.662134000332
 30
0.0
  0
POINT
  5
4F0D
330
4DEA
100
AcDbEntity
  8
Defpoints
 62
     0
440
 16777216
100
AcDbPoint
 10
38316.0925391168
 20
4737.662134000332
 30
0.0
  0
ENDBLK
  5
4DF5
330
4DEA
100
AcDbEntity
  8
0
100
AcDbBlockEnd
  0
BLOCK
  5
4E09
330
4E02
100
AcDbEntity
  8
0
100
AcDbBlockBegin
  2
*D10
 70
     1
 10
0.0
 20
0.0
 30
0.0
  3
*D10
  1

  0
LINE
  5
4FAF
330
4E02
100
AcDbEntity
  8
DIM
 62
     0
440
 16777216
370
    -2
100
AcDbLine
 10
39031.43840092165
 20
5406.446517348228
 30
0.0
 11
38855.9030943537
 21
5259.745026379821
 31
0.0
  0
MTEXT
  5
4FB0
330
4E02
100
AcDbEntity
  8
DIM
 62
     0
440
 16777216
100
AcDbMText
 10
38952.54332577594
 20
5355.824095263193
 30
0.0
 40
15.0
 41
0.0
 46
0.0
 71
     5
 72
     1
  1
4-R120 [R4,72]
 11
0.7673131412289996
 21
0.6412725967147558
 31
0.0
 73
     1
 44
1.0
  0
LINE
  5
4FB1
330
4E02
100
AcDbEntity
  8
DIM
 62
     0
440
 16777216
370
    -2
100
AcDbLine
 10
38757.68701227639
 20
5177.662134000336
 30
0.0
 11
38849.76458922387
 21
5254.614845606102
 31
0.0
  0
SOLID
  5
4FB2
330
4E02
100
AcDbEntity
  8
DIM
 62
     0
440
 16777216
100
AcDbTrace
 10
38855.04806422475
 20
5260.768110568125
 30
0.0
 11
38856.75812448265
 21
5258.721942191517
 31
0.0
 12
38849.76458922387
 22
5254.614845606102
 32
0.0
 13
38849.76458922387
 23
5254.614845606102
 33
0.0
  0
POINT
  5
4FB3
330
4E02
100
AcDbEntity
  8
Defpoints
 62
     0
440
 16777216
100
AcDbPoint
 10
38849.76458922387
 20
5254.614845606102
 30
0.0
  0
POINT
  5
4FB4
330
4E02
100
AcDbEntity
  8
Defpoints
 62
     0
440
 16777216
100
AcDbPoint
 10
38757.68701227639
 20
5177.662134000336
 30
0.0
  0
ENDBLK
  5
4E0A
330
4E02
100
AcDbEntity
  8
0
100
AcDbBlockEnd
  0
BLOCK
  5
4E24
330
4E1A
100
AcDbEntity
  8
0
100
AcDbBlockBegin
  2
*D11
 70
     1
 10
0.0
 20
0.0
 30
0.0
  3
*D11
  1

  0
LINE
  5
4EF6
330
4E1A
100
AcDbEntity
  8
DIM
 62
     0
440
 16777216
370
    -2
100
AcDbLine
 10
38861.1870122764
 20
5018.662134000333
 30
0.0
 11
38861.1870122764
 21
5337.689632013379
 31
0.0
  0
LINE
  5
4EF7
330
4E1A
100
AcDbEntity
  8
DIM
 62
     0
440
 16777216
370
    -2
100
AcDbLine
 10
38434.1870122764
 20
5018.662134000333
 30
0.0
 11
38434.1870122764
 21
5337.689632013379
 31
0.0
  0
LINE
  5
4EF8
330
4E1A
100
AcDbEntity
  8
DIM
 62
     0
440
 16777216
370
    -2
100
AcDbLine
 10
38853.1870122764
 20
5336.439632013379
 30
0.0
 11
38442.1870122764
 21
5336.439632013379
 31
0.0
  0
SOLID
  5
4EF9
330
4E1A
100
AcDbEntity
  8
DIM
 62
     0
440
 16777216
100
AcDbTrace
 10
38853.1870122764
 20
5337.772965346712
 30
0.0
 11
38853.1870122764
 21
5335.106298680046
 31
0.0
 12
38861.1870122764
 22
5336.439632013379
 32
0.0
 13
38861.1870122764
 23
5336.439632013379
 33
0.0
  0
SOLID
  5
4EFA
330
4E1A
100
AcDbEntity
  8
DIM
 62
     0
440
 16777216
100
AcDbTrace
 10
38442.1870122764
 20
5337.772965346712
 30
0.0
 11
38442.1870122764
 21
5335.106298680046
 31
0.0
 12
38434.1870122764
 22
5336.439632013379
 32
0.0
 13
38434.1870122764
 23
5336.439632013379
 33
0.0
  0
MTEXT
  5
4EFB
330
4E1A
100
AcDbEntity
  8
DIM
 62
     0
440
 16777216
100
AcDbMText
 10
38647.6870122764
 20
5348.189632013379
 30
0.0
 40
15.0
 41
0.0
 46
0.0
 71
     5
 72
     1
  1
427 [16,81]
 73
     1
 44
1.0
  0
POINT
  5
4EFC
330
4E1A
100
AcDbEntity
  8
Defpoints
 62
     0
440
 16777216
100
AcDbPoint
 10
38861.1870122764
 20
5017.662134000333
 30
0.0
  0
POINT
  5
4EFD
330
4E1A
100
AcDbEntity
  8
Defpoints
 62
     0
440
 16777216
100
AcDbPoint
 10
38434.1870122764
 20
5017.662134000333
 30
0.0
  0
POINT
  5
4EFE
330
4E1A
100
AcDbEntity
  8
Defpoints
 62
     0
440
 16777216
100
AcDbPoint
 10
38434.1870122764
 20
5336.439632013379
 30
0.0
  0
ENDBLK
  5
4E25
330
4E1A
100
AcDbEntity
  8
0
100
AcDbBlockEnd
  0
BLOCK
  5
4E3C
330
4E32
100
AcDbEntity
  8
0
100
AcDbBlockBegin
  2
*D12
 70
     1
 10
0.0
 20
0.0
 30
0.0
  3
*D12
  1

  0
LINE
  5
4EED
330
4E32
100
AcDbEntity
  8
DIM
 62
     0
440
 16777216
370
    -2
100
AcDbLine
 10
38646.68701227639
 20
5281.162134000333
 30
0.0
 11
38349.90265685163
 21
5281.162134000333
 31
0.0
  0
LINE
  5
4EEE
330
4E32
100
AcDbEntity
  8
DIM
 62
     0
440
 16777216
370
    -2
100
AcDbLine
 10
38646.68701227639
 20
4754.162134000333
 30
0.0
 11
38349.90265685163
 21
4754.162134000333
 31
0.0
  0
LINE
  5
4EEF
330
4E32
100
AcDbEntity
  8
DIM
 62
     0
440
 16777216
370
    -2
100
AcDbLine
 10
38351.15265685163
 20
5273.162134000333
 30
0.0
 11
38351.15265685163
 21
4762.162134000333
 31
0.0
  0
SOLID
  5
4EF0
330
4E32
100
AcDbEntity
  8
DIM
 62
     0
440
 16777216
100
AcDbTrace
 10
38349.8193235183
 20
5273.162134000333
 30
0.0
 11
38352.48599018497
 21
5273.162134000333
 31
0.0
 12
38351.15265685163
 22
5281.162134000333
 32
0.0
 13
38351.15265685163
 23
5281.162134000333
 33
0.0
  0
SOLID
  5
4EF1
330
4E32
100
AcDbEntity
  8
DIM
 62
     0
440
 16777216
100
AcDbTrace
 10
38349.8193235183
 20
4762.162134000333
 30
0.0
 11
38352.48599018497
 21
4762.162134000333
 31
0.0
 12
38351.15265685163
 22
4754.162134000333
 32
0.0
 13
38351.15265685163
 23
4754.162134000333
 33
0.0
  0
MTEXT
  5
4EF2
330
4E32
100
AcDbEntity
  8
DIM
 62
     0
440
 16777216
100
AcDbMText
 10
38339.40265685163
 20
5017.662134000339
 30
0.0
 40
15.0
 41
0.0
 46
0.0
 71
     5
 72
     1
  1
527 [20,75]
 11
0.0000000000000001
 21
1.0
 31
0.0
 73
     1
 44
1.0
  0
POINT
  5
4EF3
330
4E32
100
AcDbEntity
  8
Defpoints
 62
     0
440
 16777216
100
AcDbPoint
 10
38647.6870122764
 20
5281.162134000333
 30
0.0
  0
POINT
  5
4EF4
330
4E32
100
AcDbEntity
  8
Defpoints
 62
     0
440
 16777216
100
AcDbPoint
 10
38647.6870122764
 20
4754.162134000333
 30
0.0
  0
POINT
  5
4EF5
330
4E32
100
AcDbEntity
  8
Defpoints
 62
     0
440
 16777216
100
AcDbPoint
 10
38351.15265685163
 20
4754.162134000333
 30
0.0
  0
ENDBLK
  5
4E3D
330
4E32
100
AcDbEntity
  8
0
100
AcDbBlockEnd
  0
BLOCK
  5
4E89
330
4E83
100
AcDbEntity
  8
0
100
AcDbBlockBegin
  2
*D13
 70
     1
 10
0.0
 20
0.0
 30
0.0
  3
*D13
  1

  0
LINE
  5
4FB5
330
4E83
100
AcDbEntity
  8
DIM
 62
     0
440
 16777216
370
    -2
100
AcDbLine
 10
38621.14122109767
 20
5113.579168608612
 30
0.0
 11
38472.9954452236
 21
5230.94112620422
 31
0.0
  0
MTEXT
  5
4FB6
330
4E83
100
AcDbEntity
  8
DIM
 62
     0
440
 16777216
100
AcDbMText
 10
38557.50000567516
 20
5178.986417438887
 30
0.0
 40
15.0
 41
0.0
 46
0.0
 71
     5
 72
     1
  1
4-R105 [R4,13]
 11
0.7838400839897675
 21
-0.6209627386010491
 31
0.0
 73
     1
 44
1.0
  0
SOLID
  5
4FB7
330
4E83
100
AcDbEntity
  8
DIM
 62
     0
440
 16777216
100
AcDbTrace
 10
38473.82339554173
 20
5231.986246316205
 30
0.0
 11
38472.16749490546
 21
5229.896006092235
 31
0.0
 12
38466.72472455168
 22
5235.908828113029
 32
0.0
 13
38466.72472455168
 23
5235.908828113029
 33
0.0
  0
POINT
  5
4FB8
330
4E83
100
AcDbEntity
  8
Defpoints
 62
     0
440
 16777216
100
AcDbPoint
 10
38466.72472455168
 20
5235.908828113029
 30
0.0
  0
POINT
  5
4FB9
330
4E83
100
AcDbEntity
  8
Defpoints
 62
     0
440
 16777216
100
AcDbPoint
 10
38549.0279333706
 20
5170.707740559915
 30
0.0
  0
ENDBLK
  5
4E8A
330
4E83
100
AcDbEntity
  8
0
100
AcDbBlockEnd
  0
ENDSEC
  0
SECTION
  2
ENTITIES
  0
ARC
  5
3DC2
330
1F
100
AcDbEntity
  8
base
370
     5
100
AcDbCircle
 10
38203.29677304228
 20
5522.682124022682
 30
0.0
 40
136.942674393078
100
AcDbArc
 50
179.6692087684003
 51
180.3390502187283
  0
LINE
  5
3DC7
102
{ACAD_REACTORS
330
3EA2
330
440A
102
}
330
1F
100
AcDbEntity
  8
base
370
     5
100
AcDbLine
 10
38340.23888471129
 20
5523.07470721288
 30
0.0
 11
38328.99677304225
 21
5522.682124022684
 31
0.0
  0
LINE
  5
3DC8
330
1F
100
AcDbEntity
  8
base
370
     5
100
AcDbLine
 10
38296.99677304227
 20
5514.288904560026
 30
0.0
 11
38296.99677304227
 21
5512.682124022681
 31
0.0
  0
LINE
  5
3DC9
330
1F
100
AcDbEntity
  8
base
370
     5
100
AcDbLine
 10
38328.99677304227
 20
5522.682124022682
 30
0.0
 11
38323.00003778235
 21
5516.685388762772
 31
0.0
  0
LINE
  5
3DCA
330
1F
100
AcDbEntity
  8
base
370
     5
100
AcDbLine
 10
38329.68248506256
 20
5521.105094343205
 30
0.0
 11
38323.72259000583
 21
5515.145199286458
 31
0.0
  0
LINE
  5
3DCB
102
{ACAD_REACTORS
330
3E72
330
440A
102
}
330
1F
100
AcDbEntity
  8
base
370
     5
100
AcDbLine
 10
38323.72259000583
 20
5515.145199286458
 30
0.0
 11
38296.99677304227
 21
5512.682124022681
 31
0.0
  0
LINE
  5
3DCC
330
1F
100
AcDbEntity
  8
base
370
     5
100
AcDbLine
 10
38323.00003778235
 20
5516.685388762772
 30
0.0
 11
38296.99677304227
 21
5514.288904560026
 31
0.0
  0
LINE
  5
3DCD
330
1F
100
AcDbEntity
  8
base
370
     5
100
AcDbLine
 10
38340.23411439183
 20
5521.473565358778
 30
0.0
 11
38329.68248506256
 21
5521.105094343205
 31
0.0
  0
LINE
  5
3DCE
330
1F
100
AcDbEntity
  8
base
370
     5
100
AcDbLine
 10
38088.99677304229
 20
5522.682124022684
 30
0.0
 11
38328.99677304227
 21
5522.682124022684
 31
0.0
  0
LINE
  5
3DCF
330
1F
100
AcDbEntity
  8
base
370
     5
100
AcDbLine
 10
38066.35649632431
 20
5521.871764636304
 30
0.0
 11
38088.31106102199
 21
5521.105094343205
 31
0.0
  0
LINE
  5
3DD0
330
1F
100
AcDbEntity
  8
base
370
     5
100
AcDbLine
 10
38120.99677304228
 20
5514.288904560026
 30
0.0
 11
38296.99677304227
 21
5514.288904560026
 31
0.0
  0
LINE
  5
3DD1
330
1F
100
AcDbEntity
  8
base
370
     5
100
AcDbLine
 10
38094.9935083022
 20
5516.685388762772
 30
0.0
 11
38120.99677304228
 21
5514.288904560026
 31
0.0
  0
LINE
  5
3DD2
330
1F
100
AcDbEntity
  8
base
370
     5
100
AcDbLine
 10
38094.27095607872
 20
5515.145199286458
 30
0.0
 11
38120.99677304228
 21
5512.682124022681
 31
0.0
  0
LINE
  5
3DD3
330
1F
100
AcDbEntity
  8
base
370
     5
100
AcDbLine
 10
38088.31106102199
 20
5521.105094343205
 30
0.0
 11
38094.27095607872
 21
5515.145199286458
 31
0.0
  0
LINE
  5
3DD4
102
{ACAD_REACTORS
330
3EA2
102
}
330
1F
100
AcDbEntity
  8
base
370
     5
100
AcDbLine
 10
38088.99677304228
 20
5522.682124022682
 30
0.0
 11
38094.9935083022
 21
5516.685388762772
 31
0.0
  0
LINE
  5
3DD5
102
{ACAD_REACTORS
330
3E8A
102
}
330
1F
100
AcDbEntity
  8
base
370
     5
100
AcDbLine
 10
38094.9935083022
 20
5516.685388762772
 30
0.0
 11
38323.00003778235
 21
5516.685388762772
 31
0.0
  0
LINE
  5
3DD6
102
{ACAD_REACTORS
330
3E72
330
440A
102
}
330
1F
100
AcDbEntity
  8
base
370
     5
100
AcDbLine
 10
38120.99677304228
 20
5512.682124022681
 30
0.0
 11
38296.99677304227
 21
5512.68212402268
 31
0.0
  0
LINE
  5
3DD7
102
{ACAD_REACTORS
330
3E72
102
}
330
1F
100
AcDbEntity
  8
base
370
     5
100
AcDbLine
 10
38120.99677304228
 20
5514.288904560026
 30
0.0
 11
38120.99677304228
 21
5512.682124022681
 31
0.0
  0
LINE
  5
3DD8
330
1F
100
AcDbEntity
  8
base
370
     5
100
AcDbLine
 10
38296.99677304228
 20
5514.288904560028
 30
0.0
 11
38296.99677304228
 21
5512.682124022684
 31
0.0
  0
LINE
  5
3DD9
102
{ACAD_REACTORS
330
3EA2
102
}
330
1F
100
AcDbEntity
  8
base
370
     5
100
AcDbLine
 10
38066.35638093652
 20
5523.472743936612
 30
0.0
 11
38088.99677304229
 21
5522.682124022684
 31
0.0
  0
ARC
  5
3DE6
330
1F
100
AcDbEntity
  8
base
370
     5
100
AcDbCircle
 10
38203.29677304228
 20
5522.682124022684
 30
0.0
 40
136.942674393078
100
AcDbArc
 50
359.4943416291213
 51
0.1642540633562254
  0
DIMENSION
  5
3E5B
102
{ACAD_XDICTIONARY
360
3E68
102
}
102
{ACAD_REACTORS
330
3E72
102
}
330
1F
100
AcDbEntity
  8
DIM
100
AcDbDimension
280
     0
  2
*D1
 10
38296.99677304224
 20
5477.769272814393
 30
0.0
 11
38208.99677304227
 21
5488.269272814393
 31
0.0
 70
    32
  1
%%C90 [3.46]
 71
     5
 42
175.9999999999636
 73
     0
 74
     0
 75
     0
  3
ISO-25
100
AcDbAlignedDimension
 13
38120.99677304228
 23
5512.682124022681
 33
0.0
 14
38296.99677304224
 24
5512.68212402268
 34
0.0
100
AcDbRotatedDimension
1001
ACAD
1000
DSTYLE
1002
{
1070
    41
1040
8.0
1070
   140
1040
15.0
1070
   141
1040
0.5
1070
   143
1040
0.03937007874
1070
   147
1040
3.0
1070
   170
1070
     1
1070
   171
1070
     2
1070
   179
1070
     2
1070
   274
1070
     2
1002
}
  0
DIMENSION
  5
3E73
102
{ACAD_XDICTIONARY
360
3E80
102
}
102
{ACAD_REACTORS
330
3E8A
102
}
330
1F
100
AcDbEntity
  8
DIM
100
AcDbDimension
280
     0
  2
*D2
 10
38323.00003778235
 20
5544.395680431751
 30
0.0
 11
38208.99677304227
 21
5554.895680431751
 31
0.0
 70
    32
  1
%%c114[4.49]
 71
     5
 42
228.0065294801461
 73
     0
 74
     0
 75
     0
  3
ISO-25
100
AcDbAlignedDimension
 13
38094.9935083022
 23
5516.685388762772
 33
0.0
 14
38323.00003778235
 24
5516.685388762772
 34
0.0
100
AcDbRotatedDimension
1001
ACAD
1000
DSTYLE
1002
{
1070
    41
1040
8.0
1070
   140
1040
15.0
1070
   141
1040
0.5
1070
   143
1040
0.03937007874
1070
   147
1040
3.0
1070
   170
1070
     1
1070
   171
1070
     2
1070
   179
1070
     2
1070
   274
1070
     2
1002
}
  0
DIMENSION
  5
3E8B
102
{ACAD_XDICTIONARY
360
3E98
102
}
102
{ACAD_REACTORS
330
3EA2
102
}
330
1F
100
AcDbEntity
  8
DIM
100
AcDbDimension
280
     0
  2
*D3
 10
38328.99677304225
 20
5581.14392035292
 30
0.0
 11
38208.99677304227
 21
5591.64392035292
 31
0.0
 70
    32
  1
%%c120 [4.72]
 71
     5
 42
239.9999999999709
 73
     0
 74
     0
 75
     0
  3
ISO-25
100
AcDbAlignedDimension
 13
38088.99677304228
 23
5522.682124022685
 33
0.0
 14
38328.99677304225
 24
5522.682124022684
 34
0.0
100
AcDbRotatedDimension
1001
ACAD
1000
DSTYLE
1002
{
1070
    41
1040
8.0
1070
   140
1040
15.0
1070
   141
1040
0.5
1070
   143
1040
0.03937007874
1070
   147
1040
3.0
1070
   170
1070
     1
1070
   171
1070
     2
1070
   179
1070
     2
1070
   274
1070
     2
1002
}
  0
LINE
  5
3F8D
330
1F
100
AcDbEntity
  8
DIM
  6
CENTER
100
AcDbLine
 10
38647.6870122764
 20
4675.098444659936
 30
0.0
 11
38647.6870122764
 21
5322.662134000333
 31
0.0
  0
LINE
  5
3F8E
330
1F
100
AcDbEntity
  8
DIM
  6
CENTER
100
AcDbLine
 10
38902.6870122764
 20
5017.662134000333
 30
0.0
 11
38392.6870122764
 21
5017.662134000333
 31
0.0
  0
LINE
  5
3FD1
330
1F
100
AcDbEntity
  8
base
100
AcDbLine
 10
38434.1870122764
 20
5951.891580108373
 30
0.0
 11
38434.1870122764
 21
5792.863693898366
 31
0.0
  0
LINE
  5
3FD2
330
1F
100
AcDbEntity
  8
base
100
AcDbLine
 10
38433.38701227639
 20
5951.891580108373
 30
0.0
 11
38433.38701227639
 21
5792.863693898367
 31
0.0
  0
CIRCLE
  5
3FD9
330
1F
100
AcDbEntity
  8
base
100
AcDbCircle
 10
38647.6870122764
 20
5017.662134000333
 30
0.0
 40
44.0
  0
CIRCLE
  5
3FDA
330
1F
100
AcDbEntity
  8
base
100
AcDbCircle
 10
38647.6870122764
 20
5017.662134000333
 30
0.0
 40
57.0
  0
CIRCLE
  5
3FDB
330
1F
100
AcDbEntity
  8
base
100
AcDbCircle
 10
38647.6870122764
 20
5017.662134000333
 30
0.0
 40
60.0
  0
LINE
  5
3FDC
330
1F
100
AcDbEntity
  8
base
100
AcDbLine
 10
38603.6870122764
 20
5714.191580108373
 30
0.0
 11
38603.6870122764
 21
5713.391580108373
 31
0.0
  0
LINE
  5
3FDF
330
1F
100
AcDbEntity
  8
base
100
AcDbLine
 10
38587.68701227639
 20
5718.391580108374
 30
0.0
 11
38500.52349533939
 21
5722.959626465542
 31
0.0
  0
LINE
  5
3FE0
330
1F
100
AcDbEntity
  8
base
100
AcDbLine
 10
38587.45674128368
 20
5717.602550222935
 30
0.0
 11
38500.4816265744
 21
5722.160722837737
 31
0.0
  0
LINE
  5
3FE2
330
1F
100
AcDbEntity
  8
base
100
AcDbLine
 10
38603.6870122764
 20
5713.391580108373
 30
0.0
 11
38691.6870122764
 21
5713.391580108373
 31
0.0
  0
LINE
  5
3FE3
330
1F
100
AcDbEntity
  8
base
100
AcDbLine
 10
38603.6870122764
 20
5714.191580108373
 30
0.0
 11
38691.6870122764
 21
5714.191580108373
 31
0.0
  0
LINE
  5
3FE6
330
1F
100
AcDbEntity
  8
base
100
AcDbLine
 10
38587.68701227639
 20
5718.391580108374
 30
0.0
 11
38590.6870122764
 21
5716.691580108373
 31
0.0
  0
LINE
  5
3FE7
330
1F
100
AcDbEntity
  8
base
100
AcDbLine
 10
38590.6870122764
 20
5716.691580108373
 30
0.0
 11
38603.6870122764
 21
5714.191580108373
 31
0.0
  0
LINE
  5
3FE8
330
1F
100
AcDbEntity
  8
base
100
AcDbLine
 10
38587.45674128368
 20
5717.602550222937
 30
0.0
 11
38590.40729467937
 21
5715.930569965383
 31
0.0
  0
LINE
  5
3FE9
330
1F
100
AcDbEntity
  8
base
100
AcDbLine
 10
38590.40729467937
 20
5715.930569965383
 30
0.0
 11
38603.6870122764
 21
5713.391580108373
 31
0.0
  0
ARC
  5
3FEA
102
{ACAD_REACTORS
330
4DD0
102
}
330
1F
100
AcDbEntity
  8
base
100
AcDbCircle
 10
38504.1870122764
 20
5792.863693898367
 30
0.0
 40
70.0
100
AcDbArc
 50
180.0000000000007
 51
266.9999999999884
  0
ARC
  5
3FEB
330
1F
100
AcDbEntity
  8
base
100
AcDbCircle
 10
38504.1870122764
 20
5792.863693898367
 30
0.0
 40
70.8
100
AcDbArc
 50
180.0000000000007
 51
266.9999999999884
  0
ARC
  5
3FEC
330
1F
100
AcDbEntity
  8
base
100
AcDbCircle
 10
38791.18701227639
 20
5792.863693898367
 30
0.0
 40
70.8
100
AcDbArc
 50
273.0000000000115
 51
359.9999999999992
  0
ARC
  5
3FED
330
1F
100
AcDbEntity
  8
base
100
AcDbCircle
 10
38791.18701227639
 20
5792.863693898367
 30
0.0
 40
70.0
100
AcDbArc
 50
273.0000000000115
 51
359.9999999999992
  0
LINE
  5
3FEE
330
1F
100
AcDbEntity
  8
base
100
AcDbLine
 10
38704.96672987343
 20
5715.930569965383
 30
0.0
 11
38691.6870122764
 21
5713.391580108373
 31
0.0
  0
LINE
  5
3FEF
330
1F
100
AcDbEntity
  8
base
100
AcDbLine
 10
38707.91728326912
 20
5717.602550222937
 30
0.0
 11
38704.96672987343
 21
5715.930569965383
 31
0.0
  0
LINE
  5
3FF0
330
1F
100
AcDbEntity
  8
base
100
AcDbLine
 10
38704.6870122764
 20
5716.691580108373
 30
0.0
 11
38691.6870122764
 21
5714.191580108373
 31
0.0
  0
LINE
  5
3FF1
330
1F
100
AcDbEntity
  8
base
100
AcDbLine
 10
38707.6870122764
 20
5718.391580108374
 30
0.0
 11
38704.6870122764
 21
5716.691580108373
 31
0.0
  0
LINE
  5
3FF2
330
1F
100
AcDbEntity
  8
base
100
AcDbLine
 10
38707.91728326912
 20
5717.602550222935
 30
0.0
 11
38794.8923979784
 21
5722.160722837737
 31
0.0
  0
LINE
  5
3FF3
102
{ACAD_REACTORS
330
45D4
102
}
330
1F
100
AcDbEntity
  8
base
100
AcDbLine
 10
38707.6870122764
 20
5718.391580108374
 30
0.0
 11
38794.85052921341
 21
5722.959626465542
 31
0.0
  0
LINE
  5
3FF4
330
1F
100
AcDbEntity
  8
base
100
AcDbLine
 10
38691.6870122764
 20
5714.191580108373
 30
0.0
 11
38691.6870122764
 21
5713.391580108373
 31
0.0
  0
LINE
  5
3FF5
102
{ACAD_REACTORS
330
45D4
102
}
330
1F
100
AcDbEntity
  8
base
100
AcDbLine
 10
38707.6870122764
 20
5718.391580108374
 30
0.0
 11
38587.6870122764
 21
5718.391580108374
 31
0.0
  0
LINE
  5
3FF6
102
{ACAD_REACTORS
330
4DC0
102
}
330
1F
100
AcDbEntity
  8
base
100
AcDbLine
 10
38590.6870122764
 20
5716.691580108373
 30
0.0
 11
38704.6870122764
 21
5716.691580108373
 31
0.0
  0
LINE
  5
3FF9
330
1F
100
AcDbEntity
  8
base
100
AcDbLine
 10
38861.9870122764
 20
5951.891580108373
 30
0.0
 11
38861.9870122764
 21
5792.863693898367
 31
0.0
  0
LINE
  5
3FFA
330
1F
100
AcDbEntity
  8
base
100
AcDbLine
 10
38861.1870122764
 20
5951.891580108373
 30
0.0
 11
38861.1870122764
 21
5792.863693898366
 31
0.0
  0
LINE
  5
402A
330
1F
100
AcDbEntity
  8
DIM
  6
CENTER
100
AcDbLine
 10
38647.6870122764
 20
5663.927191895236
 30
0.0
 11
38647.6870122764
 21
6015.40973130211
 31
0.0
  0
LINE
  5
42C9
330
1F
100
AcDbEntity
  8
DIM
100
AcDbLine
 10
38392.6870122764
 20
5017.662134000334
 30
0.0
 11
38374.3828153333
 21
5017.662134000334
 31
0.0
  0
LINE
  5
42CA
330
1F
100
AcDbEntity
  8
DIM
100
AcDbLine
 10
38374.3828153333
 20
5017.662134000334
 30
0.0
 11
38374.3828153333
 21
5045.101418797958
 31
0.0
  0
LINE
  5
42CE
330
1F
100
AcDbEntity
  8
DIM
100
AcDbLine
 10
38382.3828153333
 20
5045.101418797957
 30
0.0
 11
38366.3828153333
 21
5045.101418797957
 31
0.0
  0
LINE
  5
42CF
330
1F
100
AcDbEntity
  8
DIM
100
AcDbLine
 10
38382.3828153333
 20
5045.101418797957
 30
0.0
 11
38374.3828153333
 21
5069.101418797957
 31
0.0
  0
LINE
  5
42D0
330
1F
100
AcDbEntity
  8
DIM
100
AcDbLine
 10
38366.3828153333
 20
5045.101418797957
 30
0.0
 11
38374.3828153333
 21
5069.101418797957
 31
0.0
  0
LINE
  5
42D1
330
1F
100
AcDbEntity
  8
DIM
100
AcDbLine
 10
38928.9912092195
 20
5045.101418797957
 30
0.0
 11
38920.9912092195
 21
5069.101418797957
 31
0.0
  0
LINE
  5
42D2
330
1F
100
AcDbEntity
  8
DIM
100
AcDbLine
 10
38912.99120921949
 20
5045.101418797957
 30
0.0
 11
38920.9912092195
 21
5069.101418797957
 31
0.0
  0
LINE
  5
42D3
330
1F
100
AcDbEntity
  8
DIM
100
AcDbLine
 10
38912.99120921949
 20
5045.101418797957
 30
0.0
 11
38928.9912092195
 21
5045.101418797957
 31
0.0
  0
LINE
  5
42D4
330
1F
100
AcDbEntity
  8
DIM
100
AcDbLine
 10
38920.9912092195
 20
5017.662134000334
 30
0.0
 11
38920.9912092195
 21
5045.101418797958
 31
0.0
  0
LINE
  5
42D5
330
1F
100
AcDbEntity
  8
DIM
100
AcDbLine
 10
38902.6870122764
 20
5017.662134000334
 30
0.0
 11
38920.9912092195
 21
5017.662134000334
 31
0.0
  0
MTEXT
  5
42D6
330
1F
100
AcDbEntity
  8
DIM
100
AcDbMText
 10
38369.43656604983
 20
5102.66270778895
 30
0.0
 40
15.0
 41
15.66262670187279
 46
0.0
 71
     1
 72
     5
  1
A
 73
     1
 44
1.0
  0
MTEXT
  5
42D7
330
1F
100
AcDbEntity
  8
DIM
100
AcDbMText
 10
38915.02223487126
 20
5102.66270778895
 30
0.0
 40
15.0
 41
15.66262670187279
 46
0.0
 71
     1
 72
     5
  1
A
 73
     1
 44
1.0
  0
MTEXT
  5
42D9
330
1F
100
AcDbEntity
  8
DIM
100
AcDbMText
 10
38614.3458007265
 20
6051.572047089294
 30
0.0
 40
20.0
 41
72.40911348457302
 46
0.0
 71
     1
 72
     5
  1
A--A
 73
     1
 44
1.0
  0
CIRCLE
  5
42DA
330
1F
100
AcDbEntity
  8
DIM
100
AcDbCircle
 10
38647.6870122764
 20
5718.391580108374
 30
0.0
 40
66.5984560241668
  0
LEADER
  5
42DB
330
1F
100
AcDbEntity
  8
DIM
100
AcDbLeader
  3
ISO-25
 73
     0
 75
     1
 40
15.0
 41
15.0
 76
     3
 10
38621.65319046377
 20
5687.78112943464
 30
0.0
 10
38583.00069196396
 20
5670.918356326563
 30
0.0
 10
38575.00069196396
 20
5670.918356326563
 30
0.0
340
42DC
213
0.0
223
7.5
233
0.0
1001
ACAD
1000
DSTYLE
1002
{
1070
    77
1070
     0
1070
    41
1040
8.0
1070
   140
1040
15.0
1070
   141
1040
0.5
1070
   143
1040
0.03937007874
1070
   147
1040
3.0
1070
   170
1070
     1
1070
   171
1070
     2
1070
   179
1070
     2
1070
   274
1070
     2
1002
}
  0
MTEXT
  5
42DC
102
{ACAD_REACTORS
330
42DB
102
}
330
1F
100
AcDbEntity
  8
DIM
100
AcDbMText
 10
38572.00069196396
 20
5663.418356326563
 30
0.0
 40
15.0
 41
0.0
 46
0.0
 71
     9
 72
     1
  1
II
 73
     1
 44
1.0
  0
DIMENSION
  5
43EF
102
{ACAD_XDICTIONARY
360
43FE
102
}
102
{ACAD_REACTORS
330
440A
102
}
330
1F
100
AcDbEntity
  8
DIM
100
AcDbDimension
280
     0
  2
*D4
 10
38366.35991037076
 20
5512.68212402268
 30
0.0
 11
38355.85991037076
 21
5454.932124022685
 31
0.0
 70
    32
  1
5 [0.2]
 71
     5
 42
10.00000000000364
 73
     0
 74
     0
 75
     0
  3
ISO-25
100
AcDbAlignedDimension
 13
38328.99677304225
 23
5522.682124022684
 33
0.0
 14
38296.99677304224
 24
5512.68212402268
 34
0.0
 50
90.0
100
AcDbRotatedDimension
1001
ACAD
1000
DSTYLE
1002
{
1070
    41
1040
8.0
1070
   140
1040
15.0
1070
   141
1040
0.5
1070
   143
1040
0.03937007874
1070
   147
1040
3.0
1070
   170
1070
     1
1070
   171
1070
     2
1070
   179
1070
     2
1070
   274
1070
     2
1002
}
  0
DIMENSION
  5
45B1
102
{ACAD_XDICTIONARY
360
45C4
102
}
102
{ACAD_REACTORS
330
45D4
102
}
330
1F
100
AcDbEntity
  8
DIM
100
AcDbDimension
280
     0
  2
*D5
 10
38587.6870122764
 20
5718.391580108374
 30
0.0
 11
38889.3542960193
 21
5669.711751509309
 31
0.0
 70
    34
 71
     5
 42
0.0523598775598588
 73
     0
 74
     0
 75
     0
  3
ISO-25
100
AcDb2LineAngularDimension
 13
38707.6870122764
 23
5718.391580108374
 33
0.0
 14
38794.85052921341
 24
5722.959626465542
 34
0.0
 15
38707.6870122764
 25
5718.391580108374
 35
0.0
 16
38881.2083325306
 26
5724.451078134874
 36
0.0
1001
ACAD
1000
DSTYLE
1002
{
1070
    41
1040
8.0
1070
   140
1040
15.0
1070
   141
1040
0.5
1070
   143
1040
0.03937007874
1070
   147
1040
3.0
1070
   170
1070
     1
1070
   171
1070
     2
1070
   179
1070
     2
1070
   274
1070
     2
1002
}
  0
LINE
  5
4D09
102
{ACAD_REACTORS
330
4DC0
102
}
330
1F
100
AcDbEntity
  8
base
100
AcDbLine
 10
38417.68701227639
 20
5956.691580108373
 30
0.0
 11
38877.68701227639
 21
5956.691580108373
 31
0.0
  0
LINE
  5
4D49
330
1F
100
AcDbEntity
  8
base
100
AcDbLine
 10
38417.68701227639
 20
5177.662134000333
 30
0.0
 11
38417.68701227639
 21
4857.662134000332
 31
0.0
  0
LINE
  5
4D4A
330
1F
100
AcDbEntity
  8
base
100
AcDbLine
 10
38877.68701227639
 20
5177.662134000333
 30
0.0
 11
38877.68701227639
 21
4857.662134000332
 31
0.0
  0
LINE
  5
4D4B
102
{ACAD_REACTORS
330
4E00
102
}
330
1F
100
AcDbEntity
  8
base
100
AcDbLine
 10
38537.6870122764
 20
5297.662134000333
 30
0.0
 11
38757.68701227639
 21
5297.662134000333
 31
0.0
  0
LINE
  5
4D4C
330
1F
100
AcDbEntity
  8
base
100
AcDbLine
 10
38757.68701227639
 20
4737.662134000333
 30
0.0
 11
38537.6870122764
 21
4737.662134000333
 31
0.0
  0
ARC
  5
4D4D
102
{ACAD_REACTORS
330
4DE8
102
}
330
1F
100
AcDbEntity
  8
base
100
AcDbCircle
 10
38537.68701227639
 20
5177.662134000332
 30
0.0
 40
120.0
100
AcDbArc
 50
89.99999999999653
 51
179.9999999999996
  0
ARC
  5
4D4E
102
{ACAD_REACTORS
330
4DE8
330
4E12
102
}
330
1F
100
AcDbEntity
  8
base
100
AcDbCircle
 10
38757.68701227639
 20
5177.662134000335
 30
0.0
 40
120.0
100
AcDbArc
 50
359.9999999999992
 51
90.0
  0
ARC
  5
4D4F
330
1F
100
AcDbEntity
  8
base
100
AcDbCircle
 10
38757.68701227639
 20
4857.662134000332
 30
0.0
 40
120.0
100
AcDbArc
 50
270.0
 51
0.0000000000004343
  0
ARC
  5
4D50
102
{ACAD_REACTORS
330
4E00
102
}
330
1F
100
AcDbEntity
  8
base
100
AcDbCircle
 10
38537.6870122764
 20
4857.662134000332
 30
0.0
 40
120.0
100
AcDbArc
 50
179.9999999999996
 51
270.0
  0
ARC
  5
4D56
102
{ACAD_REACTORS
330
4E30
102
}
330
1F
100
AcDbEntity
  8
base
100
AcDbCircle
 10
39734.1870122764
 20
5017.662134000333
 30
0.0
 40
1300.0
100
AcDbArc
 50
172.6418262129501
 51
187.3581737870498
  0
ARC
  5
4D58
102
{ACAD_REACTORS
330
4E48
102
}
330
1F
100
AcDbEntity
  8
base
100
AcDbCircle
 10
38647.6870122764
 20
4281.162134000333
 30
0.0
 40
1000.0
100
AcDbArc
 50
83.67121779917029
 51
96.32878220082972
  0
ARC
  5
4D59
102
{ACAD_REACTORS
330
4E48
102
}
330
1F
100
AcDbEntity
  8
base
100
AcDbCircle
 10
38647.6870122764
 20
5754.162134000333
 30
0.0
 40
1000.0
100
AcDbArc
 50
263.6712177991703
 51
276.3287822008297
  0
ARC
  5
4D5A
102
{ACAD_REACTORS
330
4E30
102
}
330
1F
100
AcDbEntity
  8
base
100
AcDbCircle
 10
37561.18701227639
 20
5017.662134000333
 30
0.0
 40
1300.0
100
AcDbArc
 50
352.6418262129502
 51
7.358173787049842
  0
ARC
  5
4D5B
102
{ACAD_REACTORS
330
4E91
102
}
330
1F
100
AcDbEntity
  8
base
100
AcDbCircle
 10
38549.0279333706
 20
5170.707740559919
 30
0.0
 40
105.0
100
AcDbArc
 50
96.32878220082927
 51
172.6418262129501
  0
ARC
  5
4D5C
330
1F
100
AcDbEntity
  8
base
100
AcDbCircle
 10
38549.0279333706
 20
4864.616527440746
 30
0.0
 40
105.0
100
AcDbArc
 50
187.3581737870493
 51
263.6712177991707
  0
ARC
  5
4D5D
330
1F
100
AcDbEntity
  8
base
100
AcDbCircle
 10
38746.34609118218
 20
4864.616527440746
 30
0.0
 40
105.0
100
AcDbArc
 50
276.3287822008293
 51
352.6418262129502
  0
ARC
  5
4D5E
330
1F
100
AcDbEntity
  8
base
100
AcDbCircle
 10
38746.34609118218
 20
5170.707740559919
 30
0.0
 40
105.0
100
AcDbArc
 50
7.358173787049857
 51
83.67121779917075
  0
LINE
  5
4D61
330
1F
100
AcDbEntity
  8
base
100
AcDbLine
 10
38877.68701227639
 20
5956.691580108373
 30
0.0
 11
38877.68701227639
 21
5955.891580108374
 31
0.0
  0
ARC
  5
4D64
330
1F
100
AcDbEntity
  8
base
100
AcDbCircle
 10
38865.9870122764
 20
5951.891580108373
 30
0.0
 40
4.0
100
AcDbArc
 50
90.0
 51
180.0
  0
ARC
  5
4D65
330
1F
100
AcDbEntity
  8
base
100
AcDbCircle
 10
38865.9870122764
 20
5951.891580108373
 30
0.0
 40
4.799999999999999
100
AcDbArc
 50
90.0
 51
180.0
  0
LINE
  5
4D66
330
1F
100
AcDbEntity
  8
base
100
AcDbLine
 10
38865.9870122764
 20
5955.891580108374
 30
0.0
 11
38877.68701227639
 21
5955.891580108374
 31
0.0
  0
LINE
  5
4D67
330
1F
100
AcDbEntity
  8
base
100
AcDbLine
 10
38429.3870122764
 20
5955.891580108374
 30
0.0
 11
38417.68701227641
 21
5955.891580108374
 31
0.0
  0
ARC
  5
4D68
330
1F
100
AcDbEntity
  8
base
100
AcDbCircle
 10
38429.3870122764
 20
5951.891580108373
 30
0.0
 40
4.799999999999999
100
AcDbArc
 50
0.000000000000007
 51
90.0
  0
ARC
  5
4D69
330
1F
100
AcDbEntity
  8
base
100
AcDbCircle
 10
38429.3870122764
 20
5951.891580108373
 30
0.0
 40
4.0
100
AcDbArc
 50
0.000000000000007
 51
90.0
  0
LINE
  5
4D6A
330
1F
100
AcDbEntity
  8
base
100
AcDbLine
 10
38417.68701227641
 20
5956.691580108373
 30
0.0
 11
38417.68701227641
 21
5955.891580108374
 31
0.0
  0
DIMENSION
  5
4DA9
102
{ACAD_XDICTIONARY
360
4DB6
102
}
102
{ACAD_REACTORS
330
4DC0
102
}
330
1F
100
AcDbEntity
  8
DIM
100
AcDbDimension
280
     0
  2
*D6
 10
38354.57222714827
 20
5956.691580108373
 30
0.0
 11
38342.82222714827
 21
5836.691580108379
 31
0.0
 70
    32
 71
     5
 42
240.0
 73
     0
 74
     0
 75
     0
  3
ISO-25
100
AcDbAlignedDimension
 13
38590.6870122764
 23
5716.691580108373
 33
0.0
 14
38417.68701227639
 24
5956.691580108373
 34
0.0
 50
90.0
100
AcDbRotatedDimension
1001
ACAD
1000
DSTYLE
1002
{
1070
    41
1040
8.0
1070
   140
1040
15.0
1070
   141
1040
0.5
1070
   143
1040
0.03937007874
1070
   147
1040
3.0
1070
   170
1070
     1
1070
   171
1070
     2
1070
   179
1070
     2
1070
   274
1070
     2
1002
}
  0
DIMENSION
  5
4DC1
102
{ACAD_XDICTIONARY
360
4DCA
102
}
102
{ACAD_REACTORS
330
4DD0
102
}
330
1F
100
AcDbEntity
  8
DIM
100
AcDbDimension
280
     0
  2
*D7
 10
38504.18701227645
 20
5792.863693898371
 30
0.0
 11
38516.48526321419
 21
5807.346546651576
 31
0.0
 70
   164
 71
     5
 42
70.0000000000291
 73
     0
 74
     0
 75
     0
  3
ISO-25
100
AcDbRadialDimension
 15
38458.87766671624
 25
5739.505815333816
 35
0.0
 40
0.0
1001
ACAD
1000
DSTYLE
1002
{
1070
    41
1040
8.0
1070
   140
1040
15.0
1070
   141
1040
0.5
1070
   143
1040
0.03937007874
1070
   147
1040
3.0
1070
   170
1070
     1
1070
   171
1070
     2
1070
   179
1070
     2
1070
   274
1070
     2
1070
   288
1070
     1
1002
}
  0
DIMENSION
  5
4DD1
102
{ACAD_XDICTIONARY
360
4DDE
102
}
102
{ACAD_REACTORS
330
4DE8
102
}
330
1F
100
AcDbEntity
  8
DIM
100
AcDbDimension
280
     0
  2
*D8
 10
38877.68701227639
 20
5371.867486828874
 30
0.0
 11
38647.6870122764
 21
5383.617486828874
 31
0.0
 70
    32
 71
     5
 42
460.0000000000072
 73
     0
 74
     0
 75
     0
  3
ISO-25
100
AcDbAlignedDimension
 13
38417.68701227639
 23
5177.662134000333
 33
0.0
 14
38877.68701227639
 24
5177.662134000335
 34
0.0
100
AcDbRotatedDimension
1001
ACAD
1000
DSTYLE
1002
{
1070
    41
1040
8.0
1070
   140
1040
15.0
1070
   141
1040
0.5
1070
   143
1040
0.03937007874
1070
   147
1040
3.0
1070
   170
1070
     1
1070
   171
1070
     2
1070
   179
1070
     2
1070
   274
1070
     2
1002
}
  0
DIMENSION
  5
4DE9
102
{ACAD_XDICTIONARY
360
4DF6
102
}
102
{ACAD_REACTORS
330
4E00
102
}
330
1F
100
AcDbEntity
  8
DIM
100
AcDbDimension
280
     0
  2
*D9
 10
38316.0925391168
 20
4737.662134000332
 30
0.0
 11
38304.3425391168
 21
5017.662134000338
 31
0.0
 70
    32
 71
     5
 42
560.0000000000009
 73
     0
 74
     0
 75
     0
  3
ISO-25
100
AcDbAlignedDimension
 13
38537.6870122764
 23
5297.662134000333
 33
0.0
 14
38537.6870122764
 24
4737.662134000332
 34
0.0
 50
90.0
100
AcDbRotatedDimension
1001
ACAD
1000
DSTYLE
1002
{
1070
    41
1040
8.0
1070
   140
1040
15.0
1070
   141
1040
0.5
1070
   143
1040
0.03937007874
1070
   147
1040
3.0
1070
   170
1070
     1
1070
   171
1070
     2
1070
   179
1070
     2
1070
   274
1070
     2
1002
}
  0
DIMENSION
  5
4E01
102
{ACAD_XDICTIONARY
360
4E0B
102
}
102
{ACAD_REACTORS
330
4E12
102
}
330
1F
100
AcDbEntity
  8
DIM
100
AcDbDimension
280
     0
  2
*D10
 10
38757.68701227639
 20
5177.662134000336
 30
0.0
 11
38960.07827878735
 21
5346.808165853751
 31
0.0
 70
   164
  1
4-<>
 71
     5
 42
119.9999999999927
 73
     0
 74
     0
 75
     0
  3
ISO-25
100
AcDbRadialDimension
 15
38849.76458922387
 25
5254.614845606102
 35
0.0
 40
0.0
1001
ACAD
1000
DSTYLE
1002
{
1070
    41
1040
8.0
1070
   140
1040
15.0
1070
   141
1040
0.5
1070
   143
1040
0.03937007874
1070
   147
1040
3.0
1070
   170
1070
     1
1070
   171
1070
     2
1070
   179
1070
     2
1070
   274
1070
     2
1070
   288
1070
     1
1002
}
  0
DIMENSION
  5
4E19
102
{ACAD_XDICTIONARY
360
4E26
102
}
102
{ACAD_REACTORS
330
4E30
102
}
330
1F
100
AcDbEntity
  8
DIM
100
AcDbDimension
280
     0
  2
*D11
 10
38434.1870122764
 20
5336.439632013379
 30
0.0
 11
38647.6870122764
 21
5348.189632013379
 31
0.0
 70
    32
 71
     5
 42
427.0
 73
     0
 74
     0
 75
     0
  3
ISO-25
100
AcDbAlignedDimension
 13
38861.1870122764
 23
5017.662134000333
 33
0.0
 14
38434.1870122764
 24
5017.662134000333
 34
0.0
100
AcDbRotatedDimension
1001
ACAD
1000
DSTYLE
1002
{
1070
    41
1040
8.0
1070
   140
1040
15.0
1070
   141
1040
0.5
1070
   143
1040
0.03937007874
1070
   147
1040
3.0
1070
   170
1070
     1
1070
   171
1070
     2
1070
   179
1070
     2
1070
   274
1070
     2
1002
}
  0
DIMENSION
  5
4E31
102
{ACAD_XDICTIONARY
360
4E3E
102
}
102
{ACAD_REACTORS
330
4E48
102
}
330
1F
100
AcDbEntity
  8
DIM
100
AcDbDimension
280
     0
  2
*D12
 10
38351.15265685163
 20
4754.162134000333
 30
0.0
 11
38339.40265685163
 21
5017.662134000339
 31
0.0
 70
    32
 71
     5
 42
527.0
 73
     0
 74
     0
 75
     0
  3
ISO-25
100
AcDbAlignedDimension
 13
38647.6870122764
 23
5281.162134000333
 33
0.0
 14
38647.6870122764
 24
4754.162134000333
 34
0.0
 50
90.0
100
AcDbRotatedDimension
1001
ACAD
1000
DSTYLE
1002
{
1070
    41
1040
8.0
1070
   140
1040
15.0
1070
   141
1040
0.5
1070
   143
1040
0.03937007874
1070
   147
1040
3.0
1070
   170
1070
     1
1070
   171
1070
     2
1070
   179
1070
     2
1070
   274
1070
     2
1002
}
  0
LINE
  5
4E59
330
1F
100
AcDbEntity
  8
DIM
100
AcDbLine
 10
38717.34384579231
 20
5081.135212012674
 30
0.0
 11
38733.73879166344
 21
5269.422773338117
 31
0.0
  0
MTEXT
  5
4E5A
330
1F
100
AcDbEntity
  8
DIM
100
AcDbMText
 10
38713.48862756883
 20
5172.313333250437
 30
0.0
 40
13.0
 41
0.0
 46
0.0
 71
     5
 72
     1
  1
2-R1000 [R39,37]
 11
0.0867457453499293
 21
0.9962304832034028
 31
0.0
 73
     1
 44
1.0
  0
SOLID
  5
4E5B
330
1F
100
AcDbEntity
  8
DIM
100
AcDbTrace
 10
38732.4104843525
 20
5269.538434331918
 30
0.0
 11
38735.06709897439
 21
5269.307112344317
 31
0.0
 12
38734.43275762625
 22
5277.392617203744
 32
0.0
 13
38734.43275762625
 23
5277.392617203744
 33
0.0
  0
LINE
  5
4E5C
330
1F
100
AcDbEntity
  8
DIM
100
AcDbLine
 10
38717.34384579231
 20
5081.135212012674
 30
0.0
 11
38728.07720100936
 21
5085.95374922352
 31
0.0
  0
LINE
  5
4E5D
330
1F
100
AcDbEntity
  8
DIM
100
AcDbLine
 10
38728.07720100936
 20
5085.95374922352
 30
0.0
 11
38647.6870122764
 21
4675.098444659949
 31
0.0
  0
LINE
  5
4E7D
330
1F
100
AcDbEntity
  8
DIM
100
AcDbLine
 10
38624.84603713343
 20
4950.970881807663
 30
0.0
 11
38445.72757083148
 21
4921.665165135988
 31
0.0
  0
MTEXT
  5
4E7E
330
1F
100
AcDbEntity
  8
DIM
100
AcDbMText
 10
38526.74663907704
 20
4946.635483037778
 30
0.0
 40
13.0
 41
0.0
 46
0.0
 71
     5
 72
     1
  1
2-R1300 [R51,18]
 11
0.9868786022145513
 21
0.1614640037006794
 31
0.0
 73
     1
 44
1.0
  0
SOLID
  5
4E7F
330
1F
100
AcDbEntity
  8
DIM
100
AcDbTrace
 10
38445.51228549321
 20
4922.981003272274
 30
0.0
 11
38445.94285616974
 21
4920.349326999702
 31
0.0
 12
38437.83254201376
 22
4920.373453106384
 32
0.0
 13
38437.83254201376
 23
4920.373453106384
 33
0.0
  0
LINE
  5
4E80
330
1F
100
AcDbEntity
  8
DIM
100
AcDbLine
 10
38624.84603713343
 20
4950.970881807663
 30
0.0
 11
38619.40561118456
 21
4939.426073308482
 31
0.0
  0
LINE
  5
4E81
330
1F
100
AcDbEntity
  8
DIM
100
AcDbLine
 10
38619.40561118456
 20
4939.426073308482
 30
0.0
 11
38902.65707368189
 21
5017.662134000333
 31
0.0
  0
DIMENSION
  5
4E82
102
{ACAD_XDICTIONARY
360
4E8B
102
}
102
{ACAD_REACTORS
330
4E91
102
}
330
1F
100
AcDbEntity
  8
DIM
100
AcDbDimension
280
     0
  2
*D13
 10
38549.0279333706
 20
5170.707740559915
 30
0.0
 11
38550.2036934966
 21
5169.776296452007
 31
0.0
 70
   164
  1
4-<>
 71
     5
 42
105.0000000000036
 73
     0
 74
     0
 75
     0
  3
ISO-25
100
AcDbRadialDimension
 15
38466.72472455168
 25
5235.908828113029
 35
0.0
 40
0.0
1001
ACAD
1000
DSTYLE
1002
{
1070
    41
1040
8.0
1070
   140
1040
15.0
1070
   141
1040
0.5
1070
   143
1040
0.03937007874
1070
   147
1040
3.0
1070
   170
1070
     1
1070
   171
1070
     2
1070
   179
1070
     2
1070
   274
1070
     2
1070
   288
1070
     1
1002
}
  0
ENDSEC
  0
SECTION
  2
OBJECTS
  0
DICTIONARY
  5
C
330
0
100
AcDbDictionary
281
     1
  3
ACAD_CIP_PREVIOUS_PRODUCT_INFO
350
50CD
  3
ACAD_COLOR
350
6B
  3
ACAD_DETAILVIEWSTYLE
350
50C5
  3
ACAD_GROUP
350
D
  3
ACAD_LAYOUT
350
1A
  3
ACAD_MATERIAL
350
6A
  3
ACAD_MLEADERSTYLE
350
50C1
  3
ACAD_MLINESTYLE
350
17
  3
ACAD_PLOTSETTINGS
350
19
  3
ACAD_PLOTSTYLENAME
350
E
  3
ACAD_SCALELIST
350
50AF
  3
ACAD_SECTIONVIEWSTYLE
350
50C3
  3
ACAD_TABLESTYLE
350
5090
  3
ACAD_VISUALSTYLE
350
507F
  3
AcadDim
350
42E0
  3
ACDB_RECOMPOSE_DATA
350
50E7
  3
AcDbVariableDictionary
350
5E
  3
lxx_dict
350
5098
  0
DICTIONARY
  5
50CE
330
10
100
AcDbDictionary
280
     1
281
     1
  3
ADSK_XREC_LAYER_RECONCILED
360
50CF
  0
DICTIONARY
  5
50D0
330
84
100
AcDbDictionary
280
     1
281
     1
  3
ADSK_XREC_LAYER_RECONCILED
360
50D1
  0
DICTIONARY
  5
50D2
330
2D93
100
AcDbDictionary
280
     1
281
     1
  3
ADSK_XREC_LAYER_RECONCILED
360
50D3
  0
DICTIONARY
  5
3E68
330
3E5B
100
AcDbDictionary
280
     1
281
     1
  3
ACAD_DIMASSOC
360
3E72
  0
DICTIONARY
  5
3E80
330
3E73
100
AcDbDictionary
280
     1
281
     1
  3
ACAD_DIMASSOC
360
3E8A
  0
DICTIONARY
  5
3E98
330
3E8B
100
AcDbDictionary
280
     1
281
     1
  3
ACAD_DIMASSOC
360
3EA2
  0
DICTIONARY
  5
43FE
330
43EF
100
AcDbDictionary
280
     1
281
     1
  3
ACAD_DIMASSOC
360
440A
  0
DICTIONARY
  5
45C4
330
45B1
100
AcDbDictionary
280
     1
281
     1
  3
ACAD_DIMASSOC
360
45D4
  0
DICTIONARY
  5
4DB6
330
4DA9
100
AcDbDictionary
280
     1
281
     1
  3
ACAD_DIMASSOC
360
4DC0
  0
DICTIONARY
  5
4DCA
330
4DC1
100
AcDbDictionary
280
     1
281
     1
  3
ACAD_DIMASSOC
360
4DD0
  0
DICTIONARY
  5
4DDE
330
4DD1
100
AcDbDictionary
280
     1
281
     1
  3
ACAD_DIMASSOC
360
4DE8
  0
DICTIONARY
  5
4DF6
330
4DE9
100
AcDbDictionary
280
     1
281
     1
  3
ACAD_DIMASSOC
360
4E00
  0
DICTIONARY
  5
4E0B
330
4E01
100
AcDbDictionary
280
     1
281
     1
  3
ACAD_DIMASSOC
360
4E12
  0
DICTIONARY
  5
4E26
330
4E19
100
AcDbDictionary
280
     1
281
     1
  3
ACAD_DIMASSOC
360
4E30
  0
DICTIONARY
  5
4E3E
330
4E31
100
AcDbDictionary
280
     1
281
     1
  3
ACAD_DIMASSOC
360
4E48
  0
DICTIONARY
  5
4E8B
330
4E82
100
AcDbDictionary
280
     1
281
     1
  3
ACAD_DIMASSOC
360
4E91
  0
XRECORD
  5
50CD
102
{ACAD_REACTORS
330
C
102
}
330
C
100
AcDbXrecord
280
     1
300
ACDLT
300
2018
300

  0
DICTIONARY
  5
6B
102
{ACAD_REACTORS
330
C
102
}
330
C
100
AcDbDictionary
281
     1
  0
DICTIONARY
  5
50C5
102
{ACAD_REACTORS
330
C
102
}
330
C
100
AcDbDictionary
281
     1
  3
Metric50
350
50C6
  0
DICTIONARY
  5
D
102
{ACAD_REACTORS
330
C
102
}
330
C
100
AcDbDictionary
281
     1
  0
DICTIONARY
  5
1A
102
{ACAD_REACTORS
330
C
102
}
330
C
100
AcDbDictionary
281
     1
  3
Layout1
350
51
  3
Layout2
350
56
  3
Model
350
22
  0
DICTIONARY
  5
6A
102
{ACAD_REACTORS
330
C
102
}
330
C
100
AcDbDictionary
281
     1
  3
ByBlock
350
507D
  3
ByLayer
350
507C
  3
Global
350
507E
  0
DICTIONARY
  5
50C1
102
{ACAD_REACTORS
330
C
102
}
330
C
100
AcDbDictionary
281
     1
  3
Standard
350
50C2
  0
DICTIONARY
  5
17
102
{ACAD_REACTORS
330
C
102
}
330
C
100
AcDbDictionary
281
     1
  3
Standard
350
18
  0
DICTIONARY
  5
19
102
{ACAD_REACTORS
330
C
102
}
330
C
100
AcDbDictionary
281
     1
  0
ACDBDICTIONARYWDFLT
  5
E
102
{ACAD_REACTORS
330
C
102
}
330
C
100
AcDbDictionary
281
     1
  3
Normal
350
F
100
AcDbDictionaryWithDefault
340
F
  0
DICTIONARY
  5
50AF
102
{ACAD_REACTORS
330
C
102
}
330
C
100
AcDbDictionary
281
     1
  3
A0
350
50B0
  3
A1
350
50B1
  3
A2
350
50B2
  3
A3
350
50B3
  3
A4
350
50B4
  3
A5
350
50B5
  3
A6
350
50B6
  3
A7
350
50B7
  3
A8
350
50B8
  3
A9
350
50B9
  3
B0
350
50BA
  3
B1
350
50BB
  3
B2
350
50BC
  3
B3
350
50BD
  3
B4
350
50BE
  3
B5
350
50BF
  3
B6
350
50C0
  0
DICTIONARY
  5
50C3
102
{ACAD_REACTORS
330
C
102
}
330
C
100
AcDbDictionary
281
     1
  3
Metric50
350
50C4
  0
DICTIONARY
  5
5090
102
{ACAD_REACTORS
330
C
102
}
330
C
100
AcDbDictionary
281
     1
  3
Standard
350
5091
  0
DICTIONARY
  5
507F
102
{ACAD_REACTORS
330
C
102
}
330
C
100
AcDbDictionary
281
     1
  3
2dWireframe
350
5085
  3
3D Hidden
350
5087
  3
3dWireframe
350
5086
  3
Basic
350
5084
  3
Brighten
350
508B
  3
ColorChange
350
508F
  3
Conceptual
350
5088
  3
Dim
350
508A
  3
EdgeColorOff
350
50AE
  3
Facepattern
350
508E
  3
Flat
350
5080
  3
FlatWithEdges
350
5081
  3
Gouraud
350
5082
  3
GouraudWithEdges
350
5083
  3
Hidden
350
50A6
  3
JitterOff
350
50AC
  3
Linepattern
350
508D
  3
OverhangOff
350
50AD
  3
Realistic
350
5089
  3
Shaded
350
50AB
  3
Shaded with edges
350
50AA
  3
Shades of Gray
350
50A7
  3
Sketchy
350
50A8
  3
Thicken
350
508C
  3
Wireframe
350
50A5
  3
X-Ray
350
50A9
  0
XRECORD
  5
42E0
102
{ACAD_REACTORS
330
C
102
}
330
C
100
AcDbXrecord
280
     1
 90
   990106
  3

 60
     0
 61
     0
 62
     1
 63
     3
 64
     0
 65
     0
 66
     0
 67
     3
 68
     1
 69
     0
 70
     0
 71
     0
 72
     0
 40
0.0
170
     0
340
0
  0
XRECORD
  5
50E7
102
{ACAD_REACTORS
330
C
102
}
330
C
100
AcDbXrecord
280
     1
 90
        1
330
5091
  0
DICTIONARY
  5
5E
102
{ACAD_REACTORS
330
C
102
}
330
C
100
AcDbDictionary
281
     1
  3
CANNOSCALE
350
50E1
  3
CMLEADERSTYLE
350
50DD
  3
CTABLESTYLE
350
50A3
  3
CVIEWDETAILSTYLE
350
50DE
  3
CVIEWSECTIONSTYLE
350
50DF
  3
DIMASSOC
350
5F
  3
HIDETEXT
350
63
  3
LAYEREVAL
350
50E3
  3
LAYERNOTIFY
350
50E4
  3
LIGHTINGUNITS
350
50E2
  3
MSLTSCALE
350
50E0
  3
PROJECTNAME
350
1CF
  0
DICTIONARY
  5
5098
102
{ACAD_REACTORS
330
C
102
}
330
C
100
AcDbDictionary
281
     1
  3
lxx_dimth
350
5099
  0
XRECORD
  5
50CF
102
{ACAD_REACTORS
330
50CE
102
}
330
50CE
100
AcDbXrecord
280
     1
290
     1
  0
XRECORD
  5
50D1
102
{ACAD_REACTORS
330
50D0
102
}
330
50D0
100
AcDbXrecord
280
     1
290
     1
  0
XRECORD
  5
50D3
102
{ACAD_REACTORS
330
50D2
102
}
330
50D2
100
AcDbXrecord
280
     1
290
     1
  0
DIMASSOC
  5
3E72
102
{ACAD_REACTORS
330
3E68
102
}
330
3E68
100
AcDbDimAssoc
330
3E5B
 90
        3
 70
     0
 71
     0
  1
AcDbOsnapPointRef
 72
     1
331
3DD7
 73
     2
 91
        0
 40
1.0
 10
0.0
 20
0.0
 30
2.000000000000000E+50
 75
     0
  1
AcDbOsnapPointRef
 72
     6
331
3DD6
 73
     2
 91
        0
 40
0.999999999999876
 10
0.0
 20
0.0
 30
0.0
332
3DCB
 74
     2
 92
        0
 75
     0
  0
DIMASSOC
  5
3E8A
102
{ACAD_REACTORS
330
3E80
102
}
330
3E80
100
AcDbDimAssoc
330
3E73
 90
        3
 70
     0
 71
     0
  1
AcDbOsnapPointRef
 72
    13
331
3DD5
 73
     2
 91
        0
 40
0.0
 10
0.0
 20
0.0
 30
2.000000000000000E+50
 75
     0
  1
AcDbOsnapPointRef
 72
     1
331
3DD5
 73
     2
 91
        0
 40
1.0
 10
0.0
 20
0.0
 30
2.000000000000000E+50
 75
     0
  0
DIMASSOC
  5
3EA2
102
{ACAD_REACTORS
330
3E98
102
}
330
3E98
100
AcDbDimAssoc
330
3E8B
 90
        3
 70
     0
 71
     0
  1
AcDbOsnapPointRef
 72
     6
331
3DD9
 73
     2
 91
        0
 40
0.9999999999993564
 10
0.0
 20
0.0
 30
0.0
332
3DD4
 74
     2
 92
        0
 75
     0
  1
AcDbOsnapPointRef
 72
     1
331
3DC7
 73
     2
 91
        0
 40
1.0
 10
0.0
 20
0.0
 30
2.000000000000000E+50
 75
     0
  0
DIMASSOC
  5
440A
102
{ACAD_REACTORS
330
43FE
102
}
330
43FE
100
AcDbDimAssoc
330
43EF
 90
        3
 70
     0
 71
     0
  1
AcDbOsnapPointRef
 72
     1
331
3DC7
 73
     2
 91
        0
 40
1.0
 10
0.0
 20
0.0
 30
2.000000000000000E+50
 75
     0
  1
AcDbOsnapPointRef
 72
     6
331
3DD6
 73
     2
 91
        0
 40
0.999999999999876
 10
0.0
 20
0.0
 30
0.0
332
3DCB
 74
     2
 92
        0
 75
     0
  0
DIMASSOC
  5
45D4
102
{ACAD_REACTORS
330
45C4
102
}
330
45C4
100
AcDbDimAssoc
330
45B1
 90
       15
 70
     0
 71
     0
  1
AcDbOsnapPointRef
 72
    13
331
3FF3
 73
     2
 91
        0
 40
0.0
 10
0.0
 20
0.0
 30
2.000000000000000E+50
 75
     0
  1
AcDbOsnapPointRef
 72
     1
331
3FF3
 73
     2
 91
        0
 40
0.9999999999999998
 10
0.0
 20
0.0
 30
2.000000000000000E+50
 75
     0
  1
AcDbOsnapPointRef
 72
    13
331
3FF5
 73
     2
 91
        0
 40
0.0
 10
0.0
 20
0.0
 30
2.000000000000000E+50
 75
     0
  1
AcDbOsnapPointRef
 72
     1
331
3FF5
 73
     2
 91
        0
 40
1.0
 10
0.0
 20
0.0
 30
2.000000000000000E+50
 75
     0
  0
DIMASSOC
  5
4DC0
102
{ACAD_REACTORS
330
4DB6
102
}
330
4DB6
100
AcDbDimAssoc
330
4DA9
 90
        3
 70
     0
 71
     0
  1
AcDbOsnapPointRef
 72
    13
331
3FF6
 73
     2
 91
        0
 40
0.0
 10
0.0
 20
0.0
 30
2.000000000000000E+50
 75
     0
  1
AcDbOsnapPointRef
 72
    13
331
4D09
 73
     2
 91
        0
 40
0.0
 10
0.0
 20
0.0
 30
2.000000000000000E+50
 75
     0
  0
DIMASSOC
  5
4DD0
102
{ACAD_REACTORS
330
4DCA
102
}
330
4DCA
100
AcDbDimAssoc
330
4DC1
 90
        2
 70
     0
 71
     0
  1
AcDbOsnapPointRef
 72
     3
331
3FEA
 73
     2
 91
        0
 40
0.0
 10
0.0
 20
0.0
 30
0.0
 75
     0
  0
DIMASSOC
  5
4DE8
102
{ACAD_REACTORS
330
4DDE
102
}
330
4DDE
100
AcDbDimAssoc
330
4DD1
 90
        3
 70
     0
 71
     0
  1
AcDbOsnapPointRef
 72
     1
331
4D4D
 73
     2
 91
        0
 40
3.141592653589785
 10
0.0
 20
0.0
 30
2.000000000000000E+50
 75
     0
  1
AcDbOsnapPointRef
 72
     8
331
4D4E
 73
     2
 91
        0
 40
6.283185307179594
 10
0.0
 20
0.0
 30
0.0
 75
     1
  1
AcDbOsnapPointRef
 72
     1
331
4D4D
 73
     2
 91
        0
 40
3.141592653589785
 10
0.0
 20
0.0
 30
2.000000000000000E+50
 75
     0
  0
DIMASSOC
  5
4E00
102
{ACAD_REACTORS
330
4DF6
102
}
330
4DF6
100
AcDbDimAssoc
330
4DE9
 90
        3
 70
     0
 71
     0
  1
AcDbOsnapPointRef
 72
    13
331
4D4B
 73
     2
 91
        0
 40
0.0
 10
0.0
 20
0.0
 30
2.000000000000000E+50
 75
     0
  1
AcDbOsnapPointRef
 72
     1
331
4D50
 73
     2
 91
        0
 40
4.712388980384689
 10
0.0
 20
0.0
 30
2.000000000000000E+50
 75
     0
  0
DIMASSOC
  5
4E12
102
{ACAD_REACTORS
330
4E0B
102
}
330
4E0B
100
AcDbDimAssoc
330
4E01
 90
        2
 70
     0
 71
     0
  1
AcDbOsnapPointRef
 72
     3
331
4D4E
 73
     2
 91
        0
 40
0.0
 10
0.0
 20
0.0
 30
0.0
 75
     0
  0
DIMASSOC
  5
4E30
102
{ACAD_REACTORS
330
4E26
102
}
330
4E26
100
AcDbDimAssoc
330
4E19
 90
        3
 70
     0
 71
     0
  1
AcDbOsnapPointRef
 72
     2
331
4D5A
 73
     2
 91
        0
 40
6.283185307179586
 10
0.0
 20
0.0
 30
0.0
 75
     0
  1
AcDbOsnapPointRef
 72
     2
331
4D56
 73
     2
 91
        0
 40
3.141592653589793
 10
0.0
 20
0.0
 30
0.0
 75
     0
  0
DIMASSOC
  5
4E48
102
{ACAD_REACTORS
330
4E3E
102
}
330
4E3E
100
AcDbDimAssoc
330
4E31
 90
        3
 70
     0
 71
     0
  1
AcDbOsnapPointRef
 72
     2
331
4D58
 73
     2
 91
        0
 40
1.570796326794896
 10
0.0
 20
0.0
 30
0.0
 75
     0
  1
AcDbOsnapPointRef
 72
     2
331
4D59
 73
     2
 91
        0
 40
4.712388980384689
 10
0.0
 20
0.0
 30
0.0
 75
     0
  0
DIMASSOC
  5
4E91
102
{ACAD_REACTORS
330
4E8B
102
}
330
4E8B
100
AcDbDimAssoc
330
4E82
 90
        2
 70
     0
 71
     0
  1
AcDbOsnapPointRef
 72
     3
331
4D5B
 73
     2
 91
        0
 40
0.0
 10
0.0
 20
0.0
 30
0.0
 75
     0
  0
ACDBDETAILVIEWSTYLE
  5
50C6
102
{ACAD_REACTORS
330
50C5
102
}
330
50C5
100
AcDbModelDocViewStyle
 70
     0
  3
Metric50
290
     1
300
Metric50
 90
        0
100
AcDbDetailViewStyle
 70
     0
 71
     0
 90
        3
 71
     1
340
11
 62
   256
 40
5.0
340
0
 62
   256
 40
5.0
300

 40
0.0
280
     1
 71
     2
340
16
 90
       25
 62
   256
 71
     3
340
11
 62
   256
 40
5.0
 90
        0
 40
15.0
 90
        1
300
%<\AcVar ViewDetailId>% (%<\AcVar ViewScale \f "%sn">%)
 71
     4
340
16
 90
       25
 62
   256
340
16
 90
       25
 62
   256
280
     0
  0
LAYOUT
  5
51
102
{ACAD_REACTORS
330
1A
102
}
330
1A
100
AcDbPlotSettings
  1

  2
None
  4

  6

 40
0.0
 41
0.0
 42
0.0
 43
0.0
 44
0.0
 45
0.0
 46
0.0
 47
0.0
 48
0.0
 49
0.0
140
0.0
141
0.0
142
1.0
143
1.0
 70
   688
 72
     0
 73
     0
 74
     5
  7

 75
    16
147
1.0
 76
     0
 77
     2
 78
   300
148
0.0
149
0.0
100
AcDbLayout
  1
Layout1
 70
     1
 71
     1
 10
0.0
 20
0.0
 11
12.0
 21
9.0
 12
0.0
 22
0.0
 32
0.0
 14
0.0
 24
0.0
 34
0.0
 15
0.0
 25
0.0
 35
0.0
146
0.0
 13
0.0
 23
0.0
 33
0.0
 16
1.0
 26
0.0
 36
0.0
 17
0.0
 27
1.0
 37
0.0
 76
     0
330
50
  0
LAYOUT
  5
56
102
{ACAD_REACTORS
330
1A
102
}
330
1A
100
AcDbPlotSettings
  1

  2
None
  4

  6

 40
0.0
 41
0.0
 42
0.0
 43
0.0
 44
0.0
 45
0.0
 46
0.0
 47
0.0
 48
0.0
 49
0.0
140
0.0
141
0.0
142
1.0
143
1.0
 70
   688
 72
     0
 73
     0
 74
     5
  7

 75
    16
147
1.0
 76
     0
 77
     2
 78
   300
148
0.0
149
0.0
100
AcDbLayout
  1
Layout2
 70
     1
 71
     2
 10
0.0
 20
0.0
 11
12.0
 21
9.0
 12
0.0
 22
0.0
 32
0.0
 14
0.0
 24
0.0
 34
0.0
 15
0.0
 25
0.0
 35
0.0
146
0.0
 13
0.0
 23
0.0
 33
0.0
 16
1.0
 26
0.0
 36
0.0
 17
0.0
 27
1.0
 37
0.0
 76
     0
330
55
  0
LAYOUT
  5
22
102
{ACAD_REACTORS
330
1A
102
}
330
1A
100
AcDbPlotSettings
  1

  2
none_device
  4
ANSI_A_(8.50_x_11.00_Inches)
  6

 40
6.349999904632568
 41
19.04999923706055
 42
6.350006103515625
 43
19.04998779296875
 44
215.8999938964844
 45
279.3999938964844
 46
0.0
 47
0.0
 48
0.0
 49
0.0
140
0.0
141
0.0
142
1.0
143
78.436453180766
 70
 11952
 72
     0
 73
     1
 74
     0
  7

 75
     0
147
0.0127491741332998
 76
     0
 77
     2
 78
   300
148
0.0
149
0.0
100
AcDbLayout
  1
Model
 70
     1
 71
     0
 10
0.0
 20
0.0
 11
12.0
 21
9.0
 12
0.0
 22
0.0
 32
0.0
 14
0.0
 24
0.0
 34
0.0
 15
0.0
 25
0.0
 35
0.0
146
0.0
 13
0.0
 23
0.0
 33
0.0
 16
1.0
 26
0.0
 36
0.0
 17
0.0
 27
1.0
 37
0.0
 76
     0
330
1F
331
507A
  0
MATERIAL
  5
507D
102
{ACAD_REACTORS
330
6A
102
}
330
6A
100
AcDbMaterial
  1
ByBlock
 73
     1
 78
     1
172
     1
176
     1
270
     1
274
     1
 94
       63
  0
MATERIAL
  5
507C
102
{ACAD_REACTORS
330
6A
102
}
330
6A
100
AcDbMaterial
  1
ByLayer
 73
     1
 78
     1
172
     1
176
     1
270
     1
274
     1
 94
       63
  0
MATERIAL
  5
507E
102
{ACAD_REACTORS
330
6A
102
}
330
6A
100
AcDbMaterial
  1
Global
 73
     1
 78
     1
172
     1
176
     1
270
     1
274
     1
 94
       63
  0
MLEADERSTYLE
  5
50C2
102
{ACAD_REACTORS
330
50C1
102
}
330
50C1
100
AcDbMLeaderStyle
179
     2
170
     2
171
     1
172
     0
 90
        2
 40
0.0
 41
0.0
173
     1
 91
-1056964608
340
14
 92
       -2
290
     1
 42
2.0
291
     1
 43
0.36
  3
Standard
 44
4.0
300

342
11
174
     1
178
     6
175
     1
176
     0
 93
-1056964608
 45
4.0
292
     0
297
     0
 46
4.0
 94
-1056964608
 47
1.0
 49
1.0
140
1.0
293
     1
141
0.0
294
     1
177
     0
142
1.0
295
     1
296
     0
143
0.125
271
     0
272
     9
273
     9
298
     1
  0
MLINESTYLE
  5
18
102
{ACAD_REACTORS
330
17
102
}
330
17
100
AcDbMlineStyle
  2
STANDARD
 70
     0
  3

 62
   256
 51
90.0
 52
90.0
 71
     2
 49
0.5
 62
   256
  6
BYLAYER
 49
-0.5
 62
   256
  6
BYLAYER
  0
ACDBPLACEHOLDER
  5
F
102
{ACAD_REACTORS
330
E
102
}
330
E
  0
SCALE
  5
50B0
102
{ACAD_REACTORS
330
50AF
102
}
330
50AF
100
AcDbScale
 70
     0
300
1:1
140
1.0
141
1.0
290
     1
  0
SCALE
  5
50B1
102
{ACAD_REACTORS
330
50AF
102
}
330
50AF
100
AcDbScale
 70
     0
300
1:2
140
1.0
141
2.0
290
     0
  0
SCALE
  5
50B2
102
{ACAD_REACTORS
330
50AF
102
}
330
50AF
100
AcDbScale
 70
     0
300
1:4
140
1.0
141
4.0
290
     0
  0
SCALE
  5
50B3
102
{ACAD_REACTORS
330
50AF
102
}
330
50AF
100
AcDbScale
 70
     0
300
1:5
140
1.0
141
5.0
290
     0
  0
SCALE
  5
50B4
102
{ACAD_REACTORS
330
50AF
102
}
330
50AF
100
AcDbScale
 70
     0
300
1:8
140
1.0
141
8.0
290
     0
  0
SCALE
  5
50B5
102
{ACAD_REACTORS
330
50AF
102
}
330
50AF
100
AcDbScale
 70
     0
300
1:10
140
1.0
141
10.0
290
     0
  0
SCALE
  5
50B6
102
{ACAD_REACTORS
330
50AF
102
}
330
50AF
100
AcDbScale
 70
     0
300
1:16
140
1.0
141
16.0
290
     0
  0
SCALE
  5
50B7
102
{ACAD_REACTORS
330
50AF
102
}
330
50AF
100
AcDbScale
 70
     0
300
1:20
140
1.0
141
20.0
290
     0
  0
SCALE
  5
50B8
102
{ACAD_REACTORS
330
50AF
102
}
330
50AF
100
AcDbScale
 70
     0
300
1:30
140
1.0
141
30.0
290
     0
  0
SCALE
  5
50B9
102
{ACAD_REACTORS
330
50AF
102
}
330
50AF
100
AcDbScale
 70
     0
300
1:40
140
1.0
141
40.0
290
     0
  0
SCALE
  5
50BA
102
{ACAD_REACTORS
330
50AF
102
}
330
50AF
100
AcDbScale
 70
     0
300
1:50
140
1.0
141
50.0
290
     0
  0
SCALE
  5
50BB
102
{ACAD_REACTORS
330
50AF
102
}
330
50AF
100
AcDbScale
 70
     0
300
1:100
140
1.0
141
100.0
290
     0
  0
SCALE
  5
50BC
102
{ACAD_REACTORS
330
50AF
102
}
330
50AF
100
AcDbScale
 70
     0
300
2:1
140
2.0
141
1.0
290
     0
  0
SCALE
  5
50BD
102
{ACAD_REACTORS
330
50AF
102
}
330
50AF
100
AcDbScale
 70
     0
300
4:1
140
4.0
141
1.0
290
     0
  0
SCALE
  5
50BE
102
{ACAD_REACTORS
330
50AF
102
}
330
50AF
100
AcDbScale
 70
     0
300
8:1
140
8.0
141
1.0
290
     0
  0
SCALE
  5
50BF
102
{ACAD_REACTORS
330
50AF
102
}
330
50AF
100
AcDbScale
 70
     0
300
10:1
140
10.0
141
1.0
290
     0
  0
SCALE
  5
50C0
102
{ACAD_REACTORS
330
50AF
102
}
330
50AF
100
AcDbScale
 70
     0
300
100:1
140
100.0
141
1.0
290
     0
  0
ACDBSECTIONVIEWSTYLE
  5
50C4
102
{ACAD_REACTORS
330
50C3
102
}
330
50C3
100
AcDbModelDocViewStyle
 70
     0
  3
Metric50
290
     1
300
Metric50
 90
        0
100
AcDbSectionViewStyle
 70
     0
 71
     0
 90
      102
 71
     1
340
11
 62
   256
 40
5.0
340
0
340
0
 62
   256
 40
5.0
300
I, O, Q, S, X, Z
 40
10.0
 90
        0
 40
2.5
 90
        0
 71
     2
340
16
 90
       25
 62
   256
340
16
 90
       50
 62
   256
 40
5.0
 40
2.5
 40
5.0
 71
     3
340
11
 62
   256
 40
5.0
 90
        0
 40
15.0
 90
        1
300
%<\AcVar ViewSectionStartId>%-%<\AcVar ViewSectionEndId>% (%<\AcVar ViewScale \f "%sn">%)
 71
     4
 62
   256
 62
   257
300
ANSI31
 40
1.0
 90
        0
290
     0
290
     0
 90
        6
 40
0.0
 40
1.570796326794896
 40
0.2617993877991494
 40
1.308996938995747
 40
-0.2617993877991494
 40
1.832595714594046
  0
TABLESTYLE
  5
5091
102
{ACAD_XDICTIONARY
360
50E5
102
}
102
{ACAD_REACTORS
330
5090
102
}
330
5090
100
AcDbTableStyle
280
     0
  3
Standard
 70
     0
 71
     0
 40
1.5
 41
1.5
280
     0
281
     0
  7
Standard
140
4.5
170
     2
 62
     0
 63
     7
283
     0
 90
      512
 91
        0
  1

274
    -2
284
     1
 64
     0
275
    -2
285
     1
 65
     0
276
    -2
286
     1
 66
     0
277
    -2
287
     1
 67
     0
278
    -2
288
     1
 68
     0
279
    -2
289
     1
 69
     0
  7
Standard
140
6.0
170
     5
 62
     0
 63
     7
283
     0
 90
      512
 91
        0
  1

274
    -2
284
     1
 64
     0
275
    -2
285
     1
 65
     0
276
    -2
286
     1
 66
     0
277
    -2
287
     1
 67
     0
278
    -2
288
     1
 68
     0
279
    -2
289
     1
 69
     0
  7
Standard
140
4.5
170
     5
 62
     0
 63
     7
283
     0
 90
      512
 91
        0
  1

274
    -2
284
     1
 64
     0
275
    -2
285
     1
 65
     0
276
    -2
286
     1
 66
     0
277
    -2
287
     1
 67
     0
278
    -2
288
     1
 68
     0
279
    -2
289
     1
 69
     0
  0
VISUALSTYLE
  5
5085
102
{ACAD_REACTORS
330
507F
102
}
330
507F
100
AcDbVisualStyle
  2
2dWireframe
 70
     4
177
     3
291
     0
 70
    58
 90
        0
176
     1
 90
        2
176
     1
 90
        0
176
     1
 90
        0
176
     1
 40
0.6
176
     1
 40
30.0
176
     1
 62
     7
420
 16777215
176
     1
 90
        1
176
     1
 90
        4
176
     1
 62
     7
176
     1
 62
   257
176
     1
 90
        1
176
     1
 90
        1
176
     1
 40
1.0
176
     1
 90
        0
176
     1
 62
   257
176
     1
 40
1.0
176
     1
 90
        1
176
     1
 90
        6
176
     1
 90
        2
176
     1
 62
     7
176
     1
 90
        5
176
     1
 90
        0
176
     1
 90
        0
176
     1
290
     0
176
     1
 90
        1
176
     1
 40
0.0
176
     1
 90
        0
176
     1
290
     1
176
     1
290
     1
176
     1
290
     0
176
     1
290
     0
176
     1
290
     0
176
     1
290
     0
176
     1
290
     0
176
     1
290
     0
176
     1
290
     0
176
     1
 90
       50
176
     1
 40
0.0
176
     1
 40
1.0
176
     1
 90
        0
176
     1
 62
    18
420
        0
176
     1
 90
       50
176
     1
 90
        3
176
     1
 62
     5
420
      255
176
     1
290
     0
176
     1
 90
       50
176
     1
 90
       50
176
     1
 90
       50
176
     1
290
     0
176
     1
 90
       50
176
     1
 62
   256
176
     0
 40
1.0
176
     0
 90
        2
176
     1
  1
strokes_ogs.tif
176
     1
290
     0
176
     1
 40
1.0
176
     1
 40
1.0
176
     1
  0
VISUALSTYLE
  5
5087
102
{ACAD_REACTORS
330
507F
102
}
330
507F
100
AcDbVisualStyle
  2
3D Hidden
 70
     6
177
     3
291
     0
 70
    58
 90
        1
176
     1
 90
        2
176
     1
 90
        2
176
     1
 90
        0
176
     1
 40
0.6
176
     1
 40
30.0
176
     1
 62
     7
420
 16777215
176
     1
 90
        2
176
     1
 90
        2
176
     1
 62
     7
176
     1
 62
   257
176
     1
 90
        2
176
     1
 90
        1
176
     1
 40
40.0
176
     1
 90
        0
176
     1
 62
   257
176
     1
 40
1.0
176
     1
 90
        1
176
     1
 90
        6
176
     1
 90
        2
176
     1
 62
     7
176
     1
 90
        3
176
     1
 90
        0
176
     1
 90
        0
176
     1
290
     0
176
     1
 90
        1
176
     1
 40
0.0
176
     1
 90
        0
176
     1
290
     0
176
     1
290
     1
176
     1
290
     1
176
     1
290
     0
176
     1
290
     0
176
     1
290
     0
176
     1
290
     0
176
     1
290
     0
176
     1
290
     0
176
     1
 90
       50
176
     1
 40
0.0
176
     1
 40
1.0
176
     1
 90
        0
176
     1
 62
    18
420
        0
176
     1
 90
       50
176
     1
 90
        3
176
     1
 62
     5
420
      255
176
     1
290
     0
176
     1
 90
       50
176
     1
 90
       50
176
     1
 90
       50
176
     1
290
     0
176
     1
 90
       50
176
     1
 62
   256
176
     0
 40
1.0
176
     0
 90
        2
176
     1
  1
strokes_ogs.tif
176
     1
290
     0
176
     1
 40
1.0
176
     1
 40
1.0
176
     1
  0
VISUALSTYLE
  5
5086
102
{ACAD_REACTORS
330
507F
102
}
330
507F
100
AcDbVisualStyle
  2
3dWireframe
 70
     5
177
     3
291
     0
 70
    58
 90
        0
176
     1
 90
        2
176
     1
 90
        0
176
     1
 90
        0
176
     1
 40
0.6
176
     1
 40
30.0
176
     1
 62
     7
420
 16777215
176
     1
 90
        1
176
     1
 90
        4
176
     1
 62
     7
176
     1
 62
   257
176
     1
 90
        1
176
     1
 90
        1
176
     1
 40
1.0
176
     1
 90
        0
176
     1
 62
   257
176
     1
 40
1.0
176
     1
 90
        1
176
     1
 90
        6
176
     1
 90
        2
176
     1
 62
     7
176
     1
 90
        5
176
     1
 90
        0
176
     1
 90
        0
176
     1
290
     0
176
     1
 90
        1
176
     1
 40
0.0
176
     1
 90
        0
176
     1
290
     0
176
     1
290
     1
176
     1
290
     1
176
     1
290
     0
176
     1
290
     0
176
     1
290
     0
176
     1
290
     0
176
     1
290
     0
176
     1
290
     0
176
     1
 90
       50
176
     1
 40
0.0
176
     1
 40
1.0
176
     1
 90
        0
176
     1
 62
    18
420
        0
176
     1
 90
       50
176
     1
 90
        3
176
     1
 62
     5
420
      255
176
     1
290
     0
176
     1
 90
       50
176
     1
 90
       50
176
     1
 90
       50
176
     1
290
     0
176
     1
 90
       50
176
     1
 62
   256
176
     0
 40
1.0
176
     0
 90
        2
176
     1
  1
strokes_ogs.tif
176
     1
290
     0
176
     1
 40
1.0
176
     1
 40
1.0
176
     1
  0
VISUALSTYLE
  5
5084
102
{ACAD_REACTORS
330
507F
102
}
330
507F
100
AcDbVisualStyle
  2
Basic
 70
     7
177
     3
291
     1
 70
    58
 90
        1
176
     1
 90
        0
176
     1
 90
        1
176
     1
 90
        0
176
     1
 40
0.6
176
     1
 40
30.0
176
     1
 62
     7
420
 16777215
176
     1
 90
        0
176
     1
 90
        4
176
     1
 62
     7
176
     1
 62
   257
176
     1
 90
        1
176
     1
 90
        1
176
     1
 40
1.0
176
     1
 90
        8
176
     1
 62
     7
176
     1
 40
1.0
176
     1
 90
        1
176
     1
 90
        6
176
     1
 90
        2
176
     1
 62
     7
176
     1
 90
        5
176
     1
 90
        0
176
     1
 90
        0
176
     1
290
     0
176
     1
 90
        1
176
     1
 40
0.0
176
     1
 90
        0
176
     1
290
     0
176
     1
290
     1
176
     1
290
     1
176
     1
290
     0
176
     1
290
     0
176
     1
290
     0
176
     1
290
     0
176
     1
290
     0
176
     1
290
     0
176
     1
 90
       50
176
     1
 40
0.0
176
     1
 40
1.0
176
     1
 90
        0
176
     1
 62
    18
420
        0
176
     1
 90
       50
176
     1
 90
        3
176
     1
 62
     5
420
      255
176
     1
290
     0
176
     1
 90
       50
176
     1
 90
       50
176
     1
 90
       50
176
     1
290
     0
176
     1
 90
       50
176
     1
 62
   256
176
     0
 40
1.0
176
     0
 90
        2
176
     1
  1
strokes_ogs.tif
176
     1
290
     0
176
     1
 40
1.0
176
     1
 40
1.0
176
     1
  0
VISUALSTYLE
  5
508B
102
{ACAD_REACTORS
330
507F
102
}
330
507F
100
AcDbVisualStyle
  2
Brighten
 70
    12
177
     3
291
     1
 70
    58
 90
        2
176
     1
 90
        2
176
     1
 90
        0
176
     1
 90
        0
176
     1
 40
0.6
176
     1
 40
30.0
176
     1
 62
     7
420
 16777215
176
     1
 90
        1
176
     1
 90
        4
176
     1
 62
     7
176
     1
 62
   257
176
     1
 90
        1
176
     1
 90
        1
176
     1
 40
1.0
176
     1
 90
        8
176
     1
 62
     7
176
     1
 40
1.0
176
     1
 90
        1
176
     1
 90
        6
176
     1
 90
        2
176
     1
 62
     7
176
     1
 90
        5
176
     1
 90
        0
176
     1
 90
        0
176
     1
290
     0
176
     1
 90
        1
176
     1
 40
50.0
176
     1
 90
        0
176
     1
290
     0
176
     1
290
     1
176
     1
290
     1
176
     1
290
     0
176
     1
290
     0
176
     1
290
     0
176
     1
290
     0
176
     1
290
     0
176
     1
290
     0
176
     1
 90
       50
176
     1
 40
0.0
176
     1
 40
1.0
176
     1
 90
        0
176
     1
 62
    18
420
        0
176
     1
 90
       50
176
     1
 90
        3
176
     1
 62
     5
420
      255
176
     1
290
     0
176
     1
 90
       50
176
     1
 90
       50
176
     1
 90
       50
176
     1
290
     0
176
     1
 90
       50
176
     1
 62
   256
176
     0
 40
1.0
176
     0
 90
        2
176
     1
  1
strokes_ogs.tif
176
     1
290
     0
176
     1
 40
1.0
176
     1
 40
1.0
176
     1
  0
VISUALSTYLE
  5
508F
102
{ACAD_REACTORS
330
507F
102
}
330
507F
100
AcDbVisualStyle
  2
ColorChange
 70
    16
177
     3
291
     1
 70
    58
 90
        2
176
     1
 90
        2
176
     1
 90
        3
176
     1
 90
        0
176
     1
 40
0.6
176
     1
 40
30.0
176
     1
 62
     8
420
  8421504
176
     1
 90
        1
176
     1
 90
        4
176
     1
 62
     7
176
     1
 62
   257
176
     1
 90
        1
176
     1
 90
        1
176
     1
 40
1.0
176
     1
 90
        8
176
     1
 62
     8
420
  8421504
176
     1
 40
1.0
176
     1
 90
        1
176
     1
 90
        6
176
     1
 90
        2
176
     1
 62
     7
176
     1
 90
        5
176
     1
 90
        0
176
     1
 90
        0
176
     1
290
     0
176
     1
 90
        1
176
     1
 40
0.0
176
     1
 90
        0
176
     1
290
     0
176
     1
290
     1
176
     1
290
     1
176
     1
290
     0
176
     1
290
     0
176
     1
290
     0
176
     1
290
     0
176
     1
290
     0
176
     1
290
     0
176
     1
 90
       50
176
     1
 40
0.0
176
     1
 40
1.0
176
     1
 90
        0
176
     1
 62
    18
420
        0
176
     1
 90
       50
176
     1
 90
        3
176
     1
 62
     5
420
      255
176
     1
290
     0
176
     1
 90
       50
176
     1
 90
       50
176
     1
 90
       50
176
     1
290
     0
176
     1
 90
       50
176
     1
 62
   256
176
     0
 40
1.0
176
     0
 90
        2
176
     1
  1
strokes_ogs.tif
176
     1
290
     0
176
     1
 40
1.0
176
     1
 40
1.0
176
     1
  0
VISUALSTYLE
  5
5088
102
{ACAD_REACTORS
330
507F
102
}
330
507F
100
AcDbVisualStyle
  2
Conceptual
 70
     9
177
     3
291
     0
 70
    58
 90
        3
176
     1
 90
        2
176
     1
 90
        0
176
     1
 90
        0
176
     1
 40
0.6
176
     1
 40
30.0
176
     1
 62
     7
420
 16777215
176
     1
 90
        2
176
     1
 90
        2
176
     1
 62
     7
176
     1
 62
   257
176
     1
 90
        1
176
     1
 90
        1
176
     1
 40
40.0
176
     1
 90
        8
176
     1
 62
     7
176
     1
 40
1.0
176
     1
 90
        1
176
     1
 90
        6
176
     1
 90
        2
176
     1
 62
     7
176
     1
 90
        3
176
     1
 90
        0
176
     1
 90
        0
176
     1
290
     0
176
     1
 90
        1
176
     1
 40
0.0
176
     1
 90
        0
176
     1
290
     0
176
     1
290
     1
176
     1
290
     1
176
     1
290
     0
176
     1
290
     0
176
     1
290
     0
176
     1
290
     0
176
     1
290
     0
176
     1
290
     0
176
     1
 90
       50
176
     1
 40
0.0
176
     1
 40
1.0
176
     1
 90
        0
176
     1
 62
    18
420
        0
176
     1
 90
       50
176
     1
 90
        3
176
     1
 62
     5
420
      255
176
     1
290
     0
176
     1
 90
       50
176
     1
 90
       50
176
     1
 90
       50
176
     1
290
     0
176
     1
 90
       50
176
     1
 62
   256
176
     0
 40
1.0
176
     0
 90
        2
176
     1
  1
strokes_ogs.tif
176
     1
290
     0
176
     1
 40
1.0
176
     1
 40
1.0
176
     1
  0
VISUALSTYLE
  5
508A
102
{ACAD_REACTORS
330
507F
102
}
330
507F
100
AcDbVisualStyle
  2
Dim
 70
    11
177
     3
291
     1
 70
    58
 90
        2
176
     1
 90
        2
176
     1
 90
        0
176
     1
 90
        0
176
     1
 40
0.6
176
     1
 40
30.0
176
     1
 62
     7
420
 16777215
176
     1
 90
        1
176
     1
 90
        4
176
     1
 62
     7
176
     1
 62
   257
176
     1
 90
        1
176
     1
 90
        1
176
     1
 40
1.0
176
     1
 90
        8
176
     1
 62
     7
176
     1
 40
1.0
176
     1
 90
        1
176
     1
 90
        6
176
     1
 90
        2
176
     1
 62
     7
176
     1
 90
        5
176
     1
 90
        0
176
     1
 90
        0
176
     1
290
     0
176
     1
 90
        1
176
     1
 40
-50.0
176
     1
 90
        0
176
     1
290
     0
176
     1
290
     1
176
     1
290
     1
176
     1
290
     0
176
     1
290
     0
176
     1
290
     0
176
     1
290
     0
176
     1
290
     0
176
     1
290
     0
176
     1
 90
       50
176
     1
 40
0.0
176
     1
 40
1.0
176
     1
 90
        0
176
     1
 62
    18
420
        0
176
     1
 90
       50
176
     1
 90
        3
176
     1
 62
     5
420
      255
176
     1
290
     0
176
     1
 90
       50
176
     1
 90
       50
176
     1
 90
       50
176
     1
290
     0
176
     1
 90
       50
176
     1
 62
   256
176
     0
 40
1.0
176
     0
 90
        2
176
     1
  1
strokes_ogs.tif
176
     1
290
     0
176
     1
 40
1.0
176
     1
 40
1.0
176
     1
  0
VISUALSTYLE
  5
50AE
102
{ACAD_REACTORS
330
507F
102
}
330
507F
100
AcDbVisualStyle
  2
EdgeColorOff
 70
    22
177
     3
291
     1
 70
    58
 90
        2
176
     0
 90
        2
176
     0
 90
        0
176
     0
 90
        0
176
     0
 40
0.6
176
     0
 40
30.0
176
     0
 62
     7
420
 16777215
176
     0
 90
        1
176
     0
 90
        4
176
     0
 62
     7
176
     0
 62
   257
176
     0
 90
        1
176
     0
 90
        1
176
     0
 40
1.0
176
     0
 90
        8
176
     2
 62
     7
176
     0
 40
1.0
176
     0
 90
        1
176
     0
 90
        6
176
     0
 90
        2
176
     0
 62
     7
176
     0
 90
        5
176
     0
 90
        0
176
     0
 90
        0
176
     0
290
     0
176
     0
 90
        1
176
     0
 40
0.0
176
     0
 90
        0
176
     0
290
     0
176
     0
290
     1
176
     0
290
     1
176
     0
290
     0
176
     0
290
     0
176
     0
290
     0
176
     0
290
     0
176
     0
290
     0
176
     0
290
     0
176
     0
 90
       50
176
     0
 40
0.0
176
     0
 40
1.0
176
     0
 90
        0
176
     0
 62
    18
420
        0
176
     0
 90
       50
176
     0
 90
        3
176
     0
 62
     5
420
      255
176
     0
290
     0
176
     0
 90
       50
176
     0
 90
       50
176
     0
 90
       50
176
     0
290
     0
176
     0
 90
       50
176
     0
 62
   256
176
     0
 40
1.0
176
     0
 90
        2
176
     0
  1
strokes_ogs.tif
176
     0
290
     0
176
     0
 40
1.0
176
     0
 40
1.0
176
     0
  0
VISUALSTYLE
  5
508E
102
{ACAD_REACTORS
330
507F
102
}
330
507F
100
AcDbVisualStyle
  2
Facepattern
 70
    15
177
     3
291
     1
 70
    58
 90
        2
176
     1
 90
        2
176
     1
 90
        0
176
     1
 90
        0
176
     1
 40
0.6
176
     1
 40
30.0
176
     1
 62
     7
420
 16777215
176
     1
 90
        1
176
     1
 90
        4
176
     1
 62
     7
176
     1
 62
   257
176
     1
 90
        1
176
     1
 90
        1
176
     1
 40
1.0
176
     1
 90
        8
176
     1
 62
     7
176
     1
 40
1.0
176
     1
 90
        1
176
     1
 90
        6
176
     1
 90
        2
176
     1
 62
     7
176
     1
 90
        5
176
     1
 90
        0
176
     1
 90
        0
176
     1
290
     0
176
     1
 90
        1
176
     1
 40
0.0
176
     1
 90
        0
176
     1
290
     0
176
     1
290
     1
176
     1
290
     1
176
     1
290
     0
176
     1
290
     0
176
     1
290
     0
176
     1
290
     0
176
     1
290
     0
176
     1
290
     0
176
     1
 90
       50
176
     1
 40
0.0
176
     1
 40
1.0
176
     1
 90
        0
176
     1
 62
    18
420
        0
176
     1
 90
       50
176
     1
 90
        3
176
     1
 62
     5
420
      255
176
     1
290
     0
176
     1
 90
       50
176
     1
 90
       50
176
     1
 90
       50
176
     1
290
     0
176
     1
 90
       50
176
     1
 62
   256
176
     0
 40
1.0
176
     0
 90
        2
176
     1
  1
strokes_ogs.tif
176
     1
290
     0
176
     1
 40
1.0
176
     1
 40
1.0
176
     1
  0
VISUALSTYLE
  5
5080
102
{ACAD_REACTORS
330
507F
102
}
330
507F
100
AcDbVisualStyle
  2
Flat
 70
     0
177
     3
291
     1
 70
    58
 90
        2
176
     1
 90
        1
176
     1
 90
        1
176
     1
 90
        2
176
     1
 40
0.6
176
     1
 40
30.0
176
     1
 62
     7
420
 16777215
176
     1
 90
        0
176
     1
 90
        4
176
     1
 62
     7
176
     1
 62
   257
176
     1
 90
        1
176
     1
 90
        1
176
     1
 40
1.0
176
     1
 90
        8
176
     1
 62
     7
176
     1
 40
1.0
176
     1
 90
        1
176
     1
 90
        6
176
     1
 90
        2
176
     1
 62
     7
176
     1
 90
        5
176
     1
 90
        0
176
     1
 90
        0
176
     1
290
     0
176
     1
 90
       13
176
     1
 40
0.0
176
     1
 90
        0
176
     1
290
     0
176
     1
290
     1
176
     1
290
     1
176
     1
290
     0
176
     1
290
     0
176
     1
290
     0
176
     1
290
     0
176
     1
290
     0
176
     1
290
     0
176
     1
 90
       50
176
     1
 40
0.0
176
     1
 40
1.0
176
     1
 90
        0
176
     1
 62
    18
420
        0
176
     1
 90
       50
176
     1
 90
        3
176
     1
 62
     5
420
      255
176
     1
290
     0
176
     1
 90
       50
176
     1
 90
       50
176
     1
 90
       50
176
     1
290
     0
176
     1
 90
       50
176
     1
 62
   256
176
     0
 40
1.0
176
     0
 90
        2
176
     1
  1
strokes_ogs.tif
176
     1
290
     0
176
     1
 40
1.0
176
     1
 40
1.0
176
     1
  0
VISUALSTYLE
  5
5081
102
{ACAD_REACTORS
330
507F
102
}
330
507F
100
AcDbVisualStyle
  2
FlatWithEdges
 70
     1
177
     3
291
     1
 70
    58
 90
        2
176
     1
 90
        1
176
     1
 90
        1
176
     1
 90
        2
176
     1
 40
0.6
176
     1
 40
30.0
176
     1
 62
     7
420
 16777215
176
     1
 90
        1
176
     1
 90
        4
176
     1
 62
     7
176
     1
 62
   257
176
     1
 90
        1
176
     1
 90
        1
176
     1
 40
1.0
176
     1
 90
        0
176
     1
 62
   257
176
     1
 40
1.0
176
     1
 90
        1
176
     1
 90
        6
176
     1
 90
        2
176
     1
 62
     7
176
     1
 90
        5
176
     1
 90
        0
176
     1
 90
        0
176
     1
290
     0
176
     1
 90
       13
176
     1
 40
0.0
176
     1
 90
        0
176
     1
290
     0
176
     1
290
     1
176
     1
290
     1
176
     1
290
     0
176
     1
290
     0
176
     1
290
     0
176
     1
290
     0
176
     1
290
     0
176
     1
290
     0
176
     1
 90
       50
176
     1
 40
0.0
176
     1
 40
1.0
176
     1
 90
        0
176
     1
 62
    18
420
        0
176
     1
 90
       50
176
     1
 90
        3
176
     1
 62
     5
420
      255
176
     1
290
     0
176
     1
 90
       50
176
     1
 90
       50
176
     1
 90
       50
176
     1
290
     0
176
     1
 90
       50
176
     1
 62
   256
176
     0
 40
1.0
176
     0
 90
        2
176
     1
  1
strokes_ogs.tif
176
     1
290
     0
176
     1
 40
1.0
176
     1
 40
1.0
176
     1
  0
VISUALSTYLE
  5
5082
102
{ACAD_REACTORS
330
507F
102
}
330
507F
100
AcDbVisualStyle
  2
Gouraud
 70
     2
177
     3
291
     1
 70
    58
 90
        2
176
     1
 90
        2
176
     1
 90
        1
176
     1
 90
        2
176
     1
 40
0.6
176
     1
 40
30.0
176
     1
 62
     7
420
 16777215
176
     1
 90
        0
176
     1
 90
        4
176
     1
 62
     7
176
     1
 62
   257
176
     1
 90
        1
176
     1
 90
        1
176
     1
 40
1.0
176
     1
 90
        0
176
     1
 62
     7
176
     1
 40
1.0
176
     1
 90
        1
176
     1
 90
        6
176
     1
 90
        2
176
     1
 62
     7
176
     1
 90
        5
176
     1
 90
        0
176
     1
 90
        0
176
     1
290
     0
176
     1
 90
       13
176
     1
 40
0.0
176
     1
 90
        0
176
     1
290
     0
176
     1
290
     1
176
     1
290
     1
176
     1
290
     0
176
     1
290
     0
176
     1
290
     0
176
     1
290
     0
176
     1
290
     0
176
     1
290
     0
176
     1
 90
       50
176
     1
 40
0.0
176
     1
 40
1.0
176
     1
 90
        0
176
     1
 62
    18
420
        0
176
     1
 90
       50
176
     1
 90
        3
176
     1
 62
     5
420
      255
176
     1
290
     0
176
     1
 90
       50
176
     1
 90
       50
176
     1
 90
       50
176
     1
290
     0
176
     1
 90
       50
176
     1
 62
   256
176
     0
 40
1.0
176
     0
 90
        2
176
     1
  1
strokes_ogs.tif
176
     1
290
     0
176
     1
 40
1.0
176
     1
 40
1.0
176
     1
  0
VISUALSTYLE
  5
5083
102
{ACAD_REACTORS
330
507F
102
}
330
507F
100
AcDbVisualStyle
  2
GouraudWithEdges
 70
     3
177
     3
291
     1
 70
    58
 90
        2
176
     1
 90
        2
176
     1
 90
        1
176
     1
 90
        2
176
     1
 40
0.6
176
     1
 40
30.0
176
     1
 62
     7
420
 16777215
176
     1
 90
        1
176
     1
 90
        4
176
     1
 62
     7
176
     1
 62
   257
176
     1
 90
        1
176
     1
 90
        1
176
     1
 40
1.0
176
     1
 90
        0
176
     1
 62
   257
176
     1
 40
1.0
176
     1
 90
        1
176
     1
 90
        6
176
     1
 90
        2
176
     1
 62
     7
176
     1
 90
        5
176
     1
 90
        0
176
     1
 90
        0
176
     1
290
     0
176
     1
 90
       13
176
     1
 40
0.0
176
     1
 90
        0
176
     1
290
     0
176
     1
290
     1
176
     1
290
     1
176
     1
290
     0
176
     1
290
     0
176
     1
290
     0
176
     1
290
     0
176
     1
290
     0
176
     1
290
     0
176
     1
 90
       50
176
     1
 40
0.0
176
     1
 40
1.0
176
     1
 90
        0
176
     1
 62
    18
420
        0
176
     1
 90
       50
176
     1
 90
        3
176
     1
 62
     5
420
      255
176
     1
290
     0
176
     1
 90
       50
176
     1
 90
       50
176
     1
 90
       50
176
     1
290
     0
176
     1
 90
       50
176
     1
 62
   256
176
     0
 40
1.0
176
     0
 90
        2
176
     1
  1
strokes_ogs.tif
176
     1
290
     0
176
     1
 40
1.0
176
     1
 40
1.0
176
     1
  0
VISUALSTYLE
  5
50A6
102
{ACAD_REACTORS
330
507F
102
}
330
507F
100
AcDbVisualStyle
  2
Hidden
 70
     6
177
     3
291
     0
 70
    58
 90
        1
176
     1
 90
        2
176
     1
 90
        2
176
     1
 90
        0
176
     1
 40
0.6
176
     1
 40
30.0
176
     1
 62
     7
420
 16777215
176
     1
 90
        2
176
     1
 90
        2
176
     1
 62
     7
176
     1
 62
   257
176
     1
 90
        2
176
     1
 90
        1
176
     1
 40
40.0
176
     1
 90
        0
176
     1
 62
   257
176
     1
 40
1.0
176
     1
 90
        1
176
     1
 90
        6
176
     1
 90
        2
176
     1
 62
     7
176
     1
 90
        3
176
     1
 90
        0
176
     1
 90
        0
176
     1
290
     0
176
     1
 90
        1
176
     1
 40
0.0
176
     1
 90
        0
176
     1
290
     0
176
     1
290
     1
176
     1
290
     1
176
     1
290
     0
176
     1
290
     0
176
     1
290
     0
176
     1
290
     0
176
     1
290
     0
176
     1
290
     0
176
     1
 90
       50
176
     1
 40
0.0
176
     1
 40
1.0
176
     1
 90
        0
176
     1
 62
    18
420
        0
176
     1
 90
       50
176
     1
 90
        3
176
     1
 62
     5
420
      255
176
     1
290
     0
176
     1
 90
       50
176
     1
 90
       50
176
     1
 90
       50
176
     1
290
     0
176
     1
 90
       50
176
     1
 62
   256
176
     0
 40
1.0
176
     0
 90
        2
176
     1
  1
strokes_ogs.tif
176
     1
290
     0
176
     1
 40
1.0
176
     1
 40
1.0
176
     1
  0
VISUALSTYLE
  5
50AC
102
{ACAD_REACTORS
330
507F
102
}
330
507F
100
AcDbVisualStyle
  2
JitterOff
 70
    20
177
     3
291
     1
 70
    58
 90
        2
176
     0
 90
        2
176
     0
 90
        0
176
     0
 90
        0
176
     0
 40
0.6
176
     0
 40
30.0
176
     0
 62
     7
420
 16777215
176
     0
 90
        1
176
     0
 90
        4
176
     0
 62
     7
176
     0
 62
   257
176
     0
 90
        1
176
     0
 90
        1
176
     0
 40
1.0
176
     0
 90
       10
176
     2
 62
     7
176
     0
 40
1.0
176
     0
 90
        1
176
     0
 90
        6
176
     0
 90
        2
176
     0
 62
     7
176
     0
 90
        5
176
     0
 90
        0
176
     0
 90
        0
176
     0
290
     0
176
     0
 90
        1
176
     0
 40
0.0
176
     0
 90
        0
176
     0
290
     0
176
     0
290
     1
176
     0
290
     1
176
     0
290
     0
176
     0
290
     0
176
     0
290
     0
176
     0
290
     0
176
     0
290
     0
176
     0
290
     0
176
     0
 90
       50
176
     0
 40
0.0
176
     0
 40
1.0
176
     0
 90
        0
176
     0
 62
    18
420
        0
176
     0
 90
       50
176
     0
 90
        3
176
     0
 62
     5
420
      255
176
     0
290
     0
176
     0
 90
       50
176
     0
 90
       50
176
     0
 90
       50
176
     0
290
     0
176
     0
 90
       50
176
     0
 62
   256
176
     0
 40
1.0
176
     0
 90
        2
176
     0
  1
strokes_ogs.tif
176
     0
290
     0
176
     0
 40
1.0
176
     0
 40
1.0
176
     0
  0
VISUALSTYLE
  5
508D
102
{ACAD_REACTORS
330
507F
102
}
330
507F
100
AcDbVisualStyle
  2
Linepattern
 70
    14
177
     3
291
     1
 70
    58
 90
        2
176
     1
 90
        2
176
     1
 90
        0
176
     1
 90
        0
176
     1
 40
0.6
176
     1
 40
30.0
176
     1
 62
     7
420
 16777215
176
     1
 90
        1
176
     1
 90
        4
176
     1
 62
     7
176
     1
 62
   257
176
     1
 90
        7
176
     1
 90
        7
176
     1
 40
1.0
176
     1
 90
        8
176
     1
 62
     7
176
     1
 40
1.0
176
     1
 90
        1
176
     1
 90
        6
176
     1
 90
        2
176
     1
 62
     7
176
     1
 90
        5
176
     1
 90
        0
176
     1
 90
        0
176
     1
290
     0
176
     1
 90
        1
176
     1
 40
0.0
176
     1
 90
        0
176
     1
290
     0
176
     1
290
     1
176
     1
290
     1
176
     1
290
     0
176
     1
290
     0
176
     1
290
     0
176
     1
290
     0
176
     1
290
     0
176
     1
290
     0
176
     1
 90
       50
176
     1
 40
0.0
176
     1
 40
1.0
176
     1
 90
        0
176
     1
 62
    18
420
        0
176
     1
 90
       50
176
     1
 90
        3
176
     1
 62
     5
420
      255
176
     1
290
     0
176
     1
 90
       50
176
     1
 90
       50
176
     1
 90
       50
176
     1
290
     0
176
     1
 90
       50
176
     1
 62
   256
176
     0
 40
1.0
176
     0
 90
        2
176
     1
  1
strokes_ogs.tif
176
     1
290
     0
176
     1
 40
1.0
176
     1
 40
1.0
176
     1
  0
VISUALSTYLE
  5
50AD
102
{ACAD_REACTORS
330
507F
102
}
330
507F
100
AcDbVisualStyle
  2
OverhangOff
 70
    21
177
     3
291
     1
 70
    58
 90
        2
176
     0
 90
        2
176
     0
 90
        0
176
     0
 90
        0
176
     0
 40
0.6
176
     0
 40
30.0
176
     0
 62
     7
420
 16777215
176
     0
 90
        1
176
     0
 90
        4
176
     0
 62
     7
176
     0
 62
   257
176
     0
 90
        1
176
     0
 90
        1
176
     0
 40
1.0
176
     0
 90
        9
176
     2
 62
     7
176
     0
 40
1.0
176
     0
 90
        1
176
     0
 90
        6
176
     0
 90
        2
176
     0
 62
     7
176
     0
 90
        5
176
     0
 90
        0
176
     0
 90
        0
176
     0
290
     0
176
     0
 90
        1
176
     0
 40
0.0
176
     0
 90
        0
176
     0
290
     0
176
     0
290
     1
176
     0
290
     1
176
     0
290
     0
176
     0
290
     0
176
     0
290
     0
176
     0
290
     0
176
     0
290
     0
176
     0
290
     0
176
     0
 90
       50
176
     0
 40
0.0
176
     0
 40
1.0
176
     0
 90
        0
176
     0
 62
    18
420
        0
176
     0
 90
       50
176
     0
 90
        3
176
     0
 62
     5
420
      255
176
     0
290
     0
176
     0
 90
       50
176
     0
 90
       50
176
     0
 90
       50
176
     0
290
     0
176
     0
 90
       50
176
     0
 62
   256
176
     0
 40
1.0
176
     0
 90
        2
176
     0
  1
strokes_ogs.tif
176
     0
290
     0
176
     0
 40
1.0
176
     0
 40
1.0
176
     0
  0
VISUALSTYLE
  5
5089
102
{ACAD_REACTORS
330
507F
102
}
330
507F
100
AcDbVisualStyle
  2
Realistic
 70
     8
177
     3
291
     0
 70
    58
 90
        2
176
     1
 90
        2
176
     1
 90
        0
176
     1
 90
        0
176
     1
 40
0.6
176
     1
 40
30.0
176
     1
 62
     7
420
 16777215
176
     1
 90
        1
176
     1
 90
        0
176
     1
 62
     7
176
     1
 62
   257
176
     1
 90
        1
176
     1
 90
        1
176
     1
 40
1.0
176
     1
 90
        8
176
     1
 62
     8
420
  7895160
176
     1
 40
1.0
176
     1
 90
        1
176
     1
 90
        6
176
     1
 90
        2
176
     1
 62
     7
176
     1
 90
        5
176
     1
 90
        0
176
     1
 90
        0
176
     1
290
     0
176
     1
 90
       13
176
     1
 40
0.0
176
     1
 90
        0
176
     1
290
     0
176
     1
290
     1
176
     1
290
     1
176
     1
290
     0
176
     1
290
     0
176
     1
290
     0
176
     1
290
     0
176
     1
290
     0
176
     1
290
     0
176
     1
 90
       50
176
     1
 40
0.0
176
     1
 40
1.0
176
     1
 90
        0
176
     1
 62
    18
420
        0
176
     1
 90
       50
176
     1
 90
        3
176
     1
 62
     5
420
      255
176
     1
290
     0
176
     1
 90
       50
176
     1
 90
       50
176
     1
 90
       50
176
     1
290
     0
176
     1
 90
       50
176
     1
 62
   256
176
     0
 40
1.0
176
     0
 90
        2
176
     1
  1
strokes_ogs.tif
176
     1
290
     0
176
     1
 40
1.0
176
     1
 40
1.0
176
     1
  0
VISUALSTYLE
  5
50AB
102
{ACAD_REACTORS
330
507F
102
}
330
507F
100
AcDbVisualStyle
  2
Shaded
 70
    27
177
     3
291
     0
 70
    58
 90
        2
176
     1
 90
        2
176
     1
 90
        1
176
     1
 90
        2
176
     1
 40
0.6
176
     1
 40
30.0
176
     1
 62
     7
420
 16777215
176
     1
 90
        0
176
     1
 90
        4
176
     1
 62
     7
176
     1
 62
   257
176
     1
 90
        1
176
     1
 90
        1
176
     1
 40
1.0
176
     1
 90
        8
176
     1
 62
   257
176
     1
 40
1.0
176
     1
 90
        1
176
     1
 90
        6
176
     1
 90
        2
176
     1
 62
     8
420
  7895160
176
     1
 90
        3
176
     1
 90
        0
176
     1
 90
        0
176
     1
290
     0
176
     1
 90
        5
176
     1
 40
0.0
176
     1
 90
        0
176
     1
290
     0
176
     1
290
     1
176
     1
290
     1
176
     1
290
     0
176
     1
290
     0
176
     1
290
     0
176
     1
290
     0
176
     1
290
     0
176
     1
290
     0
176
     1
 90
       50
176
     1
 40
0.0
176
     1
 40
1.0
176
     1
 90
        0
176
     1
 62
    18
420
        0
176
     1
 90
       50
176
     1
 90
        3
176
     1
 62
     5
420
      255
176
     1
290
     0
176
     1
 90
       50
176
     1
 90
       50
176
     1
 90
       50
176
     1
290
     0
176
     1
 90
       50
176
     1
 62
   256
176
     0
 40
1.0
176
     0
 90
        2
176
     1
  1
strokes_ogs.tif
176
     1
290
     0
176
     1
 40
1.0
176
     1
 40
1.0
176
     1
  0
VISUALSTYLE
  5
50AA
102
{ACAD_REACTORS
330
507F
102
}
330
507F
100
AcDbVisualStyle
  2
Shaded with edges
 70
    26
177
     3
291
     0
 70
    58
 90
        2
176
     1
 90
        2
176
     1
 90
        1
176
     1
 90
        2
176
     1
 40
0.6
176
     1
 40
30.0
176
     1
 62
     7
420
 16777215
176
     1
 90
        1
176
     1
 90
        2
176
     1
 62
     7
176
     1
 62
   257
176
     1
 90
        2
176
     1
 90
        1
176
     1
 40
1.0
176
     1
 90
        8
176
     1
 62
   257
176
     1
 40
1.0
176
     1
 90
        1
176
     1
 90
        6
176
     1
 90
        2
176
     1
 62
     7
176
     1
 90
        3
176
     1
 90
        0
176
     1
 90
        0
176
     1
290
     0
176
     1
 90
        5
176
     1
 40
0.0
176
     1
 90
        0
176
     1
290
     0
176
     1
290
     1
176
     1
290
     1
176
     1
290
     0
176
     1
290
     0
176
     1
290
     0
176
     1
290
     0
176
     1
290
     0
176
     1
290
     0
176
     1
 90
       50
176
     1
 40
0.0
176
     1
 40
1.0
176
     1
 90
        0
176
     1
 62
    18
420
        0
176
     1
 90
       50
176
     1
 90
        3
176
     1
 62
     5
420
      255
176
     1
290
     0
176
     1
 90
       50
176
     1
 90
       50
176
     1
 90
       50
176
     1
290
     0
176
     1
 90
       50
176
     1
 62
   256
176
     0
 40
1.0
176
     0
 90
        2
176
     1
  1
strokes_ogs.tif
176
     1
290
     0
176
     1
 40
1.0
176
     1
 40
1.0
176
     1
  0
VISUALSTYLE
  5
50A7
102
{ACAD_REACTORS
330
507F
102
}
330
507F
100
AcDbVisualStyle
  2
Shades of Gray
 70
    23
177
     3
291
     0
 70
    58
 90
        2
176
     1
 90
        2
176
     1
 90
        3
176
     1
 90
        0
176
     1
 40
0.6
176
     1
 40
30.0
176
     1
 62
     7
420
 16777215
176
     1
 90
        2
176
     1
 90
        2
176
     1
 62
     7
176
     1
 62
     7
176
     1
 90
        1
176
     1
 90
        1
176
     1
 40
40.0
176
     1
 90
        8
176
     1
 62
     7
176
     1
 40
1.0
176
     1
 90
        1
176
     1
 90
        6
176
     1
 90
        2
176
     1
 62
     7
176
     1
 90
        3
176
     1
 90
        0
176
     1
 90
        0
176
     1
290
     0
176
     1
 90
        1
176
     1
 40
0.0
176
     1
 90
        0
176
     1
290
     0
176
     1
290
     1
176
     1
290
     1
176
     1
290
     0
176
     1
290
     0
176
     1
290
     0
176
     1
290
     0
176
     1
290
     0
176
     1
290
     0
176
     1
 90
       50
176
     1
 40
0.0
176
     1
 40
1.0
176
     1
 90
        0
176
     1
 62
    18
420
        0
176
     1
 90
       50
176
     1
 90
        3
176
     1
 62
     5
420
      255
176
     1
290
     0
176
     1
 90
       50
176
     1
 90
       50
176
     1
 90
       50
176
     1
290
     0
176
     1
 90
       50
176
     1
 62
   256
176
     0
 40
1.0
176
     0
 90
        2
176
     1
  1
strokes_ogs.tif
176
     1
290
     0
176
     1
 40
1.0
176
     1
 40
1.0
176
     1
  0
VISUALSTYLE
  5
50A8
102
{ACAD_REACTORS
330
507F
102
}
330
507F
100
AcDbVisualStyle
  2
Sketchy
 70
    24
177
     3
291
     0
 70
    58
 90
        1
176
     1
 90
        2
176
     1
 90
        2
176
     1
 90
        0
176
     1
 40
0.6
176
     1
 40
30.0
176
     1
 62
     7
420
 16777215
176
     1
 90
        2
176
     1
 90
        2
176
     1
 62
     7
176
     1
 62
     7
176
     1
 90
        1
176
     1
 90
        1
176
     1
 40
40.0
176
     1
 90
       11
176
     1
 62
     7
176
     1
 40
1.0
176
     1
 90
        1
176
     1
 90
        6
176
     1
 90
        2
176
     1
 62
     7
176
     1
 90
        6
176
     1
 90
        0
176
     1
 90
        0
176
     1
290
     0
176
     1
 90
        1
176
     1
 40
0.0
176
     1
 90
        0
176
     1
290
     0
176
     1
290
     1
176
     1
290
     1
176
     1
290
     0
176
     1
290
     0
176
     1
290
     0
176
     1
290
     0
176
     1
290
     0
176
     1
290
     0
176
     1
 90
       50
176
     1
 40
0.0
176
     1
 40
1.0
176
     1
 90
        0
176
     1
 62
    18
420
        0
176
     1
 90
       50
176
     1
 90
        3
176
     1
 62
     5
420
      255
176
     1
290
     0
176
     1
 90
       50
176
     1
 90
       50
176
     1
 90
       50
176
     1
290
     0
176
     1
 90
       50
176
     1
 62
   256
176
     0
 40
1.0
176
     0
 90
        2
176
     1
  1
strokes_ogs.tif
176
     1
290
     0
176
     1
 40
1.0
176
     1
 40
1.0
176
     1
  0
VISUALSTYLE
  5
508C
102
{ACAD_REACTORS
330
507F
102
}
330
507F
100
AcDbVisualStyle
  2
Thicken
 70
    13
177
     3
291
     1
 70
    58
 90
        2
176
     1
 90
        2
176
     1
 90
        0
176
     1
 90
        0
176
     1
 40
0.6
176
     1
 40
30.0
176
     1
 62
     7
420
 16777215
176
     1
 90
        1
176
     1
 90
        4
176
     1
 62
     7
176
     1
 62
   257
176
     1
 90
        1
176
     1
 90
        1
176
     1
 40
1.0
176
     1
 90
       12
176
     1
 62
     7
176
     1
 40
1.0
176
     1
 90
        1
176
     1
 90
        6
176
     1
 90
        2
176
     1
 62
     7
176
     1
 90
        5
176
     1
 90
        0
176
     1
 90
        0
176
     1
290
     0
176
     1
 90
        1
176
     1
 40
0.0
176
     1
 90
        0
176
     1
290
     0
176
     1
290
     1
176
     1
290
     1
176
     1
290
     0
176
     1
290
     0
176
     1
290
     0
176
     1
290
     0
176
     1
290
     0
176
     1
290
     0
176
     1
 90
       50
176
     1
 40
0.0
176
     1
 40
1.0
176
     1
 90
        0
176
     1
 62
    18
420
        0
176
     1
 90
       50
176
     1
 90
        3
176
     1
 62
     5
420
      255
176
     1
290
     0
176
     1
 90
       50
176
     1
 90
       50
176
     1
 90
       50
176
     1
290
     0
176
     1
 90
       50
176
     1
 62
   256
176
     0
 40
1.0
176
     0
 90
        2
176
     1
  1
strokes_ogs.tif
176
     1
290
     0
176
     1
 40
1.0
176
     1
 40
1.0
176
     1
  0
VISUALSTYLE
  5
50A5
102
{ACAD_REACTORS
330
507F
102
}
330
507F
100
AcDbVisualStyle
  2
Wireframe
 70
     5
177
     3
291
     0
 70
    58
 90
        0
176
     1
 90
        2
176
     1
 90
        0
176
     1
 90
        0
176
     1
 40
0.6
176
     1
 40
30.0
176
     1
 62
     7
420
 16777215
176
     1
 90
        1
176
     1
 90
        4
176
     1
 62
     7
176
     1
 62
   257
176
     1
 90
        1
176
     1
 90
        1
176
     1
 40
1.0
176
     1
 90
        0
176
     1
 62
   257
176
     1
 40
1.0
176
     1
 90
        1
176
     1
 90
        6
176
     1
 90
        2
176
     1
 62
     7
176
     1
 90
        3
176
     1
 90
        0
176
     1
 90
        0
176
     1
290
     0
176
     1
 90
        1
176
     1
 40
0.0
176
     1
 90
        0
176
     1
290
     0
176
     1
290
     1
176
     1
290
     1
176
     1
290
     0
176
     1
290
     0
176
     1
290
     0
176
     1
290
     0
176
     1
290
     0
176
     1
290
     0
176
     1
 90
       50
176
     1
 40
0.0
176
     1
 40
1.0
176
     1
 90
        0
176
     1
 62
    18
420
        0
176
     1
 90
       50
176
     1
 90
        3
176
     1
 62
     5
420
      255
176
     1
290
     0
176
     1
 90
       50
176
     1
 90
       50
176
     1
 90
       50
176
     1
290
     0
176
     1
 90
       50
176
     1
 62
   256
176
     0
 40
1.0
176
     0
 90
        2
176
     1
  1
strokes_ogs.tif
176
     1
290
     0
176
     1
 40
1.0
176
     1
 40
1.0
176
     1
  0
VISUALSTYLE
  5
50A9
102
{ACAD_REACTORS
330
507F
102
}
330
507F
100
AcDbVisualStyle
  2
X-Ray
 70
    25
177
     3
291
     0
 70
    58
 90
        2
176
     1
 90
        2
176
     1
 90
        1
176
     1
 90
        1
176
     1
 40
0.5
176
     1
 40
30.0
176
     1
 62
     7
420
 16777215
176
     1
 90
        1
176
     1
 90
        0
176
     1
 62
     7
176
     1
 62
   257
176
     1
 90
        1
176
     1
 90
        1
176
     1
 40
1.0
176
     1
 90
        8
176
     1
 62
     7
176
     1
 40
1.0
176
     1
 90
        1
176
     1
 90
        6
176
     1
 90
        2
176
     1
 62
     7
176
     1
 90
        3
176
     1
 90
        0
176
     1
 90
        0
176
     1
290
     0
176
     1
 90
       13
176
     1
 40
0.0
176
     1
 90
        0
176
     1
290
     0
176
     1
290
     1
176
     1
290
     1
176
     1
290
     0
176
     1
290
     0
176
     1
290
     0
176
     1
290
     0
176
     1
290
     0
176
     1
290
     0
176
     1
 90
       50
176
     1
 40
0.0
176
     1
 40
1.0
176
     1
 90
        0
176
     1
 62
    18
420
        0
176
     1
 90
       50
176
     1
 90
        3
176
     1
 62
     5
420
      255
176
     1
290
     0
176
     1
 90
       50
176
     1
 90
       50
176
     1
 90
       50
176
     1
290
     0
176
     1
 90
       50
176
     1
 62
   256
176
     0
 40
1.0
176
     0
 90
        2
176
     1
  1
strokes_ogs.tif
176
     1
290
     0
176
     1
 40
1.0
176
     1
 40
1.0
176
     1
  0
DICTIONARYVAR
  5
50E1
102
{ACAD_REACTORS
330
5E
102
}
330
5E
100
DictionaryVariables
280
     0
  1
1:1
  0
DICTIONARYVAR
  5
50DD
102
{ACAD_REACTORS
330
5E
102
}
330
5E
100
DictionaryVariables
280
     0
  1
STANDARD
  0
DICTIONARYVAR
  5
50A3
102
{ACAD_REACTORS
330
5E
102
}
330
5E
100
DictionaryVariables
280
     0
  1
STANDARD
  0
DICTIONARYVAR
  5
50DE
102
{ACAD_REACTORS
330
5E
102
}
330
5E
100
DictionaryVariables
280
     0
  1
Metric50
  0
DICTIONARYVAR
  5
50DF
102
{ACAD_REACTORS
330
5E
102
}
330
5E
100
DictionaryVariables
280
     0
  1
Metric50
  0
DICTIONARYVAR
  5
5F
102
{ACAD_REACTORS
330
5E
102
}
330
5E
100
DictionaryVariables
280
     0
  1
2
  0
DICTIONARYVAR
  5
63
102
{ACAD_REACTORS
330
5E
102
}
330
5E
100
DictionaryVariables
280
     0
  1
1
  0
DICTIONARYVAR
  5
50E3
102
{ACAD_REACTORS
330
5E
102
}
330
5E
100
DictionaryVariables
280
     0
  1
1
  0
DICTIONARYVAR
  5
50E4
102
{ACAD_REACTORS
330
5E
102
}
330
5E
100
DictionaryVariables
280
     0
  1
15
  0
DICTIONARYVAR
  5
50E2
102
{ACAD_REACTORS
330
5E
102
}
330
5E
100
DictionaryVariables
280
     0
  1
0
  0
DICTIONARYVAR
  5
50E0
102
{ACAD_REACTORS
330
5E
102
}
330
5E
100
DictionaryVariables
280
     0
  1
0
  0
DICTIONARYVAR
  5
1CF
102
{ACAD_REACTORS
330
5E
102
}
330
5E
100
DictionaryVariables
280
     0
  1

  0
ACAD_PROXY_OBJECT
  5
5099
102
{ACAD_REACTORS
330
5098
102
}
330
5098
100
AcDbProxyObject
 90
      499
 91
      508
 71
    27
 97
        1
 70
     0
162
                 0
161
               224
310
00013FFFD0C4040800000000000004402826564C4F2D52202E20302900
 94
        0
  0
DICTIONARY
  5
50E5
330
5091
100
AcDbDictionary
280
     1
281
     1
  3
ACAD_ROUNDTRIP_2008_TABLESTYLE_CELLSTYLEMAP
360
50E6
  0
CELLSTYLEMAP
  5
50E6
102
{ACAD_REACTORS
330
50E5
102
}
330
50E5
100
AcDbCellStyleMap
 90
        3
300
CELLSTYLE
  1
TABLEFORMAT_BEGIN
 90
        5
170
     1
 91
        0
 92
    32768
 62
   257
 93
        1
300
CONTENTFORMAT
  1
CONTENTFORMAT_BEGIN
 90
        0
 91
        0
 92
      512
 93
        0
300

 40
0.0
140
1.0
 94
        5
 62
     0
340
11
144
6.0
309
CONTENTFORMAT_END
171
     1
301
MARGIN
  1
CELLMARGIN_BEGIN
 40
1.5
 40
1.5
 40
1.5
 40
1.5
 40
0.18
 40
0.18
309
CELLMARGIN_END
 94
        6
 95
        1
302
GRIDFORMAT
  1
GRIDFORMAT_BEGIN
 90
        0
 91
        1
 62
     0
 92
       -2
340
0
 93
        0
 40
0.045
309
GRIDFORMAT_END
 95
        2
302
GRIDFORMAT
  1
GRIDFORMAT_BEGIN
 90
        0
 91
        1
 62
     0
 92
       -2
340
0
 93
        0
 40
0.045
309
GRIDFORMAT_END
 95
        4
302
GRIDFORMAT
  1
GRIDFORMAT_BEGIN
 90
        0
 91
        1
 62
     0
 92
       -2
340
0
 93
        0
 40
0.045
309
GRIDFORMAT_END
 95
        8
302
GRIDFORMAT
  1
GRIDFORMAT_BEGIN
 90
        0
 91
        1
 62
     0
 92
       -2
340
0
 93
        0
 40
0.045
309
GRIDFORMAT_END
 95
       16
302
GRIDFORMAT
  1
GRIDFORMAT_BEGIN
 90
        0
 91
        1
 62
     0
 92
       -2
340
0
 93
        0
 40
0.045
309
GRIDFORMAT_END
 95
       32
302
GRIDFORMAT
  1
GRIDFORMAT_BEGIN
 90
        0
 91
        1
 62
     0
 92
       -2
340
0
 93
        0
 40
0.045
309
GRIDFORMAT_END
309
TABLEFORMAT_END
  1
CELLSTYLE_BEGIN
 90
        1
 91
        1
300
_TITLE
309
CELLSTYLE_END
300
CELLSTYLE
  1
TABLEFORMAT_BEGIN
 90
        5
170
     1
 91
        0
 92
        0
 62
   257
 93
        1
300
CONTENTFORMAT
  1
CONTENTFORMAT_BEGIN
 90
        0
 91
        0
 92
      512
 93
        0
300

 40
0.0
140
1.0
 94
        5
 62
     0
340
11
144
4.5
309
CONTENTFORMAT_END
171
     1
301
MARGIN
  1
CELLMARGIN_BEGIN
 40
1.5
 40
1.5
 40
1.5
 40
1.5
 40
0.18
 40
0.18
309
CELLMARGIN_END
 94
        6
 95
        1
302
GRIDFORMAT
  1
GRIDFORMAT_BEGIN
 90
        0
 91
        1
 62
     0
 92
       -2
340
0
 93
        0
 40
0.045
309
GRIDFORMAT_END
 95
        2
302
GRIDFORMAT
  1
GRIDFORMAT_BEGIN
 90
        0
 91
        1
 62
     0
 92
       -2
340
0
 93
        0
 40
0.045
309
GRIDFORMAT_END
 95
        4
302
GRIDFORMAT
  1
GRIDFORMAT_BEGIN
 90
        0
 91
        1
 62
     0
 92
       -2
340
0
 93
        0
 40
0.045
309
GRIDFORMAT_END
 95
        8
302
GRIDFORMAT
  1
GRIDFORMAT_BEGIN
 90
        0
 91
        1
 62
     0
 92
       -2
340
0
 93
        0
 40
0.045
309
GRIDFORMAT_END
 95
       16
302
GRIDFORMAT
  1
GRIDFORMAT_BEGIN
 90
        0
 91
        1
 62
     0
 92
       -2
340
0
 93
        0
 40
0.045
309
GRIDFORMAT_END
 95
       32
302
GRIDFORMAT
  1
GRIDFORMAT_BEGIN
 90
        0
 91
        1
 62
     0
 92
       -2
340
0
 93
        0
 40
0.045
309
GRIDFORMAT_END
309
TABLEFORMAT_END
  1
CELLSTYLE_BEGIN
 90
        2
 91
        1
300
_HEADER
309
CELLSTYLE_END
300
CELLSTYLE
  1
TABLEFORMAT_BEGIN
 90
        5
170
     1
 91
        0
 92
        0
 62
   257
 93
        1
300
CONTENTFORMAT
  1
CONTENTFORMAT_BEGIN
 90
        0
 91
        0
 92
      512
 93
        0
300

 40
0.0
140
1.0
 94
        2
 62
     0
340
11
144
4.5
309
CONTENTFORMAT_END
171
     1
301
MARGIN
  1
CELLMARGIN_BEGIN
 40
1.5
 40
1.5
 40
1.5
 40
1.5
 40
0.18
 40
0.18
309
CELLMARGIN_END
 94
        6
 95
        1
302
GRIDFORMAT
  1
GRIDFORMAT_BEGIN
 90
        0
 91
        1
 62
     0
 92
       -2
340
0
 93
        0
 40
0.045
309
GRIDFORMAT_END
 95
        2
302
GRIDFORMAT
  1
GRIDFORMAT_BEGIN
 90
        0
 91
        1
 62
     0
 92
       -2
340
0
 93
        0
 40
0.045
309
GRIDFORMAT_END
 95
        4
302
GRIDFORMAT
  1
GRIDFORMAT_BEGIN
 90
        0
 91
        1
 62
     0
 92
       -2
340
0
 93
        0
 40
0.045
309
GRIDFORMAT_END
 95
        8
302
GRIDFORMAT
  1
GRIDFORMAT_BEGIN
 90
        0
 91
        1
 62
     0
 92
       -2
340
0
 93
        0
 40
0.045
309
GRIDFORMAT_END
 95
       16
302
GRIDFORMAT
  1
GRIDFORMAT_BEGIN
 90
        0
 91
        1
 62
     0
 92
       -2
340
0
 93
        0
 40
0.045
309
GRIDFORMAT_END
 95
       32
302
GRIDFORMAT
  1
GRIDFORMAT_BEGIN
 90
        0
 91
        1
 62
     0
 92
       -2
340
0
 93
        0
 40
0.045
309
GRIDFORMAT_END
309
TABLEFORMAT_END
  1
CELLSTYLE_BEGIN
 90
        3
 91
        2
300
_DATA
309
CELLSTYLE_END
  0
ENDSEC
  0
EOF
