  0
SECTION
  2
HEADER
  9
$ACADVER
  1
AC1015
  9
$ACADMAINTVER
 70
    20
  9
$DWGCODEPAGE
  3
ANSI_936
  9
$INSBASE
 10
0.0
 20
0.0
 30
0.0
  9
$EXTMIN
 10
8854.197204044442
 20
992.6573416264714
 30
-0.0000000000112498
  9
$EXTMAX
 10
9233.074055303813
 20
1308.249113494605
 30
0.0000000000002956
  9
$LIMMIN
 10
0.0
 20
0.0
  9
$LIMMAX
 10
420.0
 20
297.0
  9
$ORTHOMODE
 70
     1
  9
$REGENMODE
 70
     1
  9
$FILLMODE
 70
     1
  9
$QTEXTMODE
 70
     0
  9
$MIRRTEXT
 70
     1
  9
$LTSCALE
 40
25.4
  9
$ATTMODE
 70
     1
  9
$TEXTSIZE
 40
2.5
  9
$TRACEWID
 40
1.0
  9
$TEXTSTYLE
  7
STANDARD
  9
$CLAYER
  8
0
  9
$CELTYPE
  6
BYLAYER
  9
$CECOLOR
 62
   256
  9
$CELTSCALE
 40
1.0
  9
$DISPSILH
 70
     0
  9
$DIMSCALE
 40
8.0
  9
$DIMASZ
 40
2.5
  9
$DIMEXO
 40
0.625
  9
$DIMDLI
 40
3.75
  9
$DIMRND
 40
0.0
  9
$DIMDLE
 40
0.0
  9
$DIMEXE
 40
1.25
  9
$DIMTP
 40
0.0
  9
$DIMTM
 40
0.0
  9
$DIMTXT
 40
2.5
  9
$DIMCEN
 40
2.5
  9
$DIMTSZ
 40
0.0
  9
$DIMTOL
 70
     0
  9
$DIMLIM
 70
     0
  9
$DIMTIH
 70
     0
  9
$DIMTOH
 70
     0
  9
$DIMSE1
 70
     0
  9
$DIMSE2
 70
     0
  9
$DIMTAD
 70
     1
  9
$DIMZIN
 70
     8
  9
$DIMBLK
  1

  9
$DIMASO
 70
     1
  9
$DIMSHO
 70
     1
  9
$DIMPOST
  1

  9
$DIMAPOST
  1

  9
$DIMALT
 70
     0
  9
$DIMALTD
 70
     4
  9
$DIMALTF
 40
0.0394
  9
$DIMLFAC
 40
1.0
  9
$DIMTOFL
 70
     1
  9
$DIMTVP
 40
0.0
  9
$DIMTIX
 70
     0
  9
$DIMSOXD
 70
     0
  9
$DIMSAH
 70
     0
  9
$DIMBLK1
  1

  9
$DIMBLK2
  1

  9
$DIMSTYLE
  2
STANDARD
  9
$DIMCLRD
 70
     0
  9
$DIMCLRE
 70
     0
  9
$DIMCLRT
 70
     0
  9
$DIMTFAC
 40
1.0
  9
$DIMGAP
 40
0.625
  9
$DIMJUST
 70
     0
  9
$DIMSD1
 70
     0
  9
$DIMSD2
 70
     0
  9
$DIMTOLJ
 70
     1
  9
$DIMTZIN
 70
     0
  9
$DIMALTZ
 70
     0
  9
$DIMALTTZ
 70
     0
  9
$DIMUPT
 70
     0
  9
$DIMDEC
 70
     1
  9
$DIMTDEC
 70
     1
  9
$DIMALTU
 70
     8
  9
$DIMALTTD
 70
     4
  9
$DIMTXSTY
  7
STANDARD
  9
$DIMAUNIT
 70
     0
  9
$DIMADEC
 70
     0
  9
$DIMALTRND
 40
0.0
  9
$DIMAZIN
 70
     0
  9
$DIMDSEP
 70
    46
  9
$DIMATFIT
 70
     3
  9
$DIMFRAC
 70
     0
  9
$DIMLDRBLK
  1

  9
$DIMLUNIT
 70
     2
  9
$DIMLWD
 70
    -2
  9
$DIMLWE
 70
    -2
  9
$DIMTMOVE
 70
     0
  9
$LUNITS
 70
     2
  9
$LUPREC
 70
     4
  9
$SKETCHINC
 40
1.0
  9
$FILLETRAD
 40
80.0
  9
$AUNITS
 70
     0
  9
$AUPREC
 70
     0
  9
$MENU
  1
.
  9
$ELEVATION
 40
0.0
  9
$PELEVATION
 40
0.0
  9
$THICKNESS
 40
0.0
  9
$LIMCHECK
 70
     0
  9
$CHAMFERA
 40
10.0
  9
$CHAMFERB
 40
10.0
  9
$CHAMFERC
 40
20.0
  9
$CHAMFERD
 40
0.0
  9
$SKPOLY
 70
     0
  9
$TDCREATE
 40
2453155.541316910
  9
$TDUCREATE
 40
2453155.207983576
  9
$TDUPDATE
 40
2455180.350328044
  9
$TDUUPDATE
 40
2455180.016994710
  9
$TDINDWG
 40
0.8781718403
  9
$TDUSRTIMER
 40
0.8781716551
  9
$USRTIMER
 70
     1
  9
$ANGBASE
 50
0.0
  9
$ANGDIR
 70
     0
  9
$PDMODE
 70
     0
  9
$PDSIZE
 40
0.0
  9
$PLINEWID
 40
0.0
  9
$SPLFRAME
 70
     0
  9
$SPLINETYPE
 70
     6
  9
$SPLINESEGS
 70
     8
  9
$HANDSEED
  5
3446
  9
$SURFTAB1
 70
     6
  9
$SURFTAB2
 70
     6
  9
$SURFTYPE
 70
     6
  9
$SURFU
 70
     6
  9
$SURFV
 70
     6
  9
$UCSBASE
  2

  9
$UCSNAME
  2

  9
$UCSORG
 10
0.0
 20
0.0
 30
0.0
  9
$UCSXDIR
 10
1.0
 20
0.0
 30
0.0
  9
$UCSYDIR
 10
0.0
 20
1.0
 30
0.0
  9
$UCSORTHOREF
  2

  9
$UCSORTHOVIEW
 70
     0
  9
$UCSORGTOP
 10
0.0
 20
0.0
 30
0.0
  9
$UCSORGBOTTOM
 10
0.0
 20
0.0
 30
0.0
  9
$UCSORGLEFT
 10
0.0
 20
0.0
 30
0.0
  9
$UCSORGRIGHT
 10
0.0
 20
0.0
 30
0.0
  9
$UCSORGFRONT
 10
0.0
 20
0.0
 30
0.0
  9
$UCSORGBACK
 10
0.0
 20
0.0
 30
0.0
  9
$PUCSBASE
  2

  9
$PUCSNAME
  2

  9
$PUCSORG
 10
0.0
 20
0.0
 30
0.0
  9
$PUCSXDIR
 10
1.0
 20
0.0
 30
0.0
  9
$PUCSYDIR
 10
0.0
 20
1.0
 30
0.0
  9
$PUCSORTHOREF
  2

  9
$PUCSORTHOVIEW
 70
     0
  9
$PUCSORGTOP
 10
0.0
 20
0.0
 30
0.0
  9
$PUCSORGBOTTOM
 10
0.0
 20
0.0
 30
0.0
  9
$PUCSORGLEFT
 10
0.0
 20
0.0
 30
0.0
  9
$PUCSORGRIGHT
 10
0.0
 20
0.0
 30
0.0
  9
$PUCSORGFRONT
 10
0.0
 20
0.0
 30
0.0
  9
$PUCSORGBACK
 10
0.0
 20
0.0
 30
0.0
  9
$USERI1
 70
     0
  9
$USERI2
 70
     0
  9
$USERI3
 70
     0
  9
$USERI4
 70
     0
  9
$USERI5
 70
     0
  9
$USERR1
 40
0.0
  9
$USERR2
 40
0.0
  9
$USERR3
 40
0.0
  9
$USERR4
 40
0.0
  9
$USERR5
 40
0.0
  9
$WORLDVIEW
 70
     1
  9
$SHADEDGE
 70
     3
  9
$SHADEDIF
 70
    70
  9
$TILEMODE
 70
     1
  9
$MAXACTVP
 70
    48
  9
$PINSBASE
 10
0.0
 20
0.0
 30
0.0
  9
$PLIMCHECK
 70
     0
  9
$PEXTMIN
 10
1.000000000000000E+20
 20
1.000000000000000E+20
 30
1.000000000000000E+20
  9
$PEXTMAX
 10
-1.000000000000000E+20
 20
-1.000000000000000E+20
 30
-1.000000000000000E+20
  9
$PLIMMIN
 10
0.0
 20
0.0
  9
$PLIMMAX
 10
420.0
 20
297.0
  9
$UNITMODE
 70
     0
  9
$VISRETAIN
 70
     1
  9
$PLINEGEN
 70
     0
  9
$PSLTSCALE
 70
     1
  9
$TREEDEPTH
 70
  3020
  9
$CMLSTYLE
  2
STANDARD
  9
$CMLJUST
 70
     0
  9
$CMLSCALE
 40
20.0
  9
$PROXYGRAPHICS
 70
     1
  9
$MEASUREMENT
 70
     1
  9
$CELWEIGHT
370
    -1
  9
$ENDCAPS
280
     0
  9
$JOINSTYLE
280
     0
  9
$LWDISPLAY
290
     0
  9
$INSUNITS
 70
     0
  9
$HYPERLINKBASE
  1

  9
$STYLESHEET
  1

  9
$XEDIT
290
     1
  9
$CEPSNTYPE
380
     0
  9
$PSTYLEMODE
290
     1
  9
$FINGERPRINTGUID
  2
{FBF78671-6757-4589-B207-3EA8ACDC7488}
  9
$VERSIONGUID
  2
{C2835858-1AAF-4694-9B03-64DBA98A0D08}
  9
$EXTNAMES
290
     1
  9
$PSVPSCALE
 40
0.0
  9
$OLESTARTUP
290
     0
  0
ENDSEC
  0
SECTION
  2
CLASSES
  0
CLASS
  1
ACDBDICTIONARYWDFLT
  2
AcDbDictionaryWithDefault
  3
ObjectDBX Classes
 90
        0
280
     0
281
     0
  0
CLASS
  1
DICTIONARYVAR
  2
AcDbDictionaryVar
  3
ObjectDBX Classes
 90
        0
280
     0
281
     0
  0
CLASS
  1
ACDBPLACEHOLDER
  2
AcDbPlaceHolder
  3
ObjectDBX Classes
 90
        0
280
     0
281
     0
  0
CLASS
  1
LAYOUT
  2
AcDbLayout
  3
ObjectDBX Classes
 90
        0
280
     0
281
     0
  0
ENDSEC
  0
SECTION
  2
TABLES
  0
TABLE
  2
VPORT
  5
8
330
0
100
AcDbSymbolTable
 70
     3
  0
VPORT
  5
343C
330
8
100
AcDbSymbolTableRecord
100
AcDbViewportTableRecord
  2
*Active
 70
     0
 10
0.0
 20
0.0
 11
1.0
 21
1.0
 12
9043.635629674126
 22
1150.453227560538
 13
0.0
 23
0.0
 14
10.0
 24
10.0
 15
10.0
 25
10.0
 16
0.0
 26
0.0
 36
1.0
 17
0.0
 27
0.0
 37
0.0
 40
318.9431889145208
 41
2.138297872340425
 42
50.0
 43
0.0
 44
0.0
 50
0.0
 51
0.0
 71
     0
 72
   100
 73
     1
 74
     1
 75
     0
 76
     0
 77
     0
 78
     0
281
     0
 65
     1
110
0.0
120
0.0
130
0.0
111
1.0
121
0.0
131
0.0
112
0.0
122
1.0
132
0.0
 79
     0
146
0.0
  0
ENDTAB
  0
TABLE
  2
LTYPE
  5
5
330
0
100
AcDbSymbolTable
 70
     4
  0
LTYPE
  5
12
330
5
100
AcDbSymbolTableRecord
100
AcDbLinetypeTableRecord
  2
BYBLOCK
 70
     0
  3

 72
    65
 73
     0
 40
0.0
  0
LTYPE
  5
13
330
5
100
AcDbSymbolTableRecord
100
AcDbLinetypeTableRecord
  2
BYLAYER
 70
     0
  3

 72
    65
 73
     0
 40
0.0
  0
LTYPE
  5
14
330
5
100
AcDbSymbolTableRecord
100
AcDbLinetypeTableRecord
  2
CONTINUOUS
 70
     0
  3
Solid line
 72
    65
 73
     0
 40
0.0
  0
LTYPE
  5
C2
330
5
100
AcDbSymbolTableRecord
100
AcDbLinetypeTableRecord
  2
CENTER2
 70
     0
  3
___ _ ___ _ ___ _ ___ _ ___ _ ___ _ ___ _ ___ _
 72
    65
 73
     4
 40
1.125
 49
0.75
 74
     0
 49
-0.125
 74
     0
 49
0.125
 74
     0
 49
-0.125
 74
     0
  0
LTYPE
  5
1239
330
5
100
AcDbSymbolTableRecord
100
AcDbLinetypeTableRecord
  2
solid
 70
     0
  3

 72
    65
 73
     0
 40
0.0
  0
LTYPE
  5
3137
330
5
100
AcDbSymbolTableRecord
100
AcDbLinetypeTableRecord
  2
DASHED2
 70
     0
  3
_ _ _ _ _ _ _ _ _ _ _ _ _ _ _ _ _ _ _ _ _ _ _ _
 72
    65
 73
     2
 40
0.375
 49
0.25
 74
     0
 49
-0.125
 74
     0
  0
ENDTAB
  0
TABLE
  2
LAYER
  5
2
330
0
100
AcDbSymbolTable
 70
     8
  0
LAYER
  5
E
330
2
100
AcDbSymbolTableRecord
100
AcDbLayerTableRecord
  2
0
 70
     0
 62
     5
  6
CONTINUOUS
370
    -3
390
EDE
  0
LAYER
  5
C3
330
2
100
AcDbSymbolTableRecord
100
AcDbLayerTableRecord
  2
CENTER
 70
     0
 62
     1
  6
CENTER2
370
    -3
390
EDE
  0
LAYER
  5
C4
330
2
100
AcDbSymbolTableRecord
100
AcDbLayerTableRecord
  2
DIM
 70
     0
 62
     1
  6
CONTINUOUS
370
    -3
390
EDE
  0
LAYER
  5
C5
330
2
100
AcDbSymbolTableRecord
100
AcDbLayerTableRecord
  2
DEFPOINTS
 70
     0
 62
     7
  6
CONTINUOUS
290
     0
370
    -3
390
EDE
  0
LAYER
  5
C6
330
2
100
AcDbSymbolTableRecord
100
AcDbLayerTableRecord
  2
DRAW
 70
     0
 62
     5
  6
CONTINUOUS
370
    -3
390
EDE
  0
LAYER
  5
123A
330
2
100
AcDbSymbolTableRecord
100
AcDbLayerTableRecord
  2
1
 70
     0
 62
     0
  6
solid
370
    -3
390
EDE
  0
LAYER
  5
129B
330
2
100
AcDbSymbolTableRecord
100
AcDbLayerTableRecord
  2
5
 70
     0
 62
     0
  6
solid
370
    -3
390
EDE
  0
LAYER
  5
3138
330
2
100
AcDbSymbolTableRecord
100
AcDbLayerTableRecord
  2
DESHED
 70
     0
 62
   190
  6
DASHED2
370
    -3
390
EDE
  0
ENDTAB
  0
TABLE
  2
STYLE
  5
3
330
0
100
AcDbSymbolTable
 70
     4
  0
STYLE
  5
F
330
3
100
AcDbSymbolTableRecord
100
AcDbTextStyleTableRecord
  2
STANDARD
 70
     0
 40
0.0
 41
1.0
 50
0.0
 71
     0
 42
2.5
  3
txt
  4

  0
STYLE
  5
3146
330
3
100
AcDbSymbolTableRecord
100
AcDbTextStyleTableRecord
  2

 70
     1
 40
0.0
 41
1.0
 50
0.0
 71
     0
 42
2.5
  3
ltypeshp.shx
  4

  0
STYLE
  5
3175
330
3
100
AcDbSymbolTableRecord
100
AcDbTextStyleTableRecord
  2
ROMANTICITALIC
 70
     0
 40
0.0
 41
1.0
 50
0.0
 71
     0
 42
0.2
  3
romi____.pfb
  4

  0
STYLE
  5
31E6
330
3
100
AcDbSymbolTableRecord
100
AcDbTextStyleTableRecord
  2
A
 70
     0
 40
11.0
 41
0.7
 50
0.0
 71
     0
 42
0.2
  3
SimSun.ttf
  4

1001
ACAD
1000
SimSun
1071
    34306
  0
ENDTAB
  0
TABLE
  2
VIEW
  5
6
330
0
100
AcDbSymbolTable
 70
     0
  0
ENDTAB
  0
TABLE
  2
UCS
  5
7
330
0
100
AcDbSymbolTable
 70
     0
  0
ENDTAB
  0
TABLE
  2
APPID
  5
9
330
0
100
AcDbSymbolTable
 70
     2
  0
APPID
  5
10
330
9
100
AcDbSymbolTableRecord
100
AcDbRegAppTableRecord
  2
ACAD
 70
     0
  0
APPID
  5
1298
330
9
100
AcDbSymbolTableRecord
100
AcDbRegAppTableRecord
  2
DCO15
 70
     0
  0
ENDTAB
  0
TABLE
  2
DIMSTYLE
  5
A
330
0
100
AcDbSymbolTable
 70
     8
100
AcDbDimStyleTable
 71
     1
340
1D
  0
DIMSTYLE
105
1D
102
{ACAD_REACTORS
330
33C
330
33E
330
346
330
348
330
349
330
34D
330
E00
330
E05
330
E0B
330
E0E
330
E10
330
E1D
102
}
330
A
100
AcDbSymbolTableRecord
100
AcDbDimStyleTableRecord
  2
STANDARD
 70
     0
340
F
  0
DIMSTYLE
105
C7
102
{ACAD_REACTORS
330
C9
330
E3
330
E5
330
E4
330
D0
330
DE
330
CF
330
E8
330
CA
330
EC
330
DA
330
D6
330
CD
330
CC
330
D5
330
CB
330
D4
330
2A7
330
2A8
330
2A9
330
2AB
330
2AE
330
2B1
330
2B3
330
2B9
330
2BC
330
330
330
333
330
336
330
338
330
342
330
3F7
330
3F8
330
3F9
330
3FA
330
3FB
330
3FC
330
401
330
402
330
403
330
406
330
40A
330
40D
330
40E
330
40F
330
412
330
413
330
416
330
964
330
965
330
968
330
96D
330
96E
330
970
330
A3F
330
A41
330
A4A
330
A98
330
A9B
330
AA0
330
AA1
330
AA3
102
}
330
A
100
AcDbSymbolTableRecord
100
AcDbDimStyleTableRecord
  2
B
 70
     0
 40
7.62
 41
1.5
 42
0.3125
 43
0.7
 44
1.0
 73
     0
 74
     0
 77
     1
140
1.5
141
0.045
147
0.3
271
     1
289
     2
340
F
  0
DIMSTYLE
105
FF0
330
A
100
AcDbSymbolTableRecord
100
AcDbDimStyleTableRecord
  2
ISO-25
 70
     0
 41
2.5
 42
0.625
 43
3.75
 44
1.25
 73
     0
 74
     0
 77
     1
 78
     8
140
2.5
141
2.5
143
0.03937007874016
147
0.625
171
     3
172
     1
271
     2
272
     2
274
     3
278
    44
283
     0
284
     8
340
F
  0
DIMSTYLE
105
108D
330
A
100
AcDbSymbolTableRecord
100
AcDbDimStyleTableRecord
  2
A
 70
     0
 40
7.62
 41
2.0
 42
0.6
 43
0.7
 44
1.5
 73
     0
 74
     0
 77
     1
140
1.9
141
0.1
147
0.6
271
     2
289
     2
340
F
  0
DIMSTYLE
105
13C5
330
A
100
AcDbSymbolTableRecord
100
AcDbDimStyleTableRecord
  2
C
 70
     0
  3
%%c<>
 40
7.62
 41
1.5
 42
0.3125
 43
0.7
 44
1.0
 73
     0
 74
     0
 77
     1
140
1.3
141
0.045
147
0.3
271
     1
289
     2
340
F
  0
DIMSTYLE
105
3195
330
A
100
AcDbSymbolTableRecord
100
AcDbDimStyleTableRecord
  2
b1
 70
     0
  3
"
  4
"
 40
10.0
 41
1.5
 42
0.3125
 43
0.7
 44
1.0
 47
1.0
 48
1.0
 77
     1
140
3.0
141
0.045
143
0.03937
144
0.03937
146
0.8
147
0.8
271
     3
272
     3
273
     5
277
     5
340
F
  0
DIMSTYLE
105
3196
330
A
100
AcDbSymbolTableRecord
100
AcDbDimStyleTableRecord
  2
B4
 70
     0
 40
7.62
 41
2.5
 42
0.3125
 43
0.7
 44
1.0
 77
     1
140
3.299999999999999
141
0.045
147
0.8
271
     1
272
     1
289
     2
340
F
  0
DIMSTYLE
105
3197
330
A
100
AcDbSymbolTableRecord
100
AcDbDimStyleTableRecord
  2
b44
 70
     0
  3
"
  4
"
 40
10.0
 41
2.1
 42
0.3125
 43
0.7
 44
1.0
 47
1.0
 48
1.0
 77
     1
140
3.0
141
0.045
143
0.03937
144
0.03937
146
0.8
147
0.8
271
     3
272
     3
273
     5
277
     5
340
F
  0
ENDTAB
  0
TABLE
  2
BLOCK_RECORD
  5
1
330
0
100
AcDbSymbolTable
 70
    84
  0
BLOCK_RECORD
  5
18
330
1
100
AcDbSymbolTableRecord
100
AcDbBlockTableRecord
  2
*MODEL_SPACE
340
EE3
  0
BLOCK_RECORD
  5
15
330
1
100
AcDbSymbolTableRecord
100
AcDbBlockTableRecord
  2
*PAPER_SPACE
340
EE4
  0
BLOCK_RECORD
  5
20
330
1
100
AcDbSymbolTableRecord
100
AcDbBlockTableRecord
  2
*D0
340
0
  0
BLOCK_RECORD
  5
28
330
1
100
AcDbSymbolTableRecord
100
AcDbBlockTableRecord
  2
*D1
340
0
  0
BLOCK_RECORD
  5
30
330
1
100
AcDbSymbolTableRecord
100
AcDbBlockTableRecord
  2
*D2
340
0
  0
BLOCK_RECORD
  5
38
330
1
100
AcDbSymbolTableRecord
100
AcDbBlockTableRecord
  2
*D3
340
0
  0
BLOCK_RECORD
  5
42
330
1
100
AcDbSymbolTableRecord
100
AcDbBlockTableRecord
  2
*D4
340
0
  0
BLOCK_RECORD
  5
4A
330
1
100
AcDbSymbolTableRecord
100
AcDbBlockTableRecord
  2
*D5
340
0
  0
BLOCK_RECORD
  5
52
330
1
100
AcDbSymbolTableRecord
100
AcDbBlockTableRecord
  2
*D6
340
0
  0
BLOCK_RECORD
  5
5A
330
1
100
AcDbSymbolTableRecord
100
AcDbBlockTableRecord
  2
*D7
340
0
  0
BLOCK_RECORD
  5
62
330
1
100
AcDbSymbolTableRecord
100
AcDbBlockTableRecord
  2
*D8
340
0
  0
BLOCK_RECORD
  5
6A
330
1
100
AcDbSymbolTableRecord
100
AcDbBlockTableRecord
  2
*D9
340
0
  0
BLOCK_RECORD
  5
72
330
1
100
AcDbSymbolTableRecord
100
AcDbBlockTableRecord
  2
*D10
340
0
  0
BLOCK_RECORD
  5
7E
330
1
100
AcDbSymbolTableRecord
100
AcDbBlockTableRecord
  2
*D11
340
0
  0
BLOCK_RECORD
  5
86
330
1
100
AcDbSymbolTableRecord
100
AcDbBlockTableRecord
  2
*D12
340
0
  0
BLOCK_RECORD
  5
92
330
1
100
AcDbSymbolTableRecord
100
AcDbBlockTableRecord
  2
*D13
340
0
  0
BLOCK_RECORD
  5
9E
330
1
100
AcDbSymbolTableRecord
100
AcDbBlockTableRecord
  2
*D14
340
0
  0
BLOCK_RECORD
  5
AA
330
1
100
AcDbSymbolTableRecord
100
AcDbBlockTableRecord
  2
*D15
340
0
  0
BLOCK_RECORD
  5
B6
330
1
100
AcDbSymbolTableRecord
100
AcDbBlockTableRecord
  2
*D16
340
0
  0
BLOCK_RECORD
  5
C8
330
1
100
AcDbSymbolTableRecord
100
AcDbBlockTableRecord
  2
A$C6BEF22AF
340
0
  0
BLOCK_RECORD
  5
24C
330
1
100
AcDbSymbolTableRecord
100
AcDbBlockTableRecord
  2
*D18
340
0
  0
BLOCK_RECORD
  5
258
330
1
100
AcDbSymbolTableRecord
100
AcDbBlockTableRecord
  2
*D19
340
0
  0
BLOCK_RECORD
  5
260
330
1
100
AcDbSymbolTableRecord
100
AcDbBlockTableRecord
  2
*D20
340
0
  0
BLOCK_RECORD
  5
26C
330
1
100
AcDbSymbolTableRecord
100
AcDbBlockTableRecord
  2
*D21
340
0
  0
BLOCK_RECORD
  5
276
330
1
100
AcDbSymbolTableRecord
100
AcDbBlockTableRecord
  2
*D22
340
0
  0
BLOCK_RECORD
  5
280
330
1
100
AcDbSymbolTableRecord
100
AcDbBlockTableRecord
  2
*D23
340
0
  0
BLOCK_RECORD
  5
288
330
1
100
AcDbSymbolTableRecord
100
AcDbBlockTableRecord
  2
*D24
340
0
  0
BLOCK_RECORD
  5
290
330
1
100
AcDbSymbolTableRecord
100
AcDbBlockTableRecord
  2
*D25
340
0
  0
BLOCK_RECORD
  5
29C
330
1
100
AcDbSymbolTableRecord
100
AcDbBlockTableRecord
  2
*D26
340
0
  0
BLOCK_RECORD
  5
2A4
330
1
100
AcDbSymbolTableRecord
100
AcDbBlockTableRecord
  2
A$C55375C64
340
0
  0
BLOCK_RECORD
  5
2C1
330
1
100
AcDbSymbolTableRecord
100
AcDbBlockTableRecord
  2
*D28
340
0
  0
BLOCK_RECORD
  5
2C9
330
1
100
AcDbSymbolTableRecord
100
AcDbBlockTableRecord
  2
*D29
340
0
  0
BLOCK_RECORD
  5
2D1
330
1
100
AcDbSymbolTableRecord
100
AcDbBlockTableRecord
  2
*D30
340
0
  0
BLOCK_RECORD
  5
2DA
330
1
100
AcDbSymbolTableRecord
100
AcDbBlockTableRecord
  2
*D31
340
0
  0
BLOCK_RECORD
  5
2E2
330
1
100
AcDbSymbolTableRecord
100
AcDbBlockTableRecord
  2
*D32
340
0
  0
BLOCK_RECORD
  5
2EE
330
1
100
AcDbSymbolTableRecord
100
AcDbBlockTableRecord
  2
*D33
340
0
  0
BLOCK_RECORD
  5
2FA
330
1
100
AcDbSymbolTableRecord
100
AcDbBlockTableRecord
  2
*D34
340
0
  0
BLOCK_RECORD
  5
306
330
1
100
AcDbSymbolTableRecord
100
AcDbBlockTableRecord
  2
*D35
340
0
  0
BLOCK_RECORD
  5
312
330
1
100
AcDbSymbolTableRecord
100
AcDbBlockTableRecord
  2
*D36
340
0
  0
BLOCK_RECORD
  5
31F
330
1
100
AcDbSymbolTableRecord
100
AcDbBlockTableRecord
  2
*D37
340
0
  0
BLOCK_RECORD
  5
327
330
1
100
AcDbSymbolTableRecord
100
AcDbBlockTableRecord
  2
*D38
340
0
  0
BLOCK_RECORD
  5
32F
330
1
100
AcDbSymbolTableRecord
100
AcDbBlockTableRecord
  2
A$C667F107E
340
0
  0
BLOCK_RECORD
  5
353
330
1
100
AcDbSymbolTableRecord
100
AcDbBlockTableRecord
  2
*D40
340
0
  0
BLOCK_RECORD
  5
35F
330
1
100
AcDbSymbolTableRecord
100
AcDbBlockTableRecord
  2
*D41
340
0
  0
BLOCK_RECORD
  5
36C
330
1
100
AcDbSymbolTableRecord
100
AcDbBlockTableRecord
  2
*D42
340
0
  0
BLOCK_RECORD
  5
378
330
1
100
AcDbSymbolTableRecord
100
AcDbBlockTableRecord
  2
*D43
340
0
  0
BLOCK_RECORD
  5
384
330
1
100
AcDbSymbolTableRecord
100
AcDbBlockTableRecord
  2
*D44
340
0
  0
BLOCK_RECORD
  5
390
330
1
100
AcDbSymbolTableRecord
100
AcDbBlockTableRecord
  2
*D45
340
0
  0
BLOCK_RECORD
  5
398
330
1
100
AcDbSymbolTableRecord
100
AcDbBlockTableRecord
  2
*D46
340
0
  0
BLOCK_RECORD
  5
3A0
330
1
100
AcDbSymbolTableRecord
100
AcDbBlockTableRecord
  2
*D47
340
0
  0
BLOCK_RECORD
  5
3A8
330
1
100
AcDbSymbolTableRecord
100
AcDbBlockTableRecord
  2
*D48
340
0
  0
BLOCK_RECORD
  5
3B0
330
1
100
AcDbSymbolTableRecord
100
AcDbBlockTableRecord
  2
*D49
340
0
  0
BLOCK_RECORD
  5
3BA
330
1
100
AcDbSymbolTableRecord
100
AcDbBlockTableRecord
  2
*D50
340
0
  0
BLOCK_RECORD
  5
3C2
330
1
100
AcDbSymbolTableRecord
100
AcDbBlockTableRecord
  2
*D51
340
0
  0
BLOCK_RECORD
  5
3CA
330
1
100
AcDbSymbolTableRecord
100
AcDbBlockTableRecord
  2
*D52
340
0
  0
BLOCK_RECORD
  5
3D2
330
1
100
AcDbSymbolTableRecord
100
AcDbBlockTableRecord
  2
*D53
340
0
  0
BLOCK_RECORD
  5
3DA
330
1
100
AcDbSymbolTableRecord
100
AcDbBlockTableRecord
  2
*D54
340
0
  0
BLOCK_RECORD
  5
3E2
330
1
100
AcDbSymbolTableRecord
100
AcDbBlockTableRecord
  2
*D55
340
0
  0
BLOCK_RECORD
  5
3EE
330
1
100
AcDbSymbolTableRecord
100
AcDbBlockTableRecord
  2
*D56
340
0
  0
BLOCK_RECORD
  5
3F6
330
1
100
AcDbSymbolTableRecord
100
AcDbBlockTableRecord
  2
A$C040035AA
340
0
  0
BLOCK_RECORD
  5
923
330
1
100
AcDbSymbolTableRecord
100
AcDbBlockTableRecord
  2
*D58
340
0
  0
BLOCK_RECORD
  5
92B
330
1
100
AcDbSymbolTableRecord
100
AcDbBlockTableRecord
  2
*D59
340
0
  0
BLOCK_RECORD
  5
933
330
1
100
AcDbSymbolTableRecord
100
AcDbBlockTableRecord
  2
*D60
340
0
  0
BLOCK_RECORD
  5
93F
330
1
100
AcDbSymbolTableRecord
100
AcDbBlockTableRecord
  2
*D61
340
0
  0
BLOCK_RECORD
  5
94B
330
1
100
AcDbSymbolTableRecord
100
AcDbBlockTableRecord
  2
*D62
340
0
  0
BLOCK_RECORD
  5
957
330
1
100
AcDbSymbolTableRecord
100
AcDbBlockTableRecord
  2
*D63
340
0
  0
BLOCK_RECORD
  5
963
330
1
100
AcDbSymbolTableRecord
100
AcDbBlockTableRecord
  2
A$C66E61FC0
340
0
  0
BLOCK_RECORD
  5
A13
330
1
100
AcDbSymbolTableRecord
100
AcDbBlockTableRecord
  2
A$C2EBD4E19
340
0
  0
BLOCK_RECORD
  5
A19
330
1
100
AcDbSymbolTableRecord
100
AcDbBlockTableRecord
  2
*D66
340
0
  0
BLOCK_RECORD
  5
A25
330
1
100
AcDbSymbolTableRecord
100
AcDbBlockTableRecord
  2
*D67
340
0
  0
BLOCK_RECORD
  5
A31
330
1
100
AcDbSymbolTableRecord
100
AcDbBlockTableRecord
  2
*D68
340
0
  0
BLOCK_RECORD
  5
A3D
330
1
100
AcDbSymbolTableRecord
100
AcDbBlockTableRecord
  2
A$C02E67ED2
340
0
  0
BLOCK_RECORD
  5
A5B
330
1
100
AcDbSymbolTableRecord
100
AcDbBlockTableRecord
  2
*D70
340
0
  0
BLOCK_RECORD
  5
A67
330
1
100
AcDbSymbolTableRecord
100
AcDbBlockTableRecord
  2
*D71
340
0
  0
BLOCK_RECORD
  5
A73
330
1
100
AcDbSymbolTableRecord
100
AcDbBlockTableRecord
  2
*D72
340
0
  0
BLOCK_RECORD
  5
A7F
330
1
100
AcDbSymbolTableRecord
100
AcDbBlockTableRecord
  2
*D73
340
0
  0
BLOCK_RECORD
  5
A8B
330
1
100
AcDbSymbolTableRecord
100
AcDbBlockTableRecord
  2
*D74
340
0
  0
BLOCK_RECORD
  5
A97
330
1
100
AcDbSymbolTableRecord
100
AcDbBlockTableRecord
  2
A$C607769D7
340
0
  0
BLOCK_RECORD
  5
DB7
330
1
100
AcDbSymbolTableRecord
100
AcDbBlockTableRecord
  2
*D76
340
0
  0
BLOCK_RECORD
  5
DC3
330
1
100
AcDbSymbolTableRecord
100
AcDbBlockTableRecord
  2
*D77
340
0
  0
BLOCK_RECORD
  5
DCF
330
1
100
AcDbSymbolTableRecord
100
AcDbBlockTableRecord
  2
*D78
340
0
  0
BLOCK_RECORD
  5
DDB
330
1
100
AcDbSymbolTableRecord
100
AcDbBlockTableRecord
  2
*D79
340
0
  0
BLOCK_RECORD
  5
DE7
330
1
100
AcDbSymbolTableRecord
100
AcDbBlockTableRecord
  2
*D80
340
0
  0
BLOCK_RECORD
  5
DF3
330
1
100
AcDbSymbolTableRecord
100
AcDbBlockTableRecord
  2
*D81
340
0
  0
BLOCK_RECORD
  5
DFF
330
1
100
AcDbSymbolTableRecord
100
AcDbBlockTableRecord
  2
A$C4A592B1E
340
0
  0
BLOCK_RECORD
  5
3176
330
1
100
AcDbSymbolTableRecord
100
AcDbBlockTableRecord
  2
S
340
0
  0
ENDTAB
  0
ENDSEC
  0
SECTION
  2
BLOCKS
  0
BLOCK
  5
19
330
18
100
AcDbEntity
  8
0
100
AcDbBlockBegin
  2
*MODEL_SPACE
 70
     0
 10
0.0
 20
0.0
 30
0.0
  3
*MODEL_SPACE
  1

  0
ENDBLK
  5
1A
330
18
100
AcDbEntity
  8
0
100
AcDbBlockEnd
  0
BLOCK
  5
16
330
15
100
AcDbEntity
 67
     1
  8
0
100
AcDbBlockBegin
  2
*PAPER_SPACE
 70
     0
 10
0.0
 20
0.0
 30
0.0
  3
*PAPER_SPACE
  1

  0
ENDBLK
  5
17
330
15
100
AcDbEntity
 67
     1
  8
0
100
AcDbBlockEnd
  0
BLOCK
  5
26
330
20
100
AcDbEntity
  8
0
100
AcDbBlockBegin
  2
*D0
 70
     1
 10
0.0
 20
0.0
 30
0.0
  3
*D0
  1

  0
LINE
  5
21
330
20
100
AcDbEntity
  8
0
  6
ByBlock
 62
     0
100
AcDbLine
 10
13677.052022
 20
-8359.574506000001
 30
0.0
 11
13678.646219
 21
-8460.301734999999
 31
0.0
  0
MTEXT
  5
22
330
20
100
AcDbEntity
  8
0
  6
ByBlock
 62
     0
100
AcDbMText
 10
13685.585612
 20
-8393.162169
 30
0.0
 40
11.43
 41
0.0
 71
     5
 72
     1
  1
\A1;R1992.0
 11
0.0158249964690481
 21
-0.9998747769029652
 31
0.0
 73
     1
 44
1.0
1001
ACAD
1000
MTEXTBEGIN
1070
    73
1070
     1
1070
    44
1040
1.0
1070
    74
1070
     0
1000
MTEXTEND
  0
SOLID
  5
23
330
20
100
AcDbEntity
  8
0
  6
ByBlock
 62
     0
100
AcDbTrace
 10
13680.370102
 20
-8448.843020000003
 30
0.0
 11
13676.560579
 21
-8448.903312
 31
0.0
 12
13678.646219
 22
-8460.301734999999
 32
0.0
 13
13678.646219
 23
-8460.301734999999
 33
0.0
  0
POINT
  5
24
330
20
100
AcDbEntity
  8
DEFPOINTS
  6
ByBlock
 62
     0
100
AcDbPoint
 10
13678.646219
 20
-8460.301734999999
 30
-240.0
  0
POINT
  5
25
330
20
100
AcDbEntity
  8
DEFPOINTS
  6
ByBlock
 62
     0
100
AcDbPoint
 10
13647.123023
 20
-6468.551176
 30
-240.0
  0
ENDBLK
  5
27
330
20
100
AcDbEntity
  8
0
100
AcDbBlockEnd
  0
BLOCK
  5
2E
330
28
100
AcDbEntity
  8
0
100
AcDbBlockBegin
  2
*D1
 70
     1
 10
0.0
 20
0.0
 30
0.0
  3
*D1
  1

  0
LINE
  5
29
330
28
100
AcDbEntity
  8
0
  6
ByBlock
 62
     0
100
AcDbLine
 10
21430.636063
 20
-8349.725904000001
 30
0.0
 11
21373.361476
 21
-8298.318014000001
 31
0.0
  0
MTEXT
  5
2A
330
28
100
AcDbEntity
  8
0
  6
ByBlock
 62
     0
100
AcDbMText
 10
21415.849281
 20
-8325.702506
 30
0.0
 40
11.43
 41
0.0
 71
     5
 72
     1
  1
\A1;R140.0
 11
0.7441928279151031
 21
-0.6679648455418309
 31
0.0
 73
     1
 44
1.0
1001
ACAD
1000
MTEXTBEGIN
1070
    73
1070
     1
1070
    44
1040
1.0
1070
    74
1070
     0
1000
MTEXTEND
  0
SOLID
  5
2B
330
28
100
AcDbEntity
  8
0
  6
ByBlock
 62
     0
100
AcDbTrace
 10
21383.140075
 20
-8304.535161
 30
0.0
 11
21380.59513
 21
-8307.370537000002
 31
0.0
 12
21373.361476
 22
-8298.318014000001
 32
0.0
 13
21373.361476
 23
-8298.318014000001
 33
0.0
  0
POINT
  5
2C
330
28
100
AcDbEntity
  8
DEFPOINTS
  6
ByBlock
 62
     0
100
AcDbPoint
 10
21373.361476
 20
-8298.318014000001
 30
0.0
  0
POINT
  5
2D
330
28
100
AcDbEntity
  8
DEFPOINTS
  6
ByBlock
 62
     0
100
AcDbPoint
 10
21477.548505
 20
-8391.833054999999
 30
0.0
  0
ENDBLK
  5
2F
330
28
100
AcDbEntity
  8
0
100
AcDbBlockEnd
  0
BLOCK
  5
36
330
30
100
AcDbEntity
  8
0
100
AcDbBlockBegin
  2
*D2
 70
     1
 10
0.0
 20
0.0
 30
0.0
  3
*D2
  1

  0
LINE
  5
31
330
30
100
AcDbEntity
  8
0
  6
ByBlock
 62
     0
100
AcDbLine
 10
21692.765303
 20
-8296.802466999999
 30
0.0
 11
21706.197154
 21
-8260.557357000001
 31
0.0
  0
MTEXT
  5
32
330
30
100
AcDbEntity
  8
0
  6
ByBlock
 62
     0
100
AcDbMText
 10
21683.365342
 20
-8322.167744999999
 30
0.0
 40
11.43
 41
0.0
 71
     5
 72
     1
  1
\A1;R140.0
 11
0.3474898985406092
 21
0.9376837262170209
 31
0.0
 73
     1
 44
1.0
1001
ACAD
1000
MTEXTBEGIN
1070
    73
1070
     1
1070
    44
1040
1.0
1070
    74
1070
     0
1000
MTEXTEND
  0
SOLID
  5
33
330
30
100
AcDbEntity
  8
0
  6
ByBlock
 62
     0
100
AcDbTrace
 10
21700.439052
 20
-8270.613111000001
 30
0.0
 11
21704.011626
 21
-8271.937048999999
 31
0.0
 12
21706.197154
 22
-8260.557357000001
 32
0.0
 13
21706.197154
 23
-8260.557357000001
 33
0.0
  0
POINT
  5
34
330
30
100
AcDbEntity
  8
DEFPOINTS
  6
ByBlock
 62
     0
100
AcDbPoint
 10
21706.197154
 20
-8260.557357000001
 30
0.0
  0
POINT
  5
35
330
30
100
AcDbEntity
  8
DEFPOINTS
  6
ByBlock
 62
     0
100
AcDbPoint
 10
21657.548505
 20
-8391.833054999999
 30
0.0
  0
ENDBLK
  5
37
330
30
100
AcDbEntity
  8
0
100
AcDbBlockEnd
  0
BLOCK
  5
40
330
38
100
AcDbEntity
  8
0
100
AcDbBlockBegin
  2
*D3
 70
     1
 10
0.0
 20
0.0
 30
0.0
  3
*D3
  1

  0
LINE
  5
39
330
38
100
AcDbEntity
  8
0
  6
ByBlock
 62
     0
100
AcDbLine
 10
21766.80536100001
 20
-8377.37457
 30
0.0
 11
21776.061949
 21
-8303.460573999997
 31
0.0
  0
MTEXT
  5
3A
330
38
100
AcDbEntity
  8
0
  6
ByBlock
 62
     0
100
AcDbMText
 10
21761.754393
 20
-8353.319470999997
 30
0.0
 40
11.43
 41
0.0
 71
     5
 72
     1
  1
\A1;R30.0
 11
0.1242640236289927
 21
0.9922491886776896
 31
0.0
 73
     1
 44
1.0
1001
ACAD
1000
MTEXTBEGIN
1070
    73
1070
     1
1070
    44
1040
1.0
1070
    74
1070
     0
1000
MTEXTEND
  0
SOLID
  5
3B
330
38
100
AcDbEntity
  8
0
  6
ByBlock
 62
     0
100
AcDbTrace
 10
21772.751378
 20
-8314.565259000001
 30
0.0
 11
21776.531847
 21
-8315.038704999999
 31
0.0
 12
21776.061949
 22
-8303.460573999997
 32
0.0
 13
21776.061949
 23
-8303.460573999997
 33
0.0
  0
LINE
  5
3C
330
38
100
AcDbEntity
  8
0
  6
ByBlock
 62
     0
100
AcDbLine
 10
21779.446966
 20
-8273.693096999997
 30
0.0
 11
21780.132766
 21
-8273.693096999997
 31
0.0
  0
LINE
  5
3D
330
38
100
AcDbEntity
  8
0
  6
ByBlock
 62
     0
100
AcDbLine
 10
21779.789866
 20
-8274.035996999996
 30
0.0
 11
21779.789866
 21
-8273.350197
 31
0.0
  0
POINT
  5
3E
330
38
100
AcDbEntity
  8
DEFPOINTS
  6
ByBlock
 62
     0
100
AcDbPoint
 10
21776.061949
 20
-8303.460573999997
 30
0.0
  0
POINT
  5
3F
330
38
100
AcDbEntity
  8
DEFPOINTS
  6
ByBlock
 62
     0
100
AcDbPoint
 10
21779.789866
 20
-8273.693096999997
 30
0.0
  0
ENDBLK
  5
41
330
38
100
AcDbEntity
  8
0
100
AcDbBlockEnd
  0
BLOCK
  5
48
330
42
100
AcDbEntity
  8
0
100
AcDbBlockBegin
  2
*D4
 70
     1
 10
0.0
 20
0.0
 30
0.0
  3
*D4
  1

  0
LINE
  5
43
330
42
100
AcDbEntity
  8
0
  6
ByBlock
 62
     0
100
AcDbLine
 10
21413.438911
 20
-8558.781912
 30
0.0
 11
21366.077721
 21
-8609.430018000001
 31
0.0
  0
MTEXT
  5
44
330
42
100
AcDbEntity
  8
0
  6
ByBlock
 62
     0
100
AcDbMText
 10
21391.721093
 20
-8570.292623000003
 30
0.0
 40
11.43
 41
0.0
 71
     5
 72
     1
  1
\A1;R90.0
 11
0.6830089787649098
 21
0.7304099772911891
 31
0.0
 73
     1
 44
1.0
1001
ACAD
1000
MTEXTBEGIN
1070
    73
1070
     1
1070
    44
1040
1.0
1070
    74
1070
     0
1000
MTEXTEND
  0
SOLID
  5
45
330
42
100
AcDbEntity
  8
0
  6
ByBlock
 62
     0
100
AcDbTrace
 10
21372.493079
 20
-8599.780297
 30
0.0
 11
21375.275942
 21
-8602.382561
 31
0.0
 12
21366.077721
 22
-8609.430018000001
 32
0.0
 13
21366.077721
 23
-8609.430018000001
 33
0.0
  0
POINT
  5
46
330
42
100
AcDbEntity
  8
DEFPOINTS
  6
ByBlock
 62
     0
100
AcDbPoint
 10
21366.077721
 20
-8609.430018000001
 30
0.0
  0
POINT
  5
47
330
42
100
AcDbEntity
  8
DEFPOINTS
  6
ByBlock
 62
     0
100
AcDbPoint
 10
21427.548505
 20
-8543.693097
 30
0.0
  0
ENDBLK
  5
49
330
42
100
AcDbEntity
  8
0
100
AcDbBlockEnd
  0
BLOCK
  5
50
330
4A
100
AcDbEntity
  8
0
100
AcDbBlockBegin
  2
*D5
 70
     1
 10
0.0
 20
0.0
 30
0.0
  3
*D5
  1

  0
LINE
  5
4B
330
4A
100
AcDbEntity
  8
0
  6
ByBlock
 62
     0
100
AcDbLine
 10
22021.334407
 20
-8554.810718
 30
0.0
 11
22075.84039
 21
-8599.274423000002
 31
0.0
  0
MTEXT
  5
4C
330
4A
100
AcDbEntity
  8
0
  6
ByBlock
 62
     0
100
AcDbMText
 10
22044.400851
 20
-8563.301848000001
 30
0.0
 40
11.43
 41
0.0
 71
     5
 72
     1
  1
\A1;R90.0
 11
0.7748770210483725
 21
-0.6321120171703751
 31
0.0
 73
     1
 44
1.0
1001
ACAD
1000
MTEXTBEGIN
1070
    73
1070
     1
1070
    44
1040
1.0
1070
    74
1070
     0
1000
MTEXTEND
  0
SOLID
  5
4D
330
4A
100
AcDbEntity
  8
0
  6
ByBlock
 62
     0
100
AcDbTrace
 10
22068.187721
 20
-8590.573240000002
 30
0.0
 11
22065.779373
 21
-8593.525521
 31
0.0
 12
22075.84039
 22
-8599.274423000002
 32
0.0
 13
22075.84039
 23
-8599.274423000002
 33
0.0
  0
POINT
  5
4E
330
4A
100
AcDbEntity
  8
DEFPOINTS
  6
ByBlock
 62
     0
100
AcDbPoint
 10
22075.84039
 20
-8599.274423000002
 30
0.0
  0
POINT
  5
4F
330
4A
100
AcDbEntity
  8
DEFPOINTS
  6
ByBlock
 62
     0
100
AcDbPoint
 10
22006.101471
 20
-8542.384325
 30
0.0
  0
ENDBLK
  5
51
330
4A
100
AcDbEntity
  8
0
100
AcDbBlockEnd
  0
BLOCK
  5
58
330
52
100
AcDbEntity
  8
0
100
AcDbBlockBegin
  2
*D6
 70
     1
 10
0.0
 20
0.0
 30
0.0
  3
*D6
  1

  0
LINE
  5
53
330
52
100
AcDbEntity
  8
0
  6
ByBlock
 62
     0
100
AcDbLine
 10
22013.84738
 20
-8452.412981
 30
0.0
 11
22098.420387
 21
-8451.179568000004
 31
0.0
  0
MTEXT
  5
54
330
52
100
AcDbEntity
  8
0
  6
ByBlock
 62
     0
100
AcDbMText
 10
22044.588424
 20
-8443.962803000001
 30
0.0
 40
11.43
 41
0.0
 71
     5
 72
     1
  1
\A1;R1201.0
 11
0.9998936770543924
 21
0.0145819952903079
 31
0.0
 73
     1
 44
1.0
1001
ACAD
1000
MTEXTBEGIN
1070
    73
1070
     1
1070
    44
1040
1.0
1070
    74
1070
     0
1000
MTEXTEND
  0
SOLID
  5
55
330
52
100
AcDbEntity
  8
0
  6
ByBlock
 62
     0
100
AcDbTrace
 10
22086.963822
 20
-8449.441447999999
 30
0.0
 11
22087.019381
 21
-8453.251042999999
 31
0.0
 12
22098.420387
 22
-8451.179568000004
 32
0.0
 13
22098.420387
 23
-8451.179568000004
 33
0.0
  0
POINT
  5
56
330
52
100
AcDbEntity
  8
DEFPOINTS
  6
ByBlock
 62
     0
100
AcDbPoint
 10
22098.420387
 20
-8451.179568000004
 30
0.0
  0
POINT
  5
57
330
52
100
AcDbEntity
  8
DEFPOINTS
  6
ByBlock
 62
     0
100
AcDbPoint
 10
20897.548088
 20
-8468.693096999999
 30
0.0
  0
ENDBLK
  5
59
330
52
100
AcDbEntity
  8
0
100
AcDbBlockEnd
  0
BLOCK
  5
60
330
5A
100
AcDbEntity
  8
0
100
AcDbBlockBegin
  2
*D7
 70
     1
 10
0.0
 20
0.0
 30
0.0
  3
*D7
  1

  0
LINE
  5
5B
330
5A
100
AcDbEntity
  8
0
  6
ByBlock
 62
     0
100
AcDbLine
 10
22013.496392
 20
-8381.817245
 30
0.0
 11
22050.128026
 21
-8316.505612000003
 31
0.0
  0
MTEXT
  5
5C
330
5A
100
AcDbEntity
  8
0
  6
ByBlock
 62
     0
100
AcDbMText
 10
22017.887199
 20
-8357.632934000001
 30
0.0
 40
11.43
 41
0.0
 71
     5
 72
     1
  1
\A1;R90.0
 11
0.4891838330374283
 21
0.8721807023173635
 31
0.0
 73
     1
 44
1.0
1001
ACAD
1000
MTEXTBEGIN
1070
    73
1070
     1
1070
    44
1040
1.0
1070
    74
1070
     0
1000
MTEXTEND
  0
SOLID
  5
5D
330
5A
100
AcDbEntity
  8
0
  6
ByBlock
 62
     0
100
AcDbTrace
 10
22042.875149
 20
-8325.542742000001
 30
0.0
 11
22046.198158
 21
-8327.406531999999
 31
0.0
 12
22050.128026
 22
-8316.505612000003
 32
0.0
 13
22050.128026
 23
-8316.505612000003
 33
0.0
  0
POINT
  5
5E
330
5A
100
AcDbEntity
  8
DEFPOINTS
  6
ByBlock
 62
     0
100
AcDbPoint
 10
22050.128026
 20
-8316.505612000003
 30
0.0
  0
POINT
  5
5F
330
5A
100
AcDbEntity
  8
DEFPOINTS
  6
ByBlock
 62
     0
100
AcDbPoint
 10
22006.101471
 20
-8395.001869999999
 30
0.0
  0
ENDBLK
  5
61
330
5A
100
AcDbEntity
  8
0
100
AcDbBlockEnd
  0
BLOCK
  5
68
330
62
100
AcDbEntity
  8
0
100
AcDbBlockBegin
  2
*D8
 70
     1
 10
0.0
 20
0.0
 30
0.0
  3
*D8
  1

  0
LINE
  5
63
330
62
100
AcDbEntity
  8
0
  6
ByBlock
 62
     0
100
AcDbLine
 10
21975.574898
 20
-8386.498481999998
 30
0.0
 11
21977.088222
 21
-8303.835333
 31
0.0
  0
MTEXT
  5
64
330
62
100
AcDbEntity
  8
0
  6
ByBlock
 62
     0
100
AcDbMText
 10
21968.122685
 20
-8356.448542
 30
0.0
 40
11.43
 41
0.0
 71
     5
 72
     1
  1
\A1;R849.0
 11
0.0183040085604207
 21
0.9998324676017578
 31
0.0
 73
     1
 44
1.0
1001
ACAD
1000
MTEXTBEGIN
1070
    73
1070
     1
1070
    44
1040
1.0
1070
    74
1070
     0
1000
MTEXTEND
  0
SOLID
  5
65
330
62
100
AcDbEntity
  8
0
  6
ByBlock
 62
     0
100
AcDbTrace
 10
21974.974326
 20
-8315.228549
 30
0.0
 11
21978.783687
 21
-8315.298287
 31
0.0
 12
21977.088222
 22
-8303.835333
 32
0.0
 13
21977.088222
 23
-8303.835333
 33
0.0
  0
POINT
  5
66
330
62
100
AcDbEntity
  8
DEFPOINTS
  6
ByBlock
 62
     0
100
AcDbPoint
 10
21977.088222
 20
-8303.835333
 30
0.0
  0
POINT
  5
67
330
62
100
AcDbEntity
  8
DEFPOINTS
  6
ByBlock
 62
     0
100
AcDbPoint
 10
21961.548088
 20
-9152.693097
 30
0.0
  0
ENDBLK
  5
69
330
62
100
AcDbEntity
  8
0
100
AcDbBlockEnd
  0
BLOCK
  5
70
330
6A
100
AcDbEntity
  8
0
100
AcDbBlockBegin
  2
*D9
 70
     1
 10
0.0
 20
0.0
 30
0.0
  3
*D9
  1

  0
LINE
  5
6B
330
6A
100
AcDbEntity
  8
0
  6
ByBlock
 62
     0
100
AcDbLine
 10
21968.162616
 20
-8550.98755
 30
0.0
 11
21968.876243
 21
-8633.661470000001
 31
0.0
  0
MTEXT
  5
6C
330
6A
100
AcDbEntity
  8
0
  6
ByBlock
 62
     0
100
AcDbMText
 10
21976.421473
 20
-8580.825875
 30
0.0
 40
11.43
 41
0.0
 71
     5
 72
     1
  1
\A1;R849.0
 11
0.0086319977867863
 21
-0.9999627436130854
 31
0.0
 73
     1
 44
1.0
1001
ACAD
1000
MTEXTBEGIN
1070
    73
1070
     1
1070
    44
1040
1.0
1070
    74
1070
     0
1000
MTEXTEND
  0
SOLID
  5
6D
330
6A
100
AcDbEntity
  8
0
  6
ByBlock
 62
     0
100
AcDbTrace
 10
21970.682514
 20
-8622.215453
 30
0.0
 11
21966.872656
 21
-8622.248339
 31
0.0
 12
21968.876243
 22
-8633.661470000001
 32
0.0
 13
21968.876243
 23
-8633.661470000001
 33
0.0
  0
POINT
  5
6E
330
6A
100
AcDbEntity
  8
DEFPOINTS
  6
ByBlock
 62
     0
100
AcDbPoint
 10
21968.876243
 20
-8633.661470000001
 30
0.0
  0
POINT
  5
6F
330
6A
100
AcDbEntity
  8
DEFPOINTS
  6
ByBlock
 62
     0
100
AcDbPoint
 10
21961.548088
 20
-7784.693097
 30
0.0
  0
ENDBLK
  5
71
330
6A
100
AcDbEntity
  8
0
100
AcDbBlockEnd
  0
BLOCK
  5
7C
330
72
100
AcDbEntity
  8
0
100
AcDbBlockBegin
  2
*D10
 70
     1
 10
0.0
 20
0.0
 30
0.0
  3
*D10
  1

  0
LINE
  5
73
330
72
100
AcDbEntity
  8
0
  6
ByBlock
 62
     0
100
AcDbLine
 10
21427.548505
 20
-8636.074347
 30
0.0
 11
21427.548505
 21
-8745.386534000001
 31
0.0
  0
LINE
  5
74
330
72
100
AcDbEntity
  8
0
  6
ByBlock
 62
     0
100
AcDbLine
 10
21960.916197
 20
-8682.571049999998
 30
0.0
 11
21960.916197
 21
-8745.386534000001
 31
0.0
  0
LINE
  5
75
330
72
100
AcDbEntity
  8
0
  6
ByBlock
 62
     0
100
AcDbLine
 10
21438.97850500001
 20
-8737.766534
 30
0.0
 11
21949.486197
 21
-8737.766534
 31
0.0
  0
SOLID
  5
76
330
72
100
AcDbEntity
  8
0
  6
ByBlock
 62
     0
100
AcDbTrace
 10
21438.97850500001
 20
-8735.861533999999
 30
0.0
 11
21438.97850500001
 21
-8739.671534000001
 31
0.0
 12
21427.548505
 22
-8737.766534
 32
0.0
 13
21427.548505
 23
-8737.766534
 33
0.0
  0
SOLID
  5
77
330
72
100
AcDbEntity
  8
0
  6
ByBlock
 62
     0
100
AcDbTrace
 10
21949.486197
 20
-8735.861533999999
 30
0.0
 11
21949.486197
 21
-8739.671534000001
 31
0.0
 12
21960.916197
 22
-8737.766534
 32
0.0
 13
21960.916197
 23
-8737.766534
 33
0.0
  0
MTEXT
  5
78
330
72
100
AcDbEntity
  8
0
  6
ByBlock
 62
     0
100
AcDbMText
 10
21694.232351
 20
-8729.765534
 30
0.0
 40
11.43
 41
0.0
 71
     5
 72
     1
  1
\A1;533.4
 73
     1
 44
1.0
1001
ACAD
1000
MTEXTBEGIN
1070
    73
1070
     1
1070
    44
1040
1.0
1070
    74
1070
     0
1000
MTEXTEND
  0
POINT
  5
79
330
72
100
AcDbEntity
  8
DEFPOINTS
  6
ByBlock
 62
     0
100
AcDbPoint
 10
21427.548505
 20
-8633.693097
 30
0.0
  0
POINT
  5
7A
330
72
100
AcDbEntity
  8
DEFPOINTS
  6
ByBlock
 62
     0
100
AcDbPoint
 10
21960.916197
 20
-8680.1898
 30
0.0
  0
POINT
  5
7B
330
72
100
AcDbEntity
  8
DEFPOINTS
  6
ByBlock
 62
     0
100
AcDbPoint
 10
21960.916197
 20
-8737.766534
 30
0.0
  0
ENDBLK
  5
7D
330
72
100
AcDbEntity
  8
0
100
AcDbBlockEnd
  0
BLOCK
  5
84
330
7E
100
AcDbEntity
  8
0
100
AcDbBlockBegin
  2
*D11
 70
     1
 10
0.0
 20
0.0
 30
0.0
  3
*D11
  1

  0
LINE
  5
7F
330
7E
100
AcDbEntity
  8
0
  6
ByBlock
 62
     0
100
AcDbLine
 10
21529.107391
 20
-8320.714562
 30
0.0
 11
21519.060078
 21
-8238.650331999997
 31
0.0
  0
MTEXT
  5
80
330
7E
100
AcDbEntity
  8
0
  6
ByBlock
 62
     0
100
AcDbMText
 10
21533.414463
 20
-8290.055411
 30
0.0
 40
11.43
 41
0.0
 71
     5
 72
     1
  1
\A1;R399.0
 11
0.121525044759566
 21
-0.9925883655857475
 31
0.0
 73
     1
 44
1.0
1001
ACAD
1000
MTEXTBEGIN
1070
    73
1070
     1
1070
    44
1040
1.0
1070
    74
1070
     0
1000
MTEXTEND
  0
SOLID
  5
81
330
7E
100
AcDbEntity
  8
0
  6
ByBlock
 62
     0
100
AcDbTrace
 10
21522.339988
 20
-8249.764112000001
 30
0.0
 11
21518.558227
 21
-8250.227122
 31
0.0
 12
21519.060078
 22
-8238.650331999997
 32
0.0
 13
21519.060078
 23
-8238.650331999997
 33
0.0
  0
POINT
  5
82
330
7E
100
AcDbEntity
  8
DEFPOINTS
  6
ByBlock
 62
     0
100
AcDbPoint
 10
21519.060078
 20
-8238.650331999997
 30
0.0
  0
POINT
  5
83
330
7E
100
AcDbEntity
  8
DEFPOINTS
  6
ByBlock
 62
     0
100
AcDbPoint
 10
21567.548505
 20
-8634.693097000001
 30
0.0
  0
ENDBLK
  5
85
330
7E
100
AcDbEntity
  8
0
100
AcDbBlockEnd
  0
BLOCK
  5
90
330
86
100
AcDbEntity
  8
0
100
AcDbBlockBegin
  2
*D12
 70
     1
 10
0.0
 20
0.0
 30
0.0
  3
*D12
  1

  0
LINE
  5
87
330
86
100
AcDbEntity
  8
0
  6
ByBlock
 62
     0
100
AcDbLine
 10
21565.167255
 20
-8235.693097
 30
0.0
 11
21228.707151
 21
-8235.693097
 31
0.0
  0
LINE
  5
88
330
86
100
AcDbEntity
  8
0
  6
ByBlock
 62
     0
100
AcDbLine
 10
21565.167255
 20
-8633.693097
 30
0.0
 11
21228.707151
 21
-8633.693097
 31
0.0
  0
LINE
  5
89
330
86
100
AcDbEntity
  8
0
  6
ByBlock
 62
     0
100
AcDbLine
 10
21236.327151
 20
-8247.123096999999
 30
0.0
 11
21236.327151
 21
-8622.263096999999
 31
0.0
  0
SOLID
  5
8A
330
86
100
AcDbEntity
  8
0
  6
ByBlock
 62
     0
100
AcDbTrace
 10
21234.422151
 20
-8247.123096999999
 30
0.0
 11
21238.232151
 21
-8247.123096999999
 31
0.0
 12
21236.327151
 22
-8235.693097
 32
0.0
 13
21236.327151
 23
-8235.693097
 33
0.0
  0
SOLID
  5
8B
330
86
100
AcDbEntity
  8
0
  6
ByBlock
 62
     0
100
AcDbTrace
 10
21234.422151
 20
-8622.263096999999
 30
0.0
 11
21238.232151
 21
-8622.263096999999
 31
0.0
 12
21236.327151
 22
-8633.693097
 32
0.0
 13
21236.327151
 23
-8633.693097
 33
0.0
  0
MTEXT
  5
8C
330
86
100
AcDbEntity
  8
0
  6
ByBlock
 62
     0
100
AcDbMText
 10
21228.326151
 20
-8434.693097
 30
0.0
 40
11.43
 41
0.0
 71
     5
 72
     1
  1
\A1;398.0
 11
0.0
 21
1.0
 31
0.0
 73
     1
 44
1.0
1001
ACAD
1000
MTEXTBEGIN
1070
    73
1070
     1
1070
    44
1040
1.0
1070
    74
1070
     0
1000
MTEXTEND
  0
POINT
  5
8D
330
86
100
AcDbEntity
  8
DEFPOINTS
  6
ByBlock
 62
     0
100
AcDbPoint
 10
21567.548505
 20
-8235.693097
 30
0.0
  0
POINT
  5
8E
330
86
100
AcDbEntity
  8
DEFPOINTS
  6
ByBlock
 62
     0
100
AcDbPoint
 10
21567.548505
 20
-8633.693097
 30
0.0
  0
POINT
  5
8F
330
86
100
AcDbEntity
  8
DEFPOINTS
  6
ByBlock
 62
     0
100
AcDbPoint
 10
21236.327151
 20
-8633.693097
 30
0.0
  0
ENDBLK
  5
91
330
86
100
AcDbEntity
  8
0
100
AcDbBlockEnd
  0
BLOCK
  5
9C
330
92
100
AcDbEntity
  8
0
100
AcDbBlockBegin
  2
*D13
 70
     1
 10
0.0
 20
0.0
 30
0.0
  3
*D13
  1

  0
LINE
  5
93
330
92
100
AcDbEntity
  8
0
  6
ByBlock
 62
     0
100
AcDbLine
 10
21337.548505
 20
-8471.456543
 30
0.0
 11
21337.548505
 21
-8781.371945000001
 31
0.0
  0
LINE
  5
94
330
92
100
AcDbEntity
  8
0
  6
ByBlock
 62
     0
100
AcDbLine
 10
22098.547635
 20
-8472.117565999999
 30
0.0
 11
22098.547635
 21
-8781.371945000001
 31
0.0
  0
LINE
  5
95
330
92
100
AcDbEntity
  8
0
  6
ByBlock
 62
     0
100
AcDbLine
 10
21348.978505
 20
-8773.751945
 30
0.0
 11
22087.117635
 21
-8773.751945
 31
0.0
  0
SOLID
  5
96
330
92
100
AcDbEntity
  8
0
  6
ByBlock
 62
     0
100
AcDbTrace
 10
21348.978505
 20
-8771.846945000001
 30
0.0
 11
21348.978505
 21
-8775.656945000001
 31
0.0
 12
21337.548505
 22
-8773.751945
 32
0.0
 13
21337.548505
 23
-8773.751945
 33
0.0
  0
SOLID
  5
97
330
92
100
AcDbEntity
  8
0
  6
ByBlock
 62
     0
100
AcDbTrace
 10
22087.117635
 20
-8771.846945000001
 30
0.0
 11
22087.117635
 21
-8775.656945000001
 31
0.0
 12
22098.547635
 22
-8773.751945
 32
0.0
 13
22098.547635
 23
-8773.751945
 33
0.0
  0
MTEXT
  5
98
330
92
100
AcDbEntity
  8
0
  6
ByBlock
 62
     0
100
AcDbMText
 10
21718.04807
 20
-8765.750945
 30
0.0
 40
11.43
 41
0.0
 71
     5
 72
     1
  1
\A1;761.0
 73
     1
 44
1.0
1001
ACAD
1000
MTEXTBEGIN
1070
    73
1070
     1
1070
    44
1040
1.0
1070
    74
1070
     0
1000
MTEXTEND
  0
POINT
  5
99
330
92
100
AcDbEntity
  8
DEFPOINTS
  6
ByBlock
 62
     0
100
AcDbPoint
 10
21337.548505
 20
-8469.075293000001
 30
0.0
  0
POINT
  5
9A
330
92
100
AcDbEntity
  8
DEFPOINTS
  6
ByBlock
 62
     0
100
AcDbPoint
 10
22098.547635
 20
-8469.736316
 30
0.0
  0
POINT
  5
9B
330
92
100
AcDbEntity
  8
DEFPOINTS
  6
ByBlock
 62
     0
100
AcDbPoint
 10
22098.547635
 20
-8773.751945
 30
0.0
  0
ENDBLK
  5
9D
330
92
100
AcDbEntity
  8
0
100
AcDbBlockEnd
  0
BLOCK
  5
A8
330
9E
100
AcDbEntity
  8
0
100
AcDbBlockBegin
  2
*D14
 70
     1
 10
0.0
 20
0.0
 30
0.0
  3
*D14
  1

  0
LINE
  5
9F
330
9E
100
AcDbEntity
  8
0
  6
ByBlock
 62
     0
100
AcDbLine
 10
21963.297447
 20
-8303.693097
 30
0.0
 11
22224.725251
 21
-8303.693097
 31
0.0
  0
LINE
  5
A0
330
9E
100
AcDbEntity
  8
0
  6
ByBlock
 62
     0
100
AcDbLine
 10
21963.297447
 20
-8633.692862
 30
0.0
 11
22224.725251
 21
-8633.692862
 31
0.0
  0
LINE
  5
A1
330
9E
100
AcDbEntity
  8
0
  6
ByBlock
 62
     0
100
AcDbLine
 10
22217.105251
 20
-8315.123097
 30
0.0
 11
22217.105251
 21
-8622.262861999999
 31
0.0
  0
SOLID
  5
A2
330
9E
100
AcDbEntity
  8
0
  6
ByBlock
 62
     0
100
AcDbTrace
 10
22215.200251
 20
-8315.123097
 30
0.0
 11
22219.010251
 21
-8315.123097
 31
0.0
 12
22217.105251
 22
-8303.693097
 32
0.0
 13
22217.105251
 23
-8303.693097
 33
0.0
  0
SOLID
  5
A3
330
9E
100
AcDbEntity
  8
0
  6
ByBlock
 62
     0
100
AcDbTrace
 10
22215.200251
 20
-8622.262861999999
 30
0.0
 11
22219.010251
 21
-8622.262861999999
 31
0.0
 12
22217.105251
 22
-8633.692862
 32
0.0
 13
22217.105251
 23
-8633.692862
 33
0.0
  0
MTEXT
  5
A4
330
9E
100
AcDbEntity
  8
0
  6
ByBlock
 62
     0
100
AcDbMText
 10
22209.104251
 20
-8468.69298
 30
0.0
 40
11.43
 41
0.0
 71
     5
 72
     1
  1
\A1;330.0
 11
0.0
 21
1.0
 31
0.0
 73
     1
 44
1.0
1001
ACAD
1000
MTEXTBEGIN
1070
    73
1070
     1
1070
    44
1040
1.0
1070
    74
1070
     0
1000
MTEXTEND
  0
POINT
  5
A5
330
9E
100
AcDbEntity
  8
DEFPOINTS
  6
ByBlock
 62
     0
100
AcDbPoint
 10
21960.916197
 20
-8303.693097
 30
0.0
  0
POINT
  5
A6
330
9E
100
AcDbEntity
  8
DEFPOINTS
  6
ByBlock
 62
     0
100
AcDbPoint
 10
21960.916197
 20
-8633.692862
 30
0.0
  0
POINT
  5
A7
330
9E
100
AcDbEntity
  8
DEFPOINTS
  6
ByBlock
 62
     0
100
AcDbPoint
 10
22217.105251
 20
-8633.692862
 30
0.0
  0
ENDBLK
  5
A9
330
9E
100
AcDbEntity
  8
0
100
AcDbBlockEnd
  0
BLOCK
  5
B4
330
AA
100
AcDbEntity
  8
0
100
AcDbBlockBegin
  2
*D15
 70
     1
 10
0.0
 20
0.0
 30
0.0
  3
*D15
  1

  0
LINE
  5
AB
330
AA
100
AcDbEntity
  8
0
  6
ByBlock
 62
     0
100
AcDbLine
 10
21337.548505
 20
-8435.811997
 30
0.0
 11
21337.548505
 21
-8420.563345000001
 31
0.0
  0
LINE
  5
AC
330
AA
100
AcDbEntity
  8
0
  6
ByBlock
 62
     0
100
AcDbLine
 10
21567.548505
 20
-8450.500590000002
 30
0.0
 11
21567.548505
 21
-8420.563345000001
 31
0.0
  0
LINE
  5
AD
330
AA
100
AcDbEntity
  8
0
  6
ByBlock
 62
     0
100
AcDbLine
 10
21348.978505
 20
-8428.183344999998
 30
0.0
 11
21556.118505
 21
-8428.183344999998
 31
0.0
  0
SOLID
  5
AE
330
AA
100
AcDbEntity
  8
0
  6
ByBlock
 62
     0
100
AcDbTrace
 10
21348.978505
 20
-8426.278345000001
 30
0.0
 11
21348.978505
 21
-8430.088344999999
 31
0.0
 12
21337.548505
 22
-8428.183344999998
 32
0.0
 13
21337.548505
 23
-8428.183344999998
 33
0.0
  0
SOLID
  5
AF
330
AA
100
AcDbEntity
  8
0
  6
ByBlock
 62
     0
100
AcDbTrace
 10
21556.118505
 20
-8426.278345000001
 30
0.0
 11
21556.118505
 21
-8430.088344999999
 31
0.0
 12
21567.548505
 22
-8428.183344999998
 32
0.0
 13
21567.548505
 23
-8428.183344999998
 33
0.0
  0
MTEXT
  5
B0
330
AA
100
AcDbEntity
  8
0
  6
ByBlock
 62
     0
100
AcDbMText
 10
21452.548505
 20
-8420.182345
 30
0.0
 40
11.43
 41
0.0
 71
     5
 72
     1
  1
\A1;230.0
 73
     1
 44
1.0
1001
ACAD
1000
MTEXTBEGIN
1070
    73
1070
     1
1070
    44
1040
1.0
1070
    74
1070
     0
1000
MTEXTEND
  0
POINT
  5
B1
330
AA
100
AcDbEntity
  8
DEFPOINTS
  6
ByBlock
 62
     0
100
AcDbPoint
 10
21337.548505
 20
-8438.193246999999
 30
0.0
  0
POINT
  5
B2
330
AA
100
AcDbEntity
  8
DEFPOINTS
  6
ByBlock
 62
     0
100
AcDbPoint
 10
21567.548505
 20
-8452.881840000001
 30
0.0
  0
POINT
  5
B3
330
AA
100
AcDbEntity
  8
DEFPOINTS
  6
ByBlock
 62
     0
100
AcDbPoint
 10
21567.548505
 20
-8428.183344999998
 30
0.0
  0
ENDBLK
  5
B5
330
AA
100
AcDbEntity
  8
0
100
AcDbBlockEnd
  0
BLOCK
  5
C0
330
B6
100
AcDbEntity
  8
0
100
AcDbBlockBegin
  2
*D16
 70
     1
 10
0.0
 20
0.0
 30
0.0
  3
*D16
  1

  0
LINE
  5
B7
330
B6
100
AcDbEntity
  8
0
  6
ByBlock
 62
     0
100
AcDbLine
 10
21960.916197
 20
-8479.253359999999
 30
0.0
 11
21960.916197
 21
-8515.882417
 31
0.0
  0
LINE
  5
B8
330
B6
100
AcDbEntity
  8
0
  6
ByBlock
 62
     0
100
AcDbLine
 10
22098.512564
 20
-8480.311697999999
 30
0.0
 11
22098.512564
 21
-8515.882417
 31
0.0
  0
LINE
  5
B9
330
B6
100
AcDbEntity
  8
0
  6
ByBlock
 62
     0
100
AcDbLine
 10
21972.346197
 20
-8508.262417
 30
0.0
 11
22087.082564
 21
-8508.262417
 31
0.0
  0
SOLID
  5
BA
330
B6
100
AcDbEntity
  8
0
  6
ByBlock
 62
     0
100
AcDbTrace
 10
21972.346197
 20
-8506.357417000002
 30
0.0
 11
21972.346197
 21
-8510.167417000001
 31
0.0
 12
21960.916197
 22
-8508.262417
 32
0.0
 13
21960.916197
 23
-8508.262417
 33
0.0
  0
SOLID
  5
BB
330
B6
100
AcDbEntity
  8
0
  6
ByBlock
 62
     0
100
AcDbTrace
 10
22087.082564
 20
-8506.357417000002
 30
0.0
 11
22087.082564
 21
-8510.167417000001
 31
0.0
 12
22098.512564
 22
-8508.262417
 32
0.0
 13
22098.512564
 23
-8508.262417
 33
0.0
  0
MTEXT
  5
BC
330
B6
100
AcDbEntity
  8
0
  6
ByBlock
 62
     0
100
AcDbMText
 10
22029.714381
 20
-8500.261417
 30
0.0
 40
11.43
 41
0.0
 71
     5
 72
     1
  1
\A1;137.6
 73
     1
 44
1.0
1001
ACAD
1000
MTEXTBEGIN
1070
    73
1070
     1
1070
    44
1040
1.0
1070
    74
1070
     0
1000
MTEXTEND
  0
POINT
  5
BD
330
B6
100
AcDbEntity
  8
DEFPOINTS
  6
ByBlock
 62
     0
100
AcDbPoint
 10
21960.916197
 20
-8476.87211
 30
0.0
  0
POINT
  5
BE
330
B6
100
AcDbEntity
  8
DEFPOINTS
  6
ByBlock
 62
     0
100
AcDbPoint
 10
22098.512564
 20
-8477.930448
 30
0.0
  0
POINT
  5
BF
330
B6
100
AcDbEntity
  8
DEFPOINTS
  6
ByBlock
 62
     0
100
AcDbPoint
 10
22098.512564
 20
-8508.262417
 30
0.0
  0
ENDBLK
  5
C1
330
B6
100
AcDbEntity
  8
0
100
AcDbBlockEnd
  0
BLOCK
  5
ED
330
C8
100
AcDbEntity
  8
0
100
AcDbBlockBegin
  2
A$C6BEF22AF
 70
     0
 10
0.0
 20
0.0
 30
0.0
  3
A$C6BEF22AF
  1

  0
DIMENSION
  5
C9
330
C8
100
AcDbEntity
  8
DIM
100
AcDbDimension
  2
*D0
 10
784.0294209999998
 20
427.9927419999999
 30
-240.0
 11
814.492012
 21
-1496.744865
 31
0.0
 12
-12863.093602
 22
6896.543918
 32
0.0
 70
   132
 71
     5
 42
-1.0
  3
B
100
AcDbRadialDimension
 15
815.5526179999997
 25
-1563.757817
 35
-240.0
 40
0.0
1001
ACAD
1000
DSTYLE
1002
{
1070
   288
1070
     1
1070
   289
1070
     3
1002
}
  0
DIMENSION
  5
CA
330
C8
100
AcDbEntity
  8
DIM
 62
     1
100
AcDbDimension
  2
*D8
 10
1520.488599
 20
-73.23645
 30
0.0
 11
1535.062855
 21
722.8616549999998
 31
0.0
 12
-20441.05949
 22
9079.456648000002
 32
0.0
 70
   132
 71
     5
 42
-1.0
  3
B
100
AcDbRadialDimension
 15
1536.028732
 25
775.6213149999998
 35
0.0
 40
0.0
1001
ACAD
1000
DSTYLE
1002
{
1070
   288
1070
     1
1070
   289
1070
     3
1002
}
  0
DIMENSION
  5
CB
330
C8
100
AcDbEntity
  8
DIM
 62
     1
100
AcDbDimension
  2
*D15
 10
1126.489015
 20
651.273303
 30
0.0
 11
1011.489015
 21
659.274303
 31
0.0
 12
-20441.05949
 22
9079.456648000002
 32
0.0
 71
     5
 42
-1.0
  3
B
100
AcDbAlignedDimension
 13
896.489015
 23
641.2634009999997
 33
0.0
 14
1126.489015
 24
626.574807
 34
0.0
100
AcDbRotatedDimension
1001
ACAD
1000
DSTYLE
1002
{
1070
   289
1070
     3
1002
}
  0
DIMENSION
  5
CC
330
C8
100
AcDbEntity
  8
DIM
 62
     1
100
AcDbDimension
  2
*D13
 10
1657.488146
 20
305.704703
 30
0.0
 11
1276.988581
 21
313.705703
 31
0.0
 12
-20441.05949
 22
9079.456648000002
 32
0.0
 71
     5
 42
-1.0
  3
B
100
AcDbAlignedDimension
 13
896.489015
 23
610.3813549999999
 33
0.0
 14
1657.488146
 24
609.720331
 34
0.0
100
AcDbRotatedDimension
1001
ACAD
1000
DSTYLE
1002
{
1070
   289
1070
     3
1002
}
  0
DIMENSION
  5
CD
330
C8
100
AcDbEntity
  8
DIM
 62
     1
100
AcDbDimension
  2
*D12
 10
795.2676610000001
 20
445.76355
 30
0.0
 11
787.266661
 21
644.76355
 31
0.0
 12
-20441.05949
 22
9079.456648000002
 32
0.0
 71
     5
 42
-1.0
  3
B
100
AcDbAlignedDimension
 13
1126.489015
 23
843.76355
 33
0.0
 14
1126.489015
 24
445.76355
 34
0.0
 50
90.0
100
AcDbRotatedDimension
1001
ACAD
1000
DSTYLE
1002
{
1070
   289
1070
     3
1002
}
  0
LINE
  5
CE
330
C8
100
AcDbEntity
  8
CENTER
 62
     1
100
AcDbLine
 10
838.484401
 20
611.6935709999998
 30
0.0
 11
1744.833856
 21
611.6935709999998
 31
0.0
  0
DIMENSION
  5
CF
330
C8
100
AcDbEntity
  8
DIM
 62
     1
100
AcDbDimension
  2
*D6
 10
456.488599
 20
610.76355
 30
0.0
 11
1603.645609
 21
627.4936959999998
 31
0.0
 12
-20441.05949
 22
9079.456648000002
 32
0.0
 70
   132
 71
     5
 42
-1.0
  3
B
100
AcDbRadialDimension
 15
1657.360897
 25
628.2770799999998
 35
0.0
 40
0.0
1001
ACAD
1000
DSTYLE
1002
{
1070
   288
1070
     1
1070
   289
1070
     3
1002
}
  0
DIMENSION
  5
D0
330
C8
100
AcDbEntity
  8
DIM
 62
     1
100
AcDbDimension
  2
*D4
 10
986.489015
 20
535.7635499999998
 30
0.0
 11
956.5056160000001
 21
503.6992719999998
 31
0.0
 12
-20441.05949
 22
9079.456648000002
 32
0.0
 70
   132
 71
     5
 42
-1.0
  3
B
100
AcDbRadialDimension
 15
925.0182309999999
 25
470.02663
 35
0.0
 40
0.0
1001
ACAD
1000
DSTYLE
1002
{
1070
   288
1070
     1
1070
   289
1070
     3
1002
}
  0
ARC
  5
D1
330
C8
100
AcDbEntity
  8
DRAW
100
AcDbCircle
 10
1036.489015
 20
687.623592
 30
0.0
 40
140.0
100
AcDbArc
 50
110.33389
 51
180.0
  0
ARC
  5
D2
330
C8
100
AcDbEntity
  8
DRAW
100
AcDbCircle
 10
986.489015
 20
535.7635499999998
 30
0.0
 40
90.0
100
AcDbArc
 50
180.0
 51
270.0
  0
LINE
  5
D3
330
C8
100
AcDbEntity
  8
DRAW
100
AcDbLine
 10
896.489015
 20
535.7635499999998
 30
0.0
 11
896.489015
 21
687.623592
 31
0.0
  0
DIMENSION
  5
D4
330
C8
100
AcDbEntity
  8
DIM
 62
     1
100
AcDbDimension
  2
*D16
 10
1657.453074
 20
571.1942309999998
 30
0.0
 11
1588.654891
 21
579.1952309999998
 31
0.0
 12
-20441.05949
 22
9079.456648000002
 32
0.0
 71
     5
 42
-1.0
  3
B
100
AcDbAlignedDimension
 13
1519.856708
 23
602.5845369999998
 33
0.0
 14
1657.453074
 24
601.5261999999998
 34
0.0
100
AcDbRotatedDimension
1001
ACAD
1000
DSTYLE
1002
{
1070
   289
1070
     3
1002
}
  0
DIMENSION
  5
D5
330
C8
100
AcDbEntity
  8
DIM
 62
     1
100
AcDbDimension
  2
*D14
 10
1776.045761
 20
445.763785
 30
0.0
 11
1768.044761
 21
610.7636679999998
 31
0.0
 12
-20441.05949
 22
9079.456648000002
 32
0.0
 71
     5
 42
-1.0
  3
B
100
AcDbAlignedDimension
 13
1519.856708
 23
775.76355
 33
0.0
 14
1519.856708
 24
445.763785
 34
0.0
 50
90.0
100
AcDbRotatedDimension
1001
ACAD
1000
DSTYLE
1002
{
1070
   289
1070
     3
1002
}
  0
DIMENSION
  5
D6
330
C8
100
AcDbEntity
  8
DIM
 62
     1
100
AcDbDimension
  2
*D11
 10
1126.489015
 20
444.76355
 30
0.0
 11
1084.413274
 21
788.4289159999998
 31
0.0
 12
-20441.05949
 22
9079.456648000002
 32
0.0
 70
   132
 71
     5
 42
-1.0
  3
B
100
AcDbRadialDimension
 15
1078.000588
 25
840.8063160000001
 35
0.0
 40
0.0
1001
ACAD
1000
DSTYLE
1002
{
1070
   288
1070
     1
1070
   289
1070
     3
1002
}
  0
LINE
  5
D7
330
C8
100
AcDbEntity
  8
CENTER
 62
     1
100
AcDbLine
 10
1519.856708
 20
399.266848
 30
0.0
 11
1519.856708
 21
805.9022269999998
 31
0.0
  0
LINE
  5
D8
330
C8
100
AcDbEntity
  8
CENTER
 62
     1
100
AcDbLine
 10
1126.489015
 20
886.269652
 30
0.0
 11
1126.489015
 21
366.8799620000001
 31
0.0
  0
ARC
  5
D9
330
C8
100
AcDbEntity
  8
DRAW
100
AcDbCircle
 10
456.488599
 20
610.76355
 30
0.0
 40
1201.0
100
AcDbArc
 50
356.196851
 51
0.0
  0
DIMENSION
  5
DA
330
C8
100
AcDbEntity
  8
DIM
 62
     1
100
AcDbDimension
  2
*D10
 10
1519.856708
 20
341.690114
 30
0.0
 11
1253.172861
 21
349.691114
 31
0.0
 12
-20441.05949
 22
9079.456648000002
 32
0.0
 71
     5
 42
-1.0
  3
B
100
AcDbAlignedDimension
 13
986.489015
 23
445.76355
 33
0.0
 14
1519.856708
 24
399.266848
 34
0.0
100
AcDbRotatedDimension
1001
ACAD
1000
DSTYLE
1002
{
1070
   289
1070
     3
1002
}
  0
LINE
  5
DB
330
C8
100
AcDbEntity
  8
DRAW
100
AcDbLine
 10
1521.122066
 20
445.763786
 30
0.0
 11
1266.489015
 21
445.76355
 31
0.0
  0
LINE
  5
DC
330
C8
100
AcDbEntity
  8
DRAW
100
AcDbLine
 10
986.489015
 20
445.76355
 30
0.0
 11
1266.489015
 21
445.76355
 31
0.0
  0
MTEXT
  5
DD
330
C8
100
AcDbEntity
  8
DIM
 62
     4
100
AcDbMText
 10
1233.141754
 20
557.0509659999999
 30
0.0
 40
40.0
 41
156.6151
 71
     1
 72
     5
  1
501
 73
     1
 44
1.0
1001
ACAD
1000
MTEXTBEGIN
1070
    73
1070
     1
1070
    44
1040
1.0
1070
    74
1070
     0
1000
MTEXTEND
  0
DIMENSION
  5
DE
330
C8
100
AcDbEntity
  8
DIM
 62
     1
100
AcDbDimension
  2
*D5
 10
1565.041982
 20
537.0723230000001
 30
0.0
 11
1598.283831
 21
509.95501
 31
0.0
 12
-20441.05949
 22
9079.456648000002
 32
0.0
 70
   132
 71
     5
 42
-1.0
  3
B
100
AcDbRadialDimension
 15
1634.7809
 25
480.1822249999998
 35
0.0
 40
0.0
1001
ACAD
1000
DSTYLE
1002
{
1070
   288
1070
     1
1070
   289
1070
     3
1002
}
  0
ARC
  5
DF
330
C8
100
AcDbEntity
  8
DRAW
100
AcDbCircle
 10
1520.488599
 20
1294.76355
 30
0.0
 40
849.0
100
AcDbArc
 50
269.957356
 51
273.365203
  0
ARC
  5
E0
330
C8
100
AcDbEntity
  8
DRAW
100
AcDbCircle
 10
1565.041982
 20
537.0723230000001
 30
0.0
 40
90.0
100
AcDbArc
 50
273.365203
 51
356.196851
  0
LINE
  5
E1
330
C8
100
AcDbEntity
  8
DRAW
100
AcDbLine
 10
1520.488599
 20
775.76355
 30
0.0
 11
1338.730376
 21
775.76355
 31
0.0
  0
ARC
  5
E2
330
C8
100
AcDbEntity
  8
DRAW
100
AcDbCircle
 10
1126.489015
 20
444.76355
 30
0.0
 40
399.0
100
AcDbArc
 50
69.66611
 51
110.33389
  0
DIMENSION
  5
E3
330
C8
100
AcDbEntity
  8
DIM
 62
     1
100
AcDbDimension
  2
*D1
 10
1036.489015
 20
687.623592
 30
0.0
 11
969.4454059999999
 21
747.7998529999998
 31
0.0
 12
-20441.05949
 22
9079.456648000002
 32
0.0
 70
   132
 71
     5
 42
-1.0
  3
B
100
AcDbRadialDimension
 15
932.301986
 25
781.138633
 35
0.0
 40
0.0
1001
ACAD
1000
DSTYLE
1002
{
1070
   288
1070
     1
1070
   289
1070
     3
1002
}
  0
DIMENSION
  5
E4
330
C8
100
AcDbEntity
  8
DIM
 62
     1
100
AcDbDimension
  2
*D3
 10
1338.730376
 20
805.7635499999999
 30
0.0
 11
1328.633889
 21
725.142941
 31
0.0
 12
-20441.05949
 22
9079.456648000002
 32
0.0
 70
   132
 71
     5
 42
-1.0
  3
B
100
AcDbRadialDimension
 15
1335.002459
 25
775.996074
 35
0.0
 40
0.0
1001
ACAD
1000
DSTYLE
1002
{
1070
   288
1070
     1
1070
   289
1070
     3
1002
}
  0
DIMENSION
  5
E5
330
C8
100
AcDbEntity
  8
DIM
 62
     1
100
AcDbDimension
  2
*D2
 10
1216.489015
 20
687.623592
 30
0.0
 11
1242.305852
 21
757.2889029999998
 31
0.0
 12
-20441.05949
 22
9079.456648000002
 32
0.0
 70
   132
 71
     5
 42
-1.0
  3
B
100
AcDbRadialDimension
 15
1265.137664
 25
818.89929
 35
0.0
 40
0.0
1001
ACAD
1000
DSTYLE
1002
{
1070
   279
1070
     1
1070
   288
1070
     1
1070
   289
1070
     3
1002
}
  0
ARC
  5
E6
330
C8
100
AcDbEntity
  8
DRAW
100
AcDbCircle
 10
1338.730376
 20
805.7635499999999
 30
0.0
 40
30.0
100
AcDbArc
 50
224.02251
 51
270.0
  0
ARC
  5
E7
330
C8
100
AcDbEntity
  8
DRAW
100
AcDbCircle
 10
1216.489015
 20
687.623592
 30
0.0
 40
140.0
100
AcDbArc
 50
44.02250999999998
 51
69.66611
  0
DIMENSION
  5
E8
330
C8
100
AcDbEntity
  8
DIM
 62
     1
100
AcDbDimension
  2
*D7
 10
1565.041982
 20
684.4547769999998
 30
0.0
 11
1583.806026
 21
717.9097519999998
 31
0.0
 12
-20441.05949
 22
9079.456648000002
 32
0.0
 70
   132
 71
     5
 42
-1.0
  3
B
100
AcDbRadialDimension
 15
1609.068536
 25
762.9510349999998
 35
0.0
 40
0.0
1001
ACAD
1000
DSTYLE
1002
{
1070
   288
1070
     1
1070
   289
1070
     3
1002
}
  0
ARC
  5
E9
330
C8
100
AcDbEntity
  8
DRAW
100
AcDbCircle
 10
456.488599
 20
610.76355
 30
0.0
 40
1201.0
100
AcDbArc
 50
0.0
 51
3.803148999999999
  0
ARC
  5
EA
330
C8
100
AcDbEntity
  8
DRAW
100
AcDbCircle
 10
1520.488599
 20
-73.23645
 30
0.0
 40
849.0
100
AcDbArc
 50
86.63479699999998
 51
90.0
  0
ARC
  5
EB
330
C8
100
AcDbEntity
  8
DRAW
100
AcDbCircle
 10
1565.041982
 20
684.4547769999998
 30
0.0
 40
90.0
100
AcDbArc
 50
3.803148999999999
 51
86.63479699999998
  0
DIMENSION
  5
EC
330
C8
100
AcDbEntity
  8
DIM
 62
     1
100
AcDbDimension
  2
*D9
 10
1520.488599
 20
1294.76355
 30
0.0
 11
1527.361282
 21
498.561711
 31
0.0
 12
-20441.05949
 22
9079.456648000002
 32
0.0
 70
   132
 71
     5
 42
-1.0
  3
B
100
AcDbRadialDimension
 15
1527.816754
 25
445.795177
 35
0.0
 40
0.0
1001
ACAD
1000
DSTYLE
1002
{
1070
   288
1070
     1
1070
   289
1070
     3
1002
}
  0
ENDBLK
  5
EE
330
C8
100
AcDbEntity
  8
0
100
AcDbBlockEnd
  0
BLOCK
  5
256
330
24C
100
AcDbEntity
  8
0
100
AcDbBlockBegin
  2
*D18
 70
     1
 10
0.0
 20
0.0
 30
0.0
  3
*D18
  1

  0
LINE
  5
24D
330
24C
100
AcDbEntity
  8
0
  6
ByBlock
 62
     0
100
AcDbLine
 10
591.505712
 20
1835.508686
 30
0.0
 11
591.505712
 21
1454.261311
 31
0.0
  0
LINE
  5
24E
330
24C
100
AcDbEntity
  8
0
  6
ByBlock
 62
     0
100
AcDbLine
 10
1360.49543
 20
1835.532447
 30
0.0
 11
1360.49543
 21
1454.261311
 31
0.0
  0
LINE
  5
24F
330
24C
100
AcDbEntity
  8
0
  6
ByBlock
 62
     0
100
AcDbLine
 10
602.935712
 20
1461.881311
 30
0.0
 11
1349.06543
 21
1461.881311
 31
0.0
  0
SOLID
  5
250
330
24C
100
AcDbEntity
  8
0
  6
ByBlock
 62
     0
100
AcDbTrace
 10
602.935712
 20
1463.786310999999
 30
0.0
 11
602.935712
 21
1459.976311
 31
0.0
 12
591.505712
 22
1461.881311
 32
0.0
 13
591.505712
 23
1461.881311
 33
0.0
  0
SOLID
  5
251
330
24C
100
AcDbEntity
  8
0
  6
ByBlock
 62
     0
100
AcDbTrace
 10
1349.06543
 20
1463.786310999999
 30
0.0
 11
1349.06543
 21
1459.976311
 31
0.0
 12
1360.49543
 22
1461.881311
 32
0.0
 13
1360.49543
 23
1461.881311
 33
0.0
  0
MTEXT
  5
252
330
24C
100
AcDbEntity
  8
0
  6
ByBlock
 62
     0
100
AcDbMText
 10
976.0005709999999
 20
1469.882311
 30
0.0
 40
11.43
 41
0.0
 71
     5
 72
     1
  1
\A1;769.0
 73
     1
 44
1.0
1001
ACAD
1000
MTEXTBEGIN
1070
    73
1070
     1
1070
    44
1040
1.0
1070
    74
1070
     0
1000
MTEXTEND
  0
POINT
  5
253
330
24C
100
AcDbEntity
  8
DEFPOINTS
  6
ByBlock
 62
     0
100
AcDbPoint
 10
591.505712
 20
1837.889936
 30
0.0
  0
POINT
  5
254
330
24C
100
AcDbEntity
  8
DEFPOINTS
  6
ByBlock
 62
     0
100
AcDbPoint
 10
1360.49543
 20
1837.913697
 30
0.0
  0
POINT
  5
255
330
24C
100
AcDbEntity
  8
DEFPOINTS
  6
ByBlock
 62
     0
100
AcDbPoint
 10
1360.49543
 20
1461.881311
 30
0.0
  0
ENDBLK
  5
257
330
24C
100
AcDbEntity
  8
0
100
AcDbBlockEnd
  0
BLOCK
  5
25E
330
258
100
AcDbEntity
  8
0
100
AcDbBlockBegin
  2
*D19
 70
     1
 10
0.0
 20
0.0
 30
0.0
  3
*D19
  1

  0
LINE
  5
259
330
258
100
AcDbEntity
  8
0
  6
ByBlock
 62
     0
100
AcDbLine
 10
1254.456118
 20
1936.699177
 30
0.0
 11
1326.292591
 21
2009.830939
 31
0.0
  0
MTEXT
  5
25A
330
258
100
AcDbEntity
  8
0
  6
ByBlock
 62
     0
100
AcDbMText
 10
1267.03704
 20
1960.924537
 30
0.0
 40
11.43
 41
0.0
 71
     5
 72
     1
  1
\A1;R100.0
 11
0.7007610588860054
 21
0.7133960599477436
 31
0.0
 73
     1
 44
1.0
1001
ACAD
1000
MTEXTBEGIN
1070
    73
1070
     1
1070
    44
1040
1.0
1070
    74
1070
     0
1000
MTEXTEND
  0
SOLID
  5
25B
330
258
100
AcDbEntity
  8
0
  6
ByBlock
 62
     0
100
AcDbTrace
 10
1316.923875
 20
2003.011769
 30
0.0
 11
1319.641915
 21
2000.34187
 31
0.0
 12
1326.292591
 22
2009.830939
 32
0.0
 13
1326.292591
 23
2009.830939
 33
0.0
  0
POINT
  5
25C
330
258
100
AcDbEntity
  8
DEFPOINTS
  6
ByBlock
 62
     0
100
AcDbPoint
 10
1326.292591
 20
2009.830939
 30
0.0
  0
POINT
  5
25D
330
258
100
AcDbEntity
  8
DEFPOINTS
  6
ByBlock
 62
     0
100
AcDbPoint
 10
1256.216509
 20
1938.491309
 30
0.0
  0
ENDBLK
  5
25F
330
258
100
AcDbEntity
  8
0
100
AcDbBlockEnd
  0
BLOCK
  5
26A
330
260
100
AcDbEntity
  8
0
100
AcDbBlockBegin
  2
*D20
 70
     1
 10
0.0
 20
0.0
 30
0.0
  3
*D20
  1

  0
LINE
  5
261
330
260
100
AcDbEntity
  8
0
  6
ByBlock
 62
     0
100
AcDbLine
 10
1120.52438
 20
1633.253839
 30
0.0
 11
1504.531281
 21
1633.253839
 31
0.0
  0
LINE
  5
262
330
260
100
AcDbEntity
  8
0
  6
ByBlock
 62
     0
100
AcDbLine
 10
1120.52438
 20
2043.253839
 30
0.0
 11
1504.531281
 21
2043.253839
 31
0.0
  0
LINE
  5
263
330
260
100
AcDbEntity
  8
0
  6
ByBlock
 62
     0
100
AcDbLine
 10
1496.911281
 20
1644.683839
 30
0.0
 11
1496.911281
 21
2031.823839
 31
0.0
  0
SOLID
  5
264
330
260
100
AcDbEntity
  8
0
  6
ByBlock
 62
     0
100
AcDbTrace
 10
1495.006281
 20
1644.683839
 30
0.0
 11
1498.816281
 21
1644.683839
 31
0.0
 12
1496.911281
 22
1633.253839
 32
0.0
 13
1496.911281
 23
1633.253839
 33
0.0
  0
SOLID
  5
265
330
260
100
AcDbEntity
  8
0
  6
ByBlock
 62
     0
100
AcDbTrace
 10
1495.006281
 20
2031.823839
 30
0.0
 11
1498.816281
 21
2031.823839
 31
0.0
 12
1496.911281
 22
2043.253839
 32
0.0
 13
1496.911281
 23
2043.253839
 33
0.0
  0
MTEXT
  5
266
330
260
100
AcDbEntity
  8
0
  6
ByBlock
 62
     0
100
AcDbMText
 10
1488.910281
 20
1838.253839
 30
0.0
 40
11.43
 41
0.0
 71
     5
 72
     1
  1
\A1;410.0
 11
0.0
 21
1.0
 31
0.0
 73
     1
 44
1.0
1001
ACAD
1000
MTEXTBEGIN
1070
    73
1070
     1
1070
    44
1040
1.0
1070
    74
1070
     0
1000
MTEXTEND
  0
POINT
  5
267
330
260
100
AcDbEntity
  8
DEFPOINTS
  6
ByBlock
 62
     0
100
AcDbPoint
 10
1118.14313
 20
1633.253839
 30
0.0
  0
POINT
  5
268
330
260
100
AcDbEntity
  8
DEFPOINTS
  6
ByBlock
 62
     0
100
AcDbPoint
 10
1118.14313
 20
2043.253839
 30
0.0
  0
POINT
  5
269
330
260
100
AcDbEntity
  8
DEFPOINTS
  6
ByBlock
 62
     0
100
AcDbPoint
 10
1496.911281
 20
2043.253839
 30
0.0
  0
ENDBLK
  5
26B
330
260
100
AcDbEntity
  8
0
100
AcDbBlockEnd
  0
BLOCK
  5
274
330
26C
100
AcDbEntity
  8
0
100
AcDbBlockBegin
  2
*D21
 70
     1
 10
0.0
 20
0.0
 30
0.0
  3
*D21
  1

  0
LINE
  5
26D
330
26C
100
AcDbEntity
  8
0
  6
ByBlock
 62
     0
100
AcDbLine
 10
504.761745
 20
1866.69026
 30
0.0
 11
591.2320829999998
 21
1864.992665
 31
0.0
  0
MTEXT
  5
26E
330
26C
100
AcDbEntity
  8
0
  6
ByBlock
 62
     0
100
AcDbMText
 10
536.726162
 20
1874.065273
 30
0.0
 40
11.43
 41
0.0
 71
     5
 72
     1
  1
\A1;R1201.7
 11
0.9998073521157147
 21
-0.0196280069126614
 31
0.0
 73
     1
 44
1.0
1001
ACAD
1000
MTEXTBEGIN
1070
    73
1070
     1
1070
    44
1040
1.0
1070
    74
1070
     0
1000
MTEXTEND
  0
SOLID
  5
26F
330
26C
100
AcDbEntity
  8
0
  6
ByBlock
 62
     0
100
AcDbTrace
 10
579.841677
 20
1867.12165
 30
0.0
 11
579.7668929999998
 21
1863.312384
 31
0.0
 12
591.2320829999998
 22
1864.992665
 32
0.0
 13
591.2320829999998
 23
1864.992665
 33
0.0
  0
LINE
  5
270
330
26C
100
AcDbEntity
  8
0
  6
ByBlock
 62
     0
100
AcDbLine
 10
1792.357671
 20
1841.405305
 30
0.0
 11
1793.043471
 21
1841.405305
 31
0.0
  0
LINE
  5
271
330
26C
100
AcDbEntity
  8
0
  6
ByBlock
 62
     0
100
AcDbLine
 10
1792.700571
 20
1841.062405
 30
0.0
 11
1792.700571
 21
1841.748205
 31
0.0
  0
POINT
  5
272
330
26C
100
AcDbEntity
  8
DEFPOINTS
  6
ByBlock
 62
     0
100
AcDbPoint
 10
591.2320829999998
 20
1864.992665
 30
0.0
  0
POINT
  5
273
330
26C
100
AcDbEntity
  8
DEFPOINTS
  6
ByBlock
 62
     0
100
AcDbPoint
 10
1792.700571
 20
1841.405305
 30
0.0
  0
ENDBLK
  5
275
330
26C
100
AcDbEntity
  8
0
100
AcDbBlockEnd
  0
BLOCK
  5
27E
330
276
100
AcDbEntity
  8
0
100
AcDbBlockBegin
  2
*D22
 70
     1
 10
0.0
 20
0.0
 30
0.0
  3
*D22
  1

  0
LINE
  5
277
330
276
100
AcDbEntity
  8
0
  6
ByBlock
 62
     0
100
AcDbLine
 10
1447.429263
 20
1875.785419
 30
0.0
 11
1360.973029
 21
1873.47876
 31
0.0
  0
MTEXT
  5
278
330
276
100
AcDbEntity
  8
0
  6
ByBlock
 62
     0
100
AcDbMText
 10
1415.413689
 20
1882.935088
 30
0.0
 40
11.43
 41
0.0
 71
     5
 72
     1
  1
\A1;R1201.7
 11
0.9996442654170836
 21
0.02667100708146
 31
0.0
 73
     1
 44
1.0
1001
ACAD
1000
MTEXTBEGIN
1070
    73
1070
     1
1070
    44
1040
1.0
1070
    74
1070
     0
1000
MTEXTEND
  0
SOLID
  5
279
330
276
100
AcDbEntity
  8
0
  6
ByBlock
 62
     0
100
AcDbTrace
 10
1372.348155
 20
1875.687927
 30
0.0
 11
1372.44977
 21
1871.879282
 31
0.0
 12
1360.973029
 22
1873.47876
 32
0.0
 13
1360.973029
 23
1873.47876
 33
0.0
  0
LINE
  5
27A
330
276
100
AcDbEntity
  8
0
  6
ByBlock
 62
     0
100
AcDbLine
 10
159.357602
 20
1841.428708
 30
0.0
 11
160.043402
 21
1841.428708
 31
0.0
  0
LINE
  5
27B
330
276
100
AcDbEntity
  8
0
  6
ByBlock
 62
     0
100
AcDbLine
 10
159.700502
 20
1841.085808
 30
0.0
 11
159.700502
 21
1841.771608
 31
0.0
  0
POINT
  5
27C
330
276
100
AcDbEntity
  8
DEFPOINTS
  6
ByBlock
 62
     0
100
AcDbPoint
 10
1360.973029
 20
1873.47876
 30
0.0
  0
POINT
  5
27D
330
276
100
AcDbEntity
  8
DEFPOINTS
  6
ByBlock
 62
     0
100
AcDbPoint
 10
159.700502
 20
1841.428708
 30
0.0
  0
ENDBLK
  5
27F
330
276
100
AcDbEntity
  8
0
100
AcDbBlockEnd
  0
BLOCK
  5
286
330
280
100
AcDbEntity
  8
0
100
AcDbBlockBegin
  2
*D23
 70
     1
 10
0.0
 20
0.0
 30
0.0
  3
*D23
  1

  0
LINE
  5
281
330
280
100
AcDbEntity
  8
0
  6
ByBlock
 62
     0
100
AcDbLine
 10
674.9453139999998
 20
1725.193633
 30
0.0
 11
610.4850669999998
 21
1686.743279
 31
0.0
  0
MTEXT
  5
282
330
280
100
AcDbEntity
  8
0
  6
ByBlock
 62
     0
100
AcDbMText
 10
648.4327030000001
 20
1718.695237
 30
0.0
 40
11.43
 41
0.0
 71
     5
 72
     1
  1
\A1;R100.0
 11
0.858817220281063
 21
0.5122821313970539
 31
0.0
 73
     1
 44
1.0
1001
ACAD
1000
MTEXTBEGIN
1070
    73
1070
     1
1070
    44
1040
1.0
1070
    74
1070
     0
1000
MTEXTEND
  0
SOLID
  5
283
330
280
100
AcDbEntity
  8
0
  6
ByBlock
 62
     0
100
AcDbTrace
 10
619.3254509999998
 20
1694.23471
 30
0.0
 11
621.277245
 21
1690.962616
 31
0.0
 12
610.4850669999998
 22
1686.743279
 32
0.0
 13
610.4850669999998
 23
1686.743279
 33
0.0
  0
POINT
  5
284
330
280
100
AcDbEntity
  8
DEFPOINTS
  6
ByBlock
 62
     0
100
AcDbPoint
 10
610.4850669999998
 20
1686.743279
 30
0.0
  0
POINT
  5
285
330
280
100
AcDbEntity
  8
DEFPOINTS
  6
ByBlock
 62
     0
100
AcDbPoint
 10
696.3667929999997
 20
1737.971484
 30
0.0
  0
ENDBLK
  5
287
330
280
100
AcDbEntity
  8
0
100
AcDbBlockEnd
  0
BLOCK
  5
28E
330
288
100
AcDbEntity
  8
0
100
AcDbBlockBegin
  2
*D24
 70
     1
 10
0.0
 20
0.0
 30
0.0
  3
*D24
  1

  0
LINE
  5
289
330
288
100
AcDbEntity
  8
0
  6
ByBlock
 62
     0
100
AcDbLine
 10
675.875582
 20
1953.451898
 30
0.0
 11
615.9791299999998
 21
1998.684279
 31
0.0
  0
MTEXT
  5
28A
330
288
100
AcDbEntity
  8
0
  6
ByBlock
 62
     0
100
AcDbMText
 10
659.870369
 20
1975.564809
 30
0.0
 40
11.43
 41
0.0
 71
     5
 72
     1
  1
\A1;R100.0
 11
0.7980131126120275
 21
-0.602640085041863
 31
0.0
 73
     1
 44
1.0
1001
ACAD
1000
MTEXTBEGIN
1070
    73
1070
     1
1070
    44
1040
1.0
1070
    74
1070
     0
1000
MTEXTEND
  0
SOLID
  5
28B
330
288
100
AcDbEntity
  8
0
  6
ByBlock
 62
     0
100
AcDbTrace
 10
626.2484469999998
 20
1993.316314
 30
0.0
 11
623.952387
 21
1990.275884
 31
0.0
 12
615.9791299999998
 22
1998.684279
 32
0.0
 13
615.9791299999998
 23
1998.684279
 33
0.0
  0
POINT
  5
28C
330
288
100
AcDbEntity
  8
DEFPOINTS
  6
ByBlock
 62
     0
100
AcDbPoint
 10
615.9791299999998
 20
1998.684279
 30
0.0
  0
POINT
  5
28D
330
288
100
AcDbEntity
  8
DEFPOINTS
  6
ByBlock
 62
     0
100
AcDbPoint
 10
695.7804169999998
 20
1938.420238
 30
0.0
  0
ENDBLK
  5
28F
330
288
100
AcDbEntity
  8
0
100
AcDbBlockEnd
  0
BLOCK
  5
29A
330
290
100
AcDbEntity
  8
0
100
AcDbBlockBegin
  2
*D25
 70
     1
 10
0.0
 20
0.0
 30
0.0
  3
*D25
  1

  0
LINE
  5
291
330
290
100
AcDbEntity
  8
0
  6
ByBlock
 62
     0
100
AcDbLine
 10
776.2005019999998
 20
1630.872589
 30
0.0
 11
776.2005019999998
 21
1487.53582
 31
0.0
  0
LINE
  5
292
330
290
100
AcDbEntity
  8
0
  6
ByBlock
 62
     0
100
AcDbLine
 10
1174.700502
 20
1630.872589
 30
0.0
 11
1174.700502
 21
1487.53582
 31
0.0
  0
LINE
  5
293
330
290
100
AcDbEntity
  8
0
  6
ByBlock
 62
     0
100
AcDbLine
 10
787.630502
 20
1495.15582
 30
0.0
 11
1163.270502
 21
1495.15582
 31
0.0
  0
SOLID
  5
294
330
290
100
AcDbEntity
  8
0
  6
ByBlock
 62
     0
100
AcDbTrace
 10
787.630502
 20
1497.06082
 30
0.0
 11
787.630502
 21
1493.25082
 31
0.0
 12
776.2005019999998
 22
1495.15582
 32
0.0
 13
776.2005019999998
 23
1495.15582
 33
0.0
  0
SOLID
  5
295
330
290
100
AcDbEntity
  8
0
  6
ByBlock
 62
     0
100
AcDbTrace
 10
1163.270502
 20
1497.06082
 30
0.0
 11
1163.270502
 21
1493.25082
 31
0.0
 12
1174.700502
 22
1495.15582
 32
0.0
 13
1174.700502
 23
1495.15582
 33
0.0
  0
MTEXT
  5
296
330
290
100
AcDbEntity
  8
0
  6
ByBlock
 62
     0
100
AcDbMText
 10
975.4505019999999
 20
1503.15682
 30
0.0
 40
11.43
 41
0.0
 71
     5
 72
     1
  1
\A1;398.5
 73
     1
 44
1.0
1001
ACAD
1000
MTEXTBEGIN
1070
    73
1070
     1
1070
    44
1040
1.0
1070
    74
1070
     0
1000
MTEXTEND
  0
POINT
  5
297
330
290
100
AcDbEntity
  8
DEFPOINTS
  6
ByBlock
 62
     0
100
AcDbPoint
 10
776.2005019999998
 20
1633.253839
 30
0.0
  0
POINT
  5
298
330
290
100
AcDbEntity
  8
DEFPOINTS
  6
ByBlock
 62
     0
100
AcDbPoint
 10
1174.700502
 20
1633.253839
 30
0.0
  0
POINT
  5
299
330
290
100
AcDbEntity
  8
DEFPOINTS
  6
ByBlock
 62
     0
100
AcDbPoint
 10
1174.700502
 20
1495.15582
 30
0.0
  0
ENDBLK
  5
29B
330
290
100
AcDbEntity
  8
0
100
AcDbBlockEnd
  0
BLOCK
  5
2A2
330
29C
100
AcDbEntity
  8
0
100
AcDbBlockBegin
  2
*D26
 70
     1
 10
0.0
 20
0.0
 30
0.0
  3
*D26
  1

  0
LINE
  5
29D
330
29C
100
AcDbEntity
  8
0
  6
ByBlock
 62
     0
100
AcDbLine
 10
1262.764358
 20
1731.354044
 30
0.0
 11
1329.068413
 21
1670.07453
 31
0.0
  0
MTEXT
  5
29E
330
29C
100
AcDbEntity
  8
0
  6
ByBlock
 62
     0
100
AcDbMText
 10
1287.361249
 20
1719.515942
 30
0.0
 40
11.43
 41
0.0
 71
     5
 72
     1
  1
\A1;R100.0
 11
0.7343850684762704
 21
-0.6787330632871101
 31
0.0
 73
     1
 44
1.0
1001
ACAD
1000
MTEXTBEGIN
1070
    73
1070
     1
1070
    44
1040
1.0
1070
    74
1070
     0
1000
MTEXTEND
  0
SOLID
  5
29F
330
29C
100
AcDbEntity
  8
0
  6
ByBlock
 62
     0
100
AcDbTrace
 10
1321.967378
 20
1679.231453
 30
0.0
 11
1319.381405
 21
1676.433446
 31
0.0
 12
1329.068413
 22
1670.07453
 32
0.0
 13
1329.068413
 23
1670.07453
 33
0.0
  0
POINT
  5
2A0
330
29C
100
AcDbEntity
  8
DEFPOINTS
  6
ByBlock
 62
     0
100
AcDbPoint
 10
1329.068413
 20
1670.07453
 30
0.0
  0
POINT
  5
2A1
330
29C
100
AcDbEntity
  8
DEFPOINTS
  6
ByBlock
 62
     0
100
AcDbPoint
 10
1255.62991
 20
1737.947841
 30
0.0
  0
ENDBLK
  5
2A3
330
29C
100
AcDbEntity
  8
0
100
AcDbBlockEnd
  0
BLOCK
  5
2BD
330
2A4
100
AcDbEntity
  8
0
100
AcDbBlockBegin
  2
A$C55375C64
 70
     0
 10
0.0
 20
0.0
 30
0.0
  3
A$C55375C64
  1

  0
LINE
  5
2A5
330
2A4
100
AcDbEntity
  8
0
100
AcDbLine
 10
1015.342900690479
 20
588.9925263474823
 30
0.0
 11
616.8429006904792
 21
588.9925263474823
 31
0.0
  0
LINE
  5
2A6
330
2A4
100
AcDbEntity
  8
0
100
AcDbLine
 10
616.8429006904792
 20
178.9925263474824
 30
0.0
 11
1015.342900690479
 21
178.9925263474824
 31
0.0
  0
DIMENSION
  5
2A7
330
2A4
100
AcDbEntity
  8
DIM
100
AcDbDimension
  2
*D25
 10
1015.342900690479
 20
40.89450734748242
 30
0.0
 11
816.0929006904789
 21
48.89550734748239
 31
0.0
 12
-159.3576013095207
 22
-1454.261312652517
 32
0.0
 71
     5
 42
-1.0
  3
B
100
AcDbAlignedDimension
 13
616.8429006904792
 23
178.9925263474824
 33
0.0
 14
1015.342900690479
 24
178.9925263474824
 34
0.0
100
AcDbRotatedDimension
1001
ACAD
1000
DSTYLE
1002
{
1070
   289
1070
     3
1002
}
  0
DIMENSION
  5
2A8
330
2A4
100
AcDbEntity
  8
DIM
100
AcDbDimension
  2
*D22
 10
0.3429006904792402
 20
387.1673953474824
 30
0.0
 11
1256.269478690479
 21
420.6756223474825
 31
0.0
 12
-159.3576013095207
 22
-1454.261312652517
 32
0.0
 70
   132
 71
     5
 42
-1.0
  3
B
100
AcDbRadialDimension
 15
1201.615427690479
 25
419.2174473474826
 35
0.0
 40
0.0
1001
ACAD
1000
DSTYLE
1002
{
1070
   288
1070
     1
1070
   289
1070
     3
1002
}
  0
DIMENSION
  5
2A9
330
2A4
100
AcDbEntity
  8
DIM
100
AcDbDimension
  2
*D21
 10
1633.342969690479
 20
387.1439923474826
 30
0.0
 11
377.2115146904793
 21
411.8045023474823
 31
0.0
 12
-159.3576013095207
 22
-1454.261312652517
 32
0.0
 70
   132
 71
     5
 42
-1.0
  3
B
100
AcDbRadialDimension
 15
431.8744816904792
 25
410.7313523474822
 35
0.0
 40
0.0
1001
ACAD
1000
DSTYLE
1002
{
1070
   288
1070
     1
1070
   289
1070
     3
1002
}
  0
LINE
  5
2AA
330
2A4
100
AcDbEntity
  8
CENTER
100
AcDbLine
 10
1279.165230690479
 20
383.6286233474825
 30
0.0
 11
383.1288956904792
 21
383.6286233474825
 31
0.0
  0
DIMENSION
  5
2AB
330
2A4
100
AcDbEntity
  8
DIM
100
AcDbDimension
  2
*D18
 10
1201.137828690479
 20
7.619998347482351
 30
0.0
 11
816.6429696904792
 21
15.62099834748233
 31
0.0
 12
-159.3576013095207
 22
-1454.261312652517
 32
0.0
 71
     5
 42
-1.0
  3
B
100
AcDbAlignedDimension
 13
432.1481106904792
 23
383.6286233474825
 33
0.0
 14
1201.137828690479
 24
383.6523843474824
 34
0.0
100
AcDbRotatedDimension
1001
ACAD
1000
DSTYLE
1002
{
1070
   289
1070
     3
1002
}
  0
ARC
  5
2AC
330
2A4
100
AcDbEntity
  8
0
100
AcDbCircle
 10
1633.842969690479
 20
387.1439923474826
 30
0.0
 40
1201.7
100
AcDbArc
 50
174.94803
 51
185.387186
  0
ARC
  5
2AD
330
2A4
100
AcDbEntity
  8
0
100
AcDbCircle
 10
537.0091916904791
 20
283.7101713474824
 30
0.0
 40
100.0
100
AcDbArc
 50
185.387186
 51
263.3119120000001
  0
DIMENSION
  5
2AE
330
2A4
100
AcDbEntity
  8
DIM
100
AcDbDimension
  2
*D23
 10
537.0091916904791
 20
283.7101713474824
 30
0.0
 11
493.1738706904791
 21
257.5625273474823
 31
0.0
 12
-159.3576013095207
 22
-1454.261312652517
 32
0.0
 70
   132
 71
     5
 42
-1.0
  3
B
100
AcDbRadialDimension
 15
451.1274656904792
 25
232.4819663474823
 35
0.0
 40
0.0
1001
ACAD
1000
DSTYLE
1002
{
1070
   288
1070
     1
1070
   289
1070
     3
1002
}
  0
ARC
  5
2AF
330
2A4
100
AcDbEntity
  8
0
100
AcDbCircle
 10
617.7570326904792
 20
972.3192903474826
 30
0.0
 40
793.327291
100
AcDbArc
 50
263.3119120000001
 51
269.933979
  0
ARC
  5
2B0
330
2A4
100
AcDbEntity
  8
0
100
AcDbCircle
 10
536.4228156904792
 20
484.1589253474823
 30
0.0
 40
100.0
100
AcDbArc
 50
96.70306
 51
174.94803
  0
DIMENSION
  5
2B1
330
2A4
100
AcDbEntity
  8
DIM
100
AcDbDimension
  2
*D24
 10
536.4228156904792
 20
484.1589253474823
 30
0.0
 11
495.6910416904792
 21
514.9185963474823
 31
0.0
 12
-159.3576013095207
 22
-1454.261312652517
 32
0.0
 70
   132
 71
     5
 42
-1.0
  3
B
100
AcDbRadialDimension
 15
456.6215286904792
 25
544.4229663474823
 35
0.0
 40
0.0
1001
ACAD
1000
DSTYLE
1002
{
1070
   288
1070
     1
1070
   289
1070
     3
1002
}
  0
ARC
  5
2B2
330
2A4
100
AcDbEntity
  8
0
100
AcDbCircle
 10
619.0106126904793
 20
-218.5535956525175
 30
0.0
 40
807.5490310000001
100
AcDbArc
 50
90.1538
 51
96.70306
  0
DIMENSION
  5
2B3
330
2A4
100
AcDbEntity
  8
DIM
100
AcDbDimension
  2
*D20
 10
1337.553679690479
 20
588.9925263474823
 30
0.0
 11
1329.552679690479
 21
383.9925263474825
 31
0.0
 12
-159.3576013095207
 22
-1454.261312652517
 32
0.0
 71
     5
 42
-1.0
  3
B
100
AcDbAlignedDimension
 13
958.7855286904794
 23
178.9925263474824
 33
0.0
 14
958.7855286904794
 24
588.9925263474823
 34
0.0
 50
90.0
100
AcDbRotatedDimension
1001
ACAD
1000
DSTYLE
1002
{
1070
   289
1070
     3
1002
}
  0
ARC
  5
2B4
330
2A4
100
AcDbEntity
  8
0
100
AcDbCircle
 10
-0.5570303095207692
 20
387.1673953474824
 30
0.0
 40
1201.7
100
AcDbArc
 50
354.610357
 51
5.054458999999998
  0
MTEXT
  5
2B5
330
2A4
100
AcDbEntity
  8
DIM
 62
     4
100
AcDbMText
 10
885.0721406904792
 20
338.7799763474825
 30
0.0
 40
50.0
 41
156.6151
 71
     1
 72
     5
  1
\f华文新魏|b0|i0|c134|p2;\C3;502
 73
     1
 44
1.0
1001
ACAD
1000
MTEXTBEGIN
1070
    73
1070
     1
1070
    44
1040
1.0
1070
    74
1070
     0
1000
MTEXTEND
  0
LINE
  5
2B6
330
2A4
100
AcDbEntity
  8
CENTER
100
AcDbLine
 10
816.8429006904791
 20
666.5124133474827
 30
0.0
 11
816.8429006904791
 21
75.19201434748243
 31
0.0
  0
ARC
  5
2B7
330
2A4
100
AcDbEntity
  8
0
100
AcDbCircle
 10
1015.342900690479
 20
978.9925263474824
 30
0.0
 40
800.0
100
AcDbArc
 50
270.0
 51
276.639009
  0
ARC
  5
2B8
330
2A4
100
AcDbEntity
  8
0
100
AcDbCircle
 10
1096.272308690479
 20
283.6865283474823
 30
0.0
 40
100.0
100
AcDbArc
 50
276.639009
 51
354.610357
  0
DIMENSION
  5
2B9
330
2A4
100
AcDbEntity
  8
DIM
100
AcDbDimension
  2
*D26
 10
1096.272308690479
 20
283.6865283474823
 30
0.0
 11
1122.573103690479
 21
259.3788153474827
 31
0.0
 12
-159.3576013095207
 22
-1454.261312652517
 32
0.0
 70
   132
 71
     5
 42
-1.0
  3
B
100
AcDbRadialDimension
 15
1169.710811690479
 25
215.8132173474826
 35
0.0
 40
0.0
1001
ACAD
1000
DSTYLE
1002
{
1070
   288
1070
     1
1070
   289
1070
     3
1002
}
  0
ARC
  5
2BA
330
2A4
100
AcDbEntity
  8
0
100
AcDbCircle
 10
1015.342900690479
 20
-211.0074736525175
 30
0.0
 40
800.0
100
AcDbArc
 50
83.31265100000001
 51
90.0
  0
ARC
  5
2BB
330
2A4
100
AcDbEntity
  8
0
100
AcDbCircle
 10
1096.858907690479
 20
484.2299963474824
 30
0.0
 40
100.0
100
AcDbArc
 50
5.054458999999998
 51
83.31265100000001
  0
DIMENSION
  5
2BC
330
2A4
100
AcDbEntity
  8
DIM
100
AcDbDimension
  2
*D19
 10
1096.858907690479
 20
484.2299963474824
 30
0.0
 11
1113.387322690479
 21
501.0564373474823
 31
0.0
 12
-159.3576013095207
 22
-1454.261312652517
 32
0.0
 70
   132
 71
     5
 42
-1.0
  3
B
100
AcDbRadialDimension
 15
1166.934989690479
 25
555.5696263474827
 35
0.0
 40
0.0
1001
ACAD
1000
DSTYLE
1002
{
1070
   288
1070
     1
1070
   289
1070
     3
1002
}
  0
ENDBLK
  5
2BE
330
2A4
100
AcDbEntity
  8
0
100
AcDbBlockEnd
  0
BLOCK
  5
2C7
330
2C1
100
AcDbEntity
  8
0
100
AcDbBlockBegin
  2
*D28
 70
     1
 10
0.0
 20
0.0
 30
0.0
  3
*D28
  1

  0
LINE
  5
2C2
330
2C1
100
AcDbEntity
  8
0
  6
ByBlock
 62
     0
100
AcDbLine
 10
1883.330311
 20
1249.50434
 30
0.0
 11
1789.975888
 21
1344.702709
 31
0.0
  0
MTEXT
  5
2C3
330
2C1
100
AcDbEntity
  8
0
  6
ByBlock
 62
     0
100
AcDbMText
 10
1861.366079
 20
1293.326142
 30
0.0
 40
20.0
 41
0.0
 71
     5
 72
     1
  1
\A1;R110.9
 11
0.7001579688051626
 21
-0.713987968188981
 31
0.0
 73
     1
 44
1.0
1001
ACAD
1000
MTEXTBEGIN
1070
    73
1070
     1
1070
    44
1040
1.0
1070
    74
1070
     0
1000
MTEXTEND
  0
SOLID
  5
2C4
330
2C1
100
AcDbEntity
  8
0
  6
ByBlock
 62
     0
100
AcDbTrace
 10
1806.35901
 20
1332.756814
 30
0.0
 11
1801.599092
 21
1328.089093
 31
0.0
 12
1789.975888
 22
1344.702709
 32
0.0
 13
1789.975888
 23
1344.702709
 33
0.0
  0
POINT
  5
2C5
330
2C1
100
AcDbEntity
  8
DEFPOINTS
  6
ByBlock
 62
     0
100
AcDbPoint
 10
1789.975888
 20
1344.702709
 30
0.0
  0
POINT
  5
2C6
330
2C1
100
AcDbEntity
  8
DEFPOINTS
  6
ByBlock
 62
     0
100
AcDbPoint
 10
1867.623429
 20
1265.521466
 30
0.0
  0
ENDBLK
  5
2C8
330
2C1
100
AcDbEntity
  8
0
100
AcDbBlockEnd
  0
BLOCK
  5
2CF
330
2C9
100
AcDbEntity
  8
0
100
AcDbBlockBegin
  2
*D29
 70
     1
 10
0.0
 20
0.0
 30
0.0
  3
*D29
  1

  0
LINE
  5
2CA
330
2C9
100
AcDbEntity
  8
0
  6
ByBlock
 62
     0
100
AcDbLine
 10
2025.862807
 20
1246.646673
 30
0.0
 11
2097.923535
 21
1358.82969
 31
0.0
  0
MTEXT
  5
2CB
330
2C9
100
AcDbEntity
  8
0
  6
ByBlock
 62
     0
100
AcDbMText
 10
2038.463472
 20
1294.017561
 30
0.0
 40
20.0
 41
0.0
 71
     5
 72
     1
  1
\A1;R110.9
 11
0.5404549642883586
 21
0.8413729444046019
 31
0.0
 73
     1
 44
1.0
1001
ACAD
1000
MTEXTBEGIN
1070
    73
1070
     1
1070
    44
1040
1.0
1070
    74
1070
     0
1000
MTEXTEND
  0
SOLID
  5
2CC
330
2C9
100
AcDbEntity
  8
0
  6
ByBlock
 62
     0
100
AcDbTrace
 10
2084.30985
 20
1343.803756
 30
0.0
 11
2089.919001
 21
1340.200719
 31
0.0
 12
2097.923535
 22
1358.82969
 32
0.0
 13
2097.923535
 23
1358.82969
 33
0.0
  0
POINT
  5
2CD
330
2C9
100
AcDbEntity
  8
DEFPOINTS
  6
ByBlock
 62
     0
100
AcDbPoint
 10
2097.923535
 20
1358.82969
 30
0.0
  0
POINT
  5
2CE
330
2C9
100
AcDbEntity
  8
DEFPOINTS
  6
ByBlock
 62
     0
100
AcDbPoint
 10
2037.987024
 20
1265.521466
 30
0.0
  0
ENDBLK
  5
2D0
330
2C9
100
AcDbEntity
  8
0
100
AcDbBlockEnd
  0
BLOCK
  5
2D8
330
2D1
100
AcDbEntity
  8
0
100
AcDbBlockBegin
  2
*D30
 70
     1
 10
0.0
 20
0.0
 30
0.0
  3
*D30
  1

  0
LINE
  5
2D2
330
2D1
100
AcDbEntity
  8
0
  6
ByBlock
 62
     0
100
AcDbLine
 10
2097.780199
 20
1235.110301
 30
0.0
 11
2135.028269
 21
1327.914295
 31
0.0
  0
MTEXT
  5
2D3
330
2D1
100
AcDbEntity
  8
0
  6
ByBlock
 62
     0
100
AcDbMText
 10
2095.034021
 20
1268.53871
 30
0.0
 40
20.0
 41
0.0
 71
     5
 72
     1
  1
\A1;R30
 11
0.3724809372442309
 21
0.9280398436433964
 31
0.0
 73
     1
 44
1.0
1001
ACAD
1000
MTEXTBEGIN
1070
    73
1070
     1
1070
    44
1040
1.0
1070
    74
1070
     0
1000
MTEXTEND
  0
LINE
  5
2D4
330
2D1
100
AcDbEntity
  8
0
  6
ByBlock
 62
     0
100
AcDbLine
 10
2146.20269
 20
1355.755493
 30
0.0
 11
2135.028269
 21
1327.914295
 31
0.0
  0
SOLID
  5
2D5
330
2D1
100
AcDbEntity
  8
0
  6
ByBlock
 62
     0
100
AcDbTrace
 10
2124.485188
 20
1310.595099
 30
0.0
 11
2130.672121
 21
1308.111894
 31
0.0
 12
2135.028269
 22
1327.914295
 32
0.0
 13
2135.028269
 23
1327.914295
 33
0.0
  0
POINT
  5
2D6
330
2D1
100
AcDbEntity
  8
DEFPOINTS
  6
ByBlock
 62
     0
100
AcDbPoint
 10
2135.028269
 20
1327.914295
 30
0.0
  0
POINT
  5
2D7
330
2D1
100
AcDbEntity
  8
DEFPOINTS
  6
ByBlock
 62
     0
100
AcDbPoint
 10
2146.20269
 20
1355.755493
 30
0.0
  0
ENDBLK
  5
2D9
330
2D1
100
AcDbEntity
  8
0
100
AcDbBlockEnd
  0
BLOCK
  5
2E0
330
2DA
100
AcDbEntity
  8
0
100
AcDbBlockBegin
  2
*D31
 70
     1
 10
0.0
 20
0.0
 30
0.0
  3
*D31
  1

  0
LINE
  5
2DB
330
2DA
100
AcDbEntity
  8
0
  6
ByBlock
 62
     0
100
AcDbLine
 10
2392.173948
 20
1202.564179
 30
0.0
 11
2478.917825
 21
1299.391344
 31
0.0
  0
MTEXT
  5
2DC
330
2DA
100
AcDbEntity
  8
0
  6
ByBlock
 62
     0
100
AcDbMText
 10
2411.028309
 20
1246.090184
 30
0.0
 40
20.0
 41
0.0
 71
     5
 72
     1
  1
\A1;R85.9
 11
0.6672609889578318
 21
0.7448239876742803
 31
0.0
 73
     1
 44
1.0
1001
ACAD
1000
MTEXTBEGIN
1070
    73
1070
     1
1070
    44
1040
1.0
1070
    74
1070
     0
1000
MTEXTEND
  0
SOLID
  5
2DD
330
2DA
100
AcDbEntity
  8
0
  6
ByBlock
 62
     0
100
AcDbTrace
 10
2463.089865
 20
1286.719059
 30
0.0
 11
2468.055361
 21
1282.270655
 31
0.0
 12
2478.917825
 22
1299.391344
 32
0.0
 13
2478.917825
 23
1299.391344
 33
0.0
  0
POINT
  5
2DE
330
2DA
100
AcDbEntity
  8
DEFPOINTS
  6
ByBlock
 62
     0
100
AcDbPoint
 10
2478.917825
 20
1299.391344
 30
0.0
  0
POINT
  5
2DF
330
2DA
100
AcDbEntity
  8
DEFPOINTS
  6
ByBlock
 62
     0
100
AcDbPoint
 10
2421.60014
 20
1235.410933
 30
0.0
  0
ENDBLK
  5
2E1
330
2DA
100
AcDbEntity
  8
0
100
AcDbBlockEnd
  0
BLOCK
  5
2EC
330
2E2
100
AcDbEntity
  8
0
100
AcDbBlockBegin
  2
*D32
 70
     1
 10
0.0
 20
0.0
 30
0.0
  3
*D32
  1

  0
LINE
  5
2E3
330
2E2
100
AcDbEntity
  8
0
  6
ByBlock
 62
     0
100
AcDbLine
 10
2350.177223
 20
1325.755493
 30
0.0
 11
2694.375469000001
 21
1325.755493
 31
0.0
  0
LINE
  5
2E4
330
2E2
100
AcDbEntity
  8
0
  6
ByBlock
 62
     0
100
AcDbLine
 10
2350.177223
 20
904.954975
 30
0.0
 11
2694.375469000001
 21
904.954975
 31
0.0
  0
LINE
  5
2E5
330
2E2
100
AcDbEntity
  8
0
  6
ByBlock
 62
     0
100
AcDbLine
 10
2686.755469
 20
1314.325493
 30
0.0
 11
2686.755469
 21
916.384975
 31
0.0
  0
SOLID
  5
2E6
330
2E2
100
AcDbEntity
  8
0
  6
ByBlock
 62
     0
100
AcDbTrace
 10
2684.850469
 20
1314.325493
 30
0.0
 11
2688.660469
 21
1314.325493
 31
0.0
 12
2686.755469
 22
1325.755493
 32
0.0
 13
2686.755469
 23
1325.755493
 33
0.0
  0
SOLID
  5
2E7
330
2E2
100
AcDbEntity
  8
0
  6
ByBlock
 62
     0
100
AcDbTrace
 10
2684.850469
 20
916.384975
 30
0.0
 11
2688.660469
 21
916.384975
 31
0.0
 12
2686.755469
 22
904.954975
 32
0.0
 13
2686.755469
 23
904.954975
 33
0.0
  0
MTEXT
  5
2E8
330
2E2
100
AcDbEntity
  8
0
  6
ByBlock
 62
     0
100
AcDbMText
 10
2678.754469
 20
1115.355234
 30
0.0
 40
11.43
 41
0.0
 71
     5
 72
     1
  1
\A1;420.8
 11
0.0
 21
1.0
 31
0.0
 73
     1
 44
1.0
1001
ACAD
1000
MTEXTBEGIN
1070
    73
1070
     1
1070
    44
1040
1.0
1070
    74
1070
     0
1000
MTEXTEND
  0
POINT
  5
2E9
330
2E2
100
AcDbEntity
  8
DEFPOINTS
  6
ByBlock
 62
     0
100
AcDbPoint
 10
2347.795973
 20
1325.755493
 30
0.0
  0
POINT
  5
2EA
330
2E2
100
AcDbEntity
  8
DEFPOINTS
  6
ByBlock
 62
     0
100
AcDbPoint
 10
2347.795973
 20
904.954975
 30
0.0
  0
POINT
  5
2EB
330
2E2
100
AcDbEntity
  8
DEFPOINTS
  6
ByBlock
 62
     0
100
AcDbPoint
 10
2686.755469
 20
904.954975
 30
0.0
  0
ENDBLK
  5
2ED
330
2E2
100
AcDbEntity
  8
0
100
AcDbBlockEnd
  0
BLOCK
  5
2F8
330
2EE
100
AcDbEntity
  8
0
100
AcDbBlockBegin
  2
*D33
 70
     1
 10
0.0
 20
0.0
 30
0.0
  3
*D33
  1

  0
LINE
  5
2EF
330
2EE
100
AcDbEntity
  8
0
  6
ByBlock
 62
     0
100
AcDbLine
 10
1950.423976999999
 20
1379.754975
 30
0.0
 11
1633.914403
 21
1379.754975
 31
0.0
  0
LINE
  5
2F0
330
2EE
100
AcDbEntity
  8
0
  6
ByBlock
 62
     0
100
AcDbLine
 10
1950.423976999999
 20
904.954975
 30
0.0
 11
1633.914403
 21
904.954975
 31
0.0
  0
LINE
  5
2F1
330
2EE
100
AcDbEntity
  8
0
  6
ByBlock
 62
     0
100
AcDbLine
 10
1641.534403
 20
1368.324975
 30
0.0
 11
1641.534403
 21
916.384975
 31
0.0
  0
SOLID
  5
2F2
330
2EE
100
AcDbEntity
  8
0
  6
ByBlock
 62
     0
100
AcDbTrace
 10
1639.629403
 20
1368.324975
 30
0.0
 11
1643.439403
 21
1368.324975
 31
0.0
 12
1641.534403
 22
1379.754975
 32
0.0
 13
1641.534403
 23
1379.754975
 33
0.0
  0
SOLID
  5
2F3
330
2EE
100
AcDbEntity
  8
0
  6
ByBlock
 62
     0
100
AcDbTrace
 10
1639.629403
 20
916.384975
 30
0.0
 11
1643.439403
 21
916.384975
 31
0.0
 12
1641.534403
 22
904.954975
 32
0.0
 13
1641.534403
 23
904.954975
 33
0.0
  0
MTEXT
  5
2F4
330
2EE
100
AcDbEntity
  8
0
  6
ByBlock
 62
     0
100
AcDbMText
 10
1633.533403
 20
1142.354975
 30
0.0
 40
11.43
 41
0.0
 71
     5
 72
     1
  1
\A1;474.8
 11
0.0
 21
1.0
 31
0.0
 73
     1
 44
1.0
1001
ACAD
1000
MTEXTBEGIN
1070
    73
1070
     1
1070
    44
1040
1.0
1070
    74
1070
     0
1000
MTEXTEND
  0
POINT
  5
2F5
330
2EE
100
AcDbEntity
  8
DEFPOINTS
  6
ByBlock
 62
     0
100
AcDbPoint
 10
1952.805227
 20
1379.754975
 30
0.0
  0
POINT
  5
2F6
330
2EE
100
AcDbEntity
  8
DEFPOINTS
  6
ByBlock
 62
     0
100
AcDbPoint
 10
1952.805227
 20
904.954975
 30
0.0
  0
POINT
  5
2F7
330
2EE
100
AcDbEntity
  8
DEFPOINTS
  6
ByBlock
 62
     0
100
AcDbPoint
 10
1641.534403
 20
904.954975
 30
0.0
  0
ENDBLK
  5
2F9
330
2EE
100
AcDbEntity
  8
0
100
AcDbBlockEnd
  0
BLOCK
  5
304
330
2FA
100
AcDbEntity
  8
0
100
AcDbBlockBegin
  2
*D34
 70
     1
 10
0.0
 20
0.0
 30
0.0
  3
*D34
  1

  0
LINE
  5
2FB
330
2FA
100
AcDbEntity
  8
0
  6
ByBlock
 62
     0
100
AcDbLine
 10
1751.910082
 20
1139.680487
 30
0.0
 11
1751.910082
 21
751.7023619999998
 31
0.0
  0
LINE
  5
2FC
330
2FA
100
AcDbEntity
  8
0
  6
ByBlock
 62
     0
100
AcDbLine
 10
2513.692385000001
 20
1112.712785
 30
0.0
 11
2513.692385000001
 21
751.7023619999998
 31
0.0
  0
LINE
  5
2FD
330
2FA
100
AcDbEntity
  8
0
  6
ByBlock
 62
     0
100
AcDbLine
 10
1763.340082
 20
759.3223619999998
 30
0.0
 11
2502.262385
 21
759.3223619999998
 31
0.0
  0
SOLID
  5
2FE
330
2FA
100
AcDbEntity
  8
0
  6
ByBlock
 62
     0
100
AcDbTrace
 10
1763.340082
 20
761.2273619999998
 30
0.0
 11
1763.340082
 21
757.417362
 31
0.0
 12
1751.910082
 22
759.3223619999998
 32
0.0
 13
1751.910082
 23
759.3223619999998
 33
0.0
  0
SOLID
  5
2FF
330
2FA
100
AcDbEntity
  8
0
  6
ByBlock
 62
     0
100
AcDbTrace
 10
2502.262385
 20
761.2273619999998
 30
0.0
 11
2502.262385
 21
757.417362
 31
0.0
 12
2513.692385000001
 22
759.3223619999998
 32
0.0
 13
2513.692385000001
 23
759.3223619999998
 33
0.0
  0
MTEXT
  5
300
330
2FA
100
AcDbEntity
  8
0
  6
ByBlock
 62
     0
100
AcDbMText
 10
2132.801234
 20
767.3233619999998
 30
0.0
 40
11.43
 41
0.0
 71
     5
 72
     1
  1
\A1;761.8
 73
     1
 44
1.0
1001
ACAD
1000
MTEXTBEGIN
1070
    73
1070
     1
1070
    44
1040
1.0
1070
    74
1070
     0
1000
MTEXTEND
  0
POINT
  5
301
330
2FA
100
AcDbEntity
  8
DEFPOINTS
  6
ByBlock
 62
     0
100
AcDbPoint
 10
1751.910082
 20
1142.061737
 30
0.0
  0
POINT
  5
302
330
2FA
100
AcDbEntity
  8
DEFPOINTS
  6
ByBlock
 62
     0
100
AcDbPoint
 10
2513.692385000001
 20
1115.094035
 30
0.0
  0
POINT
  5
303
330
2FA
100
AcDbEntity
  8
DEFPOINTS
  6
ByBlock
 62
     0
100
AcDbPoint
 10
2513.692385000001
 20
759.3223619999998
 30
0.0
  0
ENDBLK
  5
305
330
2FA
100
AcDbEntity
  8
0
100
AcDbBlockEnd
  0
BLOCK
  5
310
330
306
100
AcDbEntity
  8
0
100
AcDbBlockBegin
  2
*D35
 70
     1
 10
0.0
 20
0.0
 30
0.0
  3
*D35
  1

  0
LINE
  5
307
330
306
100
AcDbEntity
  8
0
  6
ByBlock
 62
     0
100
AcDbLine
 10
1952.805227
 20
869.2471289999998
 30
0.0
 11
1952.805227
 21
829.0856319999997
 31
0.0
  0
LINE
  5
308
330
306
100
AcDbEntity
  8
0
  6
ByBlock
 62
     0
100
AcDbLine
 10
2347.795973
 20
831.298903
 30
0.0
 11
2347.795973
 21
844.3256319999997
 31
0.0
  0
LINE
  5
309
330
306
100
AcDbEntity
  8
0
  6
ByBlock
 62
     0
100
AcDbLine
 10
1964.235227
 20
836.7056319999997
 30
0.0
 11
2336.365973
 21
836.7056319999997
 31
0.0
  0
SOLID
  5
30A
330
306
100
AcDbEntity
  8
0
  6
ByBlock
 62
     0
100
AcDbTrace
 10
1964.235227
 20
838.6106319999999
 30
0.0
 11
1964.235227
 21
834.8006320000001
 31
0.0
 12
1952.805227
 22
836.7056319999997
 32
0.0
 13
1952.805227
 23
836.7056319999997
 33
0.0
  0
SOLID
  5
30B
330
306
100
AcDbEntity
  8
0
  6
ByBlock
 62
     0
100
AcDbTrace
 10
2336.365973
 20
838.6106319999999
 30
0.0
 11
2336.365973
 21
834.8006320000001
 31
0.0
 12
2347.795973
 22
836.7056319999997
 32
0.0
 13
2347.795973
 23
836.7056319999997
 33
0.0
  0
MTEXT
  5
30C
330
306
100
AcDbEntity
  8
0
  6
ByBlock
 62
     0
100
AcDbMText
 10
2150.3006
 20
844.7066320000001
 30
0.0
 40
11.43
 41
0.0
 71
     5
 72
     1
  1
\A1;395.0
 73
     1
 44
1.0
1001
ACAD
1000
MTEXTBEGIN
1070
    73
1070
     1
1070
    44
1040
1.0
1070
    74
1070
     0
1000
MTEXTEND
  0
POINT
  5
30D
330
306
100
AcDbEntity
  8
DEFPOINTS
  6
ByBlock
 62
     0
100
AcDbPoint
 10
1952.805227
 20
871.6283789999996
 30
0.0
  0
POINT
  5
30E
330
306
100
AcDbEntity
  8
DEFPOINTS
  6
ByBlock
 62
     0
100
AcDbPoint
 10
2347.795973
 20
828.917653
 30
0.0
  0
POINT
  5
30F
330
306
100
AcDbEntity
  8
DEFPOINTS
  6
ByBlock
 62
     0
100
AcDbPoint
 10
2347.795973
 20
836.7056319999997
 30
0.0
  0
ENDBLK
  5
311
330
306
100
AcDbEntity
  8
0
100
AcDbBlockEnd
  0
BLOCK
  5
31D
330
312
100
AcDbEntity
  8
0
100
AcDbBlockBegin
  2
*D36
 70
     1
 10
0.0
 20
0.0
 30
0.0
  3
*D36
  1

  0
LINE
  5
313
330
312
100
AcDbEntity
  8
0
  6
ByBlock
 62
     0
100
AcDbLine
 10
2345.414723
 20
1115.355234
 30
0.0
 11
2183.140165
 21
1115.355234
 31
0.0
  0
LINE
  5
314
330
312
100
AcDbEntity
  8
0
  6
ByBlock
 62
     0
100
AcDbLine
 10
1952.502103
 20
1142.354975
 30
0.0
 11
2198.380165
 21
1142.354975
 31
0.0
  0
LINE
  5
315
330
312
100
AcDbEntity
  8
0
  6
ByBlock
 62
     0
100
AcDbLine
 10
2190.760165
 20
1103.925234
 30
0.0
 11
2190.760165
 21
1092.495234
 31
0.0
  0
LINE
  5
316
330
312
100
AcDbEntity
  8
0
  6
ByBlock
 62
     0
100
AcDbLine
 10
2190.760165
 20
1153.784975
 30
0.0
 11
2190.760165
 21
1202.171975
 31
0.0
  0
SOLID
  5
317
330
312
100
AcDbEntity
  8
0
  6
ByBlock
 62
     0
100
AcDbTrace
 10
2188.855165
 20
1103.925234
 30
0.0
 11
2192.665165
 21
1103.925234
 31
0.0
 12
2190.760165
 22
1115.355234
 32
0.0
 13
2190.760165
 23
1115.355234
 33
0.0
  0
SOLID
  5
318
330
312
100
AcDbEntity
  8
0
  6
ByBlock
 62
     0
100
AcDbTrace
 10
2188.855165
 20
1153.784975
 30
0.0
 11
2192.665165
 21
1153.784975
 31
0.0
 12
2190.760165
 22
1142.354975
 32
0.0
 13
2190.760165
 23
1142.354975
 33
0.0
  0
MTEXT
  5
319
330
312
100
AcDbEntity
  8
0
  6
ByBlock
 62
     0
100
AcDbMText
 10
2182.759165
 20
1183.693475
 30
0.0
 40
11.43
 41
0.0
 71
     5
 72
     1
  1
\A1;27.0
 11
0.0
 21
1.0
 31
0.0
 73
     1
 44
1.0
1001
ACAD
1000
MTEXTBEGIN
1070
    73
1070
     1
1070
    44
1040
1.0
1070
    74
1070
     0
1000
MTEXTEND
  0
POINT
  5
31A
330
312
100
AcDbEntity
  8
DEFPOINTS
  6
ByBlock
 62
     0
100
AcDbPoint
 10
2347.795973
 20
1115.355234
 30
0.0
  0
POINT
  5
31B
330
312
100
AcDbEntity
  8
DEFPOINTS
  6
ByBlock
 62
     0
100
AcDbPoint
 10
1950.120853
 20
1142.354975
 30
0.0
  0
POINT
  5
31C
330
312
100
AcDbEntity
  8
DEFPOINTS
  6
ByBlock
 62
     0
100
AcDbPoint
 10
2190.760165
 20
1142.354975
 30
0.0
  0
ENDBLK
  5
31E
330
312
100
AcDbEntity
  8
0
100
AcDbBlockEnd
  0
BLOCK
  5
325
330
31F
100
AcDbEntity
  8
0
100
AcDbBlockBegin
  2
*D37
 70
     1
 10
0.0
 20
0.0
 30
0.0
  3
*D37
  1

  0
LINE
  5
320
330
31F
100
AcDbEntity
  8
0
  6
ByBlock
 62
     0
100
AcDbLine
 10
1882.374258
 20
1036.530429
 30
0.0
 11
1798.120334
 21
933.1909199999996
 31
0.0
  0
MTEXT
  5
321
330
31F
100
AcDbEntity
  8
0
  6
ByBlock
 62
     0
100
AcDbMText
 10
1841.25969
 20
1009.840167
 30
0.0
 40
20.0
 41
0.0
 71
     5
 72
     1
  1
\A1;R110.9
 11
0.6319043262737729
 21
0.7750464001829113
 31
0.0
 73
     1
 44
1.0
1001
ACAD
1000
MTEXTBEGIN
1070
    73
1070
     1
1070
    44
1040
1.0
1070
    74
1070
     0
1000
MTEXTEND
  0
SOLID
  5
322
330
31F
100
AcDbEntity
  8
0
  6
ByBlock
 62
     0
100
AcDbTrace
 10
1808.174935
 20
950.798194
 30
0.0
 11
1813.34191
 21
946.5854980000001
 31
0.0
 12
1798.120334
 22
933.1909199999996
 32
0.0
 13
1798.120334
 23
933.1909199999996
 33
0.0
  0
POINT
  5
323
330
31F
100
AcDbEntity
  8
DEFPOINTS
  6
ByBlock
 62
     0
100
AcDbPoint
 10
1798.120334
 20
933.1909199999996
 30
0.0
  0
POINT
  5
324
330
31F
100
AcDbEntity
  8
DEFPOINTS
  6
ByBlock
 62
     0
100
AcDbPoint
 10
1868.198535
 20
1019.143556
 30
0.0
  0
ENDBLK
  5
326
330
31F
100
AcDbEntity
  8
0
100
AcDbBlockEnd
  0
BLOCK
  5
32D
330
327
100
AcDbEntity
  8
0
100
AcDbBlockBegin
  2
*D38
 70
     1
 10
0.0
 20
0.0
 30
0.0
  3
*D38
  1

  0
LINE
  5
328
330
327
100
AcDbEntity
  8
0
  6
ByBlock
 62
     0
100
AcDbLine
 10
2390.008524
 20
1026.590194
 30
0.0
 11
2481.404854
 21
934.141772
 31
0.0
  0
MTEXT
  5
329
330
327
100
AcDbEntity
  8
0
  6
ByBlock
 62
     0
100
AcDbMText
 10
2432.312841
 20
1005.134548
 30
0.0
 40
20.0
 41
0.0
 71
     5
 72
     1
  1
\A1;R85.9
 11
0.7030487045209949
 21
-0.7111417011196509
 31
0.0
 73
     1
 44
1.0
1001
ACAD
1000
MTEXTBEGIN
1070
    73
1070
     1
1070
    44
1040
1.0
1070
    74
1070
     0
1000
MTEXTEND
  0
SOLID
  5
32A
330
327
100
AcDbEntity
  8
0
  6
ByBlock
 62
     0
100
AcDbTrace
 10
2469.714353
 20
950.7081020000001
 30
0.0
 11
2464.973408
 21
946.0211099999996
 31
0.0
 12
2481.404854
 22
934.141772
 32
0.0
 13
2481.404854
 23
934.141772
 33
0.0
  0
POINT
  5
32B
330
327
100
AcDbEntity
  8
DEFPOINTS
  6
ByBlock
 62
     0
100
AcDbPoint
 10
2481.404854
 20
934.141772
 30
0.0
  0
POINT
  5
32C
330
327
100
AcDbEntity
  8
DEFPOINTS
  6
ByBlock
 62
     0
100
AcDbPoint
 10
2421.012971
 20
995.2288449999999
 30
0.0
  0
ENDBLK
  5
32E
330
327
100
AcDbEntity
  8
0
100
AcDbBlockEnd
  0
BLOCK
  5
34F
330
32F
100
AcDbEntity
  8
0
100
AcDbBlockBegin
  2
A$C667F107E
 70
     0
 10
0.0
 20
0.0
 30
0.0
  3
A$C667F107E
  1

  0
DIMENSION
  5
330
330
32F
100
AcDbEntity
  8
DIM
 62
     1
100
AcDbDimension
  2
*D33
 10
13.71599787998843
 20
153.2526149727003
 30
0.0
 11
5.714997879988459
 21
390.6526149727003
 31
0.0
 12
-1627.818405120011
 22
-751.7023600272996
 32
0.0
 71
     5
 42
-1.0
  3
B
100
AcDbAlignedDimension
 13
324.9868218799886
 23
628.0526149727003
 33
0.0
 14
324.9868218799886
 24
153.2526149727003
 34
0.0
 50
90.0
100
AcDbRotatedDimension
1001
ACAD
1000
DSTYLE
1002
{
1070
   279
1070
     1
1070
   289
1070
     3
1002
}
  0
ARC
  5
331
330
32F
100
AcDbEntity
  8
0
  6
Continuous
100
AcDbCircle
 10
-315.0224321200115
 20
366.3274839727003
 30
0.0
 40
1200.9
100
AcDbArc
 50
353.676878
 51
6.042983000000001
  0
ARC
  5
332
330
32F
100
AcDbEntity
  8
0
  6
Continuous
100
AcDbCircle
 10
1724.987315879988
 20
394.0962559727004
 30
0.0
 40
1600.9
100
AcDbArc
 50
175.391264
 51
184.87622
  0
DIMENSION
  5
333
330
32F
100
AcDbEntity
  8
DIM
 62
     1
100
AcDbDimension
  2
*D34
 10
885.8739798799886
 20
7.620001972700379
 30
0.0
 11
504.9828288799885
 21
15.62100197270035
 31
0.0
 12
-1627.818405120011
 22
-751.7023600272996
 32
0.0
 71
     5
 42
-1.0
  3
B
100
AcDbAlignedDimension
 13
124.0916768799886
 23
390.3593769727004
 33
0.0
 14
885.8739798799886
 24
363.3916749727005
 34
0.0
100
AcDbRotatedDimension
1001
ACAD
1000
DSTYLE
1002
{
1070
   279
1070
     1
1070
   289
1070
     3
1002
}
  0
LINE
  5
334
330
32F
100
AcDbEntity
  8
CENTER
  6
CENTER2
100
AcDbLine
 10
324.9868218799886
 20
119.9260189727002
 30
0.0
 11
324.9868218799886
 21
690.0493439727004
 31
0.0
  0
LINE
  5
335
330
32F
100
AcDbEntity
  8
CENTER
  6
CENTER2
100
AcDbLine
 10
719.9775678799887
 20
77.21529297270035
 30
0.0
 11
719.9775678799887
 21
647.2668669727003
 31
0.0
  0
DIMENSION
  5
336
330
32F
100
AcDbEntity
  8
DIM
 62
     1
100
AcDbDimension
  2
*D32
 10
1058.937063879989
 20
153.2526149727003
 30
0.0
 11
1050.936063879988
 21
363.6528739727002
 31
0.0
 12
-1627.818405120011
 22
-751.7023600272996
 32
0.0
 71
     5
 42
-1.0
  3
B
100
AcDbAlignedDimension
 13
719.9775678799887
 23
574.0531329727002
 33
0.0
 14
719.9775678799887
 24
153.2526149727003
 34
0.0
 50
90.0
100
AcDbRotatedDimension
1001
ACAD
1000
DSTYLE
1002
{
1070
   279
1070
     1
1070
   289
1070
     3
1002
}
  0
MTEXT
  5
337
330
32F
100
AcDbEntity
  8
DIM
 62
     1
100
AcDbMText
 10
451.1789678799886
 20
299.0898359727005
 30
0.0
 40
50.0
 41
207.1696
 71
     1
 72
     5
  1
503
 73
     1
 44
1.0
1001
ACAD
1000
MTEXTBEGIN
1070
    73
1070
     1
1070
    44
1040
1.0
1070
    74
1070
     0
1000
MTEXTEND
  0
DIMENSION
  5
338
330
32F
100
AcDbEntity
  8
0
 62
     1
100
AcDbDimension
  2
*D35
 10
719.9775678799887
 20
85.00327197270042
 30
0.0
 11
522.4821948799886
 21
93.00427197270041
 31
0.0
 12
-1627.818405120011
 22
-751.7023600272996
 32
0.0
 71
     5
 42
-1.0
  3
B
100
AcDbAlignedDimension
 13
324.9868218799886
 23
119.9260189727002
 33
0.0
 14
719.9775678799887
 24
77.21529297270035
 34
0.0
100
AcDbRotatedDimension
  0
LINE
  5
339
330
32F
100
AcDbEntity
  8
0
100
AcDbLine
 10
324.9868218799886
 20
153.2526149727003
 30
0.0
 11
719.9775678799887
 21
153.2526149727003
 31
0.0
  0
ARC
  5
33A
330
32F
100
AcDbEntity
  8
0
  6
Continuous
100
AcDbCircle
 10
324.9868218799886
 20
1354.1526149727
 30
0.0
 40
1200.9
100
AcDbArc
 50
265.548177
 51
270.0
  0
ARC
  5
33B
330
32F
100
AcDbEntity
  8
0
  6
Continuous
100
AcDbCircle
 10
240.3801298799888
 20
267.4411959727005
 30
0.0
 40
110.9
100
AcDbArc
 50
184.87622
 51
265.548177
  0
DIMENSION
  5
33C
330
32F
100
AcDbEntity
  8
DIM
100
AcDbDimension
  2
*D37
 10
240.3801298799888
 20
267.4411959727005
 30
0.0
 11
225.0669798799886
 21
248.6592409727003
 31
0.0
 12
-1627.818405120011
 22
-751.7023600272996
 32
0.0
 70
   132
 71
     5
 42
-1.0
  3
STANDARD
100
AcDbRadialDimension
 15
170.3019288799885
 25
181.4885599727002
 35
0.0
 40
0.0
1001
ACAD
1000
DSTYLE
1002
{
1070
    40
1040
8.0
1070
    41
1040
2.5
1070
    42
1040
0.625
1070
    43
1040
3.75
1070
    44
1040
1.25
1070
    73
1070
     0
1070
    74
1070
     0
1070
    77
1070
     1
1070
    78
1070
     8
1070
   140
1040
2.5
1070
   141
1040
0.0
1070
   143
1040
0.0394
1070
   147
1040
0.625
1070
   171
1070
     4
1070
   172
1070
     1
1070
   273
1070
     8
1070
   274
1070
     4
1070
   277
1070
     6
1070
   288
1070
     1
1002
}
  0
MTEXT
  5
33D
330
32F
100
AcDbEntity
  8
DIM
100
AcDbMText
 10
438.0150498799884
 20
216.1416749727004
 30
0.0
 40
30.0
 41
206.8927
 71
     1
 72
     5
  1
\f宋体|b0|i0|c134|p54;对焊
 73
     1
 44
1.0
1001
ACAD
1000
MTEXTBEGIN
1070
    73
1070
     1
1070
    44
1040
1.0
1070
    74
1070
     0
1000
MTEXTEND
  0
DIMENSION
  5
33E
330
32F
100
AcDbEntity
  8
DIM
100
AcDbDimension
  2
*D38
 10
793.1945658799885
 20
243.5264849727003
 30
0.0
 11
793.8273098799882
 21
242.8864569727003
 31
0.0
 12
-1627.818405120011
 22
-751.7023600272996
 32
0.0
 70
   132
 71
     5
 42
-1.0
  3
STANDARD
100
AcDbRadialDimension
 15
853.5864488799884
 25
182.4394119727004
 35
0.0
 40
0.0
1001
ACAD
1000
DSTYLE
1002
{
1070
    40
1040
8.0
1070
    41
1040
2.5
1070
    42
1040
0.625
1070
    43
1040
3.75
1070
    44
1040
1.25
1070
    73
1070
     0
1070
    74
1070
     0
1070
    77
1070
     1
1070
    78
1070
     8
1070
   140
1040
2.5
1070
   141
1040
0.0
1070
   143
1040
0.0394
1070
   147
1040
0.625
1070
   171
1070
     4
1070
   172
1070
     1
1070
   273
1070
     8
1070
   274
1070
     4
1070
   277
1070
     6
1070
   288
1070
     1
1002
}
  0
ARC
  5
33F
330
32F
100
AcDbEntity
  8
0
  6
Continuous
100
AcDbCircle
 10
793.1945658799885
 20
243.5264849727003
 30
0.0
 40
85.90000000000001
100
AcDbArc
 50
276.837396
 51
353.676878
  0
ARC
  5
340
330
32F
100
AcDbEntity
  8
0
  6
Continuous
100
AcDbCircle
 10
719.9775678799887
 20
854.1526149727003
 30
0.0
 40
700.9
100
AcDbArc
 50
270.0
 51
276.837396
  0
LINE
  5
341
330
32F
100
AcDbEntity
  8
0
100
AcDbLine
 10
719.9775678799887
 20
574.0531329727002
 30
0.0
 11
518.3842848799886
 21
574.0531329727002
 31
0.0
  0
DIMENSION
  5
342
330
32F
100
AcDbEntity
  8
CENTER
  6
CENTER2
100
AcDbDimension
  2
*D36
 10
562.9417598799881
 20
390.6526149727003
 30
0.0
 11
554.9407598799883
 21
431.9911149727003
 31
0.0
 12
-1627.818405120011
 22
-751.7023600272996
 32
0.0
 71
     5
 42
-1.0
  3
B
100
AcDbAlignedDimension
 13
719.9775678799887
 23
363.6528739727002
 33
0.0
 14
322.3024478799887
 24
390.6526149727003
 34
0.0
 50
90.0
100
AcDbRotatedDimension
  0
ARC
  5
343
330
32F
100
AcDbEntity
  8
0
  6
Continuous
100
AcDbCircle
 10
239.8050238799886
 20
513.8191059727001
 30
0.0
 40
110.9
100
AcDbArc
 50
94.482146
 51
175.391264
  0
ARC
  5
344
330
32F
100
AcDbEntity
  8
0
  6
Continuous
100
AcDbCircle
 10
324.9868218799886
 20
-572.8473850272997
 30
0.0
 40
1200.9
100
AcDbArc
 50
85.51785399999998
 51
94.482146
  0
LINE
  5
345
330
32F
100
AcDbEntity
  8
CENTER
  6
CENTER2
100
AcDbLine
 10
104.6272938799884
 20
390.6526149727003
 30
0.0
 11
539.9776028799883
 21
390.6526149727003
 31
0.0
  0
DIMENSION
  5
346
330
32F
100
AcDbEntity
  8
DIM
100
AcDbDimension
  2
*D28
 10
239.8050238799886
 20
513.8191059727001
 30
0.0
 11
222.8378578799884
 21
531.1214089727002
 31
0.0
 12
-1627.818405120011
 22
-751.7023600272996
 32
0.0
 70
   132
 71
     5
 42
-1.0
  3
STANDARD
100
AcDbRadialDimension
 15
162.1574828799885
 25
593.0003489727003
 35
0.0
 40
0.0
1001
ACAD
1000
DSTYLE
1002
{
1070
    40
1040
8.0
1070
    41
1040
2.5
1070
    42
1040
0.625
1070
    43
1040
3.75
1070
    44
1040
1.25
1070
    73
1070
     0
1070
    74
1070
     0
1070
    77
1070
     1
1070
    78
1070
     8
1070
   140
1040
2.5
1070
   141
1040
0.0
1070
   143
1040
0.0394
1070
   147
1040
0.625
1070
   171
1070
     4
1070
   172
1070
     1
1070
   273
1070
     8
1070
   274
1070
     4
1070
   277
1070
     6
1070
   288
1070
     1
1002
}
  0
ARC
  5
347
330
32F
100
AcDbEntity
  8
0
100
AcDbCircle
 10
410.1686188799883
 20
513.8191059727001
 30
0.0
 40
110.9
100
AcDbArc
 50
39.822536
 51
85.51785399999998
  0
DIMENSION
  5
348
330
32F
100
AcDbEntity
  8
DIM
100
AcDbDimension
  2
*D29
 10
410.1686188799883
 20
513.8191059727001
 30
0.0
 11
423.2656568799884
 21
534.2083689727003
 31
0.0
 12
-1627.818405120011
 22
-751.7023600272996
 32
0.0
 70
   132
 71
     5
 42
-1.0
  3
STANDARD
100
AcDbRadialDimension
 15
470.1051298799888
 25
607.1273299727002
 35
0.0
 40
0.0
1001
ACAD
1000
DSTYLE
1002
{
1070
    40
1040
8.0
1070
    41
1040
2.5
1070
    42
1040
0.625
1070
    43
1040
3.75
1070
    44
1040
1.25
1070
    73
1070
     0
1070
    74
1070
     0
1070
    77
1070
     1
1070
    78
1070
     8
1070
   140
1040
2.5
1070
   141
1040
0.0
1070
   143
1040
0.0394
1070
   147
1040
0.625
1070
   171
1070
     4
1070
   172
1070
     1
1070
   273
1070
     8
1070
   274
1070
     4
1070
   277
1070
     6
1070
   288
1070
     1
1002
}
  0
DIMENSION
  5
349
330
32F
100
AcDbEntity
  8
DIM
100
AcDbDimension
  2
*D30
 10
518.3842848799886
 20
604.0531329727002
 30
0.0
 11
481.1362148799885
 21
511.2491389727003
 31
0.0
 12
-1627.818405120011
 22
-751.7023600272996
 32
0.0
 70
   132
 71
     5
 42
-1.0
  3
STANDARD
100
AcDbRadialDimension
 15
507.2098638799884
 25
576.2119349727003
 35
0.0
 40
0.0
1001
ACAD
1000
DSTYLE
1002
{
1070
    40
1040
8.0
1070
    41
1040
2.5
1070
    42
1040
0.625
1070
    43
1040
3.75
1070
    44
1040
1.25
1070
    73
1070
     0
1070
    74
1070
     0
1070
    77
1070
     1
1070
    78
1070
     8
1070
   140
1040
2.5
1070
   141
1040
0.0
1070
   143
1040
0.0394
1070
   147
1040
0.625
1070
   171
1070
     4
1070
   172
1070
     1
1070
   273
1070
     8
1070
   274
1070
     4
1070
   277
1070
     6
1070
   288
1070
     1
1002
}
  0
ARC
  5
34A
330
32F
100
AcDbEntity
  8
0
100
AcDbCircle
 10
518.3842848799886
 20
604.0531329727002
 30
0.0
 40
30.0
100
AcDbArc
 50
219.822536
 51
270.0
  0
LINE
  5
34B
330
32F
100
AcDbEntity
  8
CENTER
  6
CENTER2
100
AcDbLine
 10
610.0353338799886
 20
363.6528739727002
 30
0.0
 11
1019.548400879988
 21
363.6528739727002
 31
0.0
  0
ARC
  5
34C
330
32F
100
AcDbEntity
  8
0
  6
Continuous
100
AcDbCircle
 10
793.7817348799885
 20
483.7085729727005
 30
0.0
 40
85.90000000000001
100
AcDbArc
 50
6.042983000000001
 51
83.107506
  0
DIMENSION
  5
34D
330
32F
100
AcDbEntity
  8
DIM
100
AcDbDimension
  2
*D31
 10
793.7817348799885
 20
483.7085729727005
 30
0.0
 11
794.3822698799886
 21
484.3789149727003
 31
0.0
 12
-1627.818405120011
 22
-751.7023600272996
 32
0.0
 70
   132
 71
     5
 42
-1.0
  3
STANDARD
100
AcDbRadialDimension
 15
851.0994198799885
 25
547.6889839727001
 35
0.0
 40
0.0
1001
ACAD
1000
DSTYLE
1002
{
1070
    40
1040
8.0
1070
    41
1040
2.5
1070
    42
1040
0.625
1070
    43
1040
3.75
1070
    44
1040
1.25
1070
    73
1070
     0
1070
    74
1070
     0
1070
    77
1070
     1
1070
    78
1070
     8
1070
   140
1040
2.5
1070
   141
1040
0.0
1070
   143
1040
0.0394
1070
   147
1040
0.625
1070
   171
1070
     4
1070
   172
1070
     1
1070
   273
1070
     8
1070
   274
1070
     4
1070
   277
1070
     6
1070
   288
1070
     1
1002
}
  0
ARC
  5
34E
330
32F
100
AcDbEntity
  8
0
100
AcDbCircle
 10
719.9775678799887
 20
-126.8468670272996
 30
0.0
 40
700.9
100
AcDbArc
 50
83.107506
 51
90.0
  0
ENDBLK
  5
350
330
32F
100
AcDbEntity
  8
0
100
AcDbBlockEnd
  0
BLOCK
  5
35D
330
353
100
AcDbEntity
  8
0
100
AcDbBlockBegin
  2
*D40
 70
     1
 10
0.0
 20
0.0
 30
0.0
  3
*D40
  1

  0
LINE
  5
354
330
353
100
AcDbEntity
  8
0
  6
ByBlock
 62
     0
100
AcDbLine
 10
989.9334449999999
 20
440.396411
 30
0.0
 11
989.9334449999999
 21
447.413868
 31
0.0
  0
LINE
  5
355
330
353
100
AcDbEntity
  8
0
  6
ByBlock
 62
     0
100
AcDbLine
 10
1376.046335
 20
440.396411
 30
0.0
 11
1376.046335
 21
447.413868
 31
0.0
  0
LINE
  5
356
330
353
100
AcDbEntity
  8
0
  6
ByBlock
 62
     0
100
AcDbLine
 10
1005.173445
 20
435.983868
 30
0.0
 11
1360.806335
 21
435.983868
 31
0.0
  0
SOLID
  5
357
330
353
100
AcDbEntity
  8
0
  6
ByBlock
 62
     0
100
AcDbTrace
 10
1005.173445
 20
438.5238679999998
 30
0.0
 11
1005.173445
 21
433.4438679999998
 31
0.0
 12
989.9334449999999
 22
435.983868
 32
0.0
 13
989.9334449999999
 23
435.983868
 33
0.0
  0
SOLID
  5
358
330
353
100
AcDbEntity
  8
0
  6
ByBlock
 62
     0
100
AcDbTrace
 10
1360.806335
 20
438.5238679999998
 30
0.0
 11
1360.806335
 21
433.4438679999998
 31
0.0
 12
1376.046335
 22
435.983868
 32
0.0
 13
1376.046335
 23
435.983868
 33
0.0
  0
MTEXT
  5
359
330
353
100
AcDbEntity
  8
0
  6
ByBlock
 62
     0
100
AcDbMText
 10
1182.98989
 20
447.7948679999998
 30
0.0
 40
14.478
 41
0.0
 71
     5
 72
     1
  1
\A1;386.1
 73
     1
 44
1.0
1001
ACAD
1000
MTEXTBEGIN
1070
    73
1070
     1
1070
    44
1040
1.0
1070
    74
1070
     0
1000
MTEXTEND
  0
POINT
  5
35A
330
353
100
AcDbEntity
  8
DEFPOINTS
  6
ByBlock
 62
     0
100
AcDbPoint
 10
989.9334449999999
 20
434.300411
 30
0.0
  0
POINT
  5
35B
330
353
100
AcDbEntity
  8
DEFPOINTS
  6
ByBlock
 62
     0
100
AcDbPoint
 10
1376.046335
 20
434.300411
 30
0.0
  0
POINT
  5
35C
330
353
100
AcDbEntity
  8
DEFPOINTS
  6
ByBlock
 62
     0
100
AcDbPoint
 10
1376.046335
 20
435.983868
 30
0.0
  0
ENDBLK
  5
35E
330
353
100
AcDbEntity
  8
0
100
AcDbBlockEnd
  0
BLOCK
  5
36A
330
35F
100
AcDbEntity
  8
0
100
AcDbBlockBegin
  2
*D41
 70
     1
 10
0.0
 20
0.0
 30
0.0
  3
*D41
  1

  0
LINE
  5
360
330
35F
100
AcDbEntity
  8
0
  6
ByBlock
 62
     0
100
AcDbLine
 10
1314.875407
 20
682.319487
 30
0.0
 11
1280.532775
 21
682.319487
 31
0.0
  0
LINE
  5
361
330
35F
100
AcDbEntity
  8
0
  6
ByBlock
 62
     0
100
AcDbLine
 10
1314.875407
 20
715.3723339999998
 30
0.0
 11
1280.532775
 21
715.3723339999998
 31
0.0
  0
LINE
  5
362
330
35F
100
AcDbEntity
  8
0
  6
ByBlock
 62
     0
100
AcDbLine
 10
1291.962775
 20
667.0794869999999
 30
0.0
 11
1291.962775
 21
651.8394869999998
 31
0.0
  0
LINE
  5
363
330
35F
100
AcDbEntity
  8
0
  6
ByBlock
 62
     0
100
AcDbLine
 10
1291.962775
 20
730.612334
 30
0.0
 11
1291.962775
 21
793.604334
 31
0.0
  0
SOLID
  5
364
330
35F
100
AcDbEntity
  8
0
  6
ByBlock
 62
     0
100
AcDbTrace
 10
1289.422775
 20
667.0794869999999
 30
0.0
 11
1294.502775
 21
667.0794869999999
 31
0.0
 12
1291.962775
 22
682.319487
 32
0.0
 13
1291.962775
 23
682.319487
 33
0.0
  0
SOLID
  5
365
330
35F
100
AcDbEntity
  8
0
  6
ByBlock
 62
     0
100
AcDbTrace
 10
1289.422775
 20
730.612334
 30
0.0
 11
1294.502775
 21
730.612334
 31
0.0
 12
1291.962775
 22
715.3723339999998
 32
0.0
 13
1291.962775
 23
715.3723339999998
 33
0.0
  0
MTEXT
  5
366
330
35F
100
AcDbEntity
  8
0
  6
ByBlock
 62
     0
100
AcDbMText
 10
1280.151775
 20
769.728334
 30
0.0
 40
14.478
 41
0.0
 71
     5
 72
     1
  1
\A1;33.1
 11
0.0
 21
1.0
 31
0.0
 73
     1
 44
1.0
1001
ACAD
1000
MTEXTBEGIN
1070
    73
1070
     1
1070
    44
1040
1.0
1070
    74
1070
     0
1000
MTEXTEND
  0
POINT
  5
367
330
35F
100
AcDbEntity
  8
DEFPOINTS
  6
ByBlock
 62
     0
100
AcDbPoint
 10
1320.971407
 20
682.319487
 30
0.0
  0
POINT
  5
368
330
35F
100
AcDbEntity
  8
DEFPOINTS
  6
ByBlock
 62
     0
100
AcDbPoint
 10
1320.971407
 20
715.3723339999998
 30
0.0
  0
POINT
  5
369
330
35F
100
AcDbEntity
  8
DEFPOINTS
  6
ByBlock
 62
     0
100
AcDbPoint
 10
1291.962775
 20
715.3723339999998
 30
0.0
  0
ENDBLK
  5
36B
330
35F
100
AcDbEntity
  8
0
100
AcDbBlockEnd
  0
BLOCK
  5
376
330
36C
100
AcDbEntity
  8
0
100
AcDbBlockBegin
  2
*D42
 70
     1
 10
0.0
 20
0.0
 30
0.0
  3
*D42
  1

  0
LINE
  5
36D
330
36C
100
AcDbEntity
  8
0
  6
ByBlock
 62
     0
100
AcDbLine
 10
763.528395
 20
659.276334
 30
0.0
 11
763.528395
 21
376.056571
 31
0.0
  0
LINE
  5
36E
330
36C
100
AcDbEntity
  8
0
  6
ByBlock
 62
     0
100
AcDbLine
 10
1508.528304
 20
676.223487
 30
0.0
 11
1508.528304
 21
376.056571
 31
0.0
  0
LINE
  5
36F
330
36C
100
AcDbEntity
  8
0
  6
ByBlock
 62
     0
100
AcDbLine
 10
778.768395
 20
387.486571
 30
0.0
 11
1493.288304
 21
387.486571
 31
0.0
  0
SOLID
  5
370
330
36C
100
AcDbEntity
  8
0
  6
ByBlock
 62
     0
100
AcDbTrace
 10
778.768395
 20
390.026571
 30
0.0
 11
778.768395
 21
384.946571
 31
0.0
 12
763.528395
 22
387.486571
 32
0.0
 13
763.528395
 23
387.486571
 33
0.0
  0
SOLID
  5
371
330
36C
100
AcDbEntity
  8
0
  6
ByBlock
 62
     0
100
AcDbTrace
 10
1493.288304
 20
390.026571
 30
0.0
 11
1493.288304
 21
384.946571
 31
0.0
 12
1508.528304
 22
387.486571
 32
0.0
 13
1508.528304
 23
387.486571
 33
0.0
  0
MTEXT
  5
372
330
36C
100
AcDbEntity
  8
0
  6
ByBlock
 62
     0
100
AcDbMText
 10
1136.02835
 20
399.616578
 30
0.0
 40
14.478
 41
0.0
 71
     5
 72
     1
  1
\A1;745.0
 73
     1
 44
1.0
1001
ACAD
1000
MTEXTBEGIN
1070
    73
1070
     1
1070
    44
1040
1.0
1070
    74
1070
     0
1000
MTEXTEND
  0
POINT
  5
373
330
36C
100
AcDbEntity
  8
DEFPOINTS
  6
ByBlock
 62
     0
100
AcDbPoint
 10
763.528395
 20
665.3723339999998
 30
0.0
  0
POINT
  5
374
330
36C
100
AcDbEntity
  8
DEFPOINTS
  6
ByBlock
 62
     0
100
AcDbPoint
 10
1508.528304
 20
682.319487
 30
0.0
  0
POINT
  5
375
330
36C
100
AcDbEntity
  8
DEFPOINTS
  6
ByBlock
 62
     0
100
AcDbPoint
 10
1508.528304
 20
387.486571
 30
0.0
  0
ENDBLK
  5
377
330
36C
100
AcDbEntity
  8
0
100
AcDbBlockEnd
  0
BLOCK
  5
382
330
378
100
AcDbEntity
  8
0
100
AcDbBlockBegin
  2
*D43
 70
     1
 10
0.0
 20
0.0
 30
0.0
  3
*D43
  1

  0
LINE
  5
379
330
378
100
AcDbEntity
  8
0
  6
ByBlock
 62
     0
100
AcDbLine
 10
1382.124395
 20
884.4156100000001
 30
0.0
 11
1617.945089
 21
884.4156100000001
 31
0.0
  0
LINE
  5
37A
330
378
100
AcDbEntity
  8
0
  6
ByBlock
 62
     0
100
AcDbLine
 10
1382.181078
 20
480.425003
 30
0.0
 11
1617.945089
 21
480.425003
 31
0.0
  0
LINE
  5
37B
330
378
100
AcDbEntity
  8
0
  6
ByBlock
 62
     0
100
AcDbLine
 10
1606.515089
 20
869.17561
 30
0.0
 11
1606.515089
 21
495.665003
 31
0.0
  0
SOLID
  5
37C
330
378
100
AcDbEntity
  8
0
  6
ByBlock
 62
     0
100
AcDbTrace
 10
1603.975089
 20
869.17561
 30
0.0
 11
1609.055089
 21
869.17561
 31
0.0
 12
1606.515089
 22
884.4156100000001
 32
0.0
 13
1606.515089
 23
884.4156100000001
 33
0.0
  0
SOLID
  5
37D
330
378
100
AcDbEntity
  8
0
  6
ByBlock
 62
     0
100
AcDbTrace
 10
1603.975089
 20
495.665003
 30
0.0
 11
1609.055089
 21
495.665003
 31
0.0
 12
1606.515089
 22
480.425003
 32
0.0
 13
1606.515089
 23
480.425003
 33
0.0
  0
MTEXT
  5
37E
330
378
100
AcDbEntity
  8
0
  6
ByBlock
 62
     0
100
AcDbMText
 10
1594.385082
 20
682.420306
 30
0.0
 40
14.478
 41
0.0
 71
     5
 72
     1
  1
\A1;404.0
 11
0.0
 21
1.0
 31
0.0
 73
     1
 44
1.0
1001
ACAD
1000
MTEXTBEGIN
1070
    73
1070
     1
1070
    44
1040
1.0
1070
    74
1070
     0
1000
MTEXTEND
  0
POINT
  5
37F
330
378
100
AcDbEntity
  8
DEFPOINTS
  6
ByBlock
 62
     0
100
AcDbPoint
 10
1376.028395
 20
884.4156100000001
 30
0.0
  0
POINT
  5
380
330
378
100
AcDbEntity
  8
DEFPOINTS
  6
ByBlock
 62
     0
100
AcDbPoint
 10
1376.085078
 20
480.425003
 30
0.0
  0
POINT
  5
381
330
378
100
AcDbEntity
  8
DEFPOINTS
  6
ByBlock
 62
     0
100
AcDbPoint
 10
1606.515089
 20
480.425003
 30
0.0
  0
ENDBLK
  5
383
330
378
100
AcDbEntity
  8
0
100
AcDbBlockEnd
  0
BLOCK
  5
38E
330
384
100
AcDbEntity
  8
0
100
AcDbBlockBegin
  2
*D44
 70
     1
 10
0.0
 20
0.0
 30
0.0
  3
*D44
  1

  0
LINE
  5
385
330
384
100
AcDbEntity
  8
0
  6
ByBlock
 62
     0
100
AcDbLine
 10
982.432395
 20
950.3757919999999
 30
0.0
 11
663.837344
 21
950.3757919999999
 31
0.0
  0
LINE
  5
386
330
384
100
AcDbEntity
  8
0
  6
ByBlock
 62
     0
100
AcDbLine
 10
982.432395
 20
480.370625
 30
0.0
 11
663.837344
 21
480.370625
 31
0.0
  0
LINE
  5
387
330
384
100
AcDbEntity
  8
0
  6
ByBlock
 62
     0
100
AcDbLine
 10
675.2673440000002
 20
935.1357919999999
 30
0.0
 11
675.2673440000002
 21
495.610625
 31
0.0
  0
SOLID
  5
388
330
384
100
AcDbEntity
  8
0
  6
ByBlock
 62
     0
100
AcDbTrace
 10
672.727344
 20
935.1357919999999
 30
0.0
 11
677.807344
 21
935.1357919999999
 31
0.0
 12
675.2673440000002
 22
950.3757919999999
 32
0.0
 13
675.2673440000002
 23
950.3757919999999
 33
0.0
  0
SOLID
  5
389
330
384
100
AcDbEntity
  8
0
  6
ByBlock
 62
     0
100
AcDbTrace
 10
672.727344
 20
495.610625
 30
0.0
 11
677.807344
 21
495.610625
 31
0.0
 12
675.2673440000002
 22
480.370625
 32
0.0
 13
675.2673440000002
 23
480.370625
 33
0.0
  0
MTEXT
  5
38A
330
384
100
AcDbEntity
  8
0
  6
ByBlock
 62
     0
100
AcDbMText
 10
663.137337
 20
715.373208
 30
0.0
 40
14.478
 41
0.0
 71
     5
 72
     1
  1
\A1;470.0
 11
0.0
 21
1.0
 31
0.0
 73
     1
 44
1.0
1001
ACAD
1000
MTEXTBEGIN
1070
    73
1070
     1
1070
    44
1040
1.0
1070
    74
1070
     0
1000
MTEXTEND
  0
POINT
  5
38B
330
384
100
AcDbEntity
  8
DEFPOINTS
  6
ByBlock
 62
     0
100
AcDbPoint
 10
988.5283949999999
 20
950.3757919999999
 30
0.0
  0
POINT
  5
38C
330
384
100
AcDbEntity
  8
DEFPOINTS
  6
ByBlock
 62
     0
100
AcDbPoint
 10
988.5283949999999
 20
480.370625
 30
0.0
  0
POINT
  5
38D
330
384
100
AcDbEntity
  8
DEFPOINTS
  6
ByBlock
 62
     0
100
AcDbPoint
 10
675.2673440000002
 20
480.370625
 30
0.0
  0
ENDBLK
  5
38F
330
384
100
AcDbEntity
  8
0
100
AcDbBlockEnd
  0
BLOCK
  5
396
330
390
100
AcDbEntity
  8
0
100
AcDbBlockBegin
  2
*D45
 70
     1
 10
0.0
 20
0.0
 30
0.0
  3
*D45
  1

  0
LINE
  5
391
330
390
100
AcDbEntity
  8
0
  6
ByBlock
 62
     0
100
AcDbLine
 10
889.969274
 20
832.6195420000001
 30
0.0
 11
835.1967229999997
 21
919.493317
 31
0.0
  0
MTEXT
  5
392
330
390
100
AcDbEntity
  8
0
  6
ByBlock
 62
     0
100
AcDbMText
 10
880.834815
 20
869.547741
 30
0.0
 40
14.478
 41
0.0
 71
     5
 72
     1
  1
\A1;R150.0
 11
0.5333308378114503
 21
-0.8459067427555691
 31
0.0
 73
     1
 44
1.0
1001
ACAD
1000
MTEXTBEGIN
1070
    73
1070
     1
1070
    44
1040
1.0
1070
    74
1070
     0
1000
MTEXTEND
  0
SOLID
  5
393
330
390
100
AcDbEntity
  8
0
  6
ByBlock
 62
     0
100
AcDbTrace
 10
845.473289
 20
907.9563590000001
 30
0.0
 11
841.176083
 21
905.247038
 31
0.0
 12
835.1967229999997
 22
919.493317
 32
0.0
 13
835.1967229999997
 23
919.493317
 33
0.0
  0
POINT
  5
394
330
390
100
AcDbEntity
  8
DEFPOINTS
  6
ByBlock
 62
     0
100
AcDbPoint
 10
835.1967229999997
 20
919.493317
 30
0.0
  0
POINT
  5
395
330
390
100
AcDbEntity
  8
DEFPOINTS
  6
ByBlock
 62
     0
100
AcDbPoint
 10
915.1963570000001
 20
792.6073099999999
 30
0.0
  0
ENDBLK
  5
397
330
390
100
AcDbEntity
  8
0
100
AcDbBlockEnd
  0
BLOCK
  5
39E
330
398
100
AcDbEntity
  8
0
100
AcDbBlockBegin
  2
*D46
 70
     1
 10
0.0
 20
0.0
 30
0.0
  3
*D46
  1

  0
LINE
  5
399
330
398
100
AcDbEntity
  8
0
  6
ByBlock
 62
     0
100
AcDbLine
 10
881.2083220000001
 20
734.8128769999998
 30
0.0
 11
764.0333389999998
 21
736.4782809999998
 31
0.0
  0
MTEXT
  5
39A
330
398
100
AcDbEntity
  8
0
  6
ByBlock
 62
     0
100
AcDbMText
 10
838.0293759999997
 20
747.395837
 30
0.0
 40
14.478
 41
0.0
 71
     5
 72
     1
  1
\A1;R5000.0
 11
0.9998990044270531
 21
-0.0142120000629236
 31
0.0
 73
     1
 44
1.0
1001
ACAD
1000
MTEXTBEGIN
1070
    73
1070
     1
1070
    44
1040
1.0
1070
    74
1070
     0
1000
MTEXTEND
  0
SOLID
  5
39B
330
398
100
AcDbEntity
  8
0
  6
ByBlock
 62
     0
100
AcDbTrace
 10
779.307897
 20
738.8014410000002
 30
0.0
 11
779.235703
 21
733.7219539999998
 31
0.0
 12
764.0333389999998
 22
736.4782809999998
 32
0.0
 13
764.0333389999998
 23
736.4782809999998
 33
0.0
  0
POINT
  5
39C
330
398
100
AcDbEntity
  8
DEFPOINTS
  6
ByBlock
 62
     0
100
AcDbPoint
 10
764.0333389999998
 20
736.4782809999998
 30
0.0
  0
POINT
  5
39D
330
398
100
AcDbEntity
  8
DEFPOINTS
  6
ByBlock
 62
     0
100
AcDbPoint
 10
5763.528395
 20
665.4206249999998
 30
0.0
  0
ENDBLK
  5
39F
330
398
100
AcDbEntity
  8
0
100
AcDbBlockEnd
  0
BLOCK
  5
3A6
330
3A0
100
AcDbEntity
  8
0
100
AcDbBlockBegin
  2
*D47
 70
     1
 10
0.0
 20
0.0
 30
0.0
  3
*D47
  1

  0
LINE
  5
3A1
330
3A0
100
AcDbEntity
  8
0
  6
ByBlock
 62
     0
100
AcDbLine
 10
856.514836
 20
574.399937
 30
0.0
 11
792.208063
 21
507.160321
 31
0.0
  0
MTEXT
  5
3A2
330
3A0
100
AcDbEntity
  8
0
  6
ByBlock
 62
     0
100
AcDbMText
 10
826.2456639999998
 20
560.065915
 30
0.0
 40
14.478
 41
0.0
 71
     5
 72
     1
  1
\A1;R90.0
 11
0.6911701051394221
 21
0.7226921099344868
 31
0.0
 73
     1
 44
1.0
1001
ACAD
1000
MTEXTBEGIN
1070
    73
1070
     1
1070
    44
1040
1.0
1070
    74
1070
     0
1000
MTEXTEND
  0
SOLID
  5
3A3
330
3A0
100
AcDbEntity
  8
0
  6
ByBlock
 62
     0
100
AcDbTrace
 10
800.905855
 20
519.929723
 30
0.0
 11
804.577132
 21
516.418579
 31
0.0
 12
792.208063
 22
507.160321
 32
0.0
 13
792.208063
 23
507.160321
 33
0.0
  0
POINT
  5
3A4
330
3A0
100
AcDbEntity
  8
DEFPOINTS
  6
ByBlock
 62
     0
100
AcDbPoint
 10
792.208063
 20
507.160321
 30
0.0
  0
POINT
  5
3A5
330
3A0
100
AcDbEntity
  8
DEFPOINTS
  6
ByBlock
 62
     0
100
AcDbPoint
 10
854.4133619999996
 20
572.202621
 30
0.0
  0
ENDBLK
  5
3A7
330
3A0
100
AcDbEntity
  8
0
100
AcDbBlockEnd
  0
BLOCK
  5
3AE
330
3A8
100
AcDbEntity
  8
0
100
AcDbBlockBegin
  2
*D48
 70
     1
 10
0.0
 20
0.0
 30
0.0
  3
*D48
  1

  0
LINE
  5
3A9
330
3A8
100
AcDbEntity
  8
0
  6
ByBlock
 62
     0
100
AcDbLine
 10
1030.67867
 20
843.006143
 30
0.0
 11
1041.898528
 21
947.5192609999997
 31
0.0
  0
MTEXT
  5
3AA
330
3A8
100
AcDbEntity
  8
0
  6
ByBlock
 62
     0
100
AcDbMText
 10
1022.762202
 20
881.387242
 30
0.0
 40
14.478
 41
0.0
 71
     5
 72
     1
  1
\A1;R500.0
 11
0.1067399964792346
 21
0.9942869672039421
 31
0.0
 73
     1
 44
1.0
1001
ACAD
1000
MTEXTBEGIN
1070
    73
1070
     1
1070
    44
1040
1.0
1070
    74
1070
     0
1000
MTEXTEND
  0
SOLID
  5
3AB
330
3A8
100
AcDbEntity
  8
0
  6
ByBlock
 62
     0
100
AcDbTrace
 10
1037.746317
 20
932.637448
 30
0.0
 11
1042.797295
 21
932.095207
 31
0.0
 12
1041.898528
 22
947.5192609999997
 32
0.0
 13
1041.898528
 23
947.5192609999997
 33
0.0
  0
POINT
  5
3AC
330
3A8
100
AcDbEntity
  8
DEFPOINTS
  6
ByBlock
 62
     0
100
AcDbPoint
 10
1041.898528
 20
947.5192609999997
 30
0.0
  0
POINT
  5
3AD
330
3A8
100
AcDbEntity
  8
DEFPOINTS
  6
ByBlock
 62
     0
100
AcDbPoint
 10
988.5283949999999
 20
450.3757919999998
 30
0.0
  0
ENDBLK
  5
3AF
330
3A8
100
AcDbEntity
  8
0
100
AcDbBlockEnd
  0
BLOCK
  5
3B8
330
3B0
100
AcDbEntity
  8
0
100
AcDbBlockBegin
  2
*D49
 70
     1
 10
0.0
 20
0.0
 30
0.0
  3
*D49
  1

  0
LINE
  5
3B1
330
3B0
100
AcDbEntity
  8
0
  6
ByBlock
 62
     0
100
AcDbLine
 10
1126.124444
 20
812.0463629999997
 30
0.0
 11
1177.741493
 21
889.4557109999999
 31
0.0
  0
MTEXT
  5
3B2
330
3B0
100
AcDbEntity
  8
0
  6
ByBlock
 62
     0
100
AcDbMText
 10
1133.520734
 20
844.7110509999998
 30
0.0
 40
14.478
 41
0.0
 71
     5
 72
     1
  1
\A1;R30.0
 11
0.5547807320492931
 21
0.8319965981582202
 31
0.0
 73
     1
 44
1.0
1001
ACAD
1000
MTEXTBEGIN
1070
    73
1070
     1
1070
    44
1040
1.0
1070
    74
1070
     0
1000
MTEXTEND
  0
SOLID
  5
3B3
330
3B0
100
AcDbEntity
  8
0
  6
ByBlock
 62
     0
100
AcDbTrace
 10
1167.173364
 20
878.185225
 30
0.0
 11
1171.399907
 21
875.366939
 31
0.0
 12
1177.741493
 22
889.4557109999999
 32
0.0
 13
1177.741493
 23
889.4557109999999
 33
0.0
  0
LINE
  5
3B4
330
3B0
100
AcDbEntity
  8
0
  6
ByBlock
 62
     0
100
AcDbLine
 10
1193.622914
 20
914.41561
 30
0.0
 11
1195.146914
 21
914.41561
 31
0.0
  0
LINE
  5
3B5
330
3B0
100
AcDbEntity
  8
0
  6
ByBlock
 62
     0
100
AcDbLine
 10
1194.384914
 20
913.6536099999997
 30
0.0
 11
1194.384914
 21
915.1776099999999
 31
0.0
  0
POINT
  5
3B6
330
3B0
100
AcDbEntity
  8
DEFPOINTS
  6
ByBlock
 62
     0
100
AcDbPoint
 10
1177.741493
 20
889.4557109999999
 30
0.0
  0
POINT
  5
3B7
330
3B0
100
AcDbEntity
  8
DEFPOINTS
  6
ByBlock
 62
     0
100
AcDbPoint
 10
1194.384914
 20
914.41561
 30
0.0
  0
ENDBLK
  5
3B9
330
3B0
100
AcDbEntity
  8
0
100
AcDbBlockEnd
  0
BLOCK
  5
3C0
330
3BA
100
AcDbEntity
  8
0
100
AcDbBlockBegin
  2
*D50
 70
     1
 10
0.0
 20
0.0
 30
0.0
  3
*D50
  1

  0
LINE
  5
3BB
330
3BA
100
AcDbEntity
  8
0
  6
ByBlock
 62
     0
100
AcDbLine
 10
1413.8169
 20
796.0346209999999
 30
0.0
 11
1491.907356
 21
846.6153249999999
 31
0.0
  0
MTEXT
  5
3BC
330
3BA
100
AcDbEntity
  8
0
  6
ByBlock
 62
     0
100
AcDbMText
 10
1433.564599
 20
823.0848579999998
 30
0.0
 40
14.478
 41
0.0
 71
     5
 72
     1
  1
\A1;R80.0
 11
0.8393171466064764
 21
0.5436420949598758
 31
0.0
 73
     1
 44
1.0
1001
ACAD
1000
MTEXTBEGIN
1070
    73
1070
     1
1070
    44
1040
1.0
1070
    74
1070
     0
1000
MTEXTEND
  0
SOLID
  5
3BD
330
3BA
100
AcDbEntity
  8
0
  6
ByBlock
 62
     0
100
AcDbTrace
 10
1477.735311
 20
840.4620859999999
 30
0.0
 11
1480.497013
 21
836.1983549999999
 31
0.0
 12
1491.907356
 22
846.6153249999999
 32
0.0
 13
1491.907356
 23
846.6153249999999
 33
0.0
  0
POINT
  5
3BE
330
3BA
100
AcDbEntity
  8
DEFPOINTS
  6
ByBlock
 62
     0
100
AcDbPoint
 10
1491.907356
 20
846.6153249999999
 30
0.0
  0
POINT
  5
3BF
330
3BA
100
AcDbEntity
  8
DEFPOINTS
  6
ByBlock
 62
     0
100
AcDbPoint
 10
1424.761981
 20
803.1239629999998
 30
0.0
  0
ENDBLK
  5
3C1
330
3BA
100
AcDbEntity
  8
0
100
AcDbBlockEnd
  0
BLOCK
  5
3C8
330
3C2
100
AcDbEntity
  8
0
100
AcDbBlockBegin
  2
*D51
 70
     1
 10
0.0
 20
0.0
 30
0.0
  3
*D51
  1

  0
LINE
  5
3C3
330
3C2
100
AcDbEntity
  8
0
  6
ByBlock
 62
     0
100
AcDbLine
 10
1390.621331
 20
734.994217
 30
0.0
 11
1507.76332
 21
738.2352919999998
 31
0.0
  0
MTEXT
  5
3C4
330
3C2
100
AcDbEntity
  8
0
  6
ByBlock
 62
     0
100
AcDbMText
 10
1433.627151
 20
748.156728
 30
0.0
 40
14.478
 41
0.0
 71
     5
 72
     1
  1
\A1;R2000.0
 11
0.9996174716506226
 21
0.0276570130494392
 31
0.0
 73
     1
 44
1.0
1001
ACAD
1000
MTEXTBEGIN
1070
    73
1070
     1
1070
    44
1040
1.0
1070
    74
1070
     0
1000
MTEXTEND
  0
SOLID
  5
3C5
330
3C2
100
AcDbEntity
  8
0
  6
ByBlock
 62
     0
100
AcDbTrace
 10
1492.4589
 20
740.352823
 30
0.0
 11
1492.5994
 21
735.274766
 31
0.0
 12
1507.76332
 22
738.2352919999998
 32
0.0
 13
1507.76332
 23
738.2352919999998
 33
0.0
  0
POINT
  5
3C6
330
3C2
100
AcDbEntity
  8
DEFPOINTS
  6
ByBlock
 62
     0
100
AcDbPoint
 10
1507.76332
 20
738.2352919999998
 30
0.0
  0
POINT
  5
3C7
330
3C2
100
AcDbEntity
  8
DEFPOINTS
  6
ByBlock
 62
     0
100
AcDbPoint
 10
-491.471605
 20
682.9206249999998
 30
0.0
  0
ENDBLK
  5
3C9
330
3C2
100
AcDbEntity
  8
0
100
AcDbBlockEnd
  0
BLOCK
  5
3D0
330
3CA
100
AcDbEntity
  8
0
100
AcDbBlockBegin
  2
*D52
 70
     1
 10
0.0
 20
0.0
 30
0.0
  3
*D52
  1

  0
LINE
  5
3CB
330
3CA
100
AcDbEntity
  8
0
  6
ByBlock
 62
     0
100
AcDbLine
 10
1412.520035
 20
566.352498
 30
0.0
 11
1499.484791
 21
533.281998
 31
0.0
  0
MTEXT
  5
3CC
330
3CA
100
AcDbEntity
  8
0
  6
ByBlock
 62
     0
100
AcDbMText
 10
1446.01156
 20
566.420702
 30
0.0
 40
14.478
 41
0.0
 71
     5
 72
     1
  1
\A1;R80.0
 11
0.9346982960339524
 21
-0.355442112574222
 31
0.0
 73
     1
 44
1.0
1001
ACAD
1000
MTEXTBEGIN
1070
    73
1070
     1
1070
    44
1040
1.0
1070
    74
1070
     0
1000
MTEXTEND
  0
SOLID
  5
3CD
330
3CA
100
AcDbEntity
  8
0
  6
ByBlock
 62
     0
100
AcDbTrace
 10
1486.142812
 20
541.07307
 30
0.0
 11
1484.337166
 21
536.3248019999998
 31
0.0
 12
1499.484791
 22
533.281998
 32
0.0
 13
1499.484791
 23
533.281998
 33
0.0
  0
POINT
  5
3CE
330
3CA
100
AcDbEntity
  8
DEFPOINTS
  6
ByBlock
 62
     0
100
AcDbPoint
 10
1499.484791
 20
533.281998
 30
0.0
  0
POINT
  5
3CF
330
3CA
100
AcDbEntity
  8
DEFPOINTS
  6
ByBlock
 62
     0
100
AcDbPoint
 10
1424.708929
 20
561.7173700000002
 30
0.0
  0
ENDBLK
  5
3D1
330
3CA
100
AcDbEntity
  8
0
100
AcDbBlockEnd
  0
BLOCK
  5
3D8
330
3D2
100
AcDbEntity
  8
0
100
AcDbBlockBegin
  2
*D53
 70
     1
 10
0.0
 20
0.0
 30
0.0
  3
*D53
  1

  0
LINE
  5
3D3
330
3D2
100
AcDbEntity
  8
0
  6
ByBlock
 62
     0
100
AcDbLine
 10
1397.657116
 20
771.784698
 30
0.0
 11
1400.395144
 21
884.1186960000001
 31
0.0
  0
MTEXT
  5
3D4
330
3D2
100
AcDbEntity
  8
0
  6
ByBlock
 62
     0
100
AcDbMText
 10
1386.690285
 20
813.0078449999999
 30
0.0
 40
14.478
 41
0.0
 71
     5
 72
     1
  1
\A1;R1000.0
 11
0.0243670019627865
 21
0.9997030805270862
 31
0.0
 73
     1
 44
1.0
1001
ACAD
1000
MTEXTBEGIN
1070
    73
1070
     1
1070
    44
1040
1.0
1070
    74
1070
     0
1000
MTEXTEND
  0
SOLID
  5
3D5
330
3D2
100
AcDbEntity
  8
0
  6
ByBlock
 62
     0
100
AcDbTrace
 10
1397.484549
 20
868.9451130000001
 30
0.0
 11
1402.56304
 21
868.8213300000001
 31
0.0
 12
1400.395144
 22
884.1186960000001
 32
0.0
 13
1400.395144
 23
884.1186960000001
 33
0.0
  0
POINT
  5
3D6
330
3D2
100
AcDbEntity
  8
DEFPOINTS
  6
ByBlock
 62
     0
100
AcDbPoint
 10
1400.395144
 20
884.1186960000001
 30
0.0
  0
POINT
  5
3D7
330
3D2
100
AcDbEntity
  8
DEFPOINTS
  6
ByBlock
 62
     0
100
AcDbPoint
 10
1376.028395
 20
-115.58439
 30
0.0
  0
ENDBLK
  5
3D9
330
3D2
100
AcDbEntity
  8
0
100
AcDbBlockEnd
  0
BLOCK
  5
3E0
330
3DA
100
AcDbEntity
  8
0
100
AcDbBlockBegin
  2
*D54
 70
     1
 10
0.0
 20
0.0
 30
0.0
  3
*D54
  1

  0
LINE
  5
3DB
330
3DA
100
AcDbEntity
  8
0
  6
ByBlock
 62
     0
100
AcDbLine
 10
1395.855068
 20
593.015307
 30
0.0
 11
1398.373425
 21
480.67617
 31
0.0
  0
MTEXT
  5
3DC
330
3DA
100
AcDbEntity
  8
0
  6
ByBlock
 62
     0
100
AcDbMText
 10
1408.737734
 20
552.3501369999999
 30
0.0
 40
14.478
 41
0.0
 71
     5
 72
     1
  1
\A1;R1000.0
 11
0.0224119959574926
 21
-0.9997488196728223
 31
0.0
 73
     1
 44
1.0
1001
ACAD
1000
MTEXTBEGIN
1070
    73
1070
     1
1070
    44
1040
1.0
1070
    74
1070
     0
1000
MTEXTEND
  0
SOLID
  5
3DD
330
3DA
100
AcDbEntity
  8
0
  6
ByBlock
 62
     0
100
AcDbTrace
 10
1400.571231
 20
495.9692679999998
 30
0.0
 11
1395.492507
 21
495.855416
 31
0.0
 12
1398.373425
 22
480.67617
 32
0.0
 13
1398.373425
 23
480.67617
 33
0.0
  0
POINT
  5
3DE
330
3DA
100
AcDbEntity
  8
DEFPOINTS
  6
ByBlock
 62
     0
100
AcDbPoint
 10
1398.373425
 20
480.67617
 30
0.0
  0
POINT
  5
3DF
330
3DA
100
AcDbEntity
  8
DEFPOINTS
  6
ByBlock
 62
     0
100
AcDbPoint
 10
1375.961607
 20
1480.424994
 30
0.0
  0
ENDBLK
  5
3E1
330
3DA
100
AcDbEntity
  8
0
100
AcDbBlockEnd
  0
BLOCK
  5
3EC
330
3E2
100
AcDbEntity
  8
0
100
AcDbBlockBegin
  2
*D55
 70
     1
 10
0.0
 20
0.0
 30
0.0
  3
*D55
  1

  0
LINE
  5
3E3
330
3E2
100
AcDbEntity
  8
0
  6
ByBlock
 62
     0
100
AcDbLine
 10
923.7566259999999
 20
715.3723339999998
 30
0.0
 11
934.76478
 21
715.3723339999998
 31
0.0
  0
LINE
  5
3E4
330
3E2
100
AcDbEntity
  8
0
  6
ByBlock
 62
     0
100
AcDbLine
 10
923.7566259999999
 20
665.3723339999998
 30
0.0
 11
934.76478
 21
665.3723339999998
 31
0.0
  0
LINE
  5
3E5
330
3E2
100
AcDbEntity
  8
0
  6
ByBlock
 62
     0
100
AcDbLine
 10
923.33478
 20
700.1323339999999
 30
0.0
 11
923.33478
 21
680.612334
 31
0.0
  0
SOLID
  5
3E6
330
3E2
100
AcDbEntity
  8
0
  6
ByBlock
 62
     0
100
AcDbTrace
 10
920.7947799999999
 20
700.1323339999999
 30
0.0
 11
925.87478
 21
700.1323339999999
 31
0.0
 12
923.33478
 22
715.3723339999998
 32
0.0
 13
923.33478
 23
715.3723339999998
 33
0.0
  0
SOLID
  5
3E7
330
3E2
100
AcDbEntity
  8
0
  6
ByBlock
 62
     0
100
AcDbTrace
 10
920.7947799999999
 20
680.612334
 30
0.0
 11
925.87478
 21
680.612334
 31
0.0
 12
923.33478
 22
665.3723339999998
 32
0.0
 13
923.33478
 23
665.3723339999998
 33
0.0
  0
MTEXT
  5
3E8
330
3E2
100
AcDbEntity
  8
0
  6
ByBlock
 62
     0
100
AcDbMText
 10
911.3667299999999
 20
690.3723339999998
 30
0.0
 40
14.478
 41
0.0
 71
     5
 72
     1
  1
\A1;50.0
 11
0.0
 21
1.0
 31
0.0
 73
     1
 44
1.0
1001
ACAD
1000
MTEXTBEGIN
1070
    73
1070
     1
1070
    44
1040
1.0
1070
    74
1070
     0
1000
MTEXTEND
  0
POINT
  5
3E9
330
3E2
100
AcDbEntity
  8
DEFPOINTS
  6
ByBlock
 62
     0
100
AcDbPoint
 10
917.6606259999999
 20
715.3723339999998
 30
0.0
  0
POINT
  5
3EA
330
3E2
100
AcDbEntity
  8
DEFPOINTS
  6
ByBlock
 62
     0
100
AcDbPoint
 10
917.6606259999999
 20
665.3723339999998
 30
0.0
  0
POINT
  5
3EB
330
3E2
100
AcDbEntity
  8
DEFPOINTS
  6
ByBlock
 62
     0
100
AcDbPoint
 10
923.33478
 20
665.3723339999998
 30
0.0
  0
ENDBLK
  5
3ED
330
3E2
100
AcDbEntity
  8
0
100
AcDbBlockEnd
  0
BLOCK
  5
3F4
330
3EE
100
AcDbEntity
  8
0
100
AcDbBlockBegin
  2
*D56
 70
     1
 10
0.0
 20
0.0
 30
0.0
  3
*D56
  1

  0
LINE
  5
3EF
330
3EE
100
AcDbEntity
  8
0
  6
ByBlock
 62
     0
100
AcDbLine
 10
902.1927559999999
 20
598.3207759999998
 30
0.0
 11
900.120713
 21
481.152278
 31
0.0
  0
MTEXT
  5
3F0
330
3EE
100
AcDbEntity
  8
0
  6
ByBlock
 62
     0
100
AcDbMText
 10
889.460022
 20
555.185758
 30
0.0
 40
14.478
 41
0.0
 71
     5
 72
     1
  1
\A1;R5000.0
 11
0.0176819940105792
 21
0.999843661323014
 31
0.0
 73
     1
 44
1.0
1001
ACAD
1000
MTEXTBEGIN
1070
    73
1070
     1
1070
    44
1040
1.0
1070
    74
1070
     0
1000
MTEXTEND
  0
SOLID
  5
3F1
330
3EE
100
AcDbEntity
  8
0
  6
ByBlock
 62
     0
100
AcDbTrace
 10
897.8505769999998
 20
496.434807
 30
0.0
 11
902.929782
 21
496.3449849999998
 31
0.0
 12
900.120713
 22
481.152278
 32
0.0
 13
900.120713
 23
481.152278
 33
0.0
  0
POINT
  5
3F2
330
3EE
100
AcDbEntity
  8
DEFPOINTS
  6
ByBlock
 62
     0
100
AcDbPoint
 10
900.120713
 20
481.152278
 30
0.0
  0
POINT
  5
3F3
330
3EE
100
AcDbEntity
  8
DEFPOINTS
  6
ByBlock
 62
     0
100
AcDbPoint
 10
988.5283949999999
 20
5480.370624999999
 30
0.0
  0
ENDBLK
  5
3F5
330
3EE
100
AcDbEntity
  8
0
100
AcDbBlockEnd
  0
BLOCK
  5
41C
330
3F6
100
AcDbEntity
  8
0
100
AcDbBlockBegin
  2
A$C040035AA
 70
     0
 10
0.0
 20
0.0
 30
0.0
  3
A$C040035AA
  1

  0
DIMENSION
  5
3F7
330
3F6
100
AcDbEntity
  8
DIM
100
AcDbDimension
  2
*D46
 10
6254.999990560859
 20
781.0050169543732
 30
0.0
 11
1329.330887560859
 21
851.0133879543731
 31
0.0
 12
491.4715955608587
 22
115.5843919543731
 32
0.0
 70
   132
 71
     5
 42
-1.0
  3
B
100
AcDbRadialDimension
 15
1255.504934560859
 25
852.062672954373
 35
0.0
 40
0.0
1001
ACAD
1000
DSTYLE
1002
{
1070
   288
1070
     1
1070
   289
1070
     3
1002
}
  0
DIMENSION
  5
3F8
330
3F6
100
AcDbEntity
  8
DIM
100
AcDbDimension
  2
*D56
 10
1479.999990560859
 20
5595.955016954373
 30
0.0
 11
1392.897796560859
 21
670.558536954373
 31
0.0
 12
491.4715955608587
 22
115.5843919543731
 32
0.0
 70
   132
 71
     5
 42
-1.0
  3
B
100
AcDbRadialDimension
 15
1391.592308560859
 25
596.736669954373
 35
0.0
 40
0.0
1001
ACAD
1000
DSTYLE
1002
{
1070
   288
1070
     1
1070
   289
1070
     3
1002
}
  0
DIMENSION
  5
3F9
330
3F6
100
AcDbEntity
  8
DIM
100
AcDbDimension
  2
*D51
 10
-0.0000094391409675
 20
798.5050169543732
 30
0.0
 11
1925.429750560859
 21
851.7776489543731
 31
0.0
 12
491.4715955608587
 22
115.5843919543731
 32
0.0
 70
   132
 71
     5
 42
-1.0
  3
B
100
AcDbRadialDimension
 15
1999.234915560859
 25
853.8196839543731
 35
0.0
 40
0.0
1001
ACAD
1000
DSTYLE
1002
{
1070
   288
1070
     1
1070
   289
1070
     3
1002
}
  0
DIMENSION
  5
3FA
330
3F6
100
AcDbEntity
  8
DIM
100
AcDbDimension
  2
*D44
 10
1166.738939560859
 20
595.955016954373
 30
0.0
 11
1154.608932560859
 21
830.9575999543731
 31
0.0
 12
491.4715955608587
 22
115.5843919543731
 32
0.0
 71
     5
 42
-1.0
  3
B
100
AcDbAlignedDimension
 13
1479.999990560859
 23
1065.960183954373
 33
0.0
 14
1479.999990560859
 24
595.955016954373
 34
0.0
 50
90.0
100
AcDbRotatedDimension
1001
ACAD
1000
DSTYLE
1002
{
1070
   289
1070
     3
1002
}
  0
DIMENSION
  5
3FB
330
3F6
100
AcDbEntity
  8
DIM
100
AcDbDimension
  2
*D54
 10
1867.433202560859
 20
1596.009385954373
 30
0.0
 11
1888.244286560859
 21
667.6663029543731
 31
0.0
 12
491.4715955608587
 22
115.5843919543731
 32
0.0
 70
   132
 71
     5
 42
-1.0
  3
B
100
AcDbRadialDimension
 15
1889.845020560859
 25
596.260561954373
 35
0.0
 40
0.0
1001
ACAD
1000
DSTYLE
1002
{
1070
   288
1070
     1
1070
   289
1070
     3
1002
}
  0
DIMENSION
  5
3FC
330
3F6
100
AcDbEntity
  8
DIM
100
AcDbDimension
  2
*D48
 10
1479.999990560859
 20
565.960183954373
 30
0.0
 11
1526.133472560859
 21
995.6941609543733
 31
0.0
 12
491.4715955608587
 22
115.5843919543731
 32
0.0
 70
   132
 71
     5
 42
-1.0
  3
B
100
AcDbRadialDimension
 15
1533.370123560859
 25
1063.103652954373
 35
0.0
 40
0.0
1001
ACAD
1000
DSTYLE
1002
{
1070
   288
1070
     1
1070
   289
1070
     3
1002
}
  0
ARC
  5
3FD
330
3F6
100
AcDbEntity
  8
0
100
AcDbCircle
 10
1553.332027560859
 20
908.191701954373
 30
0.0
 40
150.0
100
AcDbArc
 50
42.587299
 51
77.90576899999997
  0
ARC
  5
3FE
330
3F6
100
AcDbEntity
  8
0
100
AcDbCircle
 10
1406.667952560859
 20
908.191701954373
 30
0.0
 40
150.0
100
AcDbArc
 50
102.094231
 51
178.4973
  0
LINE
  5
3FF
330
3F6
100
AcDbEntity
  8
CENTER
100
AcDbLine
 10
1867.517930560859
 20
533.154172954373
 30
0.0
 11
1867.517930560859
 21
1087.654946954373
 31
0.0
  0
LINE
  5
400
330
3F6
100
AcDbEntity
  8
CENTER
100
AcDbLine
 10
1481.405040560859
 20
529.7640529543731
 30
0.0
 11
1481.405040560859
 21
1113.945927954373
 31
0.0
  0
DIMENSION
  5
401
330
3F6
100
AcDbEntity
  8
DIM
100
AcDbDimension
  2
*D53
 10
1867.499990560858
 20
0.0000019543731469
 30
0.0
 11
1890.126376560859
 21
928.3006139543733
 31
0.0
 12
491.4715955608587
 22
115.5843919543731
 32
0.0
 70
   132
 71
     5
 42
-1.0
  3
B
100
AcDbRadialDimension
 15
1891.866739560859
 25
999.7030879543734
 35
0.0
 40
0.0
1001
ACAD
1000
DSTYLE
1002
{
1070
   288
1070
     1
1070
   289
1070
     3
1002
}
  0
DIMENSION
  5
402
330
3F6
100
AcDbEntity
  8
DIM
100
AcDbDimension
  2
*D49
 10
1685.856509560859
 20
1030.000001954373
 30
0.0
 11
1634.949706560859
 21
953.6557999543733
 31
0.0
 12
491.4715955608587
 22
115.5843919543731
 32
0.0
 70
   132
 71
     5
 42
-1.0
  3
B
100
AcDbRadialDimension
 15
1669.213088560859
 25
1005.040102954373
 35
0.0
 40
0.0
1001
ACAD
1000
DSTYLE
1002
{
1070
   288
1070
     1
1070
   289
1070
     3
1002
}
  0
DIMENSION
  5
403
330
3F6
100
AcDbEntity
  8
DIM
100
AcDbDimension
  2
*D42
 10
1999.999899560859
 20
503.070962954373
 30
0.0
 11
1627.499945560859
 21
515.2009699543731
 31
0.0
 12
491.4715955608587
 22
115.5843919543731
 32
0.0
 71
     5
 42
-1.0
  3
B
100
AcDbAlignedDimension
 13
1254.999990560859
 23
780.9567259543731
 33
0.0
 14
1999.999899560859
 24
797.903878954373
 34
0.0
100
AcDbRotatedDimension
1001
ACAD
1000
DSTYLE
1002
{
1070
   289
1070
     3
1002
}
  0
LINE
  5
404
330
3F6
100
AcDbEntity
  8
0
100
AcDbLine
 10
1479.999990560859
 20
595.955016954373
 30
0.0
 11
1867.516948560859
 21
596.0093889543729
 31
0.0
  0
MTEXT
  5
405
330
3F6
100
AcDbEntity
  8
DIM
100
AcDbMText
 10
1571.123181560859
 20
717.7903539543731
 30
0.0
 40
40.0
 41
231.487
 71
     1
 72
     5
  1
\C4;3121
 73
     1
 44
1.0
1001
ACAD
1000
MTEXTBEGIN
1070
    73
1070
     1
1070
    44
1040
1.0
1070
    74
1070
     0
1000
MTEXTEND
  0
DIMENSION
  5
406
330
3F6
100
AcDbEntity
  8
DIM
100
AcDbDimension
  2
*D40
 10
1867.517930560859
 20
551.568259954373
 30
0.0
 11
1674.461485560859
 21
563.3792599543729
 31
0.0
 12
491.4715955608587
 22
115.5843919543731
 32
0.0
 71
     5
 42
-1.0
  3
B
100
AcDbAlignedDimension
 13
1481.405040560859
 23
549.884802954373
 33
0.0
 14
1867.517930560859
 24
549.884802954373
 34
0.0
100
AcDbRotatedDimension
1001
ACAD
1000
DSTYLE
1002
{
1070
   289
1070
     3
1002
}
  0
LINE
  5
407
330
3F6
100
AcDbEntity
  8
CENTER
100
AcDbLine
 10
1194.671576560859
 20
830.9567259543731
 30
0.0
 11
2043.908813560859
 21
830.9567259543731
 31
0.0
  0
ARC
  5
408
330
3F6
100
AcDbEntity
  8
0
  6
Continuous
100
AcDbCircle
 10
1345.884957560859
 20
687.7870129543731
 30
0.0
 40
90.0
100
AcDbArc
 50
181.087845
 51
268.43479
  0
ARC
  5
409
330
3F6
100
AcDbEntity
  8
0
  6
Continuous
100
AcDbCircle
 10
1479.999990560859
 20
5595.955016954373
 30
0.0
 40
5000.0
100
AcDbArc
 50
268.43479
 51
270.016078
  0
DIMENSION
  5
40A
330
3F6
100
AcDbEntity
  8
DIM
100
AcDbDimension
  2
*D55
 10
1414.806375560859
 20
780.9567259543731
 30
0.0
 11
1402.838325560859
 21
805.9567259543731
 31
0.0
 12
491.4715955608587
 22
115.5843919543731
 32
0.0
 71
     5
 42
-1.0
  3
B
100
AcDbAlignedDimension
 13
1409.132221560859
 23
830.9567259543731
 33
0.0
 14
1409.132221560859
 24
780.9567259543731
 34
0.0
 50
90.0
100
AcDbRotatedDimension
1001
ACAD
1000
DSTYLE
1002
{
1070
   289
1070
     3
1002
}
  0
LINE
  5
40B
330
3F6
100
AcDbEntity
  8
CENTER
100
AcDbLine
 10
1192.279350560859
 20
780.9567259543731
 30
0.0
 11
1554.418962560859
 21
780.9567259543731
 31
0.0
  0
ARC
  5
40C
330
3F6
100
AcDbEntity
  8
0
  6
Continuous
100
AcDbCircle
 10
6254.999990560859
 20
781.0050169543732
 30
0.0
 40
5000.0
100
AcDbArc
 50
178.4973
 51
181.087845
  0
DIMENSION
  5
40D
330
3F6
100
AcDbEntity
  8
DIM
100
AcDbDimension
  2
*D47
 10
1345.884957560859
 20
687.7870129543731
 30
0.0
 11
1326.366475560859
 21
667.3783499543731
 31
0.0
 12
491.4715955608587
 22
115.5843919543731
 32
0.0
 70
   132
 71
     5
 42
-1.0
  3
B
100
AcDbRadialDimension
 15
1283.679658560859
 25
622.7447129543731
 35
0.0
 40
0.0
1001
ACAD
1000
DSTYLE
1002
{
1070
   288
1070
     1
1070
   289
1070
     3
1002
}
  0
DIMENSION
  5
40E
330
3F6
100
AcDbEntity
  8
DIM
100
AcDbDimension
  2
*D45
 10
1406.667952560859
 20
908.191701954373
 30
0.0
 11
1362.182556560859
 21
978.7492029543733
 31
0.0
 12
491.4715955608587
 22
115.5843919543731
 32
0.0
 70
   132
 71
     5
 42
-1.0
  3
B
100
AcDbRadialDimension
 15
1326.668318560859
 25
1035.077708954373
 35
0.0
 40
0.0
1001
ACAD
1000
DSTYLE
1002
{
1070
   288
1070
     1
1070
   289
1070
     3
1002
}
  0
DIMENSION
  5
40F
330
3F6
100
AcDbEntity
  8
DIM
100
AcDbDimension
  2
*D43
 10
2097.986684560859
 20
596.0093949543732
 30
0.0
 11
2085.85667756086
 21
798.0046979543731
 31
0.0
 12
491.4715955608587
 22
115.5843919543731
 32
0.0
 71
     5
 42
-1.0
  3
B
100
AcDbAlignedDimension
 13
1867.499990560858
 23
1000.000001954373
 33
0.0
 14
1867.556673560859
 24
596.0093949543732
 34
0.0
 50
90.0
100
AcDbRotatedDimension
1001
ACAD
1000
DSTYLE
1002
{
1070
   289
1070
     3
1002
}
  0
ARC
  5
410
330
3F6
100
AcDbEntity
  8
0
100
AcDbCircle
 10
1916.180524560859
 20
677.3017619543732
 30
0.0
 40
80.0
100
AcDbArc
 50
273.037309
 51
356.385396
  0
ARC
  5
411
330
3F6
100
AcDbEntity
  8
0
100
AcDbCircle
 10
1867.433202560859
 20
1596.009385954373
 30
0.0
 40
1000.0
100
AcDbArc
 50
270.004798
 51
273.037309
  0
DIMENSION
  5
412
330
3F6
100
AcDbEntity
  8
DIM
100
AcDbDimension
  2
*D52
 10
1916.180524560859
 20
677.3017619543732
 30
0.0
 11
1933.229206560859
 21
670.8185779543732
 31
0.0
 12
491.4715955608587
 22
115.5843919543731
 32
0.0
 70
   132
 71
     5
 42
-1.0
  3
B
100
AcDbRadialDimension
 15
1990.956386560859
 25
648.866389954373
 35
0.0
 40
0.0
1001
ACAD
1000
DSTYLE
1002
{
1070
   288
1070
     1
1070
   289
1070
     3
1002
}
  0
DIMENSION
  5
413
330
3F6
100
AcDbEntity
  8
DIM
100
AcDbDimension
  2
*D50
 10
1916.233576560859
 20
918.708354954373
 30
0.0
 11
1931.542529560859
 21
928.6242609543732
 31
0.0
 12
491.4715955608587
 22
115.5843919543731
 32
0.0
 70
   132
 71
     5
 42
-1.0
  3
B
100
AcDbRadialDimension
 15
1983.378951560859
 25
962.199716954373
 35
0.0
 40
0.0
1001
ACAD
1000
DSTYLE
1002
{
1070
   288
1070
     1
1070
   289
1070
     3
1002
}
  0
ARC
  5
414
330
3F6
100
AcDbEntity
  8
0
100
AcDbCircle
 10
1867.499990560858
 20
0.0000019543731469
 30
0.0
 40
1000.0
100
AcDbArc
 50
86.96354799999998
 51
90.0
  0
LINE
  5
415
330
3F6
100
AcDbEntity
  8
CENTER
100
AcDbLine
 10
2064.906075560859
 20
797.903878954373
 30
0.0
 11
1744.881613560859
 21
797.903878954373
 31
0.0
  0
DIMENSION
  5
416
330
3F6
100
AcDbEntity
  8
DIM
100
AcDbDimension
  2
*D41
 10
1783.434370560859
 20
830.9567259543731
 30
0.0
 11
1771.623370560859
 21
885.3127259543731
 31
0.0
 12
491.4715955608587
 22
115.5843919543731
 32
0.0
 71
     5
 42
-1.0
  3
B
100
AcDbAlignedDimension
 13
1812.443002560859
 23
797.903878954373
 33
0.0
 14
1812.443002560859
 24
830.9567259543731
 34
0.0
 50
90.0
100
AcDbRotatedDimension
1001
ACAD
1000
DSTYLE
1002
{
1070
   289
1070
     3
1002
}
  0
LINE
  5
417
330
3F6
100
AcDbEntity
  8
0
100
AcDbLine
 10
1867.499990560858
 20
1000.000001954373
 30
0.0
 11
1685.856509560859
 21
1000.000001954373
 31
0.0
  0
ARC
  5
418
330
3F6
100
AcDbEntity
  8
0
100
AcDbCircle
 10
1685.856509560859
 20
1030.000001954373
 30
0.0
 40
30.0
100
AcDbArc
 50
222.587299
 51
270.0
  0
ARC
  5
419
330
3F6
100
AcDbEntity
  8
0
  6
Continuous
100
AcDbCircle
 10
-0.0000094391409675
 20
798.5050169543732
 30
0.0
 40
2000.0
100
AcDbArc
 50
356.3762759999999
 51
3.589401999999998
  0
ARC
  5
41A
330
3F6
100
AcDbEntity
  8
0
100
AcDbCircle
 10
1916.233576560859
 20
918.708354954373
 30
0.0
 40
80.0
100
AcDbArc
 50
3.589401999999998
 51
86.96354799999998
  0
ARC
  5
41B
330
3F6
100
AcDbEntity
  8
0
100
AcDbCircle
 10
1479.999990560859
 20
565.960183954373
 30
0.0
 40
500.0
100
AcDbArc
 50
77.90576899999997
 51
102.094231
  0
ENDBLK
  5
41D
330
3F6
100
AcDbEntity
  8
0
100
AcDbBlockEnd
  0
BLOCK
  5
929
330
923
100
AcDbEntity
  8
0
100
AcDbBlockBegin
  2
*D58
 70
     1
 10
0.0
 20
0.0
 30
0.0
  3
*D58
  1

  0
LINE
  5
924
330
923
100
AcDbEntity
  8
0
  6
ByBlock
 62
     0
100
AcDbLine
 10
-821.7833362099733
 20
449.3102746231083
 30
0.0
 11
-820.0456431027216
 21
426.5164153038749
 31
0.0
  0
MTEXT
  5
925
330
923
100
AcDbEntity
  8
0
  6
ByBlock
 62
     0
100
AcDbMText
 10
-824.0568180252942
 20
479.1322405657721
 30
0.0
 40
11.43
 41
0.0
 71
     5
 72
     1
  1
\A1;R805.5
 11
0.076014571620811
 21
-0.9971067068781078
 31
0.0
 73
     1
 44
1.0
1001
ACAD
1000
MTEXTBEGIN
1070
    73
1070
     1
1070
    44
1040
1.0
1070
    74
1070
     0
1000
MTEXTEND
  0
SOLID
  5
926
330
923
100
AcDbEntity
  8
0
  6
ByBlock
 62
     0
100
AcDbTrace
 10
-819.0150013797445
 20
438.0581527224292
 30
0.0
 11
-822.8139779329502
 21
437.7685372045539
 31
0.0
 12
-820.0456431027216
 22
426.5164153038749
 32
0.0
 13
-820.0456431027216
 23
426.5164153038749
 33
0.0
  0
POINT
  5
927
330
923
100
AcDbEntity
  8
DEFPOINTS
  6
ByBlock
 62
     0
100
AcDbPoint
 10
-820.0456431027216
 20
426.5164153038749
 30
0.0
  0
POINT
  5
928
330
923
100
AcDbEntity
  8
DEFPOINTS
  6
ByBlock
 62
     0
100
AcDbPoint
 10
-881.2753805432842
 20
1229.685867694184
 30
0.0
  0
ENDBLK
  5
92A
330
923
100
AcDbEntity
  8
0
100
AcDbBlockEnd
  0
BLOCK
  5
931
330
92B
100
AcDbEntity
  8
0
100
AcDbBlockBegin
  2
*D59
 70
     1
 10
0.0
 20
0.0
 30
0.0
  3
*D59
  1

  0
LINE
  5
92C
330
92B
100
AcDbEntity
  8
0
  6
ByBlock
 62
     0
100
AcDbLine
 10
-1328.144249973691
 20
448.4505134773463
 30
0.0
 11
-1329.513234890357
 21
425.631541539549
 31
0.0
  0
MTEXT
  5
92D
330
92B
100
AcDbEntity
  8
0
  6
ByBlock
 62
     0
100
AcDbMText
 10
-1326.353161374387
 20
478.3053350959631
 30
0.0
 40
11.43
 41
0.0
 71
     5
 72
     1
  1
\A1;R805.5
 11
0.0598856044035717
 21
0.9982052466227669
 31
0.0
 73
     1
 44
1.0
1001
ACAD
1000
MTEXTBEGIN
1070
    73
1070
     1
1070
    44
1040
1.0
1070
    74
1070
     0
1000
MTEXTEND
  0
SOLID
  5
92E
330
92B
100
AcDbEntity
  8
0
  6
ByBlock
 62
     0
100
AcDbTrace
 10
-1330.73032342684
 20
437.1551095848361
 30
0.0
 11
-1326.927161437208
 21
436.9269454320583
 31
0.0
 12
-1329.513234890357
 22
425.631541539549
 32
0.0
 13
-1329.513234890357
 23
425.631541539549
 33
0.0
  0
POINT
  5
92F
330
92B
100
AcDbEntity
  8
DEFPOINTS
  6
ByBlock
 62
     0
100
AcDbPoint
 10
-1329.513234890357
 20
425.631541539549
 30
0.0
  0
POINT
  5
930
330
92B
100
AcDbEntity
  8
DEFPOINTS
  6
ByBlock
 62
     0
100
AcDbPoint
 10
-1281.27538054328
 20
1229.685867694184
 30
0.0
  0
ENDBLK
  5
932
330
92B
100
AcDbEntity
  8
0
100
AcDbBlockEnd
  0
BLOCK
  5
93D
330
933
100
AcDbEntity
  8
0
100
AcDbBlockBegin
  2
*D60
 70
     1
 10
0.0
 20
0.0
 30
0.0
  3
*D60
  1

  0
LINE
  5
934
330
933
100
AcDbEntity
  8
0
  6
ByBlock
 62
     0
100
AcDbLine
 10
-1286.508240764961
 20
1297.399374592013
 30
0.0
 11
-1286.508240764961
 21
1291.625279293016
 31
0.0
  0
LINE
  5
935
330
933
100
AcDbEntity
  8
0
  6
ByBlock
 62
     0
100
AcDbLine
 10
-891.8016425317729
 20
1297.399374592013
 30
0.0
 11
-891.8016425317729
 21
1291.625279293016
 31
0.0
  0
LINE
  5
936
330
933
100
AcDbEntity
  8
0
  6
ByBlock
 62
     0
100
AcDbLine
 10
-1275.07824076496
 20
1299.245279293016
 30
0.0
 11
-903.2316425317727
 21
1299.245279293016
 31
0.0
  0
SOLID
  5
937
330
933
100
AcDbEntity
  8
0
  6
ByBlock
 62
     0
100
AcDbTrace
 10
-1275.07824076496
 20
1301.150279293016
 30
0.0
 11
-1275.07824076496
 21
1297.340279293016
 31
0.0
 12
-1286.508240764961
 22
1299.245279293016
 32
0.0
 13
-1286.508240764961
 23
1299.245279293016
 33
0.0
  0
SOLID
  5
938
330
933
100
AcDbEntity
  8
0
  6
ByBlock
 62
     0
100
AcDbTrace
 10
-903.2316425317727
 20
1301.150279293016
 30
0.0
 11
-903.2316425317727
 21
1297.340279293016
 31
0.0
 12
-891.8016425317729
 22
1299.245279293016
 32
0.0
 13
-891.8016425317729
 23
1299.245279293016
 33
0.0
  0
MTEXT
  5
939
330
933
100
AcDbEntity
  8
0
  6
ByBlock
 62
     0
100
AcDbMText
 10
-1089.154941648367
 20
1307.246279293016
 30
0.0
 40
11.43
 41
0.0
 71
     5
 72
     1
  1
\A1;394.7
 73
     1
 44
1.0
1001
ACAD
1000
MTEXTBEGIN
1070
    73
1070
     1
1070
    44
1040
1.0
1070
    74
1070
     0
1000
MTEXTEND
  0
POINT
  5
93A
330
933
100
AcDbEntity
  8
DEFPOINTS
  6
ByBlock
 62
     0
100
AcDbPoint
 10
-1286.508240764961
 20
1299.780624592013
 30
0.0
  0
POINT
  5
93B
330
933
100
AcDbEntity
  8
DEFPOINTS
  6
ByBlock
 62
     0
100
AcDbPoint
 10
-891.8016425317729
 20
1299.780624592013
 30
0.0
  0
POINT
  5
93C
330
933
100
AcDbEntity
  8
DEFPOINTS
  6
ByBlock
 62
     0
100
AcDbPoint
 10
-891.8016425317729
 20
1299.245279293016
 30
0.0
  0
ENDBLK
  5
93E
330
933
100
AcDbEntity
  8
0
100
AcDbBlockEnd
  0
BLOCK
  5
949
330
93F
100
AcDbEntity
  8
0
100
AcDbBlockBegin
  2
*D61
 70
     1
 10
0.0
 20
0.0
 30
0.0
  3
*D61
  1

  0
LINE
  5
940
330
93F
100
AcDbEntity
  8
0
  6
ByBlock
 62
     0
100
AcDbLine
 10
-1487.490401510303
 20
1572.163023651306
 30
0.0
 11
-1487.490401510303
 21
1227.25932199167
 31
0.0
  0
LINE
  5
941
330
93F
100
AcDbEntity
  8
0
  6
ByBlock
 62
     0
100
AcDbLine
 10
-725.5225405555117
 20
1546.865131478434
 30
0.0
 11
-725.5225405555117
 21
1227.25932199167
 31
0.0
  0
LINE
  5
942
330
93F
100
AcDbEntity
  8
0
  6
ByBlock
 62
     0
100
AcDbLine
 10
-1476.060401510303
 20
1234.87932199167
 30
0.0
 11
-736.9525405555117
 21
1234.87932199167
 31
0.0
  0
SOLID
  5
943
330
93F
100
AcDbEntity
  8
0
  6
ByBlock
 62
     0
100
AcDbTrace
 10
-1476.060401510303
 20
1236.78432199167
 30
0.0
 11
-1476.060401510303
 21
1232.97432199167
 31
0.0
 12
-1487.490401510303
 22
1234.87932199167
 32
0.0
 13
-1487.490401510303
 23
1234.87932199167
 33
0.0
  0
SOLID
  5
944
330
93F
100
AcDbEntity
  8
0
  6
ByBlock
 62
     0
100
AcDbTrace
 10
-736.9525405555117
 20
1236.78432199167
 30
0.0
 11
-736.9525405555117
 21
1232.97432199167
 31
0.0
 12
-725.5225405555117
 22
1234.87932199167
 32
0.0
 13
-725.5225405555117
 23
1234.87932199167
 33
0.0
  0
MTEXT
  5
945
330
93F
100
AcDbEntity
  8
0
  6
ByBlock
 62
     0
100
AcDbMText
 10
-1106.506471032907
 20
1242.880321991669
 30
0.0
 40
11.43
 41
0.0
 71
     5
 72
     1
  1
\A1;762.0
 73
     1
 44
1.0
1001
ACAD
1000
MTEXTBEGIN
1070
    73
1070
     1
1070
    44
1040
1.0
1070
    74
1070
     0
1000
MTEXTEND
  0
POINT
  5
946
330
93F
100
AcDbEntity
  8
DEFPOINTS
  6
ByBlock
 62
     0
100
AcDbPoint
 10
-1487.490401510303
 20
1574.544273651306
 30
0.0
  0
POINT
  5
947
330
93F
100
AcDbEntity
  8
DEFPOINTS
  6
ByBlock
 62
     0
100
AcDbPoint
 10
-725.5225405555117
 20
1549.246381478434
 30
0.0
  0
POINT
  5
948
330
93F
100
AcDbEntity
  8
DEFPOINTS
  6
ByBlock
 62
     0
100
AcDbPoint
 10
-725.5225405555117
 20
1234.87932199167
 30
0.0
  0
ENDBLK
  5
94A
330
93F
100
AcDbEntity
  8
0
100
AcDbBlockEnd
  0
BLOCK
  5
955
330
94B
100
AcDbEntity
  8
0
100
AcDbBlockBegin
  2
*D62
 70
     1
 10
0.0
 20
0.0
 30
0.0
  3
*D62
  1

  0
LINE
  5
94C
330
94B
100
AcDbEntity
  8
0
  6
ByBlock
 62
     0
100
AcDbLine
 10
-889.4203925333114
 20
1757.053019780829
 30
0.0
 11
-616.6975560479357
 21
1757.053019780829
 31
0.0
  0
LINE
  5
94D
330
94B
100
AcDbEntity
  8
0
  6
ByBlock
 62
     0
100
AcDbLine
 10
-889.4203925317727
 20
1342.053080691461
 30
0.0
 11
-616.6975560479357
 21
1342.053080691461
 31
0.0
  0
LINE
  5
94E
330
94B
100
AcDbEntity
  8
0
  6
ByBlock
 62
     0
100
AcDbLine
 10
-624.3175560479357
 20
1745.623019780829
 30
0.0
 11
-624.3175560479357
 21
1353.483080691461
 31
0.0
  0
SOLID
  5
94F
330
94B
100
AcDbEntity
  8
0
  6
ByBlock
 62
     0
100
AcDbTrace
 10
-626.2225560479357
 20
1745.623019780829
 30
0.0
 11
-622.4125560479357
 21
1745.623019780829
 31
0.0
 12
-624.3175560479357
 22
1757.053019780829
 32
0.0
 13
-624.3175560479357
 23
1757.053019780829
 33
0.0
  0
SOLID
  5
950
330
94B
100
AcDbEntity
  8
0
  6
ByBlock
 62
     0
100
AcDbTrace
 10
-626.2225560479357
 20
1353.483080691461
 30
0.0
 11
-622.4125560479357
 21
1353.483080691461
 31
0.0
 12
-624.3175560479357
 22
1342.053080691461
 32
0.0
 13
-624.3175560479357
 23
1342.053080691461
 33
0.0
  0
MTEXT
  5
951
330
94B
100
AcDbEntity
  8
0
  6
ByBlock
 62
     0
100
AcDbMText
 10
-632.3185560479356
 20
1549.553050236145
 30
0.0
 40
11.43
 41
0.0
 71
     5
 72
     1
  1
\A1;415.0
 11
0.0000000000000001
 21
1.0
 31
0.0
 73
     1
 44
1.0
1001
ACAD
1000
MTEXTBEGIN
1070
    73
1070
     1
1070
    44
1040
1.0
1070
    74
1070
     0
1000
MTEXTEND
  0
POINT
  5
952
330
94B
100
AcDbEntity
  8
DEFPOINTS
  6
ByBlock
 62
     0
100
AcDbPoint
 10
-891.8016425333117
 20
1757.053019780829
 30
0.0
  0
POINT
  5
953
330
94B
100
AcDbEntity
  8
DEFPOINTS
  6
ByBlock
 62
     0
100
AcDbPoint
 10
-891.8016425317729
 20
1342.053080691461
 30
0.0
  0
POINT
  5
954
330
94B
100
AcDbEntity
  8
DEFPOINTS
  6
ByBlock
 62
     0
100
AcDbPoint
 10
-624.3175560479357
 20
1342.053080691461
 30
0.0
  0
ENDBLK
  5
956
330
94B
100
AcDbEntity
  8
0
100
AcDbBlockEnd
  0
BLOCK
  5
961
330
957
100
AcDbEntity
  8
0
100
AcDbBlockBegin
  2
*D63
 70
     1
 10
0.0
 20
0.0
 30
0.0
  3
*D63
  1

  0
LINE
  5
958
330
957
100
AcDbEntity
  8
0
  6
ByBlock
 62
     0
100
AcDbLine
 10
-1288.889490767587
 20
1815.053077617787
 30
0.0
 11
-1586.418415029749
 21
1815.053077617787
 31
0.0
  0
LINE
  5
959
330
957
100
AcDbEntity
  8
0
  6
ByBlock
 62
     0
100
AcDbLine
 10
-1288.803674115684
 20
1342.053080691461
 30
0.0
 11
-1586.418415029749
 21
1342.053080691461
 31
0.0
  0
LINE
  5
95A
330
957
100
AcDbEntity
  8
0
  6
ByBlock
 62
     0
100
AcDbLine
 10
-1578.798415029749
 20
1803.623077617787
 30
0.0
 11
-1578.798415029749
 21
1353.483080691461
 31
0.0
  0
SOLID
  5
95B
330
957
100
AcDbEntity
  8
0
  6
ByBlock
 62
     0
100
AcDbTrace
 10
-1580.703415029749
 20
1803.623077617787
 30
0.0
 11
-1576.893415029749
 21
1803.623077617787
 31
0.0
 12
-1578.798415029749
 22
1815.053077617787
 32
0.0
 13
-1578.798415029749
 23
1815.053077617787
 33
0.0
  0
SOLID
  5
95C
330
957
100
AcDbEntity
  8
0
  6
ByBlock
 62
     0
100
AcDbTrace
 10
-1580.703415029749
 20
1353.483080691461
 30
0.0
 11
-1576.893415029749
 21
1353.483080691461
 31
0.0
 12
-1578.798415029749
 22
1342.053080691461
 32
0.0
 13
-1578.798415029749
 23
1342.053080691461
 33
0.0
  0
MTEXT
  5
95D
330
957
100
AcDbEntity
  8
0
  6
ByBlock
 62
     0
100
AcDbMText
 10
-1586.799415029749
 20
1578.553079154624
 30
0.0
 40
11.43
 41
0.0
 71
     5
 72
     1
  1
\A1;473.0
 11
0.0000000000000001
 21
1.0
 31
0.0
 73
     1
 44
1.0
1001
ACAD
1000
MTEXTBEGIN
1070
    73
1070
     1
1070
    44
1040
1.0
1070
    74
1070
     0
1000
MTEXTEND
  0
POINT
  5
95E
330
957
100
AcDbEntity
  8
DEFPOINTS
  6
ByBlock
 62
     0
100
AcDbPoint
 10
-1286.508240767587
 20
1815.053077617787
 30
0.0
  0
POINT
  5
95F
330
957
100
AcDbEntity
  8
DEFPOINTS
  6
ByBlock
 62
     0
100
AcDbPoint
 10
-1286.422424115684
 20
1342.053080691461
 30
0.0
  0
POINT
  5
960
330
957
100
AcDbEntity
  8
DEFPOINTS
  6
ByBlock
 62
     0
100
AcDbPoint
 10
-1578.798415029749
 20
1342.053080691461
 30
0.0
  0
ENDBLK
  5
962
330
957
100
AcDbEntity
  8
0
100
AcDbBlockEnd
  0
BLOCK
  5
97C
330
963
100
AcDbEntity
  8
0
100
AcDbBlockBegin
  2
A$C66E61FC0
 70
     0
 10
0.0
 20
0.0
 30
0.0
  3
A$C66E61FC0
  1

  0
DIMENSION
  5
964
330
963
100
AcDbEntity
  8
0
  6
Continuous
100
AcDbDimension
  2
*D62
 10
968.1968719959986
 20
916.421543863824
 30
0.0
 11
960.1958719959986
 21
1123.921513408506
 31
0.0
 12
1592.514428043934
 22
-425.6315368276373
 32
0.0
 71
     5
 42
-1.0
  3
B
100
AcDbAlignedDimension
 13
700.7127855106226
 23
1331.421482953192
 33
0.0
 14
700.7127855121615
 24
916.421543863824
 34
0.0
 50
90.0
100
AcDbRotatedDimension
1001
ACAD
1000
DSTYLE
1002
{
1070
   289
1070
     3
1002
}
  0
DIMENSION
  5
965
330
963
100
AcDbEntity
  8
0
  6
Continuous
100
AcDbDimension
  2
*D63
 10
13.71601301418559
 20
916.421543863824
 30
0.0
 11
5.715013014185616
 21
1152.921542326987
 31
0.0
 12
1592.514428043934
 22
-425.6315368276373
 32
0.0
 71
     5
 42
-1.0
  3
B
100
AcDbAlignedDimension
 13
306.0061872763472
 23
1389.42154079015
 33
0.0
 14
306.0920039282501
 24
916.421543863824
 34
0.0
 50
90.0
100
AcDbRotatedDimension
1001
ACAD
1000
DSTYLE
1002
{
1070
   289
1070
     3
1002
}
  0
LINE
  5
966
330
963
100
AcDbEntity
  8
0
  6
Continuous
100
AcDbLine
 10
306.0061872763472
 20
1465.874129970521
 30
0.0
 11
306.0061872763472
 21
880.1291564612727
 31
0.0
  0
ARC
  5
967
330
963
100
AcDbEntity
  8
0
100
AcDbCircle
 10
1706.006681364106
 20
1156.36518152089
 30
0.0
 40
1601.0
100
AcDbArc
 50
175.4305044827265
 51
184.8369572506891
  0
DIMENSION
  5
968
330
963
100
AcDbEntity
  8
0
  6
Continuous
100
AcDbDimension
  2
*D61
 10
866.9918874884226
 20
809.2477851640323
 30
0.0
 11
486.0079570110271
 21
817.2487851640322
 31
0.0
 12
1592.514428043934
 22
-425.6315368276373
 32
0.0
 71
     5
 42
-1.0
  3
B
100
AcDbAlignedDimension
 13
105.0240265336315
 23
1148.912736823669
 33
0.0
 14
866.9918874884226
 24
1123.614844650797
 34
0.0
100
AcDbRotatedDimension
1001
ACAD
1000
DSTYLE
1002
{
1070
   289
1070
     3
1002
}
  0
ARC
  5
969
330
963
100
AcDbEntity
  8
0
100
AcDbCircle
 10
-334.0030663248799
 20
1127.096355096448
 30
0.0
 40
1201.0
100
AcDbArc
 50
353.7690114744801
 51
5.898805121284717
  0
MTEXT
  5
96A
330
963
100
AcDbEntity
  8
DIM
100
AcDbMText
 10
415.7313126610023
 20
1095.835855271522
 30
0.0
 40
40.0
 41
200.43
 71
     1
 72
     5
  1
\f@方正舒体|b0|i0|c134|p2;\C3;503
 73
     1
 44
1.0
1001
ACAD
1000
MTEXTBEGIN
1070
    73
1070
     1
1070
    44
1040
1.0
1070
    74
1070
     0
1000
MTEXTEND
  0
LINE
  5
96B
330
963
100
AcDbEntity
  8
CENTER
100
AcDbLine
 10
700.7127855121615
 20
1429.556441676236
 30
0.0
 11
700.7127855121615
 21
857.7168910012787
 31
0.0
  0
ARC
  5
96C
330
963
100
AcDbEntity
  8
0
100
AcDbCircle
 10
221.3130517494876
 20
1030.727503327723
 30
0.0
 40
111.0
100
AcDbArc
 50
184.836957250689
 51
265.5292342865401
  0
DIMENSION
  5
96D
330
963
100
AcDbEntity
  8
DIM
 62
     1
100
AcDbDimension
  2
*D59
 10
311.2390475006543
 20
804.0543308665471
 30
0.0
 11
266.1612666695473
 21
52.67379826832597
 31
0.0
 12
1592.514428043934
 22
-425.6315368276373
 32
0.0
 70
   132
 71
     5
 42
-1.0
  3
B
100
AcDbRadialDimension
 15
263.0011931535776
 25
0.0000047119117426
 35
0.0
 40
0.0
1001
ACAD
1000
DSTYLE
1002
{
1070
   279
1070
     1
1070
   288
1070
     1
1070
   289
1070
     3
1002
}
  0
DIMENSION
  5
96E
330
963
100
AcDbEntity
  8
DIM
 62
     1
100
AcDbDimension
  2
*D58
 10
711.2390475006501
 20
804.0543308665471
 30
0.0
 11
768.4576100186401
 21
53.50070373813498
 31
0.0
 12
1592.514428043934
 22
-425.6315368276373
 32
0.0
 70
   132
 71
     5
 42
-1.0
  3
B
100
AcDbRadialDimension
 15
772.4687849412129
 25
0.8848784762375885
 35
0.0
 40
0.0
1001
ACAD
1000
DSTYLE
1002
{
1070
   279
1070
     1
1070
   288
1070
     1
1070
   289
1070
     3
1002
}
  0
LINE
  5
96F
330
963
100
AcDbEntity
  8
0
100
AcDbLine
 10
306.0920039282501
 20
916.421543863824
 30
0.0
 11
700.7127855121615
 21
916.421543863824
 31
0.0
  0
DIMENSION
  5
970
330
963
100
AcDbEntity
  8
DIM
100
AcDbDimension
  2
*D60
 10
700.7127855121615
 20
873.6137424653788
 30
0.0
 11
503.3594863955677
 21
881.6147424653788
 31
0.0
 12
1592.514428043934
 22
-425.6315368276373
 32
0.0
 71
     5
 42
-1.0
  3
B
100
AcDbAlignedDimension
 13
306.0061872789738
 23
874.1490877643755
 33
0.0
 14
700.7127855121615
 24
874.1490877643755
 34
0.0
100
AcDbRotatedDimension
1001
ACAD
1000
DSTYLE
1002
{
1070
   289
1070
     3
1002
}
  0
ARC
  5
971
330
963
100
AcDbEntity
  8
0
100
AcDbCircle
 10
306.0061872790066
 20
2113.921540790161
 30
0.0
 40
1197.5
100
AcDbArc
 50
265.5292342865398
 51
270.0041042836541
  0
ARC
  5
972
330
963
100
AcDbEntity
  8
0
100
AcDbCircle
 10
700.9969336751492
 20
1612.421486110027
 30
0.0
 40
696.0
100
AcDbArc
 50
269.9766587943427
 51
276.9947997051622
  0
ARC
  5
973
330
963
100
AcDbEntity
  8
0
100
AcDbCircle
 10
775.4040598026497
 20
1005.969031599827
 30
0.0
 40
85.0
100
AcDbArc
 50
276.9947997051622
 51
353.7690114744801
  0
ARC
  5
974
330
963
100
AcDbEntity
  8
0
100
AcDbCircle
 10
220.7427426407833
 20
1275.070835674691
 30
0.0
 40
111.0
100
AcDbArc
 50
94.50093295754513
 51
175.4305044827263
  0
LINE
  5
975
330
963
100
AcDbEntity
  8
CENTER
100
AcDbLine
 10
53.96332541786978
 20
1148.912736823669
 30
0.0
 11
923.1991255440151
 21
1148.912736823669
 31
0.0
  0
LINE
  5
976
330
963
100
AcDbEntity
  8
0
100
AcDbLine
 10
700.7127855106226
 20
1331.421482953192
 30
0.0
 11
502.7351679066033
 21
1331.421482953192
 31
0.0
  0
ARC
  5
977
330
963
100
AcDbEntity
  8
0
100
AcDbCircle
 10
391.2696319119111
 20
1275.070835674691
 30
0.0
 40
111.0
100
AcDbArc
 50
37.76439677360967
 51
85.49906704245492
  0
ARC
  5
978
330
963
100
AcDbEntity
  8
0
100
AcDbCircle
 10
502.7351679066033
 20
1361.421482953191
 30
0.0
 40
30.0
100
AcDbArc
 50
217.7643967736097
 51
270.0
  0
ARC
  5
979
330
963
100
AcDbEntity
  8
0
100
AcDbCircle
 10
306.0061872763472
 20
191.9215407901502
 30
0.0
 40
1197.5
100
AcDbArc
 50
85.49906704245486
 51
94.50093295754513
  0
ARC
  5
97A
330
963
100
AcDbEntity
  8
0
100
AcDbCircle
 10
700.9969336724824
 20
635.4214861100157
 30
0.0
 40
696.0
100
AcDbArc
 50
82.94061043469007
 51
90.02337471770639
  0
ARC
  5
97B
330
963
100
AcDbEntity
  8
0
100
AcDbCircle
 10
776.0876696989073
 20
1241.789675713502
 30
0.0
 40
85.0
100
AcDbArc
 50
5.898805121284766
 51
82.94061043469012
  0
ENDBLK
  5
97D
330
963
100
AcDbEntity
  8
0
100
AcDbBlockEnd
  0
BLOCK
  5
A15
330
A13
100
AcDbEntity
  8
0
100
AcDbBlockBegin
  2
A$C2EBD4E19
 70
     0
 10
0.0
 20
0.0
 30
0.0
  3
A$C2EBD4E19
  1

  0
MTEXT
  5
A14
330
A13
100
AcDbEntity
  8
DIM
 62
     1
100
AcDbMText
 10
11.37779424251494
 20
280.6806975410964
 30
0.0
 40
200.0
 41
1089.969
 71
     1
 72
     5
  1
\f宋体|b0|i0|c134|p54;\C4;滚焊
 73
     1
 44
1.0
1001
ACAD
1000
MTEXTBEGIN
1070
    73
1070
     1
1070
    44
1040
1.0
1070
    74
1070
     0
1000
MTEXTEND
  0
ENDBLK
  5
A16
330
A13
100
AcDbEntity
  8
0
100
AcDbBlockEnd
  0
BLOCK
  5
A23
330
A19
100
AcDbEntity
  8
0
100
AcDbBlockBegin
  2
*D66
 70
     1
 10
0.0
 20
0.0
 30
0.0
  3
*D66
  1

  0
LINE
  5
A1A
330
A19
100
AcDbEntity
  8
0
  6
ByBlock
 62
     0
100
AcDbLine
 10
940.1596435220255
 20
950.3757915693887
 30
0.0
 11
596.4411545110951
 21
950.3757915693887
 31
0.0
  0
LINE
  5
A1B
330
A19
100
AcDbEntity
  8
0
  6
ByBlock
 62
     0
100
AcDbLine
 10
940.1596435220243
 20
480.3706253079872
 30
0.0
 11
596.4411545110948
 21
480.3706253079872
 31
0.0
  0
LINE
  5
A1C
330
A19
100
AcDbEntity
  8
0
  6
ByBlock
 62
     0
100
AcDbLine
 10
607.8711545110951
 20
935.1357915693887
 30
0.0
 11
607.8711545110949
 21
495.6106253079872
 31
0.0
  0
SOLID
  5
A1D
330
A19
100
AcDbEntity
  8
0
  6
ByBlock
 62
     0
100
AcDbTrace
 10
605.3311545110951
 20
935.1357915693887
 30
0.0
 11
610.4111545110951
 21
935.1357915693887
 31
0.0
 12
607.8711545110951
 22
950.3757915693887
 32
0.0
 13
607.8711545110951
 23
950.3757915693887
 33
0.0
  0
SOLID
  5
A1E
330
A19
100
AcDbEntity
  8
0
  6
ByBlock
 62
     0
100
AcDbTrace
 10
605.331154511095
 20
495.6106253079872
 30
0.0
 11
610.4111545110948
 21
495.6106253079872
 31
0.0
 12
607.8711545110949
 22
480.3706253079872
 32
0.0
 13
607.8711545110949
 23
480.3706253079872
 33
0.0
  0
MTEXT
  5
A1F
330
A19
100
AcDbEntity
  8
0
  6
ByBlock
 62
     0
100
AcDbMText
 10
591.475454511095
 20
715.373208438688
 30
0.0
 40
14.478
 41
0.0
 71
     5
 72
     1
  1
\A1;470.0{\H10.134600;\S+2^ -2;}
 11
0.0000000000000001
 21
1.0
 31
0.0
 73
     1
 44
1.0
1001
ACAD
1000
MTEXTBEGIN
1070
    73
1070
     1
1070
    44
1040
1.0
1070
    74
1070
     0
1000
MTEXTEND
  0
POINT
  5
A20
330
A19
100
AcDbEntity
  8
DEFPOINTS
  6
ByBlock
 62
     0
100
AcDbPoint
 10
946.2556435220255
 20
950.3757915693887
 30
0.0
  0
POINT
  5
A21
330
A19
100
AcDbEntity
  8
DEFPOINTS
  6
ByBlock
 62
     0
100
AcDbPoint
 10
946.2556435220243
 20
480.3706253079872
 30
0.0
  0
POINT
  5
A22
330
A19
100
AcDbEntity
  8
DEFPOINTS
  6
ByBlock
 62
     0
100
AcDbPoint
 10
607.8711545110949
 20
480.3706253079872
 30
0.0
  0
ENDBLK
  5
A24
330
A19
100
AcDbEntity
  8
0
100
AcDbBlockEnd
  0
BLOCK
  5
A2F
330
A25
100
AcDbEntity
  8
0
100
AcDbBlockBegin
  2
*D67
 70
     1
 10
0.0
 20
0.0
 30
0.0
  3
*D67
  1

  0
LINE
  5
A26
330
A25
100
AcDbEntity
  8
0
  6
ByBlock
 62
     0
100
AcDbLine
 10
721.2556435220248
 20
659.3246253079874
 30
0.0
 11
721.2556435220248
 21
395.216425298879
 31
0.0
  0
LINE
  5
A27
330
A25
100
AcDbEntity
  8
0
  6
ByBlock
 62
     0
100
AcDbLine
 10
1494.255647628669
 20
669.3293681641087
 30
0.0
 11
1494.255647628669
 21
395.216425298879
 31
0.0
  0
LINE
  5
A28
330
A25
100
AcDbEntity
  8
0
  6
ByBlock
 62
     0
100
AcDbLine
 10
736.4956435220248
 20
406.6464252988788
 30
0.0
 11
1479.015647628669
 21
406.6464252988788
 31
0.0
  0
SOLID
  5
A29
330
A25
100
AcDbEntity
  8
0
  6
ByBlock
 62
     0
100
AcDbTrace
 10
736.4956435220248
 20
409.186425298879
 30
0.0
 11
736.4956435220248
 21
404.1064252988788
 31
0.0
 12
721.2556435220248
 22
406.6464252988788
 32
0.0
 13
721.2556435220248
 23
406.6464252988788
 33
0.0
  0
SOLID
  5
A2A
330
A25
100
AcDbEntity
  8
0
  6
ByBlock
 62
     0
100
AcDbTrace
 10
1479.015647628669
 20
409.186425298879
 30
0.0
 11
1479.015647628669
 21
404.1064252988788
 31
0.0
 12
1494.255647628669
 22
406.6464252988788
 32
0.0
 13
1494.255647628669
 23
406.6464252988788
 33
0.0
  0
MTEXT
  5
A2B
330
A25
100
AcDbEntity
  8
0
  6
ByBlock
 62
     0
100
AcDbMText
 10
1107.755645575347
 20
418.4574252988788
 30
0.0
 40
14.478
 41
0.0
 71
     5
 72
     1
  1
\A1;773.0
 73
     1
 44
1.0
1001
ACAD
1000
MTEXTBEGIN
1070
    73
1070
     1
1070
    44
1040
1.0
1070
    74
1070
     0
1000
MTEXTEND
  0
POINT
  5
A2C
330
A25
100
AcDbEntity
  8
DEFPOINTS
  6
ByBlock
 62
     0
100
AcDbPoint
 10
721.2556435220248
 20
665.4206253079875
 30
0.0
  0
POINT
  5
A2D
330
A25
100
AcDbEntity
  8
DEFPOINTS
  6
ByBlock
 62
     0
100
AcDbPoint
 10
1494.255647628669
 20
675.4253681641086
 30
0.0
  0
POINT
  5
A2E
330
A25
100
AcDbEntity
  8
DEFPOINTS
  6
ByBlock
 62
     0
100
AcDbPoint
 10
1494.255647628669
 20
406.6464252988788
 30
0.0
  0
ENDBLK
  5
A30
330
A25
100
AcDbEntity
  8
0
100
AcDbBlockEnd
  0
BLOCK
  5
A3B
330
A31
100
AcDbEntity
  8
0
100
AcDbBlockBegin
  2
*D68
 70
     1
 10
0.0
 20
0.0
 30
0.0
  3
*D68
  1

  0
LINE
  5
A32
330
A31
100
AcDbEntity
  8
0
  6
ByBlock
 62
     0
100
AcDbLine
 10
1355.352633220495
 20
870.4215215546811
 30
0.0
 11
1567.856838474537
 21
870.4215215546811
 31
0.0
  0
LINE
  5
A33
330
A31
100
AcDbEntity
  8
0
  6
ByBlock
 62
     0
100
AcDbLine
 10
1355.463753123751
 20
480.4206647865481
 30
0.0
 11
1567.856838474537
 21
480.4206647865481
 31
0.0
  0
LINE
  5
A34
330
A31
100
AcDbEntity
  8
0
  6
ByBlock
 62
     0
100
AcDbLine
 10
1556.426838474537
 20
855.1815215546811
 30
0.0
 11
1556.426838474537
 21
495.6606647865481
 31
0.0
  0
SOLID
  5
A35
330
A31
100
AcDbEntity
  8
0
  6
ByBlock
 62
     0
100
AcDbTrace
 10
1553.886838474537
 20
855.1815215546811
 30
0.0
 11
1558.966838474537
 21
855.1815215546811
 31
0.0
 12
1556.426838474537
 22
870.4215215546811
 32
0.0
 13
1556.426838474537
 23
870.4215215546811
 33
0.0
  0
SOLID
  5
A36
330
A31
100
AcDbEntity
  8
0
  6
ByBlock
 62
     0
100
AcDbTrace
 10
1553.886838474537
 20
495.6606647865481
 30
0.0
 11
1558.966838474537
 21
495.6606647865481
 31
0.0
 12
1556.426838474537
 22
480.4206647865481
 32
0.0
 13
1556.426838474537
 23
480.4206647865481
 33
0.0
  0
MTEXT
  5
A37
330
A31
100
AcDbEntity
  8
0
  6
ByBlock
 62
     0
100
AcDbMText
 10
1544.615838474537
 20
675.4210931706147
 30
0.0
 40
14.478
 41
0.0
 71
     5
 72
     1
  1
\A1;390.0
 11
0.0000000000000001
 21
1.0
 31
0.0
 73
     1
 44
1.0
1001
ACAD
1000
MTEXTBEGIN
1070
    73
1070
     1
1070
    44
1040
1.0
1070
    74
1070
     0
1000
MTEXTEND
  0
POINT
  5
A38
330
A31
100
AcDbEntity
  8
DEFPOINTS
  6
ByBlock
 62
     0
100
AcDbPoint
 10
1349.256633220495
 20
870.4215215546811
 30
0.0
  0
POINT
  5
A39
330
A31
100
AcDbEntity
  8
DEFPOINTS
  6
ByBlock
 62
     0
100
AcDbPoint
 10
1349.367753123752
 20
480.4206647865481
 30
0.0
  0
POINT
  5
A3A
330
A31
100
AcDbEntity
  8
DEFPOINTS
  6
ByBlock
 62
     0
100
AcDbPoint
 10
1556.426838474537
 20
480.4206647865481
 30
0.0
  0
ENDBLK
  5
A3C
330
A31
100
AcDbEntity
  8
0
100
AcDbBlockEnd
  0
BLOCK
  5
A50
330
A3D
100
AcDbEntity
  8
0
100
AcDbBlockBegin
  2
A$C02E67ED2
 70
     0
 10
0.0
 20
0.0
 30
0.0
  3
A$C02E67ED2
  1

  0
LINE
  5
A3E
330
A3D
100
AcDbEntity
  8
0
100
AcDbLine
 10
366.6038878684191
 20
85.15419485364326
 30
0.0
 11
769.6101354232296
 21
85.20421537653044
 31
0.0
  0
DIMENSION
  5
A3F
330
A3D
100
AcDbEntity
  8
0
100
AcDbDimension
  2
*D67
 10
914.6038919750639
 20
11.42999484453503
 30
0.0
 11
528.1038899217417
 21
23.24099484453501
 31
0.0
 12
-579.6517556536055
 22
-395.216430454344
 32
0.0
 71
     5
 42
-1.0
  3
B
100
AcDbAlignedDimension
 13
141.6038878684194
 23
270.2041948536436
 33
0.0
 14
914.6038919750639
 24
280.2089377097649
 34
0.0
100
AcDbRotatedDimension
  0
ARC
  5
A40
330
A3D
100
AcDbEntity
  8
0
100
AcDbCircle
 10
366.6038878684201
 20
55.15936111504469
 30
0.0
 40
500.0
100
AcDbArc
 50
77.90576918825266
 51
102.0942308117473
  0
DIMENSION
  5
A41
330
A3D
100
AcDbEntity
  8
DIM
100
AcDbDimension
  2
*D66
 10
28.21939885748952
 20
85.15419485364326
 30
0.0
 11
11.82369885748949
 21
320.1567779843442
 31
0.0
 12
-579.6517556536055
 22
-395.216430454344
 32
0.0
 71
     5
 42
-1.0
  3
B
100
AcDbAlignedDimension
 13
366.6038878684201
 23
555.1593611150447
 33
0.0
 14
366.6038878684191
 24
85.15419485364326
 34
0.0
 50
90.0
100
AcDbRotatedDimension
1001
ACAD
1000
DSTYLE
1002
{
1070
    47
1040
2.0
1070
    48
1040
2.000000001999998
1070
    71
1070
     1
1070
   146
1040
0.7
1070
   284
1070
     8
1070
   289
1070
     3
1002
}
  0
ARC
  5
A42
330
A3D
100
AcDbEntity
  8
0
  6
Continuous
100
AcDbCircle
 10
5141.60388786842
 20
270.2041948536436
 30
0.0
 40
5000.0
100
AcDbArc
 50
178.4972998456239
 51
181.0878450356236
  0
ARC
  5
A43
330
A3D
100
AcDbEntity
  8
0
  6
Continuous
100
AcDbCircle
 10
232.488855229421
 20
176.9861905958188
 30
0.0
 40
90.0
100
AcDbArc
 50
181.0878450356234
 51
268.4347899831731
  0
ARC
  5
A44
330
A3D
100
AcDbEntity
  8
0
  6
Continuous
100
AcDbCircle
 10
366.6038878684199
 20
5085.154194853643
 30
0.0
 40
5000.0
100
AcDbArc
 50
268.4347899831744
 51
270.014222930057
  0
ARC
  5
A45
330
A3D
100
AcDbEntity
  8
0
100
AcDbCircle
 10
293.2718502271029
 20
397.390879615858
 30
0.0
 40
150.0
100
AcDbArc
 50
102.0942308117473
 51
178.4972998456236
  0
LINE
  5
A46
330
A3D
100
AcDbEntity
  8
0
100
AcDbLine
 10
769.6048775668899
 20
475.2050911003373
 30
0.0
 11
584.0750798085602
 21
475.2050911003373
 31
0.0
  0
MTEXT
  5
A47
330
A3D
100
AcDbEntity
  8
0
100
AcDbMText
 10
458.3002352917465
 20
179.1203078819817
 30
0.0
 40
30.0
 41
227.6636
 71
     1
 72
     5
  1
3221A
 73
     1
 44
1.0
1001
ACAD
1000
MTEXTBEGIN
1070
    73
1070
     1
1070
    44
1040
1.0
1070
    74
1070
     0
1000
MTEXTEND
  0
ARC
  5
A48
330
A3D
100
AcDbEntity
  8
0
100
AcDbCircle
 10
439.9359255097372
 20
397.390879615858
 30
0.0
 40
150.0
100
AcDbArc
 50
36.79601045496904
 51
77.90576918825269
  0
ARC
  5
A49
330
A3D
100
AcDbEntity
  8
0
100
AcDbCircle
 10
584.0750798085602
 20
505.2050911003375
 30
0.0
 40
30.0
100
AcDbArc
 50
216.7960104549691
 51
270.0
  0
DIMENSION
  5
A4A
330
A3D
100
AcDbEntity
  8
0
100
AcDbDimension
  2
*D68
 10
976.7750828209319
 20
85.2042343322042
 30
0.0
 11
964.9640828209321
 21
280.2046627162708
 31
0.0
 12
-579.6517556536055
 22
-395.216430454344
 32
0.0
 71
     5
 42
-1.0
  3
B
100
AcDbAlignedDimension
 13
769.6048775668899
 23
475.2050911003373
 33
0.0
 14
769.715997470146
 24
85.20423433220424
 34
0.0
 50
90.0
100
AcDbRotatedDimension
  0
ARC
  5
A4B
330
A3D
100
AcDbEntity
  8
0
100
AcDbCircle
 10
-585.3960877887796
 20
280.4553285945406
 30
0.0
 40
1500.0
100
AcDbArc
 50
355.3632624412298
 51
4.61641793091158
  0
ARC
  5
A4C
330
A3D
100
AcDbEntity
  8
0
100
AcDbCircle
 10
834.9402444607243
 20
165.2611304245516
 30
0.0
 40
75.0
100
AcDbArc
 50
278.8474398720405
 51
355.36326244123
  0
ARC
  5
A4D
330
A3D
100
AcDbEntity
  8
0
100
AcDbCircle
 10
769.5735363744619
 20
585.20421403704
 30
0.0
 40
500.0
100
AcDbArc
 50
270.0041939419942
 51
278.8474398720405
  0
ARC
  5
A4E
330
A3D
100
AcDbEntity
  8
0
100
AcDbCircle
 10
834.9810081184516
 20
395.1458051919424
 30
0.0
 40
75.0
100
AcDbArc
 50
4.616417930911594
 51
81.15048338780525
  0
ARC
  5
A4F
330
A3D
100
AcDbEntity
  8
0
100
AcDbCircle
 10
769.5990788376925
 20
-24.79490886603731
 30
0.0
 40
500.0
100
AcDbArc
 50
81.15048338780528
 51
90.00066448508937
  0
ENDBLK
  5
A51
330
A3D
100
AcDbEntity
  8
0
100
AcDbBlockEnd
  0
BLOCK
  5
A65
330
A5B
100
AcDbEntity
  8
0
100
AcDbBlockBegin
  2
*D70
 70
     1
 10
0.0
 20
0.0
 30
0.0
  3
*D70
  1

  0
LINE
  5
A5C
330
A5B
100
AcDbEntity
  8
0
  6
ByBlock
 62
     0
100
AcDbLine
 10
15312.92166370261
 20
-13751.32373837239
 30
0.0
 11
15340.7445769849
 21
-13751.32373837239
 31
0.0
  0
LINE
  5
A5D
330
A5B
100
AcDbEntity
  8
0
  6
ByBlock
 62
     0
100
AcDbLine
 10
15312.92166370261
 20
-13697.2908496384
 30
0.0
 11
15340.7445769849
 21
-13697.2908496384
 31
0.0
  0
LINE
  5
A5E
330
A5B
100
AcDbEntity
  8
0
  6
ByBlock
 62
     0
100
AcDbLine
 10
15333.1245769849
 20
-13739.89373837239
 30
0.0
 11
15333.1245769849
 21
-13708.7208496384
 31
0.0
  0
SOLID
  5
A5F
330
A5B
100
AcDbEntity
  8
0
  6
ByBlock
 62
     0
100
AcDbTrace
 10
15331.2195769849
 20
-13739.89373837239
 30
0.0
 11
15335.0295769849
 21
-13739.89373837239
 31
0.0
 12
15333.1245769849
 22
-13751.32373837239
 32
0.0
 13
15333.1245769849
 23
-13751.32373837239
 33
0.0
  0
SOLID
  5
A60
330
A5B
100
AcDbEntity
  8
0
  6
ByBlock
 62
     0
100
AcDbTrace
 10
15331.2195769849
 20
-13708.7208496384
 30
0.0
 11
15335.0295769849
 21
-13708.7208496384
 31
0.0
 12
15333.1245769849
 22
-13697.2908496384
 32
0.0
 13
15333.1245769849
 23
-13697.2908496384
 33
0.0
  0
MTEXT
  5
A61
330
A5B
100
AcDbEntity
  8
0
  6
ByBlock
 62
     0
100
AcDbMText
 10
15325.1235769849
 20
-13724.30729400539
 30
0.0
 40
11.43
 41
0.0
 71
     5
 72
     1
  1
\A1;54.0
 11
0.0000000000000001
 21
1.0
 31
0.0
 73
     1
 44
1.0
1001
ACAD
1000
MTEXTBEGIN
1070
    73
1070
     1
1070
    44
1040
1.0
1070
    74
1070
     0
1000
MTEXTEND
  0
POINT
  5
A62
330
A5B
100
AcDbEntity
  8
DEFPOINTS
  6
ByBlock
 62
     0
100
AcDbPoint
 10
15310.54041370261
 20
-13751.32373837239
 30
0.0
  0
POINT
  5
A63
330
A5B
100
AcDbEntity
  8
DEFPOINTS
  6
ByBlock
 62
     0
100
AcDbPoint
 10
15310.54041370261
 20
-13697.2908496384
 30
0.0
  0
POINT
  5
A64
330
A5B
100
AcDbEntity
  8
DEFPOINTS
  6
ByBlock
 62
     0
100
AcDbPoint
 10
15333.1245769849
 20
-13697.2908496384
 30
0.0
  0
ENDBLK
  5
A66
330
A5B
100
AcDbEntity
  8
0
100
AcDbBlockEnd
  0
BLOCK
  5
A71
330
A67
100
AcDbEntity
  8
0
100
AcDbBlockBegin
  2
*D71
 70
     1
 10
0.0
 20
0.0
 30
0.0
  3
*D71
  1

  0
LINE
  5
A68
330
A67
100
AcDbEntity
  8
0
  6
ByBlock
 62
     0
100
AcDbLine
 10
14705.42005188563
 20
-13697.2908496384
 30
0.0
 11
14675.83397712086
 21
-13697.2908496384
 31
0.0
  0
LINE
  5
A69
330
A67
100
AcDbEntity
  8
0
  6
ByBlock
 62
     0
100
AcDbLine
 10
14705.42005188563
 20
-13757.2908496384
 30
0.0
 11
14675.83397712086
 21
-13757.2908496384
 31
0.0
  0
LINE
  5
A6A
330
A67
100
AcDbEntity
  8
0
  6
ByBlock
 62
     0
100
AcDbLine
 10
14683.45397712086
 20
-13708.7208496384
 30
0.0
 11
14683.45397712086
 21
-13745.8608496384
 31
0.0
  0
SOLID
  5
A6B
330
A67
100
AcDbEntity
  8
0
  6
ByBlock
 62
     0
100
AcDbTrace
 10
14681.54897712086
 20
-13708.7208496384
 30
0.0
 11
14685.35897712086
 21
-13708.7208496384
 31
0.0
 12
14683.45397712086
 22
-13697.2908496384
 32
0.0
 13
14683.45397712086
 23
-13697.2908496384
 33
0.0
  0
SOLID
  5
A6C
330
A67
100
AcDbEntity
  8
0
  6
ByBlock
 62
     0
100
AcDbTrace
 10
14681.54897712086
 20
-13745.8608496384
 30
0.0
 11
14685.35897712086
 21
-13745.8608496384
 31
0.0
 12
14683.45397712086
 22
-13757.2908496384
 32
0.0
 13
14683.45397712086
 23
-13757.2908496384
 33
0.0
  0
MTEXT
  5
A6D
330
A67
100
AcDbEntity
  8
0
  6
ByBlock
 62
     0
100
AcDbMText
 10
14675.45297712086
 20
-13727.2908496384
 30
0.0
 40
11.43
 41
0.0
 71
     5
 72
     1
  1
\A1;60.0
 11
0.0000000000000001
 21
1.0
 31
0.0
 73
     1
 44
1.0
1001
ACAD
1000
MTEXTBEGIN
1070
    73
1070
     1
1070
    44
1040
1.0
1070
    74
1070
     0
1000
MTEXTEND
  0
POINT
  5
A6E
330
A67
100
AcDbEntity
  8
DEFPOINTS
  6
ByBlock
 62
     0
100
AcDbPoint
 10
14707.80130188563
 20
-13697.2908496384
 30
0.0
  0
POINT
  5
A6F
330
A67
100
AcDbEntity
  8
DEFPOINTS
  6
ByBlock
 62
     0
100
AcDbPoint
 10
14707.80130188563
 20
-13757.2908496384
 30
0.0
  0
POINT
  5
A70
330
A67
100
AcDbEntity
  8
DEFPOINTS
  6
ByBlock
 62
     0
100
AcDbPoint
 10
14683.45397712086
 20
-13757.2908496384
 30
0.0
  0
ENDBLK
  5
A72
330
A67
100
AcDbEntity
  8
0
100
AcDbBlockEnd
  0
BLOCK
  5
A7D
330
A73
100
AcDbEntity
  8
0
100
AcDbBlockBegin
  2
*D72
 70
     1
 10
0.0
 20
0.0
 30
0.0
  3
*D72
  1

  0
LINE
  5
A74
330
A73
100
AcDbEntity
  8
0
  6
ByBlock
 62
     0
100
AcDbLine
 10
15147.0558766504
 20
-13565.32373837239
 30
0.0
 11
15415.74755662084
 21
-13565.32373837239
 31
0.0
  0
LINE
  5
A75
330
A73
100
AcDbEntity
  8
0
  6
ByBlock
 62
     0
100
AcDbLine
 10
15147.02957021599
 20
-13937.29050356427
 30
0.0
 11
15415.74755662084
 21
-13937.29050356427
 31
0.0
  0
LINE
  5
A76
330
A73
100
AcDbEntity
  8
0
  6
ByBlock
 62
     0
100
AcDbLine
 10
15408.12755662084
 20
-13576.75373837239
 30
0.0
 11
15408.12755662084
 21
-13925.86050356427
 31
0.0
  0
SOLID
  5
A77
330
A73
100
AcDbEntity
  8
0
  6
ByBlock
 62
     0
100
AcDbTrace
 10
15406.22255662084
 20
-13576.75373837239
 30
0.0
 11
15410.03255662084
 21
-13576.75373837239
 31
0.0
 12
15408.12755662084
 22
-13565.32373837239
 32
0.0
 13
15408.12755662084
 23
-13565.32373837239
 33
0.0
  0
SOLID
  5
A78
330
A73
100
AcDbEntity
  8
0
  6
ByBlock
 62
     0
100
AcDbTrace
 10
15406.22255662084
 20
-13925.86050356427
 30
0.0
 11
15410.03255662084
 21
-13925.86050356427
 31
0.0
 12
15408.12755662084
 22
-13937.29050356427
 32
0.0
 13
15408.12755662084
 23
-13937.29050356427
 33
0.0
  0
MTEXT
  5
A79
330
A73
100
AcDbEntity
  8
0
  6
ByBlock
 62
     0
100
AcDbMText
 10
15400.12655662084
 20
-13751.30712096833
 30
0.0
 40
11.43
 41
0.0
 71
     5
 72
     1
  1
\A1;372.0
 11
0.0000000000000001
 21
1.0
 31
0.0
 73
     1
 44
1.0
1001
ACAD
1000
MTEXTBEGIN
1070
    73
1070
     1
1070
    44
1040
1.0
1070
    74
1070
     0
1000
MTEXTEND
  0
POINT
  5
A7A
330
A73
100
AcDbEntity
  8
DEFPOINTS
  6
ByBlock
 62
     0
100
AcDbPoint
 10
15144.6746266504
 20
-13565.32373837239
 30
0.0
  0
POINT
  5
A7B
330
A73
100
AcDbEntity
  8
DEFPOINTS
  6
ByBlock
 62
     0
100
AcDbPoint
 10
15144.64832021599
 20
-13937.29050356427
 30
0.0
  0
POINT
  5
A7C
330
A73
100
AcDbEntity
  8
DEFPOINTS
  6
ByBlock
 62
     0
100
AcDbPoint
 10
15408.12755662084
 20
-13937.29050356427
 30
0.0
  0
ENDBLK
  5
A7E
330
A73
100
AcDbEntity
  8
0
100
AcDbBlockEnd
  0
BLOCK
  5
A89
330
A7F
100
AcDbEntity
  8
0
100
AcDbBlockBegin
  2
*D73
 70
     1
 10
0.0
 20
0.0
 30
0.0
  3
*D73
  1

  0
LINE
  5
A80
330
A7F
100
AcDbEntity
  8
0
  6
ByBlock
 62
     0
100
AcDbLine
 10
14747.2933766504
 20
-13457.7908496384
 30
0.0
 11
14339.31725127259
 21
-13457.7908496384
 31
0.0
  0
LINE
  5
A81
330
A7F
100
AcDbEntity
  8
0
  6
ByBlock
 62
     0
100
AcDbLine
 10
14747.2933766504
 20
-13936.7908496384
 30
0.0
 11
14339.31725127259
 21
-13936.7908496384
 31
0.0
  0
LINE
  5
A82
330
A7F
100
AcDbEntity
  8
0
  6
ByBlock
 62
     0
100
AcDbLine
 10
14346.93725127259
 20
-13469.2208496384
 30
0.0
 11
14346.93725127259
 21
-13925.3608496384
 31
0.0
  0
SOLID
  5
A83
330
A7F
100
AcDbEntity
  8
0
  6
ByBlock
 62
     0
100
AcDbTrace
 10
14345.03225127259
 20
-13469.2208496384
 30
0.0
 11
14348.8422512726
 21
-13469.2208496384
 31
0.0
 12
14346.93725127259
 22
-13457.7908496384
 32
0.0
 13
14346.93725127259
 23
-13457.7908496384
 33
0.0
  0
SOLID
  5
A84
330
A7F
100
AcDbEntity
  8
0
  6
ByBlock
 62
     0
100
AcDbTrace
 10
14345.03225127259
 20
-13925.3608496384
 30
0.0
 11
14348.8422512726
 21
-13925.3608496384
 31
0.0
 12
14346.93725127259
 22
-13936.7908496384
 32
0.0
 13
14346.93725127259
 23
-13936.7908496384
 33
0.0
  0
MTEXT
  5
A85
330
A7F
100
AcDbEntity
  8
0
  6
ByBlock
 62
     0
100
AcDbMText
 10
14338.9362512726
 20
-13697.2908496384
 30
0.0
 40
11.43
 41
0.0
 71
     5
 72
     1
  1
\A1;479.0
 11
0.0000000000000001
 21
1.0
 31
0.0
 73
     1
 44
1.0
1001
ACAD
1000
MTEXTBEGIN
1070
    73
1070
     1
1070
    44
1040
1.0
1070
    74
1070
     0
1000
MTEXTEND
  0
POINT
  5
A86
330
A7F
100
AcDbEntity
  8
DEFPOINTS
  6
ByBlock
 62
     0
100
AcDbPoint
 10
14749.6746266504
 20
-13457.7908496384
 30
0.0
  0
POINT
  5
A87
330
A7F
100
AcDbEntity
  8
DEFPOINTS
  6
ByBlock
 62
     0
100
AcDbPoint
 10
14749.6746266504
 20
-13936.7908496384
 30
0.0
  0
POINT
  5
A88
330
A7F
100
AcDbEntity
  8
DEFPOINTS
  6
ByBlock
 62
     0
100
AcDbPoint
 10
14346.93725127259
 20
-13936.7908496384
 30
0.0
  0
ENDBLK
  5
A8A
330
A7F
100
AcDbEntity
  8
0
100
AcDbBlockEnd
  0
BLOCK
  5
A95
330
A8B
100
AcDbEntity
  8
0
100
AcDbBlockBegin
  2
*D74
 70
     1
 10
0.0
 20
0.0
 30
0.0
  3
*D74
  1

  0
LINE
  5
A8C
330
A8B
100
AcDbEntity
  8
0
  6
ByBlock
 62
     0
100
AcDbLine
 10
14475.1746266504
 20
-13759.6720996384
 30
0.0
 11
14475.1746266504
 21
-14037.09713993113
 31
0.0
  0
LINE
  5
A8D
330
A8B
100
AcDbEntity
  8
0
  6
ByBlock
 62
     0
100
AcDbLine
 10
15243.1746266504
 20
-13753.20498837239
 30
0.0
 11
15243.1746266504
 21
-14037.09713993113
 31
0.0
  0
LINE
  5
A8E
330
A8B
100
AcDbEntity
  8
0
  6
ByBlock
 62
     0
100
AcDbLine
 10
14486.6046266504
 20
-14029.47713993113
 30
0.0
 11
15231.7446266504
 21
-14029.47713993113
 31
0.0
  0
SOLID
  5
A8F
330
A8B
100
AcDbEntity
  8
0
  6
ByBlock
 62
     0
100
AcDbTrace
 10
14486.6046266504
 20
-14027.57213993113
 30
0.0
 11
14486.6046266504
 21
-14031.38213993113
 31
0.0
 12
14475.1746266504
 22
-14029.47713993113
 32
0.0
 13
14475.1746266504
 23
-14029.47713993113
 33
0.0
  0
SOLID
  5
A90
330
A8B
100
AcDbEntity
  8
0
  6
ByBlock
 62
     0
100
AcDbTrace
 10
15231.7446266504
 20
-14027.57213993113
 30
0.0
 11
15231.7446266504
 21
-14031.38213993113
 31
0.0
 12
15243.1746266504
 22
-14029.47713993113
 32
0.0
 13
15243.1746266504
 23
-14029.47713993113
 33
0.0
  0
MTEXT
  5
A91
330
A8B
100
AcDbEntity
  8
0
  6
ByBlock
 62
     0
100
AcDbMText
 10
14859.1746266504
 20
-14021.47613993113
 30
0.0
 40
11.43
 41
0.0
 71
     5
 72
     1
  1
\A1;768.0
 73
     1
 44
1.0
1001
ACAD
1000
MTEXTBEGIN
1070
    73
1070
     1
1070
    44
1040
1.0
1070
    74
1070
     0
1000
MTEXTEND
  0
POINT
  5
A92
330
A8B
100
AcDbEntity
  8
DEFPOINTS
  6
ByBlock
 62
     0
100
AcDbPoint
 10
14475.1746266504
 20
-13757.2908496384
 30
0.0
  0
POINT
  5
A93
330
A8B
100
AcDbEntity
  8
DEFPOINTS
  6
ByBlock
 62
     0
100
AcDbPoint
 10
15243.1746266504
 20
-13750.82373837239
 30
0.0
  0
POINT
  5
A94
330
A8B
100
AcDbEntity
  8
DEFPOINTS
  6
ByBlock
 62
     0
100
AcDbPoint
 10
15243.1746266504
 20
-14029.47713993113
 30
0.0
  0
ENDBLK
  5
A96
330
A8B
100
AcDbEntity
  8
0
100
AcDbBlockEnd
  0
BLOCK
  5
AAF
330
A97
100
AcDbEntity
  8
0
100
AcDbBlockBegin
  2
A$C607769D7
 70
     0
 10
0.0
 20
0.0
 30
0.0
  3
A$C607769D7
  1

  0
DIMENSION
  5
A98
330
A97
100
AcDbEntity
  8
DIM
 62
     1
100
AcDbDimension
  2
*D74
 10
911.4533588838712
 20
7.619988018836012
 30
0.0
 11
527.4533588838711
 21
15.62098801883621
 31
0.0
 12
-14331.72126776653
 22
14037.09712794997
 32
0.0
 71
     5
 42
-1.0
  3
B
100
AcDbAlignedDimension
 13
143.453358883873
 23
279.8062783115674
 33
0.0
 14
911.4533588838712
 24
286.2733895775837
 34
0.0
100
AcDbRotatedDimension
1001
ACAD
1000
DSTYLE
1002
{
1070
   279
1070
     1
1070
   289
1070
     3
1002
}
  0
ARC
  5
A99
330
A97
100
AcDbEntity
  8
0
  6
Continuous
100
AcDbCircle
 10
350.6832515704937
 20
376.6389086883955
 30
0.0
 40
200.5
100
AcDbArc
 50
93.77485198031422
 51
172.048643202913
  0
ARC
  5
A9A
330
A97
100
AcDbEntity
  8
0
  6
Continuous
100
AcDbCircle
 10
247.1493471188515
 20
208.3684253541214
 30
0.0
 40
100.5
100
AcDbArc
 50
185.1231835062526
 51
264.8850436516079
  0
DIMENSION
  5
A9B
330
A97
100
AcDbEntity
  8
DIM
 62
     1
100
AcDbDimension
  2
*D73
 10
13.71598350606655
 20
100.3062783115674
 30
0.0
 11
5.714983506066346
 21
339.8062783115674
 31
0.0
 12
-14333.22126776653
 22
14037.09712794997
 32
0.0
 71
     5
 42
-1.0
  3
B
100
AcDbAlignedDimension
 13
416.4533588838731
 23
579.3062783115674
 33
0.0
 14
416.4533588838731
 24
100.3062783115674
 34
0.0
 50
90.0
100
AcDbRotatedDimension
1001
ACAD
1000
DSTYLE
1002
{
1070
   279
1070
     1
1070
   289
1070
     3
1002
}
  0
LINE
  5
A9C
330
A97
100
AcDbEntity
  8
CENTER
100
AcDbLine
 10
989.3584189136907
 20
339.8062783115674
 30
0.0
 11
73.94685238152124
 21
339.8062783115674
 31
0.0
  0
LINE
  5
A9D
330
A97
100
AcDbEntity
  8
CENTER
100
AcDbLine
 10
67.42800465480105
 20
279.8062783115674
 30
0.0
 11
705.7429446916613
 21
279.8062783115674
 31
0.0
  0
ARC
  5
A9E
330
A97
100
AcDbEntity
  8
0
  6
Continuous
100
AcDbCircle
 10
1043.953358883873
 20
279.8062783115674
 30
0.0
 40
900.5
100
AcDbArc
 50
172.048643202913
 51
185.1231835062526
  0
LINE
  5
A9F
330
A97
100
AcDbEntity
  8
0
  6
Continuous
100
AcDbLine
 10
911.4533588838712
 20
191.2733895775835
 30
0.0
 11
911.4533588838712
 21
381.2733895775837
 31
0.0
  0
DIMENSION
  5
AA0
330
A97
100
AcDbEntity
  8
DIM
 62
     1
100
AcDbDimension
  2
*D72
 10
1076.406288854312
 20
100.3066243856974
 30
0.0
 11
1068.405288854312
 21
286.2900069816405
 31
0.0
 12
-14331.72126776653
 22
14037.59712794997
 32
0.0
 71
     5
 42
-1.0
  3
B
100
AcDbAlignedDimension
 13
812.9533588838732
 23
472.2733895775836
 33
0.0
 14
812.9270524494623
 24
100.3066243856974
 34
0.0
 50
90.0
100
AcDbRotatedDimension
1001
ACAD
1000
DSTYLE
1002
{
1070
   279
1070
     1
1070
   289
1070
     3
1002
}
  0
DIMENSION
  5
AA1
330
A97
100
AcDbEntity
  8
DIM
  6
Continuous
100
AcDbDimension
  2
*D70
 10
1001.403309218374
 20
339.8062783115674
 30
0.0
 11
993.4023092183743
 21
312.7898339445764
 31
0.0
 12
-14331.72126776653
 22
14037.09712794997
 32
0.0
 71
     5
 42
-1.0
  3
B
100
AcDbAlignedDimension
 13
978.8191459360824
 23
285.7733895775837
 33
0.0
 14
978.8191459360824
 24
339.8062783115674
 34
0.0
 50
90.0
100
AcDbRotatedDimension
1001
ACAD
1000
DSTYLE
1002
{
1070
    47
1040
2.0
1070
    48
1040
2.0
1070
   146
1040
0.7
1070
   284
1070
     8
1070
   289
1070
     3
1002
}
  0
LINE
  5
AA2
330
A97
100
AcDbEntity
  8
CENTER
100
AcDbLine
 10
416.4533588838731
 20
631.195772427396
 30
0.0
 11
416.4533588838731
 21
65.58957588699922
 31
0.0
  0
DIMENSION
  5
AA3
330
A97
100
AcDbEntity
  8
DIM
  6
Continuous
100
AcDbDimension
  2
*D71
 10
350.2327093543354
 20
279.8062783115674
 30
0.0
 11
342.2317093543352
 21
309.8062783115675
 31
0.0
 12
-14333.22126776653
 22
14037.09712794997
 32
0.0
 71
     5
 42
-1.0
  3
B
100
AcDbAlignedDimension
 13
374.5800341191025
 23
339.8062783115674
 33
0.0
 14
374.5800341191025
 24
279.8062783115674
 34
0.0
 50
90.0
100
AcDbRotatedDimension
  0
LINE
  5
AA4
330
A97
100
AcDbEntity
  8
CENTER
100
AcDbLine
 10
812.9533588838732
 20
84.65047444833908
 30
0.0
 11
812.9533588838732
 21
488.357232433298
 31
0.0
  0
LINE
  5
AA5
330
A97
100
AcDbEntity
  8
CENTER
100
AcDbLine
 10
720.4533588838712
 20
286.2733895775837
 30
0.0
 11
978.8191459360824
 21
286.2733895775837
 31
0.0
  0
ARC
  5
AA6
330
A97
100
AcDbEntity
  8
0
  6
Continuous
100
AcDbCircle
 10
815.4533588838713
 20
196.3071733613669
 30
0.0
 40
96.0337837837838
100
AcDbArc
 50
268.4925784369613
 51
358.4722030781401
  0
LINE
  5
AA7
330
A97
100
AcDbEntity
  8
0
  6
Continuous
100
AcDbLine
 10
416.4533588838731
 20
100.3062783115674
 30
0.0
 11
817.9533588838712
 21
100.3062783115674
 31
0.0
  0
MTEXT
  5
AA8
330
A97
100
AcDbEntity
  8
DIM
 62
     1
100
AcDbMText
 10
472.4800368211798
 20
246.3894514723725
 30
0.0
 40
50.0
 41
280.2889
 71
     1
 72
     5
  1
\f宋体|b0|i0|c134|p2;3221B
 73
     1
 44
1.0
1001
ACAD
1000
MTEXTBEGIN
1070
    73
1070
     1
1070
    44
1040
1.0
1070
    74
1070
     0
1000
MTEXTEND
  0
ARC
  5
AA9
330
A97
100
AcDbEntity
  8
0
  6
Continuous
100
AcDbCircle
 10
416.4533588838731
 20
2099.806278311568
 30
0.0
 40
1999.5
100
AcDbArc
 50
264.885043651608
 51
270.0
  0
ARC
  5
AAA
330
A97
100
AcDbEntity
  8
0
  6
Continuous
100
AcDbCircle
 10
815.4533588838713
 20
376.2396057938004
 30
0.0
 40
96.0337837837838
100
AcDbArc
 50
1.527796921859966
 51
90.0
  0
ARC
  5
AAB
330
A97
100
AcDbEntity
  8
0
  6
Continuous
100
AcDbCircle
 10
482.2234661972523
 20
376.6389086883955
 30
0.0
 40
200.5
100
AcDbArc
 50
33.02821568570931
 51
86.22514801968549
  0
ARC
  5
AAC
330
A97
100
AcDbEntity
  8
0
100
AcDbCircle
 10
416.4533588838711
 20
-620.1937216884324
 30
0.0
 40
1199.5
100
AcDbArc
 50
86.22514801968554
 51
93.77485198031424
  0
ARC
  5
AAD
330
A97
100
AcDbEntity
  8
0
  6
Continuous
100
AcDbCircle
 10
675.4751860128963
 20
502.2733895775836
 30
0.0
 40
30.0
100
AcDbArc
 50
213.0282156857094
 51
269.9999999999965
  0
LINE
  5
AAE
330
A97
100
AcDbEntity
  8
0
  6
Continuous
100
AcDbLine
 10
815.4533588838713
 20
472.2733895775836
 30
0.0
 11
675.4751860128943
 21
472.2733895775836
 31
0.0
  0
ENDBLK
  5
AB0
330
A97
100
AcDbEntity
  8
0
100
AcDbBlockEnd
  0
BLOCK
  5
DC1
330
DB7
100
AcDbEntity
  8
0
100
AcDbBlockBegin
  2
*D76
 70
     1
 10
0.0
 20
0.0
 30
0.0
  3
*D76
  1

  0
LINE
  5
DB8
330
DB7
100
AcDbEntity
  8
0
  6
ByBlock
 62
     0
100
AcDbLine
 10
2238.901710156522
 20
1610.237100885179
 30
0.0
 11
2238.901710156522
 21
1248.727949464333
 31
0.0
  0
LINE
  5
DB9
330
DB7
100
AcDbEntity
  8
0
  6
ByBlock
 62
     0
100
AcDbLine
 10
3001.87517395554
 20
1586.035381316287
 30
0.0
 11
3001.87517395554
 21
1248.727949464333
 31
0.0
  0
LINE
  5
DBA
330
DB7
100
AcDbEntity
  8
0
  6
ByBlock
 62
     0
100
AcDbLine
 10
2258.901710156521
 20
1258.727949464333
 30
0.0
 11
2981.87517395554
 21
1258.727949464333
 31
0.0
  0
SOLID
  5
DBB
330
DB7
100
AcDbEntity
  8
0
  6
ByBlock
 62
     0
100
AcDbTrace
 10
2258.901710156521
 20
1262.061282797667
 30
0.0
 11
2258.901710156521
 21
1255.394616131
 31
0.0
 12
2238.901710156522
 22
1258.727949464333
 32
0.0
 13
2238.901710156522
 23
1258.727949464333
 33
0.0
  0
SOLID
  5
DBC
330
DB7
100
AcDbEntity
  8
0
  6
ByBlock
 62
     0
100
AcDbTrace
 10
2981.87517395554
 20
1262.061282797667
 30
0.0
 11
2981.87517395554
 21
1255.394616131
 31
0.0
 12
3001.87517395554
 22
1258.727949464333
 32
0.0
 13
3001.87517395554
 23
1258.727949464333
 33
0.0
  0
MTEXT
  5
DBD
330
DB7
100
AcDbEntity
  8
0
  6
ByBlock
 62
     0
100
AcDbMText
 10
2620.388442056031
 20
1273.727949464333
 30
0.0
 40
20.0
 41
0.0
 71
     5
 72
     1
  1
\A1;763
 73
     1
 44
1.0
1001
ACAD
1000
MTEXTBEGIN
1070
    73
1070
     1
1070
    44
1040
1.0
1070
    74
1070
     0
1000
MTEXTEND
  0
POINT
  5
DBE
330
DB7
100
AcDbEntity
  8
DEFPOINTS
  6
ByBlock
 62
     0
100
AcDbPoint
 10
2238.901710156522
 20
1615.237100885179
 30
0.0
  0
POINT
  5
DBF
330
DB7
100
AcDbEntity
  8
DEFPOINTS
  6
ByBlock
 62
     0
100
AcDbPoint
 10
3001.87517395554
 20
1591.035381316287
 30
0.0
  0
POINT
  5
DC0
330
DB7
100
AcDbEntity
  8
DEFPOINTS
  6
ByBlock
 62
     0
100
AcDbPoint
 10
3001.87517395554
 20
1258.727949464333
 30
0.0
  0
ENDBLK
  5
DC2
330
DB7
100
AcDbEntity
  8
0
100
AcDbBlockEnd
  0
BLOCK
  5
DCD
330
DC3
100
AcDbEntity
  8
0
100
AcDbBlockBegin
  2
*D77
 70
     1
 10
0.0
 20
0.0
 30
0.0
  3
*D77
  1

  0
LINE
  5
DC4
330
DC3
100
AcDbEntity
  8
0
  6
ByBlock
 62
     0
100
AcDbLine
 10
2840.378760345038
 20
1381.796169158846
 30
0.0
 11
3139.194826343886
 21
1381.796169158846
 31
0.0
  0
LINE
  5
DC5
330
DC3
100
AcDbEntity
  8
0
  6
ByBlock
 62
     0
100
AcDbLine
 10
2840.378760345038
 20
1800.796687158846
 30
0.0
 11
3139.194826343886
 21
1800.796687158846
 31
0.0
  0
LINE
  5
DC6
330
DC3
100
AcDbEntity
  8
0
  6
ByBlock
 62
     0
100
AcDbLine
 10
3129.194826343886
 20
1401.796169158846
 30
0.0
 11
3129.194826343886
 21
1780.796687158846
 31
0.0
  0
SOLID
  5
DC7
330
DC3
100
AcDbEntity
  8
0
  6
ByBlock
 62
     0
100
AcDbTrace
 10
3125.861493010554
 20
1401.796169158846
 30
0.0
 11
3132.52815967722
 21
1401.796169158846
 31
0.0
 12
3129.194826343886
 22
1381.796169158846
 32
0.0
 13
3129.194826343886
 23
1381.796169158846
 33
0.0
  0
SOLID
  5
DC8
330
DC3
100
AcDbEntity
  8
0
  6
ByBlock
 62
     0
100
AcDbTrace
 10
3125.861493010554
 20
1780.796687158846
 30
0.0
 11
3132.52815967722
 21
1780.796687158846
 31
0.0
 12
3129.194826343886
 22
1800.796687158846
 32
0.0
 13
3129.194826343886
 23
1800.796687158846
 33
0.0
  0
MTEXT
  5
DC9
330
DC3
100
AcDbEntity
  8
0
  6
ByBlock
 62
     0
100
AcDbMText
 10
3114.194826343887
 20
1591.296428158846
 30
0.0
 40
20.0
 41
0.0
 71
     5
 72
     1
  1
\A1;419
 11
0.0000000000000001
 21
1.0
 31
0.0
 73
     1
 44
1.0
1001
ACAD
1000
MTEXTBEGIN
1070
    73
1070
     1
1070
    44
1040
1.0
1070
    74
1070
     0
1000
MTEXTEND
  0
POINT
  5
DCA
330
DC3
100
AcDbEntity
  8
DEFPOINTS
  6
ByBlock
 62
     0
100
AcDbPoint
 10
2835.378760345037
 20
1381.796169158846
 30
0.0
  0
POINT
  5
DCB
330
DC3
100
AcDbEntity
  8
DEFPOINTS
  6
ByBlock
 62
     0
100
AcDbPoint
 10
2835.378760345037
 20
1800.796687158846
 30
0.0
  0
POINT
  5
DCC
330
DC3
100
AcDbEntity
  8
DEFPOINTS
  6
ByBlock
 62
     0
100
AcDbPoint
 10
3129.194826343886
 20
1800.796687158846
 30
0.0
  0
ENDBLK
  5
DCE
330
DC3
100
AcDbEntity
  8
0
100
AcDbBlockEnd
  0
BLOCK
  5
DD9
330
DCF
100
AcDbEntity
  8
0
100
AcDbBlockBegin
  2
*D78
 70
     1
 10
0.0
 20
0.0
 30
0.0
  3
*D78
  1

  0
LINE
  5
DD0
330
DCF
100
AcDbEntity
  8
0
  6
ByBlock
 62
     0
100
AcDbLine
 10
2435.388014345042
 20
1854.796169158846
 30
0.0
 11
2144.658483164883
 21
1854.796169158846
 31
0.0
  0
LINE
  5
DD1
330
DCF
100
AcDbEntity
  8
0
  6
ByBlock
 62
     0
100
AcDbLine
 10
2435.388014345044
 20
1381.796169158846
 30
0.0
 11
2144.658483164883
 21
1381.796169158846
 31
0.0
  0
LINE
  5
DD2
330
DCF
100
AcDbEntity
  8
0
  6
ByBlock
 62
     0
100
AcDbLine
 10
2154.658483164883
 20
1834.796169158846
 30
0.0
 11
2154.658483164883
 21
1401.796169158846
 31
0.0
  0
SOLID
  5
DD3
330
DCF
100
AcDbEntity
  8
0
  6
ByBlock
 62
     0
100
AcDbTrace
 10
2151.32514983155
 20
1834.796169158846
 30
0.0
 11
2157.991816498217
 21
1834.796169158846
 31
0.0
 12
2154.658483164883
 22
1854.796169158846
 32
0.0
 13
2154.658483164883
 23
1854.796169158846
 33
0.0
  0
SOLID
  5
DD4
330
DCF
100
AcDbEntity
  8
0
  6
ByBlock
 62
     0
100
AcDbTrace
 10
2151.32514983155
 20
1401.796169158846
 30
0.0
 11
2157.991816498217
 21
1401.796169158846
 31
0.0
 12
2154.658483164883
 22
1381.796169158846
 32
0.0
 13
2154.658483164883
 23
1381.796169158846
 33
0.0
  0
MTEXT
  5
DD5
330
DCF
100
AcDbEntity
  8
0
  6
ByBlock
 62
     0
100
AcDbMText
 10
2139.658483164883
 20
1618.296169158846
 30
0.0
 40
20.0
 41
0.0
 71
     5
 72
     1
  1
\A1;473
 11
0.0000000000000001
 21
1.0
 31
0.0
 73
     1
 44
1.0
1001
ACAD
1000
MTEXTBEGIN
1070
    73
1070
     1
1070
    44
1040
1.0
1070
    74
1070
     0
1000
MTEXTEND
  0
POINT
  5
DD6
330
DCF
100
AcDbEntity
  8
DEFPOINTS
  6
ByBlock
 62
     0
100
AcDbPoint
 10
2440.388014345042
 20
1854.796169158846
 30
0.0
  0
POINT
  5
DD7
330
DCF
100
AcDbEntity
  8
DEFPOINTS
  6
ByBlock
 62
     0
100
AcDbPoint
 10
2440.388014345045
 20
1381.796169158846
 30
0.0
  0
POINT
  5
DD8
330
DCF
100
AcDbEntity
  8
DEFPOINTS
  6
ByBlock
 62
     0
100
AcDbPoint
 10
2154.658483164883
 20
1381.796169158846
 30
0.0
  0
ENDBLK
  5
DDA
330
DCF
100
AcDbEntity
  8
0
100
AcDbBlockEnd
  0
BLOCK
  5
DE5
330
DDB
100
AcDbEntity
  8
0
100
AcDbBlockBegin
  2
*D79
 70
     1
 10
0.0
 20
0.0
 30
0.0
  3
*D79
  1

  0
LINE
  5
DDC
330
DDB
100
AcDbEntity
  8
0
  6
ByBlock
 62
     0
100
AcDbLine
 10
976.6592027870556
 20
1697.922323293603
 30
0.0
 11
976.6592027870556
 21
1375.570833949639
 31
0.0
  0
LINE
  5
DDD
330
DDB
100
AcDbEntity
  8
0
  6
ByBlock
 62
     0
100
AcDbLine
 10
1747.626443832977
 20
1689.809841526128
 30
0.0
 11
1747.626443832977
 21
1375.570833949639
 31
0.0
  0
LINE
  5
DDE
330
DDB
100
AcDbEntity
  8
0
  6
ByBlock
 62
     0
100
AcDbLine
 10
996.6592027870555
 20
1385.570833949639
 30
0.0
 11
1727.626443832977
 21
1385.570833949639
 31
0.0
  0
SOLID
  5
DDF
330
DDB
100
AcDbEntity
  8
0
  6
ByBlock
 62
     0
100
AcDbTrace
 10
996.6592027870555
 20
1388.904167282973
 30
0.0
 11
996.6592027870555
 21
1382.237500616306
 31
0.0
 12
976.6592027870556
 22
1385.570833949639
 32
0.0
 13
976.6592027870556
 23
1385.570833949639
 33
0.0
  0
SOLID
  5
DE0
330
DDB
100
AcDbEntity
  8
0
  6
ByBlock
 62
     0
100
AcDbTrace
 10
1727.626443832977
 20
1388.904167282973
 30
0.0
 11
1727.626443832977
 21
1382.237500616306
 31
0.0
 12
1747.626443832977
 22
1385.570833949639
 32
0.0
 13
1747.626443832977
 23
1385.570833949639
 33
0.0
  0
MTEXT
  5
DE1
330
DDB
100
AcDbEntity
  8
0
  6
ByBlock
 62
     0
100
AcDbMText
 10
1362.142823310016
 20
1400.570833949639
 30
0.0
 40
20.0
 41
0.0
 71
     5
 72
     1
  1
\A1;771
 73
     1
 44
1.0
1001
ACAD
1000
MTEXTBEGIN
1070
    73
1070
     1
1070
    44
1040
1.0
1070
    74
1070
     0
1000
MTEXTEND
  0
POINT
  5
DE2
330
DDB
100
AcDbEntity
  8
DEFPOINTS
  6
ByBlock
 62
     0
100
AcDbPoint
 10
976.6592027870556
 20
1702.922323293603
 30
0.0
  0
POINT
  5
DE3
330
DDB
100
AcDbEntity
  8
DEFPOINTS
  6
ByBlock
 62
     0
100
AcDbPoint
 10
1747.626443832977
 20
1694.809841526128
 30
0.0
  0
POINT
  5
DE4
330
DDB
100
AcDbEntity
  8
DEFPOINTS
  6
ByBlock
 62
     0
100
AcDbPoint
 10
1747.626443832977
 20
1385.570833949639
 30
0.0
  0
ENDBLK
  5
DE6
330
DDB
100
AcDbEntity
  8
0
100
AcDbBlockEnd
  0
BLOCK
  5
DF1
330
DE7
100
AcDbEntity
  8
0
100
AcDbBlockBegin
  2
*D80
 70
     1
 10
0.0
 20
0.0
 30
0.0
  3
*D80
  1

  0
LINE
  5
DE8
330
DE7
100
AcDbEntity
  8
0
  6
ByBlock
 62
     0
100
AcDbLine
 10
1608.632566493159
 20
1500.824534283502
 30
0.0
 11
1863.989085237746
 21
1500.824534283502
 31
0.0
  0
LINE
  5
DE9
330
DE7
100
AcDbEntity
  8
0
  6
ByBlock
 62
     0
100
AcDbLine
 10
1608.670781270037
 20
1888.825407628345
 30
0.0
 11
1863.989085237747
 21
1888.825407628345
 31
0.0
  0
LINE
  5
DEA
330
DE7
100
AcDbEntity
  8
0
  6
ByBlock
 62
     0
100
AcDbLine
 10
1853.989085237747
 20
1520.824534283502
 30
0.0
 11
1853.989085237747
 21
1868.825407628345
 31
0.0
  0
SOLID
  5
DEB
330
DE7
100
AcDbEntity
  8
0
  6
ByBlock
 62
     0
100
AcDbTrace
 10
1850.655751904413
 20
1520.824534283502
 30
0.0
 11
1857.32241857108
 21
1520.824534283502
 31
0.0
 12
1853.989085237747
 22
1500.824534283502
 32
0.0
 13
1853.989085237747
 23
1500.824534283502
 33
0.0
  0
SOLID
  5
DEC
330
DE7
100
AcDbEntity
  8
0
  6
ByBlock
 62
     0
100
AcDbTrace
 10
1850.655751904414
 20
1868.825407628345
 30
0.0
 11
1857.32241857108
 21
1868.825407628345
 31
0.0
 12
1853.989085237747
 22
1888.825407628345
 32
0.0
 13
1853.989085237747
 23
1888.825407628345
 33
0.0
  0
MTEXT
  5
DED
330
DE7
100
AcDbEntity
  8
0
  6
ByBlock
 62
     0
100
AcDbMText
 10
1838.989085237746
 20
1694.824970955923
 30
0.0
 40
20.0
 41
0.0
 71
     5
 72
     1
  1
\A1;388
 11
0.0000000000000001
 21
1.0
 31
0.0
 73
     1
 44
1.0
1001
ACAD
1000
MTEXTBEGIN
1070
    73
1070
     1
1070
    44
1040
1.0
1070
    74
1070
     0
1000
MTEXTEND
  0
POINT
  5
DEE
330
DE7
100
AcDbEntity
  8
DEFPOINTS
  6
ByBlock
 62
     0
100
AcDbPoint
 10
1603.632566493159
 20
1500.824534283502
 30
0.0
  0
POINT
  5
DEF
330
DE7
100
AcDbEntity
  8
DEFPOINTS
  6
ByBlock
 62
     0
100
AcDbPoint
 10
1603.670781270037
 20
1888.825407628345
 30
0.0
  0
POINT
  5
DF0
330
DE7
100
AcDbEntity
  8
DEFPOINTS
  6
ByBlock
 62
     0
100
AcDbPoint
 10
1853.989085237747
 20
1888.825407628345
 30
0.0
  0
ENDBLK
  5
DF2
330
DE7
100
AcDbEntity
  8
0
100
AcDbBlockEnd
  0
BLOCK
  5
DFD
330
DF3
100
AcDbEntity
  8
0
100
AcDbBlockBegin
  2
*D81
 70
     1
 10
0.0
 20
0.0
 30
0.0
  3
*D81
  1

  0
LINE
  5
DF4
330
DF3
100
AcDbEntity
  8
0
  6
ByBlock
 62
     0
100
AcDbLine
 10
1195.626443056829
 20
1968.779680029719
 30
0.0
 11
873.2804293775696
 21
1968.779680029719
 31
0.0
  0
LINE
  5
DF5
330
DF3
100
AcDbEntity
  8
0
  6
ByBlock
 62
     0
100
AcDbLine
 10
1195.626318938348
 20
1500.774513760615
 30
0.0
 11
873.2804293775696
 21
1500.774513760615
 31
0.0
  0
LINE
  5
DF6
330
DF3
100
AcDbEntity
  8
0
  6
ByBlock
 62
     0
100
AcDbLine
 10
883.2804293775696
 20
1948.779680029719
 30
0.0
 11
883.2804293775696
 21
1520.774513760615
 31
0.0
  0
SOLID
  5
DF7
330
DF3
100
AcDbEntity
  8
0
  6
ByBlock
 62
     0
100
AcDbTrace
 10
879.9470960442365
 20
1948.779680029719
 30
0.0
 11
886.6137627109031
 21
1948.779680029719
 31
0.0
 12
883.2804293775696
 22
1968.779680029719
 32
0.0
 13
883.2804293775696
 23
1968.779680029719
 33
0.0
  0
SOLID
  5
DF8
330
DF3
100
AcDbEntity
  8
0
  6
ByBlock
 62
     0
100
AcDbTrace
 10
879.9470960442365
 20
1520.774513760615
 30
0.0
 11
886.6137627109031
 21
1520.774513760615
 31
0.0
 12
883.2804293775696
 22
1500.774513760615
 32
0.0
 13
883.2804293775696
 23
1500.774513760615
 33
0.0
  0
MTEXT
  5
DF9
330
DF3
100
AcDbEntity
  8
0
  6
ByBlock
 62
     0
100
AcDbMText
 10
868.2804293775697
 20
1734.777096895167
 30
0.0
 40
20.0
 41
0.0
 71
     5
 72
     1
  1
\A1;468
 11
0.0000000000000001
 21
1.0
 31
0.0
 73
     1
 44
1.0
1001
ACAD
1000
MTEXTBEGIN
1070
    73
1070
     1
1070
    44
1040
1.0
1070
    74
1070
     0
1000
MTEXTEND
  0
POINT
  5
DFA
330
DF3
100
AcDbEntity
  8
DEFPOINTS
  6
ByBlock
 62
     0
100
AcDbPoint
 10
1200.626443056829
 20
1968.779680029719
 30
0.0
  0
POINT
  5
DFB
330
DF3
100
AcDbEntity
  8
DEFPOINTS
  6
ByBlock
 62
     0
100
AcDbPoint
 10
1200.626318938348
 20
1500.774513760615
 30
0.0
  0
POINT
  5
DFC
330
DF3
100
AcDbEntity
  8
DEFPOINTS
  6
ByBlock
 62
     0
100
AcDbPoint
 10
883.2804293775696
 20
1500.774513760615
 30
0.0
  0
ENDBLK
  5
DFE
330
DF3
100
AcDbEntity
  8
0
100
AcDbBlockEnd
  0
BLOCK
  5
E27
330
DFF
100
AcDbEntity
  8
0
100
AcDbBlockBegin
  2
A$C4A592B1E
 70
     0
 10
0.0
 20
0.0
 30
0.0
  3
A$C4A592B1E
  1

  0
DIMENSION
  5
E00
330
DFF
100
AcDbEntity
  8
0
100
AcDbDimension
  2
*D79
 10
889.3460112766327
 20
136.8428860814583
 30
0.0
 11
503.8623907536716
 21
151.8428860814583
 31
0.0
 12
-858.2804325563447
 22
-1248.727947868181
 32
0.0
 71
     5
 42
-1.0
  3
STANDARD
100
AcDbAlignedDimension
 13
118.3787702307109
 23
454.1943754254222
 33
0.0
 14
889.3460112766327
 24
446.0818936579471
 34
0.0
100
AcDbRotatedDimension
1001
ACAD
1000
DSTYLE
1002
{
1070
    78
1070
     8
1070
   140
1040
2.5
1070
    74
1070
     0
1070
   172
1070
     1
1070
    73
1070
     0
1070
   272
1070
     1
1070
    77
1070
     1
1070
    40
1040
8.0
1070
   147
1040
0.625
1070
    42
1040
0.625
1070
    44
1040
1.25
1070
    43
1040
3.75
1070
   271
1070
     1
1070
   141
1040
2.5
1070
    41
1040
2.5
1070
   273
1070
     8
1070
   274
1070
     4
1070
   143
1040
0.0394
1070
   171
1070
     4
1002
}
  0
ARC
  5
E01
330
DFF
100
AcDbEntity
  8
0
100
AcDbCircle
 10
415.6780481418008
 20
563.2832506623511
 30
0.0
 40
149.0
100
AcDbArc
 50
36.63587548423043
 51
77.90576918825269
  0
LINE
  5
E02
330
DFF
100
AcDbEntity
  8
0
100
AcDbLine
 10
342.3458863820038
 20
252.0465658924338
 30
0.0
 11
745.3521339368144
 21
252.0965864153209
 31
0.0
  0
MTEXT
  5
E03
330
DFF
100
AcDbEntity
  8
0
100
AcDbMText
 10
441.4539557130956
 20
516.9203950027966
 30
0.0
 40
30.0
 41
257.0003
 71
     1
 72
     5
  1
501
 73
     1
 44
1.0
1001
ACAD
1000
MTEXTBEGIN
1070
    73
1070
     1
1070
    44
1040
1.0
1070
    74
1070
     0
1000
MTEXTEND
  0
MTEXT
  5
E04
330
DFF
100
AcDbEntity
  8
0
100
AcDbMText
 10
434.0423579238104
 20
345.012678928475
 30
0.0
 40
30.0
 41
227.6636
 71
     1
 72
     5
  1
3221A
 73
     1
 44
1.0
1001
ACAD
1000
MTEXTBEGIN
1070
    73
1070
     1
1070
    44
1040
1.0
1070
    74
1070
     0
1000
MTEXTEND
  0
DIMENSION
  5
E05
330
DFF
100
AcDbEntity
  8
0
100
AcDbDimension
  2
*D81
 10
24.99999682122507
 20
252.0465658924338
 30
0.0
 11
9.999996821225067
 21
486.0491490269858
 31
0.0
 12
-858.2804325563447
 22
-1248.727947868181
 32
0.0
 71
     5
 42
-1.0
  3
STANDARD
100
AcDbAlignedDimension
 13
342.3460105004842
 23
720.051732161538
 33
0.0
 14
342.3458863820038
 24
252.0465658924338
 34
0.0
 50
90.0
100
AcDbRotatedDimension
1001
ACAD
1000
DSTYLE
1002
{
1070
    78
1070
     8
1070
   140
1040
2.5
1070
    74
1070
     0
1070
   172
1070
     1
1070
    73
1070
     0
1070
   272
1070
     1
1070
    77
1070
     1
1070
    40
1040
8.0
1070
   147
1040
0.625
1070
    42
1040
0.625
1070
    44
1040
1.25
1070
    43
1040
3.75
1070
   271
1070
     1
1070
   141
1040
2.5
1070
    41
1040
2.5
1070
   273
1070
     8
1070
   274
1070
     4
1070
   143
1040
0.0394
1070
   171
1070
     4
1002
}
  0
ARC
  5
E06
330
DFF
100
AcDbEntity
  8
0
100
AcDbCircle
 10
269.0139728591666
 20
563.2832506623511
 30
0.0
 40
149.0
100
AcDbArc
 50
102.0942308117473
 51
178.4972998456236
  0
ARC
  5
E07
330
DFF
100
AcDbEntity
  8
0
  6
Continuous
100
AcDbCircle
 10
342.3460105004838
 20
5251.046565900137
 30
0.0
 40
4999.0
100
AcDbArc
 50
268.4347899831744
 51
270.014222930057
  0
ARC
  5
E08
330
DFF
100
AcDbEntity
  8
0
  6
Continuous
100
AcDbCircle
 10
208.2309778614849
 20
342.878561642312
 30
0.0
 40
89.0
100
AcDbArc
 50
181.0878450356234
 51
268.4347899831731
  0
ARC
  5
E09
330
DFF
100
AcDbEntity
  8
0
  6
Continuous
100
AcDbCircle
 10
5117.346010500483
 20
436.0965659001367
 30
0.0
 40
4999.0
100
AcDbArc
 50
178.4972998456239
 51
181.0878450356236
  0
ARC
  5
E0A
330
DFF
100
AcDbEntity
  8
0
100
AcDbCircle
 10
342.3460105004842
 20
221.051732161538
 30
0.0
 40
499.0
100
AcDbArc
 50
77.90576918825266
 51
102.0942308117473
  0
DIMENSION
  5
E0B
330
DFF
100
AcDbEntity
  8
0
100
AcDbDimension
  2
*D76
 10
2143.594741399196
 20
10.00000159615229
 30
0.0
 11
1762.108009499686
 21
25.00000159615229
 31
0.0
 12
-858.2804325563447
 22
-1248.727947868181
 32
0.0
 71
     5
 42
-1.0
  3
STANDARD
100
AcDbAlignedDimension
 13
1380.621277600176
 23
366.5091530169978
 33
0.0
 14
2143.594741399196
 24
342.3074334481062
 34
0.0
100
AcDbRotatedDimension
1001
ACAD
1000
DSTYLE
1002
{
1070
    78
1070
     8
1070
   140
1040
2.5
1070
    74
1070
     0
1070
   172
1070
     1
1070
    73
1070
     0
1070
   272
1070
     1
1070
    77
1070
     1
1070
    40
1040
8.0
1070
   147
1040
0.625
1070
    42
1040
0.625
1070
    44
1040
1.25
1070
    43
1040
3.75
1070
   271
1070
     1
1070
   141
1040
2.5
1070
    41
1040
2.5
1070
   273
1070
     8
1070
   274
1070
     4
1070
   143
1040
0.0394
1070
   171
1070
     4
1002
}
  0
ARC
  5
E0C
330
DFF
100
AcDbEntity
  8
0
  6
Continuous
100
AcDbCircle
 10
1582.107581788686
 20
-593.9317787093346
 30
0.0
 40
1200.0
100
AcDbArc
 50
85.89084925864193
 51
89.99999999999969
  0
LINE
  5
E0D
330
DFF
100
AcDbEntity
  8
0
100
AcDbLine
 10
1582.107581788691
 20
133.0682212906649
 30
0.0
 11
1977.098327788691
 21
133.0682212906649
 31
0.0
  0
DIMENSION
  5
E0E
330
DFF
100
AcDbEntity
  8
0
100
AcDbDimension
  2
*D80
 10
995.7086526814023
 20
640.0974597601639
 30
0.0
 11
980.7086526814018
 21
446.0970230877424
 31
0.0
 12
-858.2804325563447
 22
-1248.727947868181
 32
0.0
 71
     5
 42
-1.0
  3
STANDARD
100
AcDbAlignedDimension
 13
745.3521339368144
 23
252.0965864153209
 33
0.0
 14
745.3903487136923
 24
640.0974597601639
 34
0.0
 50
90.0
100
AcDbRotatedDimension
1001
ACAD
1000
DSTYLE
1002
{
1070
    78
1070
     8
1070
   140
1040
2.5
1070
    74
1070
     0
1070
   172
1070
     1
1070
    73
1070
     0
1070
   272
1070
     1
1070
    77
1070
     1
1070
    40
1040
8.0
1070
   147
1040
0.625
1070
    42
1040
0.625
1070
    44
1040
1.25
1070
    43
1040
3.75
1070
   271
1070
     1
1070
   141
1040
2.5
1070
    41
1040
2.5
1070
   273
1070
     8
1070
   274
1070
     4
1070
   143
1040
0.0394
1070
   171
1070
     4
1002
}
  0
ARC
  5
E0F
330
DFF
100
AcDbEntity
  8
0
100
AcDbCircle
 10
810.7231307505154
 20
561.0381762384355
 30
0.0
 40
74.0
100
AcDbArc
 50
4.616417930911594
 51
81.15048338780525
  0
DIMENSION
  5
E10
330
DFF
100
AcDbEntity
  8
0
100
AcDbDimension
  2
*D78
 10
1296.378050608538
 20
133.0682212906649
 30
0.0
 11
1281.378050608539
 21
369.5682212906652
 31
0.0
 12
-858.2804325563447
 22
-1248.727947868181
 32
0.0
 71
     5
 42
-1.0
  3
STANDARD
100
AcDbAlignedDimension
 13
1582.107581788697
 23
606.0682212906653
 33
0.0
 14
1582.107581788699
 24
133.0682212906649
 34
0.0
 50
90.0
100
AcDbRotatedDimension
1001
ACAD
1000
DSTYLE
1002
{
1070
    78
1070
     8
1070
   140
1040
2.5
1070
    74
1070
     0
1070
   172
1070
     1
1070
    73
1070
     0
1070
   272
1070
     1
1070
    77
1070
     1
1070
    40
1040
8.0
1070
   147
1040
0.625
1070
    42
1040
0.625
1070
    44
1040
1.25
1070
    43
1040
3.75
1070
   271
1070
     1
1070
   141
1040
2.5
1070
    41
1040
2.5
1070
   273
1070
     8
1070
   274
1070
     4
1070
   143
1040
0.0394
1070
   171
1070
     4
1002
}
  0
ARC
  5
E11
330
DFF
100
AcDbEntity
  8
0
  6
Continuous
100
AcDbCircle
 10
1501.921495408226
 20
486.0956244388374
 30
0.0
 40
117.0
100
AcDbArc
 50
94.24610564704222
 51
175.6311855640633
  0
ARC
  5
E12
330
DFF
100
AcDbEntity
  8
0
100
AcDbCircle
 10
745.3156590065258
 20
751.0965850835333
 30
0.0
 40
499.0
100
AcDbArc
 50
270.0041939419942
 51
278.8474398720405
  0
ARC
  5
E13
330
DFF
100
AcDbEntity
  8
0
100
AcDbCircle
 10
-609.6539651567158
 20
446.3476996410338
 30
0.0
 40
1499.0
100
AcDbArc
 50
355.3632624412298
 51
4.61641793091158
  0
ARC
  5
E14
330
DFF
100
AcDbEntity
  8
0
100
AcDbCircle
 10
810.6823670927877
 20
331.1535014710448
 30
0.0
 40
74.0
100
AcDbArc
 50
278.8474398720405
 51
355.36326244123
  0
ARC
  5
E15
330
DFF
100
AcDbEntity
  8
0
  6
Continuous
100
AcDbCircle
 10
2982.108075788692
 20
373.0118622906648
 30
0.0
 40
1601.5
100
AcDbArc
 50
175.6311855640635
 51
184.8341017547687
  0
ARC
  5
E16
330
DFF
100
AcDbEntity
  8
0
  6
Continuous
100
AcDbCircle
 10
1582.107581788691
 20
1333.068221290665
 30
0.0
 40
1200.0
100
AcDbArc
 50
265.5128950705296
 51
270.0
  0
ARC
  5
E17
330
DFF
100
AcDbEntity
  8
0
  6
Continuous
100
AcDbCircle
 10
1496.909965072386
 20
247.4060426614831
 30
0.0
 40
111.0
100
AcDbArc
 50
184.8341017547687
 51
265.5128950705297
  0
ARC
  5
E18
330
DFF
100
AcDbEntity
  8
0
100
AcDbCircle
 10
745.3412014697565
 20
141.097462180456
 30
0.0
 40
499.0
100
AcDbArc
 50
81.15048338780528
 51
90.00066448508937
  0
LINE
  5
E19
330
DFF
100
AcDbEntity
  8
0
100
AcDbLine
 10
745.3470001989535
 20
640.0974621468307
 30
0.0
 11
559.3155231437963
 21
640.0974621468307
 31
0.0
  0
ARC
  5
E1A
330
DFF
100
AcDbEntity
  8
0
100
AcDbCircle
 10
559.3155231437963
 20
670.0974621468307
 30
0.0
 40
30.0
100
AcDbArc
 50
216.6358754842306
 51
270.0
  0
ARC
  5
E1B
330
DFF
100
AcDbEntity
  8
0
  6
Continuous
100
AcDbCircle
 10
1582.107581788697
 20
-593.9317787093346
 30
0.0
 40
1200.0
100
AcDbArc
 50
90.00000000000033
 51
94.24610564704231
  0
ARC
  5
E1C
330
DFF
100
AcDbEntity
  8
0
  6
Continuous
100
AcDbCircle
 10
1659.496866660673
 20
483.2919207082944
 30
0.0
 40
120.0
100
AcDbArc
 50
41.18649738348175
 51
85.89084925864206
  0
DIMENSION
  5
E1D
330
DFF
100
AcDbEntity
  8
0
100
AcDbDimension
  2
*D77
 10
2270.914393787542
 20
552.0687392906645
 30
0.0
 11
2255.914393787541
 21
342.5684802906646
 31
0.0
 12
-858.2804325563447
 22
-1248.727947868181
 32
0.0
 71
     5
 42
-1.0
  3
STANDARD
100
AcDbAlignedDimension
 13
1977.098327788691
 23
133.0682212906649
 33
0.0
 14
1977.098327788691
 24
552.0687392906645
 34
0.0
 50
90.0
100
AcDbRotatedDimension
1001
ACAD
1000
DSTYLE
1002
{
1070
    78
1070
     8
1070
   140
1040
2.5
1070
    74
1070
     0
1070
   172
1070
     1
1070
    73
1070
     0
1070
   272
1070
     1
1070
    77
1070
     1
1070
    40
1040
8.0
1070
   147
1040
0.625
1070
    42
1040
0.625
1070
    44
1040
1.25
1070
    43
1040
3.75
1070
   271
1070
     1
1070
   141
1040
2.5
1070
    41
1040
2.5
1070
   273
1070
     8
1070
   274
1070
     4
1070
   143
1040
0.0394
1070
   171
1070
     4
1002
}
  0
LINE
  5
E1E
330
DFF
100
AcDbEntity
  8
0
100
AcDbLine
 10
1977.098327788691
 20
552.0687392906645
 30
0.0
 11
1772.382384379934
 21
552.0687392906645
 31
0.0
  0
MTEXT
  5
E1F
330
DFF
100
AcDbEntity
  8
DIM
 62
     1
100
AcDbMText
 10
1708.299727788691
 20
278.0054422906649
 30
0.0
 40
50.0
 41
207.1696
 71
     1
 72
     5
  1
503
 73
     1
 44
1.0
1001
ACAD
1000
MTEXTBEGIN
1070
    73
1070
     1
1070
    44
1040
1.0
1070
    74
1070
     0
1000
MTEXTEND
  0
MTEXT
  5
E20
330
DFF
100
AcDbEntity
  8
DIM
100
AcDbMText
 10
1695.135809788691
 20
195.0572812906648
 30
0.0
 40
30.0
 41
206.8927
 71
     1
 72
     5
  1
\f宋体|b0|i0|c134|p54;对焊
 73
     1
 44
1.0
1001
ACAD
1000
MTEXTBEGIN
1070
    73
1070
     1
1070
    44
1040
1.0
1070
    74
1070
     0
1000
MTEXTEND
  0
ARC
  5
E21
330
DFF
100
AcDbEntity
  8
0
100
AcDbCircle
 10
1772.382384379934
 20
582.0687392906645
 30
0.0
 40
30.0
100
AcDbArc
 50
221.1864973834821
 51
270.0
  0
ARC
  5
E22
330
DFF
100
AcDbEntity
  8
0
  6
Continuous
100
AcDbCircle
 10
942.0983277886914
 20
345.2430902906647
 30
0.0
 40
1201.5
100
AcDbArc
 50
353.7356482238782
 51
5.984366899662134
  0
ARC
  5
E23
330
DFF
100
AcDbEntity
  8
0
  6
Continuous
100
AcDbCircle
 10
2050.937719049731
 20
223.5243391146569
 30
0.0
 40
86.0
100
AcDbArc
 50
276.9070847689488
 51
353.7356482238778
  0
ARC
  5
E24
330
DFF
100
AcDbEntity
  8
0
  6
Continuous
100
AcDbCircle
 10
1977.098327788691
 20
833.068221290665
 30
0.0
 40
700.0
100
AcDbArc
 50
270.0
 51
276.9070847689487
  0
ARC
  5
E25
330
DFF
100
AcDbEntity
  8
0
100
AcDbCircle
 10
2051.51927538789
 20
461.5418909211837
 30
0.0
 40
86.0
100
AcDbArc
 50
5.984366899662099
 51
83.03824705124169
  0
ARC
  5
E26
330
DFF
100
AcDbEntity
  8
0
100
AcDbCircle
 10
1977.098327788691
 20
-147.9312607093352
 30
0.0
 40
700.0
100
AcDbArc
 50
83.03824705124153
 51
90.0
  0
ENDBLK
  5
E28
330
DFF
100
AcDbEntity
  8
0
100
AcDbBlockEnd
  0
BLOCK
  5
317D
330
3176
100
AcDbEntity
  8
0
100
AcDbBlockBegin
  2
S
 70
     0
 10
0.0
 20
0.0
 30
0.0
  3
S
  1

  0
LWPOLYLINE
  5
3177
330
3176
100
AcDbEntity
  8
0
100
AcDbPolyline
 90
        2
 70
     0
 43
1.016
 10
0.0
 20
0.0
 10
0.0
 20
12.69999999999999
  0
TEXT
  5
3178
330
3176
100
AcDbEntity
  8
0
100
AcDbText
 10
-3.948317839765877
 20
24.50880694038898
 30
0.0
 40
14.5170144
  1
A
  7
ROMANTICITALIC
100
AcDbText
  0
LWPOLYLINE
  5
3179
330
3176
100
AcDbEntity
  8
0
100
AcDbPolyline
 90
        2
 70
     0
 10
0.0
 20
12.61677715690928
 40
3.760598015999999
 41
0.6267663359999999
 10
0.0
 20
22.01827219690926
 40
0.6267663359999999
 41
0.6267663359999999
  0
LWPOLYLINE
  5
317A
330
3176
100
AcDbEntity
  8
0
100
AcDbPolyline
 90
        2
 70
     0
 43
1.016
 10
65.00658000494514
 20
20.67446010447185
 10
52.30658000494532
 20
20.67446010447185
  0
LWPOLYLINE
  5
317B
330
3176
100
AcDbEntity
  8
0
100
AcDbPolyline
 90
        2
 70
     0
 10
52.3898028480362
 20
20.67446010447185
 40
3.760598015999999
 41
0.6267663359999999
 10
42.98830780803655
 20
20.67446010447185
 40
0.6267663359999999
 41
0.6267663359999999
  0
TEXT
  5
317C
330
3176
100
AcDbEntity
  8
0
100
AcDbText
 10
50.83225933645008
 20
27.55514570621313
 30
0.0
 40
14.5170144
  1
B
  7
ROMANTICITALIC
100
AcDbText
  0
ENDBLK
  5
317E
330
3176
100
AcDbEntity
  8
0
100
AcDbBlockEnd
  0
ENDSEC
  0
SECTION
  2
ENTITIES
  0
ARC
  5
13B9
330
18
100
AcDbEntity
  8
DESHED
100
AcDbCircle
 10
9727.45840337366
 20
1150.471691639653
 30
0.0
 40
851.0
100
AcDbArc
 50
176.720297587009
 51
180.0
  0
ARC
  5
13BA
330
18
100
AcDbEntity
  8
DESHED
100
AcDbCircle
 10
9727.45840337366
 20
1150.471691639653
 30
0.0
 40
851.0
100
AcDbArc
 50
180.0
 51
183.279702412991
  0
ARC
  5
13BB
330
18
100
AcDbEntity
  8
DESHED
100
AcDbCircle
 10
8968.703171969847
 20
1106.991824834948
 30
0.0
 40
91.0
100
AcDbArc
 50
183.279702412991
 51
266.1383750597654
  0
ARC
  5
13BC
330
18
100
AcDbEntity
  8
DESHED
100
AcDbCircle
 10
9043.45840337366
 20
2214.471691639653
 30
0.0
 40
1201.0
100
AcDbArc
 50
266.1383750597654
 51
270.0
  0
ARC
  5
13BD
330
18
100
AcDbEntity
  8
DESHED
100
AcDbCircle
 10
9043.45840337366
 20
2214.471691639653
 30
0.0
 40
1201.0
100
AcDbArc
 50
270.0
 51
273.8616249402345
  0
ARC
  5
13BE
330
18
100
AcDbEntity
  8
DESHED
100
AcDbCircle
 10
9118.213634777465
 20
1106.991824834948
 30
0.0
 40
91.0
100
AcDbArc
 50
273.8616249402345
 51
356.720297587009
  0
ARC
  5
13BF
330
18
100
AcDbEntity
  8
DESHED
100
AcDbCircle
 10
8359.458403373661
 20
1150.471691639653
 30
0.0
 40
851.0
100
AcDbArc
 50
356.720297587009
 51
3.279702412991007
  0
ARC
  5
13C0
330
18
100
AcDbEntity
  8
DESHED
100
AcDbCircle
 10
9118.213634777465
 20
1193.951558444357
 30
0.0
 40
91.0
100
AcDbArc
 50
3.279702412991007
 51
86.13837505976546
  0
ARC
  5
13C1
330
18
100
AcDbEntity
  8
DESHED
100
AcDbCircle
 10
8968.703171969847
 20
1193.951558444357
 30
0.0
 40
91.0
100
AcDbArc
 50
93.86162494023457
 51
176.720297587009
  0
ARC
  5
13C2
330
18
100
AcDbEntity
  8
DESHED
100
AcDbCircle
 10
9043.45840337366
 20
86.4716916396528
 30
0.0
 40
1201.0
100
AcDbArc
 50
90.0
 51
93.86162494023457
  0
ARC
  5
13C3
330
18
100
AcDbEntity
  8
DESHED
100
AcDbCircle
 10
9043.45840337366
 20
86.4716916396528
 30
0.0
 40
1201.0
100
AcDbArc
 50
86.13837505976546
 51
90.0
  0
ARC
  5
312C
330
18
100
AcDbEntity
  8
0
100
AcDbCircle
 10
9118.213634777465
 20
1106.991824834948
 30
0.0
 40
97.34999999999999
100
AcDbArc
 50
273.8616249402345
 51
356.720297587009
  0
ARC
  5
312D
330
18
100
AcDbEntity
  8
0
100
AcDbCircle
 10
9043.45840337366
 20
2214.471691639653
 30
0.0
 40
1207.35
100
AcDbArc
 50
270.0
 51
273.8616249402345
  0
ARC
  5
312E
330
18
100
AcDbEntity
  8
0
100
AcDbCircle
 10
9043.45840337366
 20
2214.471691639653
 30
0.0
 40
1207.35
100
AcDbArc
 50
266.1383750597654
 51
270.0
  0
ARC
  5
312F
330
18
100
AcDbEntity
  8
0
100
AcDbCircle
 10
8968.703171969847
 20
1106.991824834948
 30
0.0
 40
97.34999999999999
100
AcDbArc
 50
183.279702412991
 51
266.1383750597654
  0
ARC
  5
3130
330
18
100
AcDbEntity
  8
0
100
AcDbCircle
 10
9727.45840337366
 20
1150.471691639653
 30
0.0
 40
857.3500000000001
100
AcDbArc
 50
180.0
 51
183.279702412991
  0
ARC
  5
3131
330
18
100
AcDbEntity
  8
0
100
AcDbCircle
 10
9727.45840337366
 20
1150.471691639653
 30
0.0
 40
857.3500000000001
100
AcDbArc
 50
176.720297587009
 51
180.0
  0
ARC
  5
3132
330
18
100
AcDbEntity
  8
0
100
AcDbCircle
 10
8968.703171969847
 20
1193.951558444357
 30
0.0
 40
97.34999999999999
100
AcDbArc
 50
93.86162494023457
 51
176.720297587009
  0
ARC
  5
3133
330
18
100
AcDbEntity
  8
0
100
AcDbCircle
 10
9043.45840337366
 20
86.4716916396528
 30
0.0
 40
1207.35
100
AcDbArc
 50
90.0
 51
93.86162494023457
  0
ARC
  5
3134
330
18
100
AcDbEntity
  8
0
100
AcDbCircle
 10
9043.45840337366
 20
86.4716916396528
 30
0.0
 40
1207.35
100
AcDbArc
 50
86.13837505976546
 51
90.0
  0
ARC
  5
3135
330
18
100
AcDbEntity
  8
0
100
AcDbCircle
 10
9118.213634777465
 20
1193.951558444357
 30
0.0
 40
97.34999999999999
100
AcDbArc
 50
3.279702412991007
 51
86.13837505976546
  0
ARC
  5
3136
330
18
100
AcDbEntity
  8
0
100
AcDbCircle
 10
8359.458403373661
 20
1150.471691639653
 30
0.0
 40
857.3500000000001
100
AcDbArc
 50
356.720297587009
 51
3.279702412991007
  0
MTEXT
  5
316F
330
18
100
AcDbEntity
  8
0
100
AcDbMText
 10
9076.573300045231
 20
1021.839440421792
 30
0.0
 40
3.24
 41
0.0
 71
     9
 72
     1
  1
{\fArial|b0|i0|c0|p34;\H0.9259x;Use this line for FLUSH MOUNT CUT}
 73
     1
 44
1.0
1001
ACAD
1000
MTEXTBEGIN
1070
    73
1070
     1
1070
    44
1040
1.0
1070
    74
1070
     0
1000
MTEXTEND
  0
MTEXT
  5
3172
330
18
100
AcDbEntity
  8
0
100
AcDbMText
 10
8964.551052094115
 20
1085.544305801489
 30
0.0
 40
3.599999999999999
 41
189.3902305946745
 71
     1
 72
     5
  1
{\fArial|b1|i0|c0|p34;Use outside line for reveal mount cut:\fArial|b0|i0|c0|p34;\PSink rim is 1/4" revealed from the coutnertop opening.}
 73
     1
 44
1.0
1001
ACAD
1000
MTEXTBEGIN
1070
    73
1070
     1
1070
    44
1040
1.0
1070
    74
1070
     0
1000
MTEXTEND
  0
LWPOLYLINE
  5
3184
330
18
100
AcDbEntity
  8
0
100
AcDbPolyline
 90
        2
 70
     0
 43
0.4876800000000001
 10
9072.121011222165
 20
1021.667817278151
 10
9076.431534160279
 20
1017.357294340038
  0
LWPOLYLINE
  5
3185
330
18
100
AcDbEntity
  8
0
100
AcDbPolyline
 90
        2
 70
     0
 10
9076.403287390666
 20
1017.385541109654
 40
1.80508704768
 41
0.3008478412799999
 10
9079.594260620782
 20
1014.194567879538
 40
0.3008478412799999
 41
0.3008478412799999
  0
MTEXT
  5
31E3
330
18
100
AcDbEntity
  8
0
100
AcDbMText
 10
8964.551052094115
 20
1068.583370660115
 30
0.0
 40
3.599999999999999
 41
189.3902305946745
 71
     1
 72
     5
  1
{\fArial|b1|i0|c0|p34;Use inside line for flush mount cut:\fArial|b0|i0|c0|p34;\PSink wall is flush to the edge of countertop opening.}
 73
     1
 44
1.0
1001
ACAD
1000
MTEXTBEGIN
1070
    73
1070
     1
1070
    44
1040
1.0
1070
    74
1070
     0
1000
MTEXTEND
  0
MTEXT
  5
31E4
330
18
100
AcDbEntity
  8
0
100
AcDbMText
 10
8964.551052094115
 20
1053.978120833565
 30
0.0
 40
3.599999999999999
 41
189.3902305946745
 71
     1
 72
     5
  1
{\fArial|b0|i0|c0|p34;Please check actual template against physical sink unit for most accurate cut!}
 73
     1
 44
1.0
1001
ACAD
1000
MTEXTBEGIN
1070
    73
1070
     1
1070
    44
1040
1.0
1070
    74
1070
     0
1000
MTEXTEND
  0
HATCH
  5
3285
330
18
100
AcDbEntity
  8
0
  6
ByBlock
 62
     1
100
AcDbHatch
 10
0.0
 20
0.0
 30
0.0
210
0.0
220
0.0
230
1.0
  2
ANSI31
 70
     0
 71
     1
 91
        1
 92
        5
 93
        9
 72
     4
 94
        3
 73
     0
 74
     0
 95
       10
 96
        6
 40
168.1890314628042
 40
168.1890314628042
 40
168.1890314628042
 40
168.1890314628042
 40
240.3970488653276
 40
404.4385438063731
 40
531.2097876496541
 40
531.2097876496541
 40
531.2097876496541
 40
531.2097876496541
 10
9073.136403643413
 20
1196.795615790247
 10
9073.776259463732
 20
1196.144435945384
 10
9075.348683766559
 20
1193.759338480823
 10
9074.020688109184
 20
1188.265076857124
 10
9075.715938187366
 20
1184.861343906596
 10
9076.718977317527
 20
1183.473063781843
 72
     1
 10
9076.718977317527
 20
1183.473063781843
 11
9105.116528744169
 21
1183.473063781843
 72
     1
 10
9105.116528744169
 20
1183.473063781843
 11
9105.11652874417
 21
1188.976703292221
 72
     1
 10
9105.11652874417
 20
1188.976703292221
 11
9109.516528744169
 21
1188.976703292221
 72
     1
 10
9109.516528744169
 20
1188.976703292221
 11
9109.516528744167
 21
1183.473063781843
 72
     1
 10
9109.516528744167
 20
1183.473063781843
 11
9133.034779591772
 21
1183.473063781843
 72
     1
 10
9133.034779591772
 20
1183.473063781843
 11
9133.034779591772
 21
1194.795615790248
 72
     2
 10
9131.034779591772
 20
1194.795615790248
 40
2.0
 50
0.0
 51
90.0
 73
     1
 72
     1
 10
9131.034779591772
 20
1196.795615790248
 11
9073.136403643413
 21
1196.795615790248
 97
        9
330
32CD
330
32CC
330
32D1
330
32CB
330
331B
330
3287
330
3286
330
32CF
330
32CE
 75
     0
 76
     1
 52
0.0
 41
0.4
 77
     0
 78
     1
 53
45.0
 43
8849.176462032188
 44
1169.715398176468
 45
-0.8980256121069151
 46
0.8980256121069153
 79
     0
 47
2.847268091439218
 98
        1
 10
9087.867760618143
 20
1191.387769886827
  0
LINE
  5
3286
102
{ACAD_REACTORS
330
3285
102
}
330
18
100
AcDbEntity
  8
0
  6
ByBlock
100
AcDbLine
 10
9109.516528744169
 20
1183.473063781843
 30
0.0
 11
9109.516528744169
 21
1188.976703292221
 31
0.0
  0
LINE
  5
3287
102
{ACAD_REACTORS
330
3285
102
}
330
18
100
AcDbEntity
  8
0
  6
ByBlock
100
AcDbLine
 10
9105.116528744169
 20
1188.976703292221
 30
0.0
 11
9109.516528744169
 21
1188.976703292221
 31
0.0
  0
HATCH
  5
3288
330
18
100
AcDbEntity
  8
DESHED
  6
ByBlock
100
AcDbHatch
 10
0.0
 20
0.0
 30
0.0
210
0.0
220
0.0
230
1.0
  2
ANSI31
 70
     0
 71
     0
 91
        2
 92
        7
 72
     0
 73
     1
 93
       12
 10
9106.415632948021
 20
1187.697766615975
 10
9106.11652874417
 20
1187.910865008983
 10
9106.403086403934
 20
1188.136498259181
 10
9106.11652874417
 20
1188.362131897431
 10
9106.408605613822
 20
1188.576703292221
 10
9105.516528744168
 20
1188.576703292221
 10
9105.516528744168
 20
1186.805301516814
 10
9106.370142488115
 20
1186.805301516814
 10
9106.453273311053
 20
1186.857908289185
 10
9106.11652874417
 20
1187.071006682193
 10
9106.440726766965
 20
1187.233964094233
 10
9106.11652874417
 20
1187.509738713451
 97
        0
 92
        7
 72
     0
 73
     1
 93
       13
 10
9109.11652874417
 20
1188.576703292221
 10
9108.224451874514
 20
1188.576703292221
 10
9108.516528744168
 20
1188.362131897431
 10
9108.229971084403
 20
1188.136498259181
 10
9108.49559421346
 20
1187.917129624449
 10
9108.516528744168
 20
1187.910865008983
 10
9108.217424540315
 20
1187.697766615975
 10
9108.516528744168
 20
1187.509738713451
 10
9108.192330721371
 20
1187.233964094233
 10
9108.516528744168
 20
1187.071006682193
 10
9108.179784177282
 20
1186.857908289185
 10
9108.262915000223
 20
1186.805301516814
 10
9109.11652874417
 20
1186.805301516814
 97
        0
 75
     0
 76
     1
 52
270.0
 41
0.04
 77
     0
 78
     1
 53
315.0
 43
8849.176462032188
 44
1169.715398176468
 45
0.0898025612106916
 46
0.0898025612106915
 79
     0
 47
0.4906110457808098
 98
        2
 10
9105.920527219865
 20
1187.556272349439
 10
9108.84728263864
 20
1187.340403621272
  0
HATCH
  5
3289
330
18
100
AcDbEntity
  8
DESHED
  6
ByBlock
100
AcDbHatch
 10
0.0
 20
0.0
 30
0.0
210
0.0
220
0.0
230
1.0
  2
ANSI31
 70
     0
 71
     0
 91
        2
 92
        7
 72
     0
 73
     1
 93
        9
 10
9109.516528744169
 20
1188.976703292221
 10
9108.135002156361
 20
1188.976703292221
 10
9108.135002156361
 20
1188.576703292221
 10
9109.11652874417
 20
1188.576703292221
 10
9109.11652874417
 20
1183.073063781843
 10
9109.132353805547
 20
1183.073063781843
 10
9109.916528744168
 20
1183.073063781843
 10
9109.916528744168
 20
1183.473063781843
 10
9109.516528744169
 20
1183.473063781843
 97
        0
 92
        7
 72
     0
 73
     1
 93
        8
 10
9106.489809201873
 20
1188.976703292221
 10
9105.116528744169
 20
1188.976703292221
 10
9105.116528744169
 20
1183.473063781843
 10
9104.71652874417
 20
1183.473063781843
 10
9104.71652874417
 20
1183.073063781843
 10
9105.516528744168
 20
1183.073063781843
 10
9105.516528744168
 20
1188.576703292221
 10
9106.489809201873
 20
1188.576703292221
 97
        0
 75
     0
 76
     1
 52
0.0
 41
0.08
 77
     0
 78
     1
 53
45.0
 43
8849.176462032188
 44
1169.715398176468
 45
-0.179605122421383
 46
0.1796051224213831
 79
     0
 47
0.9928036230062964
 98
        2
 10
9108.949144148303
 20
1188.776442615535
 10
9105.41148357135
 20
1188.697018351689
  0
LINE
  5
328A
330
18
100
AcDbEntity
  8
DESHED
  6
ByBlock
 62
     1
100
AcDbLine
 10
9106.11652874417
 20
1183.689239815628
 30
0.0
 11
9106.497855599915
 21
1183.293842252742
 31
0.0
  0
LINE
  5
328B
330
18
100
AcDbEntity
  8
DESHED
  6
ByBlock
 62
     1
100
AcDbLine
 10
9106.497855599915
 20
1183.293842252742
 30
0.0
 11
9106.11652874417
 21
1182.95174923052
 31
0.0
  0
LINE
  5
328C
330
18
100
AcDbEntity
  8
DESHED
  6
ByBlock
 62
     1
100
AcDbLine
 10
9106.11652874417
 20
1182.95174923052
 30
0.0
 11
9106.497855599915
 21
1182.58472493696
 31
0.0
  0
LINE
  5
328D
330
18
100
AcDbEntity
  8
DESHED
  6
ByBlock
 62
     1
100
AcDbLine
 10
9106.497855599915
 20
1182.58472493696
 30
0.0
 11
9106.11652874417
 21
1182.153088661897
 31
0.0
  0
LINE
  5
328E
330
18
100
AcDbEntity
  8
DESHED
  6
ByBlock
 62
     1
100
AcDbLine
 10
9106.11652874417
 20
1182.153088661897
 30
0.0
 11
9106.497855599915
 21
1181.752283332521
 31
0.0
  0
LINE
  5
328F
330
18
100
AcDbEntity
  8
DESHED
  6
ByBlock
 62
     1
100
AcDbLine
 10
9106.497855599915
 20
1181.752283332521
 30
0.0
 11
9106.11652874417
 21
1181.397724421677
 31
0.0
  0
LINE
  5
3290
330
18
100
AcDbEntity
  8
DESHED
  6
ByBlock
 62
     1
100
AcDbLine
 10
9106.11652874417
 20
1181.397724421677
 30
0.0
 11
9106.497855599915
 21
1181.043166016739
 31
0.0
  0
LINE
  5
3291
330
18
100
AcDbEntity
  8
DESHED
  6
ByBlock
 62
     1
100
AcDbLine
 10
9106.497855599915
 20
1181.043166016739
 30
0.0
 11
9106.11652874417
 21
1180.76568497602
 31
0.0
  0
LINE
  5
3292
330
18
100
AcDbEntity
  8
DESHED
  6
ByBlock
 62
     1
100
AcDbLine
 10
9108.135201888421
 20
1181.043166016739
 30
0.0
 11
9108.516528744168
 21
1180.76568497602
 31
0.0
  0
LINE
  5
3293
330
18
100
AcDbEntity
  8
DESHED
  6
ByBlock
 62
     1
100
AcDbLine
 10
9108.516528744168
 20
1181.397724421677
 30
0.0
 11
9108.135201888421
 21
1181.043166016739
 31
0.0
  0
LINE
  5
3294
330
18
100
AcDbEntity
  8
DESHED
  6
ByBlock
 62
     1
100
AcDbLine
 10
9108.135201888421
 20
1181.752283332521
 30
0.0
 11
9108.516528744168
 21
1181.397724421677
 31
0.0
  0
LINE
  5
3295
330
18
100
AcDbEntity
  8
DESHED
  6
ByBlock
 62
     1
100
AcDbLine
 10
9108.516528744168
 20
1182.153088661897
 30
0.0
 11
9108.135201888421
 21
1181.752283332521
 31
0.0
  0
LINE
  5
3296
330
18
100
AcDbEntity
  8
DESHED
  6
ByBlock
 62
     1
100
AcDbLine
 10
9108.135201888421
 20
1182.58472493696
 30
0.0
 11
9108.516528744168
 21
1182.153088661897
 31
0.0
  0
LINE
  5
3297
330
18
100
AcDbEntity
  8
DESHED
  6
ByBlock
 62
     1
100
AcDbLine
 10
9108.516528744168
 20
1182.95174923052
 30
0.0
 11
9108.135201888421
 21
1182.58472493696
 31
0.0
  0
LINE
  5
3298
330
18
100
AcDbEntity
  8
DESHED
  6
ByBlock
 62
     1
100
AcDbLine
 10
9106.403086403934
 20
1188.136498259181
 30
0.0
 11
9106.11652874417
 21
1187.910865008983
 31
0.0
  0
LINE
  5
3299
330
18
100
AcDbEntity
  8
DESHED
  6
ByBlock
 62
     1
100
AcDbLine
 10
9108.229971084403
 20
1188.136498259181
 30
0.0
 11
9108.495594213463
 21
1187.917129624449
 31
0.0
  0
LINE
  5
329A
330
18
100
AcDbEntity
  8
DESHED
  6
ByBlock
 62
     1
100
AcDbLine
 10
9106.489809201873
 20
1188.577587496324
 30
0.0
 11
9106.489809201873
 21
1188.976703292221
 31
0.0
  0
LINE
  5
329B
330
18
100
AcDbEntity
  8
DESHED
  6
ByBlock
 62
     1
100
AcDbLine
 10
9108.135002156361
 20
1188.583645434563
 30
0.0
 11
9108.135002156361
 21
1188.976703292221
 31
0.0
  0
LINE
  5
329C
330
18
100
AcDbEntity
  8
DESHED
  6
ByBlock
 62
     1
100
AcDbLine
 10
9105.516528744168
 20
1183.073063781843
 30
0.0
 11
9109.132353805547
 21
1183.073063781843
 31
0.0
  0
LINE
  5
329D
330
18
100
AcDbEntity
  8
DESHED
  6
ByBlock
 62
     1
100
AcDbLine
 10
9108.224451874514
 20
1188.576703292221
 30
0.0
 11
9108.516528744168
 21
1188.362131897431
 31
0.0
  0
LINE
  5
329E
330
18
100
AcDbEntity
  8
DESHED
  6
ByBlock
 62
     1
100
AcDbLine
 10
9106.408605613824
 20
1188.576703292221
 30
0.0
 11
9106.11652874417
 21
1188.362131897431
 31
0.0
  0
LINE
  5
329F
330
18
100
AcDbEntity
  8
DESHED
  6
ByBlock
 62
     1
100
AcDbLine
 10
9104.71652874417
 20
1183.473063781843
 30
0.0
 11
9105.116528744169
 21
1183.473063781843
 31
0.0
  0
LINE
  5
32A0
330
18
100
AcDbEntity
  8
DESHED
  6
ByBlock
 62
     1
100
AcDbLine
 10
9109.516528744169
 20
1183.473063781843
 30
0.0
 11
9109.916528744168
 21
1183.473063781843
 31
0.0
  0
LINE
  5
32A1
330
18
100
AcDbEntity
  8
DESHED
 62
     1
100
AcDbLine
 10
9109.516528744169
 20
1183.493076618205
 30
0.0
 11
9109.916528744168
 21
1183.473063781843
 31
0.0
  0
LINE
  5
32A2
330
18
100
AcDbEntity
  8
DESHED
  6
ByBlock
 62
     1
100
AcDbLine
 10
9106.609809201874
 20
1188.976703292221
 30
0.0
 11
9109.516528744169
 21
1188.976703292221
 31
0.0
  0
LINE
  5
32A3
330
18
100
AcDbEntity
  8
DESHED
  6
ByBlock
 62
     1
100
AcDbLine
 10
9108.262915000223
 20
1186.805301516814
 30
0.0
 11
9109.11652874417
 21
1186.805301516814
 31
0.0
  0
LINE
  5
32A4
330
18
100
AcDbEntity
  8
DESHED
  6
ByBlock
 62
     1
100
AcDbLine
 10
9108.135002156361
 20
1188.576703292221
 30
0.0
 11
9109.11652874417
 21
1188.576703292221
 31
0.0
  0
LINE
  5
32A5
330
18
100
AcDbEntity
  8
DESHED
  6
ByBlock
 62
     1
100
AcDbLine
 10
9105.116528744169
 20
1188.976703292221
 30
0.0
 11
9106.609809201874
 21
1188.976703292221
 31
0.0
  0
LINE
  5
32A6
330
18
100
AcDbEntity
  8
DESHED
  6
ByBlock
 62
     1
370
     0
100
AcDbLine
 10
9109.11652874417
 20
1188.576703292221
 30
0.0
 11
9109.11652874417
 21
1183.073063781843
 31
0.0
  0
LINE
  5
32A7
330
18
100
AcDbEntity
  8
DESHED
  6
ByBlock
 62
     1
370
     0
100
AcDbLine
 10
9105.516528744168
 20
1183.073063781843
 30
0.0
 11
9105.516528744168
 21
1188.576703292221
 31
0.0
  0
LINE
  5
32A8
330
18
100
AcDbEntity
  8
DIM
100
AcDbLine
 10
9108.916528744169
 20
1180.124749066251
 30
0.0
 11
9108.916528744169
 21
1178.724092098227
 31
0.0
  0
LINE
  5
32A9
330
18
100
AcDbEntity
  8
DIM
100
AcDbLine
 10
9105.716528744169
 20
1180.222793742805
 30
0.0
 11
9105.716528744169
 21
1178.82213677478
 31
0.0
  0
LINE
  5
32AA
330
18
100
AcDbEntity
  8
DESHED
  6
ByBlock
 62
     1
100
AcDbLine
 10
9109.132353805547
 20
1183.073063781843
 30
0.0
 11
9109.916528744168
 21
1183.073063781843
 31
0.0
  0
LINE
  5
32AB
330
18
100
AcDbEntity
  8
DESHED
  6
ByBlock
 62
     1
100
AcDbLine
 10
9104.71652874417
 20
1183.073063781843
 30
0.0
 11
9105.500703682791
 21
1183.073063781843
 31
0.0
  0
LINE
  5
32AC
330
18
100
AcDbEntity
  8
DESHED
  6
ByBlock
 62
     1
370
     0
100
AcDbLine
 10
9104.71652874417
 20
1183.073063781843
 30
0.0
 11
9104.71652874417
 21
1183.473063781843
 31
0.0
  0
LINE
  5
32AD
330
18
100
AcDbEntity
  8
DESHED
  6
ByBlock
 62
     1
370
     0
100
AcDbLine
 10
9109.916528744168
 20
1183.473063781843
 30
0.0
 11
9109.916528744168
 21
1183.073063781843
 31
0.0
  0
LINE
  5
32AE
330
18
100
AcDbEntity
  8
DIM
100
AcDbLine
 10
9106.11652874417
 20
1180.76568497602
 30
0.0
 11
9106.11652874417
 21
1178.238303006242
 31
0.0
  0
LINE
  5
32AF
330
18
100
AcDbEntity
  8
DIM
100
AcDbLine
 10
9108.516528744168
 20
1180.76568497602
 30
0.0
 11
9108.516528744168
 21
1178.238303006242
 31
0.0
  0
LINE
  5
32B0
330
18
100
AcDbEntity
  8
DESHED
  6
ByBlock
 62
     1
100
AcDbLine
 10
9105.516528744168
 20
1186.805301516814
 30
0.0
 11
9106.370142488115
 21
1186.805301516814
 31
0.0
  0
LINE
  5
32B1
330
18
100
AcDbEntity
  8
DESHED
  6
ByBlock
 62
     1
100
AcDbLine
 10
9105.516528744168
 20
1188.576703292221
 30
0.0
 11
9106.489809201873
 21
1188.576703292221
 31
0.0
  0
LINE
  5
32B2
330
18
100
AcDbEntity
  8
DIM
100
AcDbLine
 10
9125.971107595542
 20
1182.615751671029
 30
0.0
 11
9125.983410474061
 21
1181.815846277135
 31
0.0
  0
LINE
  5
32B3
330
18
100
AcDbEntity
  8
DIM
100
AcDbLine
 10
9126.458622194409
 20
1183.473063781843
 30
0.0
 11
9126.838035023679
 21
1182.629085376382
 31
0.0
  0
LINE
  5
32B4
330
18
100
AcDbEntity
  8
DIM
100
AcDbLine
 10
9133.659675439778
 20
1183.473063781843
 30
0.0
 11
9133.831903045788
 21
1182.736653983004
 31
0.0
  0
LINE
  5
32B5
330
18
100
AcDbEntity
  8
DIM
100
AcDbLine
 10
9136.594440794278
 20
1181.979048348258
 30
0.0
 11
9125.983410474061
 21
1181.815846277135
 31
0.0
  0
LEADER
  5
32B6
330
18
100
AcDbEntity
  8
DIM
100
AcDbLeader
  3
B
 73
     0
 74
     0
 75
     1
 40
2.0
 41
6.666666666666666
 76
     3
 10
9138.927701750882
 20
1181.010419844108
 30
0.0
 10
9139.80871982085
 20
1187.235509705533
 30
0.0
 10
9151.238719820851
 20
1187.235509705533
 30
0.0
340
32B7
213
0.0
223
-1.0
233
0.0
1001
ACAD
1000
DSTYLE
1002
{
1070
   147
1040
0.3
1070
    77
1070
     0
1002
}
  0
MTEXT
  5
32B7
102
{ACAD_REACTORS
330
32B6
102
}
330
18
100
AcDbEntity
  8
DIM
100
AcDbMText
 10
9153.52471982085
 20
1188.235509705533
 30
0.0
 40
2.0
 41
0.4
 71
     1
 72
     1
  1
SINK
 73
     1
 44
1.0
1001
ACAD
1000
MTEXTBEGIN
1070
    73
1070
     1
1070
    44
1040
1.0
1070
    74
1070
     0
1000
MTEXTEND
  0
MTEXT
  5
32B8
102
{ACAD_REACTORS
330
32B9
102
}
330
18
100
AcDbEntity
  8
DIM
100
AcDbMText
 10
9088.496556416059
 20
1167.180905093179
 30
0.0
 40
2.0
 41
0.4
 71
     9
 72
     1
  1
SCREWS
 73
     1
 44
1.0
1001
ACAD
1000
MTEXTBEGIN
1070
    73
1070
     1
1070
    44
1040
1.0
1070
    74
1070
     0
1000
MTEXTEND
  0
LEADER
  5
32B9
330
18
100
AcDbEntity
  8
DIM
100
AcDbLeader
  3
B
 73
     0
 75
     1
 40
2.0
 41
12.0
 76
     3
 10
9105.706536740381
 20
1177.256993489393
 30
0.0
 10
9102.212556416061
 20
1168.180905093179
 30
0.0
 10
9090.782556416058
 20
1168.180905093179
 30
0.0
340
32B8
213
0.0
223
1.0
233
0.0
1001
ACAD
1000
DSTYLE
1002
{
1070
   147
1040
0.3
1070
    77
1070
     0
1002
}
  0
MTEXT
  5
32BA
102
{ACAD_REACTORS
330
32BB
102
}
330
18
100
AcDbEntity
  8
DIM
100
AcDbMText
 10
9080.36731679334
 20
1172.061516361954
 30
0.0
 40
2.0
 41
0.4
 71
     9
 72
     1
  1
FASTENER
 73
     1
 44
1.0
1001
ACAD
1000
MTEXTBEGIN
1070
    73
1070
     1
1070
    44
1040
1.0
1070
    74
1070
     0
1000
MTEXTEND
  0
LEADER
  5
32BB
330
18
100
AcDbEntity
  8
DIM
100
AcDbLeader
  3
B
 73
     0
 75
     1
 40
2.0
 41
15.33333333333333
 76
     3
 10
9094.943216859963
 20
1179.152219861999
 30
0.0
 10
9094.083316793343
 20
1173.061516361954
 30
0.0
 10
9082.653316793342
 20
1173.061516361954
 30
0.0
340
32BA
213
0.0
223
1.0
233
0.0
1001
ACAD
1000
DSTYLE
1002
{
1070
   147
1040
0.3
1070
    77
1070
     0
1002
}
  0
LINE
  5
32BC
330
18
100
AcDbEntity
  8
DIM
 62
     1
370
     0
100
AcDbLine
 10
9112.916528744168
 20
1180.002193220559
 30
0.0
 11
9112.916528744168
 21
1178.601536252535
 31
0.0
  0
LINE
  5
32BD
330
18
100
AcDbEntity
  8
DIM
100
AcDbLine
 10
9101.716528744169
 20
1180.345349588497
 30
0.0
 11
9101.716528744169
 21
1178.944692620473
 31
0.0
  0
LINE
  5
32BE
330
18
100
AcDbEntity
  8
DIM
 62
     1
370
     0
100
AcDbLine
 10
9130.522902575076
 20
1178.06209524393
 30
0.0
 11
9131.993853290875
 21
1181.311286993276
 31
0.0
  0
LINE
  5
32BF
330
18
100
AcDbEntity
  8
DIM
 62
     1
370
     0
100
AcDbLine
 10
9108.916528744169
 20
1178.724092098227
 30
0.0
 11
9130.522902575076
 21
1178.06209524393
 31
0.0
  0
LINE
  5
32C0
330
18
100
AcDbEntity
  8
DIM
 62
     1
370
     0
100
AcDbLine
 10
9129.632565187883
 20
1179.490031224814
 30
0.0
 11
9108.916528744169
 21
1180.124749066251
 31
0.0
  0
LINE
  5
32C1
330
18
100
AcDbEntity
  8
DIM
 62
     1
370
     0
100
AcDbLine
 10
9130.718461187916
 20
1181.88867333163
 30
0.0
 11
9129.632565187883
 21
1179.490031224814
 31
0.0
  0
LINE
  5
32C2
330
18
100
AcDbEntity
  8
DIM
 62
     1
370
     0
100
AcDbLine
 10
9131.993853290875
 20
1181.311286993276
 30
0.0
 11
9130.718461187916
 21
1181.88867333163
 31
0.0
  0
ARC
  5
32C3
330
18
100
AcDbEntity
  8
DIM
 62
     1
370
     0
100
AcDbCircle
 10
9136.619046551315
 20
1180.37923756047
 30
0.0
 40
2.399999999999993
100
AcDbArc
 50
1.83944125196927
 51
90.8811635037197
  0
LINE
  5
32C4
330
18
100
AcDbEntity
  8
DIM
 62
     1
370
     0
100
AcDbLine
 10
9139.642258849589
 20
1160.746350235378
 30
0.0
 11
9139.017809833767
 21
1180.456274660348
 31
0.0
  0
LINE
  5
32C5
330
18
100
AcDbEntity
  8
DIM
 62
     1
370
     0
100
AcDbLine
 10
9138.859726537974
 20
1160.455578931489
 30
0.0
 11
9139.642258849589
 21
1160.746350235378
 31
0.0
  0
LINE
  5
32C6
330
18
100
AcDbEntity
  8
DIM
 62
     1
370
     0
100
AcDbLine
 10
9138.21822207295
 20
1180.430595627055
 30
0.0
 11
9138.859726537974
 21
1160.455578931489
 31
0.0
  0
ARC
  5
32C7
330
18
100
AcDbEntity
  8
DIM
 62
     1
370
     0
100
AcDbCircle
 10
9136.619046551315
 20
1180.37923756047
 30
0.0
 40
1.599999999999981
100
AcDbArc
 50
1.83944125196927
 51
90.8811635037197
  0
LINE
  5
32C8
330
18
100
AcDbEntity
  8
DIM
 62
     1
370
     0
100
AcDbLine
 10
9125.983410474061
 20
1181.815846277135
 30
0.0
 11
9136.594440794278
 21
1181.979048348258
 31
0.0
  0
LINE
  5
32C9
330
18
100
AcDbEntity
  8
DIM
 62
     1
370
     0
100
AcDbLine
 10
9136.582137915761
 20
1182.778953742151
 30
0.0
 11
9125.971107595542
 21
1182.615751671029
 31
0.0
  0
LINE
  5
32CA
330
18
100
AcDbEntity
  8
DESHED
  6
ByBlock
 62
     1
370
     0
100
AcDbLine
 10
9105.116528744169
 20
1183.473063781843
 30
0.0
 11
9105.116528744169
 21
1188.976703292221
 31
0.0
  0
LINE
  5
32CB
102
{ACAD_REACTORS
330
3285
102
}
330
18
100
AcDbEntity
  8
DIM
 62
     1
370
     0
100
AcDbLine
 10
9076.71897731752
 20
1183.473063781843
 30
0.0
 11
9105.116528744169
 21
1183.473063781843
 31
0.0
  0
LINE
  5
32CC
102
{ACAD_REACTORS
330
3285
102
}
330
18
100
AcDbEntity
  8
DIM
 62
     1
370
     0
100
AcDbLine
 10
9131.034779591772
 20
1196.795615790248
 30
0.0
 11
9073.136403643406
 21
1196.795615790248
 31
0.0
  0
ARC
  5
32CD
102
{ACAD_REACTORS
330
3285
102
}
330
18
100
AcDbEntity
  8
DIM
 62
     1
370
     0
100
AcDbCircle
 10
9131.034779591772
 20
1194.795615790248
 30
0.0
 40
2.0
100
AcDbArc
 50
0.0
 51
90.0
  0
LINE
  5
32CE
102
{ACAD_REACTORS
330
3285
102
}
330
18
100
AcDbEntity
  8
DIM
 62
     1
370
     0
100
AcDbLine
 10
9133.034779591772
 20
1183.473063781843
 30
0.0
 11
9133.034779591772
 21
1194.795615790248
 31
0.0
  0
LINE
  5
32CF
102
{ACAD_REACTORS
330
3285
102
}
330
18
100
AcDbEntity
  8
DIM
 62
     1
370
     0
100
AcDbLine
 10
9109.516528744169
 20
1183.473063781843
 30
0.0
 11
9133.034779591772
 21
1183.473063781843
 31
0.0
  0
LINE
  5
32D0
330
18
100
AcDbEntity
  8
DESHED
  6
ByBlock
 62
     1
370
     0
100
AcDbLine
 10
9109.516528744169
 20
1188.976703292221
 30
0.0
 11
9109.516528744169
 21
1183.473063781843
 31
0.0
  0
SPLINE
  5
32D1
102
{ACAD_REACTORS
330
3285
102
}
330
18
100
AcDbEntity
  8
DIM
100
AcDbSpline
210
0.0
220
0.0
230
1.0
 70
     8
 71
     3
 72
    10
 73
     6
 74
     0
 42
0.0000000001
 43
0.0000000001
 40
168.1890314628042
 40
168.1890314628042
 40
168.1890314628042
 40
168.1890314628042
 40
240.3970488653276
 40
404.4385438063731
 40
531.2097876496541
 40
531.2097876496541
 40
531.2097876496541
 40
531.2097876496541
 10
9073.136403643413
 20
1196.795615790247
 30
0.0
 10
9073.776259463732
 20
1196.144435945384
 30
0.0
 10
9075.348683766559
 20
1193.759338480823
 30
0.0
 10
9074.020688109184
 20
1188.265076857124
 30
0.0
 10
9075.715938187366
 20
1184.861343906596
 30
0.0
 10
9076.718977317527
 20
1183.473063781843
 30
0.0
  0
MTEXT
  5
32D2
102
{ACAD_REACTORS
330
32D3
102
}
330
18
100
AcDbEntity
  8
DIM
100
AcDbMText
 10
9074.525996268004
 20
1204.881871739619
 30
0.0
 40
2.0
 41
0.0
 71
     9
 72
     1
  1
COUNTERTOP
 73
     1
 44
1.0
1001
ACAD
1000
MTEXTBEGIN
1070
    73
1070
     1
1070
    44
1040
1.0
1070
    74
1070
     0
1000
MTEXTEND
  0
LEADER
  5
32D3
330
18
100
AcDbEntity
  8
DIM
100
AcDbLeader
  3
B
 73
     0
 75
     1
 40
50.0
 41
483.3333333333334
 76
     3
 10
9087.580874816666
 20
1196.795615790248
 30
0.0
 10
9086.075996267998
 20
1205.181871739618
 30
0.0
 10
9074.645996267998
 20
1205.181871739618
 30
0.0
213
0.0
223
0.3
233
0.0
1001
ACAD
1000
DSTYLE
1002
{
1070
   147
1040
0.3
1070
    77
1070
     0
1002
}
  0
LINE
  5
32D4
330
18
100
AcDbEntity
  8
DESHED
  6
ByBlock
 62
     1
100
AcDbLine
 10
9106.11652874417
 20
1188.362131897431
 30
0.0
 11
9106.403086403934
 21
1188.136498259181
 31
0.0
  0
LINE
  5
32D5
330
18
100
AcDbEntity
  8
DESHED
  6
ByBlock
 62
     1
100
AcDbLine
 10
9107.316528744169
 20
1188.269962552854
 30
0.0
 11
9106.11652874417
 21
1187.910865008983
 31
0.0
  0
LINE
  5
32D6
330
18
100
AcDbEntity
  8
DESHED
  6
ByBlock
 62
     1
100
AcDbLine
 10
9106.11652874417
 20
1187.910865008983
 30
0.0
 11
9106.415632948021
 21
1187.697766615975
 31
0.0
  0
LINE
  5
32D7
330
18
100
AcDbEntity
  8
DESHED
  6
ByBlock
 62
     1
100
AcDbLine
 10
9106.415632948021
 20
1187.697766615975
 30
0.0
 11
9106.11652874417
 21
1187.509738713451
 31
0.0
  0
LINE
  5
32D8
330
18
100
AcDbEntity
  8
DESHED
  6
ByBlock
 62
     1
100
AcDbLine
 10
9106.11652874417
 20
1187.509738713451
 30
0.0
 11
9106.440726766965
 21
1187.233964094233
 31
0.0
  0
LINE
  5
32D9
330
18
100
AcDbEntity
  8
DESHED
  6
ByBlock
 62
     1
100
AcDbLine
 10
9106.440726766965
 20
1187.233964094233
 30
0.0
 11
9106.11652874417
 21
1187.071006682193
 31
0.0
  0
LINE
  5
32DA
330
18
100
AcDbEntity
  8
DESHED
  6
ByBlock
 62
     1
100
AcDbLine
 10
9106.11652874417
 20
1187.071006682193
 30
0.0
 11
9106.453273311053
 21
1186.857908289185
 31
0.0
  0
LINE
  5
32DB
330
18
100
AcDbEntity
  8
DESHED
  6
ByBlock
 62
     1
100
AcDbLine
 10
9106.453273311053
 20
1186.857908289185
 30
0.0
 11
9106.11652874417
 21
1186.644809896177
 31
0.0
  0
LINE
  5
32DC
330
18
100
AcDbEntity
  8
DESHED
  6
ByBlock
 62
     1
100
AcDbLine
 10
9106.11652874417
 20
1186.644809896177
 30
0.0
 11
9106.465819855143
 21
1186.381570910253
 31
0.0
  0
LINE
  5
32DD
330
18
100
AcDbEntity
  8
DESHED
  6
ByBlock
 62
     1
100
AcDbLine
 10
9106.465819855143
 20
1186.381570910253
 30
0.0
 11
9106.11652874417
 21
1186.155937272003
 31
0.0
  0
LINE
  5
32DE
330
18
100
AcDbEntity
  8
DESHED
  6
ByBlock
 62
     1
100
AcDbLine
 10
9106.11652874417
 20
1186.155937272003
 30
0.0
 11
9106.453273311053
 21
1185.867627795596
 31
0.0
  0
LINE
  5
32DF
330
18
100
AcDbEntity
  8
DESHED
  6
ByBlock
 62
     1
100
AcDbLine
 10
9106.453273311053
 20
1185.867627795596
 30
0.0
 11
9106.11652874417
 21
1185.66706464783
 31
0.0
  0
LINE
  5
32E0
330
18
100
AcDbEntity
  8
DESHED
  6
ByBlock
 62
     1
100
AcDbLine
 10
9106.11652874417
 20
1185.66706464783
 30
0.0
 11
9106.440726766965
 21
1185.328614578507
 31
0.0
  0
LINE
  5
32E1
330
18
100
AcDbEntity
  8
DESHED
  6
ByBlock
 62
     1
100
AcDbLine
 10
9106.440726766965
 20
1185.328614578507
 30
0.0
 11
9106.11652874417
 21
1185.077910449773
 31
0.0
  0
LINE
  5
32E2
330
18
100
AcDbEntity
  8
DESHED
  6
ByBlock
 62
     1
100
AcDbLine
 10
9106.11652874417
 20
1185.077910449773
 30
0.0
 11
9106.446633559199
 21
1184.651183584662
 31
0.0
  0
LINE
  5
32E3
330
18
100
AcDbEntity
  8
DESHED
  6
ByBlock
 62
     1
100
AcDbLine
 10
9106.446633559199
 20
1184.651183584662
 30
0.0
 11
9106.11652874417
 21
1184.362600531562
 31
0.0
  0
LINE
  5
32E4
330
18
100
AcDbEntity
  8
DESHED
  6
ByBlock
 62
     1
100
AcDbLine
 10
9106.11652874417
 20
1184.362600531562
 30
0.0
 11
9106.497855599915
 21
1183.926407796645
 31
0.0
  0
LINE
  5
32E5
330
18
100
AcDbEntity
  8
DESHED
  6
ByBlock
 62
     1
100
AcDbLine
 10
9106.497855599915
 20
1183.926407796645
 30
0.0
 11
9106.11652874417
 21
1183.689239815628
 31
0.0
  0
LINE
  5
32E6
330
18
100
AcDbEntity
  8
DESHED
  6
ByBlock
 62
     1
100
AcDbLine
 10
9108.135201888421
 20
1183.293842252742
 30
0.0
 11
9108.516528744168
 21
1182.95174923052
 31
0.0
  0
LINE
  5
32E7
330
18
100
AcDbEntity
  8
DESHED
  6
ByBlock
 62
     1
100
AcDbLine
 10
9108.516528744168
 20
1183.689239815628
 30
0.0
 11
9108.135201888421
 21
1183.293842252742
 31
0.0
  0
LINE
  5
32E8
330
18
100
AcDbEntity
  8
DESHED
  6
ByBlock
 62
     1
100
AcDbLine
 10
9108.135201888421
 20
1183.926407796645
 30
0.0
 11
9108.516528744168
 21
1183.689239815628
 31
0.0
  0
LINE
  5
32E9
330
18
100
AcDbEntity
  8
DESHED
  6
ByBlock
 62
     1
100
AcDbLine
 10
9108.516528744168
 20
1184.362600531562
 30
0.0
 11
9108.135201888421
 21
1183.926407796645
 31
0.0
  0
LINE
  5
32EA
330
18
100
AcDbEntity
  8
DESHED
  6
ByBlock
 62
     1
100
AcDbLine
 10
9108.186423929138
 20
1184.651183584662
 30
0.0
 11
9108.516528744168
 21
1184.362600531562
 31
0.0
  0
LINE
  5
32EB
330
18
100
AcDbEntity
  8
DESHED
  6
ByBlock
 62
     1
100
AcDbLine
 10
9108.516528744168
 20
1185.077910449773
 30
0.0
 11
9108.186423929138
 21
1184.651183584662
 31
0.0
  0
LINE
  5
32EC
330
18
100
AcDbEntity
  8
DESHED
  6
ByBlock
 62
     1
100
AcDbLine
 10
9108.192330721371
 20
1185.328614578507
 30
0.0
 11
9108.516528744168
 21
1185.077910449773
 31
0.0
  0
LINE
  5
32ED
330
18
100
AcDbEntity
  8
DESHED
  6
ByBlock
 62
     1
100
AcDbLine
 10
9108.516528744168
 20
1185.66706464783
 30
0.0
 11
9108.192330721371
 21
1185.328614578507
 31
0.0
  0
LINE
  5
32EE
330
18
100
AcDbEntity
  8
DESHED
  6
ByBlock
 62
     1
100
AcDbLine
 10
9108.179784177284
 20
1185.867627795596
 30
0.0
 11
9108.516528744168
 21
1185.66706464783
 31
0.0
  0
LINE
  5
32EF
330
18
100
AcDbEntity
  8
DESHED
  6
ByBlock
 62
     1
100
AcDbLine
 10
9108.516528744168
 20
1186.155937272003
 30
0.0
 11
9108.179784177284
 21
1185.867627795596
 31
0.0
  0
LINE
  5
32F0
330
18
100
AcDbEntity
  8
DESHED
  6
ByBlock
 62
     1
100
AcDbLine
 10
9108.167237633194
 20
1186.381570910253
 30
0.0
 11
9108.516528744168
 21
1186.155937272003
 31
0.0
  0
LINE
  5
32F1
330
18
100
AcDbEntity
  8
DESHED
  6
ByBlock
 62
     1
100
AcDbLine
 10
9108.516528744168
 20
1186.644809896177
 30
0.0
 11
9108.167237633194
 21
1186.381570910253
 31
0.0
  0
LINE
  5
32F2
330
18
100
AcDbEntity
  8
DESHED
  6
ByBlock
 62
     1
100
AcDbLine
 10
9108.179784177284
 20
1186.857908289185
 30
0.0
 11
9108.516528744168
 21
1186.644809896177
 31
0.0
  0
LINE
  5
32F3
330
18
100
AcDbEntity
  8
DESHED
  6
ByBlock
 62
     1
100
AcDbLine
 10
9108.516528744168
 20
1187.071006682193
 30
0.0
 11
9108.179784177284
 21
1186.857908289185
 31
0.0
  0
LINE
  5
32F4
330
18
100
AcDbEntity
  8
DESHED
  6
ByBlock
 62
     1
100
AcDbLine
 10
9108.192330721371
 20
1187.233964094233
 30
0.0
 11
9108.516528744168
 21
1187.071006682193
 31
0.0
  0
LINE
  5
32F5
330
18
100
AcDbEntity
  8
DESHED
  6
ByBlock
 62
     1
100
AcDbLine
 10
9108.516528744168
 20
1187.509738713451
 30
0.0
 11
9108.192330721371
 21
1187.233964094233
 31
0.0
  0
LINE
  5
32F6
330
18
100
AcDbEntity
  8
DESHED
  6
ByBlock
 62
     1
100
AcDbLine
 10
9108.217424540315
 20
1187.697766615975
 30
0.0
 11
9108.516528744168
 21
1187.509738713451
 31
0.0
  0
LINE
  5
32F7
330
18
100
AcDbEntity
  8
DESHED
  6
ByBlock
 62
     1
100
AcDbLine
 10
9108.516528744168
 20
1187.910865008983
 30
0.0
 11
9108.217424540315
 21
1187.697766615975
 31
0.0
  0
LINE
  5
32F8
330
18
100
AcDbEntity
  8
DESHED
  6
ByBlock
 62
     1
100
AcDbLine
 10
9107.316528744169
 20
1188.269962552854
 30
0.0
 11
9108.516528744168
 21
1187.910865008983
 31
0.0
  0
LINE
  5
32F9
330
18
100
AcDbEntity
  8
DESHED
  6
ByBlock
 62
     1
100
AcDbLine
 10
9108.516528744168
 20
1188.362131897431
 30
0.0
 11
9108.229971084403
 21
1188.136498259181
 31
0.0
  0
LINE
  5
32FA
330
18
100
AcDbEntity
  8
DIM
100
AcDbLine
 10
9106.11652874417
 20
1178.638303006242
 30
0.0
 11
9102.916528744168
 21
1178.638303006242
 31
0.0
  0
LINE
  5
32FB
330
18
100
AcDbEntity
  8
DIM
100
AcDbLine
 10
9105.116528744169
 20
1183.473063781843
 30
0.0
 11
9076.71897731752
 21
1183.473063781843
 31
0.0
  0
LINE
  5
32FC
330
18
100
AcDbEntity
  8
DIM
100
AcDbLine
 10
9106.11652874417
 20
1180.210538158236
 30
0.0
 11
9086.571259843505
 21
1180.809384898086
 31
0.0
  0
LINE
  5
32FD
330
18
100
AcDbEntity
  8
DIM
100
AcDbLine
 10
9106.11652874417
 20
1178.809881190211
 30
0.0
 11
9085.841598034248
 21
1179.431084010087
 31
0.0
  0
LINE
  5
32FE
330
18
100
AcDbEntity
  8
DIM
100
AcDbLine
 10
9108.716528744169
 20
1178.638303006242
 30
0.0
 11
9108.716528744169
 21
1178.238303006242
 31
0.0
  0
LINE
  5
32FF
330
18
100
AcDbEntity
  8
DIM
100
AcDbLine
 10
9105.916528744169
 20
1178.638303006242
 30
0.0
 11
9105.916528744169
 21
1178.238303006242
 31
0.0
  0
ARC
  5
3300
330
18
100
AcDbEntity
  8
DIM
100
AcDbCircle
 10
9107.316528744169
 20
1179.361780024466
 30
0.0
 40
2.649943510808835
100
AcDbArc
 50
279.911167827012
 51
334.9149811222293
  0
LINE
  5
3301
330
18
100
AcDbEntity
  8
DIM
100
AcDbLine
 10
9107.316528744169
 20
1177.192587712978
 30
0.0
 11
9107.772639962535
 21
1176.751384811676
 31
0.0
  0
LINE
  5
3302
330
18
100
AcDbEntity
  8
DIM
100
AcDbLine
 10
9107.316528744169
 20
1177.192587712978
 30
0.0
 11
9106.860417525803
 21
1176.751384811676
 31
0.0
  0
LINE
  5
3303
330
18
100
AcDbEntity
  8
DIM
100
AcDbLine
 10
9111.716528744169
 20
1178.238303006242
 30
0.0
 11
9102.916528744168
 21
1178.238303006242
 31
0.0
  0
LINE
  5
3304
330
18
100
AcDbEntity
  8
DIM
100
AcDbLine
 10
9111.716528744169
 20
1178.638303006242
 30
0.0
 11
9108.516528744168
 21
1178.638303006242
 31
0.0
  0
ARC
  5
3305
330
18
100
AcDbEntity
  8
DIM
100
AcDbCircle
 10
9107.316528744169
 20
1179.361780024466
 30
0.0
 40
2.649943510808835
100
AcDbArc
 50
205.0850188777707
 51
260.088832172988
  0
LINE
  5
3306
330
18
100
AcDbEntity
  8
DIM
100
AcDbLine
 10
9102.916528744168
 20
1178.638303006242
 30
0.0
 11
9102.916528744168
 21
1178.238303006242
 31
0.0
  0
LINE
  5
3307
330
18
100
AcDbEntity
  8
DIM
100
AcDbLine
 10
9111.716528744169
 20
1178.638303006242
 30
0.0
 11
9111.716528744169
 21
1178.238303006242
 31
0.0
  0
LINE
  5
3308
330
18
100
AcDbEntity
  8
DIM
100
AcDbLine
 10
9083.884304847346
 20
1182.80047415641
 30
0.0
 11
9085.112157931295
 21
1183.473063781843
 31
0.0
  0
LINE
  5
3309
330
18
100
AcDbEntity
  8
DIM
100
AcDbLine
 10
9085.728073814204
 20
1179.434562274286
 30
0.0
 11
9083.884304847346
 21
1182.80047415641
 31
0.0
  0
LINE
  5
330A
330
18
100
AcDbEntity
  8
DIM
100
AcDbLine
 10
9130.718461187916
 20
1181.88867333163
 30
0.0
 11
9131.993853290875
 21
1181.311286993276
 31
0.0
  0
LINE
  5
330B
330
18
100
AcDbEntity
  8
DIM
100
AcDbLine
 10
9131.993853290875
 20
1181.311286993276
 30
0.0
 11
9130.522902575076
 21
1178.06209524393
 31
0.0
  0
LINE
  5
330C
330
18
100
AcDbEntity
  8
DIM
100
AcDbLine
 10
9130.522902575076
 20
1178.06209524393
 30
0.0
 11
9108.516528744168
 21
1178.736347682796
 31
0.0
  0
LINE
  5
330D
330
18
100
AcDbEntity
  8
DIM
100
AcDbLine
 10
9086.571259843505
 20
1180.809384898086
 30
0.0
 11
9085.112157931295
 21
1183.473063781843
 31
0.0
  0
LINE
  5
330E
330
18
100
AcDbEntity
  8
DIM
100
AcDbLine
 10
9129.632565187883
 20
1179.490031224814
 30
0.0
 11
9108.516528744168
 21
1180.137004650821
 31
0.0
  0
LINE
  5
330F
330
18
100
AcDbEntity
  8
DIM
100
AcDbLine
 10
9130.718461187916
 20
1181.88867333163
 30
0.0
 11
9129.632565187883
 21
1179.490031224814
 31
0.0
  0
LINE
  5
3310
330
18
100
AcDbEntity
  8
DIM
100
AcDbLine
 10
9139.613766584711
 20
1161.899512082737
 30
0.0
 11
9138.859726537974
 21
1160.455578931489
 31
0.0
  0
LINE
  5
3311
330
18
100
AcDbEntity
  8
DIM
100
AcDbLine
 10
9138.21822207295
 20
1180.430595627055
 30
0.0
 11
9138.859726537974
 21
1160.455578931489
 31
0.0
  0
ARC
  5
3312
330
18
100
AcDbEntity
  8
DIM
100
AcDbCircle
 10
9136.619046551315
 20
1180.37923756047
 30
0.0
 40
1.6
100
AcDbArc
 50
1.83944125196927
 51
90.8811635037197
  0
ARC
  5
3313
330
18
100
AcDbEntity
  8
DIM
100
AcDbCircle
 10
9136.619046551315
 20
1180.37923756047
 30
0.0
 40
2.4
100
AcDbArc
 50
1.83944125196927
 51
90.8811635037197
  0
LINE
  5
3314
330
18
100
AcDbEntity
  8
DIM
100
AcDbLine
 10
9139.017809833767
 20
1180.456274660348
 30
0.0
 11
9139.642258849589
 21
1160.746350235378
 31
0.0
  0
LINE
  5
3315
330
18
100
AcDbEntity
  8
DIM
100
AcDbLine
 10
9136.582137915761
 20
1182.778953742151
 30
0.0
 11
9125.971107595542
 21
1182.615751671029
 31
0.0
  0
LINE
  5
3316
330
18
100
AcDbEntity
  8
DIM
100
AcDbLine
 10
9123.940946660122
 20
1183.473063781843
 30
0.0
 11
9133.659675439778
 21
1183.473063781843
 31
0.0
  0
LINE
  5
3317
330
18
100
AcDbEntity
  8
DIM
100
AcDbLine
 10
9133.034779591772
 20
1183.473063781843
 30
0.0
 11
9109.516528744169
 21
1183.473063781843
 31
0.0
  0
LINE
  5
3318
330
18
100
AcDbEntity
  8
DIM
100
AcDbLine
 10
9133.034779591772
 20
1194.795615790248
 30
0.0
 11
9133.034779591772
 21
1183.473063781843
 31
0.0
  0
ARC
  5
3319
330
18
100
AcDbEntity
  8
DIM
100
AcDbCircle
 10
9131.034779591772
 20
1194.795615790248
 30
0.0
 40
2.0
100
AcDbArc
 50
0.0
 51
90.0
  0
LINE
  5
331A
330
18
100
AcDbEntity
  8
DIM
100
AcDbLine
 10
9073.136403643406
 20
1196.795615790248
 30
0.0
 11
9131.034779591772
 21
1196.795615790248
 31
0.0
  0
LINE
  5
331B
102
{ACAD_REACTORS
330
3285
102
}
330
18
100
AcDbEntity
  8
DIM
  6
ByBlock
100
AcDbLine
 10
9105.116528744169
 20
1188.976703292221
 30
0.0
 11
9105.116528744169
 21
1183.473063781843
 31
0.0
  0
LINE
  5
331C
330
18
100
AcDbEntity
  8
DIM
100
AcDbLine
 10
9107.316528744169
 20
1191.473063781843
 30
0.0
 11
9107.316528744169
 21
1176.267597752232
 31
0.0
  0
SPLINE
  5
331D
330
18
100
AcDbEntity
  8
DIM
100
AcDbSpline
210
0.0
220
0.0
230
1.0
 70
     8
 71
     3
 72
    10
 73
     6
 74
     0
 42
0.0000000001
 43
0.0000000001
 40
168.1890314628042
 40
168.1890314628042
 40
168.1890314628042
 40
168.1890314628042
 40
240.3970488653276
 40
404.4385438063731
 40
531.2097876496541
 40
531.2097876496541
 40
531.2097876496541
 40
531.2097876496541
 10
9073.136403643413
 20
1196.795615790247
 30
0.0
 10
9073.776259463732
 20
1196.144435945384
 30
0.0
 10
9075.348683766559
 20
1193.759338480823
 30
0.0
 10
9074.020688109184
 20
1188.265076857124
 30
0.0
 10
9075.715938187366
 20
1184.861343906596
 30
0.0
 10
9076.718977317527
 20
1183.473063781843
 30
0.0
  0
ENDSEC
  0
SECTION
  2
OBJECTS
  0
DICTIONARY
  5
C
330
0
100
AcDbDictionary
281
     1
  3
ACAD_COLOR
350
EE0
  3
ACAD_GROUP
350
D
  3
ACAD_LAYOUT
350
EE1
  3
ACAD_MATERIAL
350
EDF
  3
ACAD_MLINESTYLE
350
1B
  3
ACAD_PLOTSETTINGS
350
EE2
  3
ACAD_PLOTSTYLENAME
350
EDD
  3
ACDBHEADERROUNDTRIPXREC
350
343D
  3
AcDbVariableDictionary
350
2771
  3
ASE_INDEX_DICTIONARY
350
1297
  0
DICTIONARY
  5
EE0
102
{ACAD_REACTORS
330
C
102
}
330
C
100
AcDbDictionary
281
     1
  0
DICTIONARY
  5
D
102
{ACAD_REACTORS
330
C
102
}
330
C
100
AcDbDictionary
281
     1
  0
DICTIONARY
  5
EE1
102
{ACAD_REACTORS
330
C
102
}
330
C
100
AcDbDictionary
281
     1
  3
Model
350
EE3
  3
布局1
350
EE4
  0
DICTIONARY
  5
EDF
102
{ACAD_REACTORS
330
C
102
}
330
C
100
AcDbDictionary
281
     1
  0
DICTIONARY
  5
1B
102
{ACAD_REACTORS
330
C
102
}
330
C
100
AcDbDictionary
281
     1
  3
STANDARD
350
1C
  0
DICTIONARY
  5
EE2
102
{ACAD_REACTORS
330
C
102
}
330
C
100
AcDbDictionary
281
     1
  0
ACDBDICTIONARYWDFLT
  5
EDD
102
{ACAD_REACTORS
330
C
102
}
330
C
100
AcDbDictionary
281
     1
  3
Normal
350
EDE
100
AcDbDictionaryWithDefault
340
EDE
  0
DICTIONARY
  5
343D
102
{ACAD_REACTORS
330
C
102
}
330
C
100
AcDbDictionary
281
     1
  3
COLORDICT
350
343F
  3
MATERIALDICT
350
343E
  0
DICTIONARY
  5
2771
102
{ACAD_REACTORS
330
C
102
}
330
C
100
AcDbDictionary
281
     1
  3
DIMASSOC
350
2772
  3
PROJECTNAME
350
2773
  0
DICTIONARY
  5
1297
102
{ACAD_REACTORS
330
C
102
}
330
C
100
AcDbDictionary
281
     1
  3
ASEBlockHierarchyIndexRecord
350
1299
1001
DCO15
1040
1535820631.343
  0
LAYOUT
  5
EE3
102
{ACAD_XDICTIONARY
360
3442
102
}
102
{ACAD_REACTORS
330
EE1
102
}
330
EE1
100
AcDbPlotSettings
  1

  2
\\LISA\EPSON EPL-1220 Advanced
  4
A3
  6

 40
5.873749732971191
 41
5.873747825622558
 42
5.873748779296875
 43
5.873748779296875
 44
297.0106506347656
 45
419.9466552734374
 46
0.0
 47
5.0
 48
8863.456298835126
 49
1006.596777384126
140
9224.737247641661
141
1294.177386200766
142
1.0
143
1.0
 70
 11936
 72
     1
 73
     1
 74
     4
  7

 75
     0
147
1.0
148
-8863.456298835126
149
-1006.596777384126
100
AcDbLayout
  1
Model
 70
     1
 71
     0
 10
0.0
 20
0.0
 11
12.0
 21
9.0
 12
0.0
 22
0.0
 32
0.0
 14
0.0
 24
0.0
 34
0.0
 15
0.0
 25
0.0
 35
0.0
146
0.0
 13
0.0
 23
0.0
 33
0.0
 16
1.0
 26
0.0
 36
0.0
 17
0.0
 27
1.0
 37
0.0
 76
     0
330
18
  0
LAYOUT
  5
EE4
102
{ACAD_XDICTIONARY
360
3444
102
}
102
{ACAD_REACTORS
330
EE1
102
}
330
EE1
100
AcDbPlotSettings
  1

  2
C:\Documents and Settings\jac\Application Data\Autodesk\AutoCAD 2004\R16.0\chs\plotters\PublishToWeb PNG.pc3
  4

  6

 40
0.0
 41
0.0
 42
0.0
 43
0.0
 44
0.0
 45
0.0
 46
0.0
 47
0.0
 48
0.0
 49
0.0
140
0.0
141
0.0
142
1.0
143
1.0
 70
   688
 72
     0
 73
     0
 74
     5
  7

 75
    16
147
1.0
148
0.0
149
0.0
100
AcDbLayout
  1
布局1
 70
     1
 71
     1
 10
0.0
 20
0.0
 11
420.0
 21
297.0
 12
0.0
 22
0.0
 32
0.0
 14
1.000000000000000E+20
 24
1.000000000000000E+20
 34
1.000000000000000E+20
 15
-1.000000000000000E+20
 25
-1.000000000000000E+20
 35
-1.000000000000000E+20
146
0.0
 13
0.0
 23
0.0
 33
0.0
 16
1.0
 26
0.0
 36
0.0
 17
0.0
 27
1.0
 37
0.0
 76
     0
330
15
  0
MLINESTYLE
  5
1C
102
{ACAD_REACTORS
330
1B
102
}
330
1B
100
AcDbMlineStyle
  2
STANDARD
 70
     0
  3

 62
   256
 51
90.0
 52
90.0
 71
     2
 49
0.5
 62
   256
  6
BYLAYER
 49
-0.5
 62
   256
  6
BYLAYER
  0
ACDBPLACEHOLDER
  5
EDE
102
{ACAD_REACTORS
330
EDD
102
}
330
EDD
  0
XRECORD
  5
343F
102
{ACAD_REACTORS
330
343D
102
}
330
343D
100
AcDbXrecord
280
     1
340
EE0
  0
XRECORD
  5
343E
102
{ACAD_REACTORS
330
343D
102
}
330
343D
100
AcDbXrecord
280
     1
340
EDF
  0
DICTIONARYVAR
  5
2772
102
{ACAD_REACTORS
330
2771
102
}
330
2771
100
DictionaryVariables
280
     0
  1
1
  0
DICTIONARYVAR
  5
2773
102
{ACAD_REACTORS
330
2771
102
}
330
2771
100
DictionaryVariables
280
     0
  1

  0
XRECORD
  5
1299
102
{ACAD_REACTORS
330
1297
102
}
330
1297
100
AcDbXrecord
280
     1
  0
DICTIONARY
  5
3442
330
EE3
100
AcDbDictionary
280
     1
281
     1
  3
ACAD_XREC_ROUNDTRIP
360
3443
  0
DICTIONARY
  5
3444
330
EE4
100
AcDbDictionary
280
     1
281
     1
  3
ACAD_XREC_ROUNDTRIP
360
3445
  0
XRECORD
  5
3443
102
{ACAD_REACTORS
330
3442
102
}
330
3442
100
AcDbXrecord
280
     1
102
SHADEPLOT
 70
     1
102
SHADEPLOTRESLEVEL
 70
     2
102
SHADEPLOTCUSTOMDPI
 70
   300
  0
XRECORD
  5
3445
102
{ACAD_REACTORS
330
3444
102
}
330
3444
100
AcDbXrecord
280
     1
102
SHADEPLOT
 70
     0
102
SHADEPLOTRESLEVEL
 70
     2
102
SHADEPLOTCUSTOMDPI
 70
   300
  0
ENDSEC
  0
EOF
