  0
SECTION
  2
HEADER
  9
$ACADVER
  1
AC1032
  9
$ACADMAINTVER
 90
        4
  9
$DWGCODEPAGE
  3
ANSI_1252
  9
$LASTSAVEDBY
  1
Siqi
  9
$REQUIREDVERSIONS
160
                 0
  9
$INSBASE
 10
0.0
 20
0.0
 30
0.0
  9
$EXTMIN
 10
37641.10662087469
 20
6725.294275372546
 30
0.0
  9
$EXTMAX
 10
39757.86366221094
 20
9979.003075375171
 30
0.0
  9
$LIMMIN
 10
0.0
 20
0.0
  9
$LIMMAX
 10
420.0
 20
297.0
  9
$ORTHOMODE
 70
     0
  9
$REGENMODE
 70
     1
  9
$FILLMODE
 70
     1
  9
$QTEXTMODE
 70
     0
  9
$MIRRTEXT
 70
     0
  9
$LTSCALE
 40
1.0
  9
$ATTMODE
 70
     1
  9
$TEXTSIZE
 40
2.5
  9
$TRACEWID
 40
1.0
  9
$TEXTSTYLE
  7
Standard
  9
$CLAYER
  8
6d
  9
$CELTYPE
  6
Continuous
  9
$CECOLOR
 62
   256
  9
$CELTSCALE
 40
1.0
  9
$DISPSILH
 70
     0
  9
$DIMSCALE
 40
1.0
  9
$DIMASZ
 40
15.0
  9
$DIMEXO
 40
1.0
  9
$DIMDLI
 40
3.75
  9
$DIMRND
 40
0.0
  9
$DIMDLE
 40
0.0
  9
$DIMEXE
 40
1.25
  9
$DIMTP
 40
0.0
  9
$DIMTM
 40
0.0
  9
$DIMTXT
 40
30.0
  9
$DIMCEN
 40
0.5
  9
$DIMTSZ
 40
0.0
  9
$DIMTOL
 70
     0
  9
$DIMLIM
 70
     0
  9
$DIMTIH
 70
     0
  9
$DIMTOH
 70
     0
  9
$DIMSE1
 70
     0
  9
$DIMSE2
 70
     0
  9
$DIMTAD
 70
     1
  9
$DIMZIN
 70
     8
  9
$DIMBLK
  1

  9
$DIMASO
 70
     1
  9
$DIMSHO
 70
     1
  9
$DIMPOST
  1

  9
$DIMAPOST
  1

  9
$DIMALT
 70
     0
  9
$DIMALTD
 70
     3
  9
$DIMALTF
 40
0.03937007874016
  9
$DIMLFAC
 40
1.0
  9
$DIMTOFL
 70
     1
  9
$DIMTVP
 40
0.0
  9
$DIMTIX
 70
     0
  9
$DIMSOXD
 70
     0
  9
$DIMSAH
 70
     0
  9
$DIMBLK1
  1

  9
$DIMBLK2
  1

  9
$DIMSTYLE
  2
ISO-25
  9
$DIMCLRD
 70
     0
  9
$DIMCLRE
 70
     0
  9
$DIMCLRT
 70
     0
  9
$DIMTFAC
 40
1.0
  9
$DIMGAP
 40
5.0
  9
$DIMJUST
 70
     0
  9
$DIMSD1
 70
     0
  9
$DIMSD2
 70
     0
  9
$DIMTOLJ
 70
     0
  9
$DIMTZIN
 70
     8
  9
$DIMALTZ
 70
     0
  9
$DIMALTTZ
 70
     0
  9
$DIMUPT
 70
     0
  9
$DIMDEC
 70
     2
  9
$DIMTDEC
 70
     2
  9
$DIMALTU
 70
     2
  9
$DIMALTTD
 70
     3
  9
$DIMTXSTY
  7
Standard
  9
$DIMAUNIT
 70
     0
  9
$DIMADEC
 70
     2
  9
$DIMALTRND
 40
0.0
  9
$DIMAZIN
 70
     0
  9
$DIMDSEP
 70
    44
  9
$DIMATFIT
 70
     3
  9
$DIMFRAC
 70
     0
  9
$DIMLDRBLK
  1

  9
$DIMLUNIT
 70
     2
  9
$DIMLWD
 70
    -2
  9
$DIMLWE
 70
    -2
  9
$DIMTMOVE
 70
     0
  9
$DIMFXL
 40
1.0
  9
$DIMFXLON
 70
     0
  9
$DIMJOGANG
 40
0.7853981633974483
  9
$DIMTFILL
 70
     0
  9
$DIMTFILLCLR
 70
     0
  9
$DIMARCSYM
 70
     0
  9
$DIMLTYPE
  6

  9
$DIMLTEX1
  6

  9
$DIMLTEX2
  6

  9
$DIMTXTDIRECTION
 70
     0
  9
$LUNITS
 70
     2
  9
$LUPREC
 70
     4
  9
$SKETCHINC
 40
1.0
  9
$FILLETRAD
 40
50.0
  9
$AUNITS
 70
     0
  9
$AUPREC
 70
     0
  9
$MENU
  1
.
  9
$ELEVATION
 40
0.0
  9
$PELEVATION
 40
0.0
  9
$THICKNESS
 40
0.0
  9
$LIMCHECK
 70
     0
  9
$CHAMFERA
 40
2.0
  9
$CHAMFERB
 40
2.0
  9
$CHAMFERC
 40
0.0
  9
$CHAMFERD
 40
0.0
  9
$SKPOLY
 70
     0
  9
$TDCREATE
 40
2453649.060439815
  9
$TDUCREATE
 40
2453649.352115521
  9
$TDUPDATE
 40
2457975.649988426
  9
$TDUUPDATE
 40
2457975.941655092
  9
$TDINDWG
 40
1.3554599306
  9
$TDUSRTIMER
 40
1.3554552315
  9
$USRTIMER
 70
     1
  9
$ANGBASE
 50
0.0
  9
$ANGDIR
 70
     0
  9
$PDMODE
 70
     0
  9
$PDSIZE
 40
0.0
  9
$PLINEWID
 40
0.0
  9
$SPLFRAME
 70
     0
  9
$SPLINETYPE
 70
     6
  9
$SPLINESEGS
 70
     8
  9
$HANDSEED
  5
8485
  9
$SURFTAB1
 70
     6
  9
$SURFTAB2
 70
     6
  9
$SURFTYPE
 70
     6
  9
$SURFU
 70
     6
  9
$SURFV
 70
     6
  9
$UCSBASE
  2

  9
$UCSNAME
  2

  9
$UCSORG
 10
20135.92273348905
 20
3420.432723209263
 30
0.0
  9
$UCSXDIR
 10
1.0
 20
0.0
 30
0.0
  9
$UCSYDIR
 10
0.0
 20
1.0
 30
0.0
  9
$UCSORTHOREF
  2

  9
$UCSORTHOVIEW
 70
     0
  9
$UCSORGTOP
 10
0.0
 20
0.0
 30
0.0
  9
$UCSORGBOTTOM
 10
0.0
 20
0.0
 30
0.0
  9
$UCSORGLEFT
 10
0.0
 20
0.0
 30
0.0
  9
$UCSORGRIGHT
 10
0.0
 20
0.0
 30
0.0
  9
$UCSORGFRONT
 10
0.0
 20
0.0
 30
0.0
  9
$UCSORGBACK
 10
0.0
 20
0.0
 30
0.0
  9
$PUCSBASE
  2

  9
$PUCSNAME
  2

  9
$PUCSORG
 10
0.0
 20
0.0
 30
0.0
  9
$PUCSXDIR
 10
1.0
 20
0.0
 30
0.0
  9
$PUCSYDIR
 10
0.0
 20
1.0
 30
0.0
  9
$PUCSORTHOREF
  2

  9
$PUCSORTHOVIEW
 70
     0
  9
$PUCSORGTOP
 10
0.0
 20
0.0
 30
0.0
  9
$PUCSORGBOTTOM
 10
0.0
 20
0.0
 30
0.0
  9
$PUCSORGLEFT
 10
0.0
 20
0.0
 30
0.0
  9
$PUCSORGRIGHT
 10
0.0
 20
0.0
 30
0.0
  9
$PUCSORGFRONT
 10
0.0
 20
0.0
 30
0.0
  9
$PUCSORGBACK
 10
0.0
 20
0.0
 30
0.0
  9
$USERI1
 70
     0
  9
$USERI2
 70
     0
  9
$USERI3
 70
     0
  9
$USERI4
 70
     0
  9
$USERI5
 70
     0
  9
$USERR1
 40
0.0
  9
$USERR2
 40
0.0
  9
$USERR3
 40
0.0
  9
$USERR4
 40
0.0
  9
$USERR5
 40
2.5
  9
$WORLDVIEW
 70
     1
  9
$SHADEDGE
 70
     3
  9
$SHADEDIF
 70
    70
  9
$TILEMODE
 70
     1
  9
$MAXACTVP
 70
    64
  9
$PINSBASE
 10
0.0
 20
0.0
 30
0.0
  9
$PLIMCHECK
 70
     0
  9
$PEXTMIN
 10
0.0
 20
0.0
 30
0.0
  9
$PEXTMAX
 10
0.0
 20
0.0
 30
0.0
  9
$PLIMMIN
 10
0.0
 20
0.0
  9
$PLIMMAX
 10
12.0
 20
9.0
  9
$UNITMODE
 70
     0
  9
$VISRETAIN
 70
     1
  9
$PLINEGEN
 70
     0
  9
$PSLTSCALE
 70
     1
  9
$TREEDEPTH
 70
  3020
  9
$CMLSTYLE
  2
Standard
  9
$CMLJUST
 70
     0
  9
$CMLSCALE
 40
20.0
  9
$PROXYGRAPHICS
 70
     1
  9
$MEASUREMENT
 70
     1
  9
$CELWEIGHT
370
    -1
  9
$ENDCAPS
280
     0
  9
$JOINSTYLE
280
     0
  9
$LWDISPLAY
290
     0
  9
$INSUNITS
 70
     4
  9
$HYPERLINKBASE
  1

  9
$STYLESHEET
  1

  9
$XEDIT
290
     1
  9
$CEPSNTYPE
380
     0
  9
$PSTYLEMODE
290
     1
  9
$FINGERPRINTGUID
  2
{FDEAD578-A652-11D2-9A35-0060089B3A3F}
  9
$VERSIONGUID
  2
{D9A502F2-6584-5345-94BC-ABE28427E493}
  9
$EXTNAMES
290
     1
  9
$PSVPSCALE
 40
0.0
  9
$OLESTARTUP
290
     0
  9
$SORTENTS
280
   127
  9
$INDEXCTL
280
     0
  9
$HIDETEXT
280
     1
  9
$XCLIPFRAME
280
     0
  9
$HALOGAP
280
     0
  9
$OBSCOLOR
 70
   257
  9
$OBSLTYPE
280
     0
  9
$INTERSECTIONDISPLAY
280
     0
  9
$INTERSECTIONCOLOR
 70
   257
  9
$DIMASSOC
280
     2
  9
$PROJECTNAME
  1

  9
$CAMERADISPLAY
290
     0
  9
$LENSLENGTH
 40
50.0
  9
$CAMERAHEIGHT
 40
0.0
  9
$STEPSPERSEC
 40
2.0
  9
$STEPSIZE
 40
6.0
  9
$3DDWFPREC
 40
2.0
  9
$PSOLWIDTH
 40
0.25
  9
$PSOLHEIGHT
 40
4.0
  9
$LOFTANG1
 40
1.570796326794896
  9
$LOFTANG2
 40
1.570796326794896
  9
$LOFTMAG1
 40
0.0
  9
$LOFTMAG2
 40
0.0
  9
$LOFTPARAM
 70
     7
  9
$LOFTNORMALS
280
     1
  9
$LATITUDE
 40
37.795
  9
$LONGITUDE
 40
-122.394
  9
$NORTHDIRECTION
 40
0.0
  9
$TIMEZONE
 70
 -8000
  9
$LIGHTGLYPHDISPLAY
280
     1
  9
$TILEMODELIGHTSYNCH
280
     1
  9
$CMATERIAL
347
8058
  9
$SOLIDHIST
280
     1
  9
$SHOWHIST
280
     1
  9
$DWFFRAME
280
     2
  9
$DGNFRAME
280
     0
  9
$REALWORLDSCALE
290
     1
  9
$INTERFERECOLOR
 62
     1
  9
$INTERFEREOBJVS
345
8065
  9
$INTERFEREVPVS
346
8099
  9
$CSHADOW
280
     0
  9
$SHADOWPLANELOCATION
 40
0.0
  0
ENDSEC
  0
SECTION
  2
CLASSES
  0
CLASS
  1
ACDBDICTIONARYWDFLT
  2
AcDbDictionaryWithDefault
  3
ObjectDBX Classes
 90
        0
 91
        1
280
     0
281
     0
  0
CLASS
  1
ACDBPLACEHOLDER
  2
AcDbPlaceHolder
  3
ObjectDBX Classes
 90
        0
 91
        1
280
     0
281
     0
  0
CLASS
  1
LAYOUT
  2
AcDbLayout
  3
ObjectDBX Classes
 90
        0
 91
        3
280
     0
281
     0
  0
CLASS
  1
DICTIONARYVAR
  2
AcDbDictionaryVar
  3
ObjectDBX Classes
 90
        0
 91
       44
280
     0
281
     0
  0
CLASS
  1
DIMASSOC
  2
AcDbDimAssoc
  3
"AcDbDimAssoc|Product Desc:     AcDim ARX App For Dimension|Company:          Autodesk, Inc.|WEB Address:      www.autodesk.com"
 90
        0
 91
       34
280
     0
281
     0
  0
CLASS
  1
MATERIAL
  2
AcDbMaterial
  3
ObjectDBX Classes
 90
     1153
 91
        3
280
     0
281
     0
  0
CLASS
  1
VISUALSTYLE
  2
AcDbVisualStyle
  3
ObjectDBX Classes
 90
     4095
 91
       26
280
     0
281
     0
  0
CLASS
  1
TABLESTYLE
  2
AcDbTableStyle
  3
ObjectDBX Classes
 90
     4095
 91
        1
280
     0
281
     0
  0
CLASS
  1
VLO-VL
  2
vlo_VL
  3
VL|AutoLISP based application
 90
      129
 91
        2
280
     0
281
     0
  0
CLASS
  1
SCALE
  2
AcDbScale
  3
ObjectDBX Classes
 90
     1153
 91
       17
280
     0
281
     0
  0
CLASS
  1
MLEADERSTYLE
  2
AcDbMLeaderStyle
  3
ACDB_MLEADERSTYLE_CLASS
 90
     4095
 91
        1
280
     0
281
     0
  0
CLASS
  1
ACDBSECTIONVIEWSTYLE
  2
AcDbSectionViewStyle
  3
ObjectDBX Classes
 90
     1025
 91
        1
280
     0
281
     0
  0
CLASS
  1
ACDBDETAILVIEWSTYLE
  2
AcDbDetailViewStyle
  3
ObjectDBX Classes
 90
     1025
 91
        1
280
     0
281
     0
  0
CLASS
  1
CELLSTYLEMAP
  2
AcDbCellStyleMap
  3
ObjectDBX Classes
 90
     1152
 91
        1
280
     0
281
     0
  0
ENDSEC
  0
SECTION
  2
TABLES
  0
TABLE
  2
VPORT
  5
8
330
0
100
AcDbSymbolTable
 70
     1
  0
VPORT
  5
8056
330
8
100
AcDbSymbolTableRecord
100
AcDbViewportTableRecord
  2
*Active
 70
     0
 10
0.0
 20
0.0
 11
1.0
 21
1.0
 12
38789.26599134717
 22
8321.524534328604
 13
0.0
 23
0.0
 14
10.0
 24
10.0
 15
10.0
 25
10.0
 16
0.0
 26
0.0
 36
1.0
 17
0.0
 27
0.0
 37
0.0
 40
1526.173177056808
 41
1.913595933926302
 42
50.0
 43
0.0
 44
0.0
 50
0.0
 51
0.0
 71
     0
 72
  1000
 73
     1
 74
     3
 75
     0
 76
     0
 77
     0
 78
     0
281
     0
 65
     1
110
20135.92273348905
120
3420.432723209263
130
0.0
111
1.0
121
0.0
131
0.0
112
0.0
122
1.0
132
0.0
 79
     0
146
0.0
348
8061
 60
     3
 61
     5
292
     1
282
     1
141
0.0
142
0.0
 63
   250
421
  3355443
1001
ACAD_NAV_VCDISPLAY
1070
     3
  0
ENDTAB
  0
TABLE
  2
LTYPE
  5
5
330
0
100
AcDbSymbolTable
 70
     3
  0
LTYPE
  5
14
330
5
100
AcDbSymbolTableRecord
100
AcDbLinetypeTableRecord
  2
ByBlock
 70
     0
  3

 72
    65
 73
     0
 40
0.0
  0
LTYPE
  5
15
330
5
100
AcDbSymbolTableRecord
100
AcDbLinetypeTableRecord
  2
ByLayer
 70
     0
  3

 72
    65
 73
     0
 40
0.0
  0
LTYPE
  5
16
330
5
100
AcDbSymbolTableRecord
100
AcDbLinetypeTableRecord
  2
Continuous
 70
     0
  3
Solid line
 72
    65
 73
     0
 40
0.0
  0
LTYPE
  5
90
330
5
100
AcDbSymbolTableRecord
100
AcDbLinetypeTableRecord
  2
CENTER
 70
     0
  3
Center ____ _ ____ _ ____ _ ____ _ ____ _ ____
 72
    65
 73
     4
 40
50.8
 49
31.75
 74
     0
 49
-6.349999999999999
 74
     0
 49
6.349999999999999
 74
     0
 49
-6.349999999999999
 74
     0
  0
ENDTAB
  0
TABLE
  2
LAYER
  5
2
102
{ACAD_XDICTIONARY
360
845B
102
}
330
0
100
AcDbSymbolTable
 70
     7
  0
LAYER
  5
10
102
{ACAD_XDICTIONARY
360
83AE
102
}
330
2
100
AcDbSymbolTableRecord
100
AcDbLayerTableRecord
  2
0
 70
     0
 62
     7
  6
Continuous
370
    40
390
F
347
805A
348
0
  0
LAYER
  5
84
102
{ACAD_XDICTIONARY
360
83B0
102
}
330
2
100
AcDbSymbolTableRecord
100
AcDbLayerTableRecord
  2
4冲头
 70
     0
 62
     4
  6
Continuous
370
    40
390
F
347
805A
348
0
1001
AcadStringInfo
1000
MIFCodePage
1070
     5
  0
LAYER
  5
86
102
{ACAD_XDICTIONARY
360
83B2
102
}
330
2
100
AcDbSymbolTableRecord
100
AcDbLayerTableRecord
  2
6下模
 70
     0
 62
     6
  6
Continuous
370
    40
390
F
347
805A
348
0
1001
AcadStringInfo
1000
MIFCodePage
1070
     5
  0
LAYER
  5
8C
102
{ACAD_XDICTIONARY
360
83B4
102
}
330
2
100
AcDbSymbolTableRecord
100
AcDbLayerTableRecord
  2
6d
 70
     0
 62
     7
  6
Continuous
370
     9
390
F
347
805A
348
0
  0
LAYER
  5
1DA
330
2
100
AcDbSymbolTableRecord
100
AcDbLayerTableRecord
  2
Defpoints
 70
     0
 62
     7
  6
Continuous
290
     0
370
    -3
390
F
347
805A
348
0
  0
LAYER
  5
3FC1
102
{ACAD_XDICTIONARY
360
83B6
102
}
330
2
100
AcDbSymbolTableRecord
100
AcDbLayerTableRecord
  2
图层1
 70
     0
 62
     7
  6
Continuous
370
    -3
390
F
347
805A
348
0
1001
AcadStringInfo
1000
MIFCodePage
1070
     5
  0
LAYER
  5
7C7C
102
{ACAD_XDICTIONARY
360
83B8
102
}
330
2
100
AcDbSymbolTableRecord
100
AcDbLayerTableRecord
  2
DIMJ
 70
     0
 62
   221
  6
Continuous
370
    13
390
F
347
805A
348
0
  0
ENDTAB
  0
TABLE
  2
STYLE
  5
3
330
0
100
AcDbSymbolTable
 70
     1
  0
STYLE
  5
11
330
3
100
AcDbSymbolTableRecord
100
AcDbTextStyleTableRecord
  2
Standard
 70
     0
 40
0.0
 41
1.0
 50
0.0
 71
     0
 42
2.5
  3
txt
  4

  0
ENDTAB
  0
TABLE
  2
VIEW
  5
6
330
0
100
AcDbSymbolTable
 70
     2
  0
ENDTAB
  0
TABLE
  2
UCS
  5
7
330
0
100
AcDbSymbolTable
 70
     0
  0
ENDTAB
  0
TABLE
  2
APPID
  5
9
330
0
100
AcDbSymbolTable
 70
     5
  0
APPID
  5
12
330
9
100
AcDbSymbolTableRecord
100
AcDbRegAppTableRecord
  2
ACAD
 70
     0
  0
APPID
  5
80BC
330
9
100
AcDbSymbolTableRecord
100
AcDbRegAppTableRecord
  2
AcadStringInfo
 70
     0
  0
APPID
  5
80C1
330
9
100
AcDbSymbolTableRecord
100
AcDbRegAppTableRecord
  2
AcadAnnoMonitorAlertIconDisabled
 70
     0
  0
APPID
  5
80C2
330
9
100
AcDbSymbolTableRecord
100
AcDbRegAppTableRecord
  2
ACAD_EXEMPT_FROM_CAD_STANDARDS
 70
     0
  0
APPID
  5
839B
330
9
100
AcDbSymbolTableRecord
100
AcDbRegAppTableRecord
  2
ACAD_NAV_VCDISPLAY
 70
     0
  0
ENDTAB
  0
TABLE
  2
DIMSTYLE
  5
A
330
0
100
AcDbSymbolTable
 70
     2
100
AcDbDimStyleTable
 71
     1
340
27
  0
DIMSTYLE
105
27
102
{ACAD_REACTORS
330
7921
330
791E
330
791B
330
7918
330
78BC
330
78BB
330
78B7
330
78B4
330
78B1
330
78AE
330
78AB
330
78A8
330
78A5
330
7917
330
7916
330
7913
330
7910
330
790D
330
790A
330
7907
330
7904
330
7901
330
78FE
330
78FB
330
78FA
330
78F7
330
78F4
330
78F1
330
78EB
330
78E8
330
78E5
330
78E4
330
78E1
330
78C2
330
7C54
330
7E01
330
7F7A
330
7FAB
330
7FFA
330
7FFD
330
7C40
330
8073
102
}
330
A
100
AcDbSymbolTableRecord
100
AcDbDimStyleTableRecord
  2
ISO-25
 70
     0
 41
2.0
 42
1.0
 43
3.75
 44
1.25
 73
     0
 74
     0
 77
     1
 78
     8
140
3.0
141
2.5
143
0.03937007874016
147
5.0
171
     3
172
     1
271
     2
272
     2
274
     3
278
    44
283
     0
284
     8
340
11
  0
DIMSTYLE
105
7C7D
330
A
100
AcDbSymbolTableRecord
100
AcDbDimStyleTableRecord
  2
Standard
 70
     0
 41
25.0
 42
5.0
 43
2.0
 44
5.0
 73
     0
 74
     0
 77
     1
 78
    12
 79
     3
140
30.0
141
4.0
147
8.0
179
     2
340
11
  0
ENDTAB
  0
TABLE
  2
BLOCK_RECORD
  5
1
330
0
100
AcDbSymbolTable
 70
   117
  0
BLOCK_RECORD
  5
1F
330
1
100
AcDbSymbolTableRecord
100
AcDbBlockTableRecord
  2
*Model_Space
340
22
 70
     0
280
     1
281
     0
  0
BLOCK_RECORD
  5
50
330
1
100
AcDbSymbolTableRecord
100
AcDbBlockTableRecord
  2
*Paper_Space
340
51
 70
     0
280
     1
281
     0
  0
BLOCK_RECORD
  5
55
330
1
100
AcDbSymbolTableRecord
100
AcDbBlockTableRecord
  2
*Paper_Space0
340
56
 70
     0
280
     1
281
     0
  0
BLOCK_RECORD
  5
79B1
330
1
100
AcDbSymbolTableRecord
100
AcDbBlockTableRecord
  2
*D74
340
0
 70
     0
280
     1
281
     0
  0
BLOCK_RECORD
  5
79BF
330
1
100
AcDbSymbolTableRecord
100
AcDbBlockTableRecord
  2
*D75
340
0
 70
     0
280
     1
281
     0
  0
BLOCK_RECORD
  5
79CC
330
1
100
AcDbSymbolTableRecord
100
AcDbBlockTableRecord
  2
*D76
340
0
 70
     0
280
     1
281
     0
  0
BLOCK_RECORD
  5
79D9
330
1
100
AcDbSymbolTableRecord
100
AcDbBlockTableRecord
  2
*D77
340
0
 70
     0
280
     1
281
     0
  0
BLOCK_RECORD
  5
79E7
330
1
100
AcDbSymbolTableRecord
100
AcDbBlockTableRecord
  2
*D78
340
0
 70
     0
280
     1
281
     0
  0
BLOCK_RECORD
  5
79F5
330
1
100
AcDbSymbolTableRecord
100
AcDbBlockTableRecord
  2
*D79
340
0
 70
     0
280
     1
281
     0
  0
BLOCK_RECORD
  5
7A01
330
1
100
AcDbSymbolTableRecord
100
AcDbBlockTableRecord
  2
*D80
340
0
 70
     0
280
     1
281
     0
  0
BLOCK_RECORD
  5
7A0D
330
1
100
AcDbSymbolTableRecord
100
AcDbBlockTableRecord
  2
*D81
340
0
 70
     0
280
     1
281
     0
  0
BLOCK_RECORD
  5
7A19
330
1
100
AcDbSymbolTableRecord
100
AcDbBlockTableRecord
  2
*D82
340
0
 70
     0
280
     1
281
     0
  0
BLOCK_RECORD
  5
7A25
330
1
100
AcDbSymbolTableRecord
100
AcDbBlockTableRecord
  2
*D83
340
0
 70
     0
280
     1
281
     0
  0
BLOCK_RECORD
  5
7A3E
330
1
100
AcDbSymbolTableRecord
100
AcDbBlockTableRecord
  2
*D84
340
0
 70
     0
280
     1
281
     0
  0
BLOCK_RECORD
  5
7A4C
330
1
100
AcDbSymbolTableRecord
100
AcDbBlockTableRecord
  2
*D85
340
0
 70
     0
280
     1
281
     0
  0
BLOCK_RECORD
  5
7A5A
330
1
100
AcDbSymbolTableRecord
100
AcDbBlockTableRecord
  2
*D86
340
0
 70
     0
280
     1
281
     0
  0
BLOCK_RECORD
  5
7A66
330
1
100
AcDbSymbolTableRecord
100
AcDbBlockTableRecord
  2
*D87
340
0
 70
     0
280
     1
281
     0
  0
BLOCK_RECORD
  5
7A72
330
1
100
AcDbSymbolTableRecord
100
AcDbBlockTableRecord
  2
*D88
340
0
 70
     0
280
     1
281
     0
  0
BLOCK_RECORD
  5
7A7E
330
1
100
AcDbSymbolTableRecord
100
AcDbBlockTableRecord
  2
*D89
340
0
 70
     0
280
     1
281
     0
  0
BLOCK_RECORD
  5
7A8C
330
1
100
AcDbSymbolTableRecord
100
AcDbBlockTableRecord
  2
*D90
340
0
 70
     0
280
     1
281
     0
  0
BLOCK_RECORD
  5
7AAE
330
1
100
AcDbSymbolTableRecord
100
AcDbBlockTableRecord
  2
*D91
340
0
 70
     0
280
     1
281
     0
  0
BLOCK_RECORD
  5
7AB7
330
1
100
AcDbSymbolTableRecord
100
AcDbBlockTableRecord
  2
*D92
340
0
 70
     0
280
     1
281
     0
  0
BLOCK_RECORD
  5
7AC3
330
1
100
AcDbSymbolTableRecord
100
AcDbBlockTableRecord
  2
*D93
340
0
 70
     0
280
     1
281
     0
  0
BLOCK_RECORD
  5
7AD0
330
1
100
AcDbSymbolTableRecord
100
AcDbBlockTableRecord
  2
*D94
340
0
 70
     0
280
     1
281
     0
  0
BLOCK_RECORD
  5
7ADC
330
1
100
AcDbSymbolTableRecord
100
AcDbBlockTableRecord
  2
*D95
340
0
 70
     0
280
     1
281
     0
  0
BLOCK_RECORD
  5
7AE8
330
1
100
AcDbSymbolTableRecord
100
AcDbBlockTableRecord
  2
*D96
340
0
 70
     0
280
     1
281
     0
  0
BLOCK_RECORD
  5
7AF3
330
1
100
AcDbSymbolTableRecord
100
AcDbBlockTableRecord
  2
*D97
340
0
 70
     0
280
     1
281
     0
  0
BLOCK_RECORD
  5
7AFB
330
1
100
AcDbSymbolTableRecord
100
AcDbBlockTableRecord
  2
*D98
340
0
 70
     0
280
     1
281
     0
  0
BLOCK_RECORD
  5
7B03
330
1
100
AcDbSymbolTableRecord
100
AcDbBlockTableRecord
  2
*D99
340
0
 70
     0
280
     1
281
     0
  0
BLOCK_RECORD
  5
7B1C
330
1
100
AcDbSymbolTableRecord
100
AcDbBlockTableRecord
  2
*D100
340
0
 70
     0
280
     1
281
     0
  0
BLOCK_RECORD
  5
7B2A
330
1
100
AcDbSymbolTableRecord
100
AcDbBlockTableRecord
  2
*D101
340
0
 70
     0
280
     1
281
     0
  0
BLOCK_RECORD
  5
7B37
330
1
100
AcDbSymbolTableRecord
100
AcDbBlockTableRecord
  2
*D102
340
0
 70
     0
280
     1
281
     0
  0
BLOCK_RECORD
  5
7B48
330
1
100
AcDbSymbolTableRecord
100
AcDbBlockTableRecord
  2
*D103
340
0
 70
     0
280
     1
281
     0
  0
BLOCK_RECORD
  5
7B54
330
1
100
AcDbSymbolTableRecord
100
AcDbBlockTableRecord
  2
*D104
340
0
 70
     0
280
     1
281
     0
  0
BLOCK_RECORD
  5
7B62
330
1
100
AcDbSymbolTableRecord
100
AcDbBlockTableRecord
  2
*D105
340
0
 70
     0
280
     1
281
     0
  0
BLOCK_RECORD
  5
7B7B
330
1
100
AcDbSymbolTableRecord
100
AcDbBlockTableRecord
  2
*D106
340
0
 70
     0
280
     1
281
     0
  0
BLOCK_RECORD
  5
7B97
330
1
100
AcDbSymbolTableRecord
100
AcDbBlockTableRecord
  2
*D107
340
0
 70
     0
280
     1
281
     0
  0
BLOCK_RECORD
  5
7C41
330
1
100
AcDbSymbolTableRecord
100
AcDbBlockTableRecord
  2
*D108
340
0
 70
     0
280
     1
281
     0
  0
BLOCK_RECORD
  5
7C55
330
1
100
AcDbSymbolTableRecord
100
AcDbBlockTableRecord
  2
*D109
340
0
 70
     0
280
     1
281
     0
  0
BLOCK_RECORD
  5
7C7E
330
1
100
AcDbSymbolTableRecord
100
AcDbBlockTableRecord
  2
A$C45CC6445
340
0
 70
     0
280
     1
281
     0
  0
BLOCK_RECORD
  5
7E02
330
1
100
AcDbSymbolTableRecord
100
AcDbBlockTableRecord
  2
*D111
340
0
 70
     0
280
     1
281
     0
  0
BLOCK_RECORD
  5
7F7B
330
1
100
AcDbSymbolTableRecord
100
AcDbBlockTableRecord
  2
*D112
340
0
 70
     0
280
     1
281
     0
  0
BLOCK_RECORD
  5
7FAC
330
1
100
AcDbSymbolTableRecord
100
AcDbBlockTableRecord
  2
*D113
340
0
 70
     0
280
     1
281
     0
  0
BLOCK_RECORD
  5
8000
330
1
100
AcDbSymbolTableRecord
100
AcDbBlockTableRecord
  2
*D114
340
0
 70
     0
280
     1
281
     0
  0
BLOCK_RECORD
  5
800C
330
1
100
AcDbSymbolTableRecord
100
AcDbBlockTableRecord
  2
*D115
340
0
 70
     0
280
     1
281
     0
  0
BLOCK_RECORD
  5
8074
330
1
100
AcDbSymbolTableRecord
100
AcDbBlockTableRecord
  2
*D116
340
0
 70
     0
280
     1
281
     0
  0
ENDTAB
  0
ENDSEC
  0
SECTION
  2
BLOCKS
  0
BLOCK
  5
20
330
1F
100
AcDbEntity
  8
0
100
AcDbBlockBegin
  2
*Model_Space
 70
     0
 10
0.0
 20
0.0
 30
0.0
  3
*Model_Space
  1

  0
ENDBLK
  5
21
330
1F
100
AcDbEntity
  8
0
100
AcDbBlockEnd
  0
BLOCK
  5
52
330
50
100
AcDbEntity
 67
     1
  8
0
100
AcDbBlockBegin
  2
*Paper_Space
 70
     0
 10
0.0
 20
0.0
 30
0.0
  3
*Paper_Space
  1

  0
ENDBLK
  5
53
330
50
100
AcDbEntity
 67
     1
  8
0
100
AcDbBlockEnd
  0
BLOCK
  5
57
330
55
100
AcDbEntity
 67
     1
  8
0
100
AcDbBlockBegin
  2
*Paper_Space0
 70
     0
 10
0.0
 20
0.0
 30
0.0
  3
*Paper_Space0
  1

  0
ENDBLK
  5
58
330
55
100
AcDbEntity
 67
     1
  8
0
100
AcDbBlockEnd
  0
BLOCK
  5
79BD
330
79B1
100
AcDbEntity
  8
0
100
AcDbBlockBegin
  2
*D74
 70
     1
 10
0.0
 20
0.0
 30
0.0
  3
*D74
  1

  0
LINE
  5
8137
330
79B1
100
AcDbEntity
  8
6d
  6
Continuous
 62
     0
440
 16777216
370
    -2
100
AcDbLine
 10
37990.09570801517
 20
9075.309529993679
 30
0.0
 11
37990.09570801517
 21
8987.855325086345
 31
0.0
  0
LINE
  5
8138
330
79B1
100
AcDbEntity
  8
6d
  6
Continuous
 62
     0
440
 16777216
370
    -2
100
AcDbLine
 10
37975.09570801502
 20
9087.809529993648
 30
0.0
 11
37975.09570801502
 21
8987.855325086345
 31
0.0
  0
LINE
  5
8139
330
79B1
100
AcDbEntity
  8
6d
  6
Continuous
 62
     0
440
 16777216
370
    -2
100
AcDbLine
 10
38005.09570801517
 20
8989.105325086345
 30
0.0
 11
38020.09570801517
 21
8989.105325086345
 31
0.0
  0
LINE
  5
813A
330
79B1
100
AcDbEntity
  8
6d
  6
Continuous
 62
     0
440
 16777216
370
    -2
100
AcDbLine
 10
37960.09570801502
 20
8989.105325086345
 30
0.0
 11
37765.09570801502
 21
8989.105325086345
 31
0.0
  0
LINE
  5
813B
330
79B1
100
AcDbEntity
  8
6d
  6
Continuous
 62
     0
440
 16777216
370
    -2
100
AcDbLine
 10
37990.09570801517
 20
8989.105325086345
 30
0.0
 11
37975.09570801502
 21
8989.105325086345
 31
0.0
  0
SOLID
  5
813C
330
79B1
100
AcDbEntity
  8
6d
  6
Continuous
 62
     0
440
 16777216
100
AcDbTrace
 10
38005.09570801517
 20
8991.605325086345
 30
0.0
 11
38005.09570801517
 21
8986.605325086344
 31
0.0
 12
37990.09570801517
 22
8989.105325086345
 32
0.0
 13
37990.09570801517
 23
8989.105325086345
 33
0.0
  0
SOLID
  5
813D
330
79B1
100
AcDbEntity
  8
6d
  6
Continuous
 62
     0
440
 16777216
100
AcDbTrace
 10
37960.09570801502
 20
8991.605325086345
 30
0.0
 11
37960.09570801502
 21
8986.605325086344
 31
0.0
 12
37975.09570801502
 22
8989.105325086345
 32
0.0
 13
37975.09570801502
 23
8989.105325086345
 33
0.0
  0
MTEXT
  5
813E
330
79B1
100
AcDbEntity
  8
6d
  6
Continuous
 62
     0
440
 16777216
100
AcDbMText
 10
37855.09570801502
 20
9009.105325086343
 30
0.0
 40
30.0
 41
0.0
 46
0.0
 71
     5
 72
     1
  1
3{\Ftxt|c134; [.12"]}
 73
     1
 44
1.0
  0
POINT
  5
813F
330
79B1
100
AcDbEntity
  8
Defpoints
  6
Continuous
 62
     0
440
 16777216
100
AcDbPoint
 10
37990.09570801517
 20
9076.309529993679
 30
0.0
  0
POINT
  5
8140
330
79B1
100
AcDbEntity
  8
Defpoints
  6
Continuous
 62
     0
440
 16777216
100
AcDbPoint
 10
37975.09570801502
 20
9088.809529993648
 30
0.0
  0
POINT
  5
8141
330
79B1
100
AcDbEntity
  8
Defpoints
  6
Continuous
 62
     0
440
 16777216
100
AcDbPoint
 10
37975.09570801502
 20
8989.105325086345
 30
0.0
  0
ENDBLK
  5
79BE
330
79B1
100
AcDbEntity
  8
0
100
AcDbBlockEnd
  0
BLOCK
  5
79CA
330
79BF
100
AcDbEntity
  8
0
100
AcDbBlockBegin
  2
*D75
 70
     1
 10
0.0
 20
0.0
 30
0.0
  3
*D75
  1

  0
LINE
  5
83FA
330
79BF
100
AcDbEntity
  8
6d
  6
Continuous
 62
     0
440
 16777216
370
    -2
100
AcDbLine
 10
38594.29567689321
 20
8045.441101586446
 30
0.0
 11
38574.18762460815
 21
8045.441101586446
 31
0.0
  0
LINE
  5
83FB
330
79BF
100
AcDbEntity
  8
6d
  6
Continuous
 62
     0
440
 16777216
370
    -2
100
AcDbLine
 10
38594.29567689321
 20
7997.941101586448
 30
0.0
 11
38574.18762460815
 21
7997.941101586448
 31
0.0
  0
LINE
  5
83FC
330
79BF
100
AcDbEntity
  8
6d
  6
Continuous
 62
     0
440
 16777216
370
    -2
100
AcDbLine
 10
38575.43762460815
 20
8030.441101586445
 30
0.0
 11
38575.43762460815
 21
8012.941101586449
 31
0.0
  0
LINE
  5
83FD
330
79BF
100
AcDbEntity
  8
6d
  6
Continuous
 62
     0
440
 16777216
370
    -2
100
AcDbLine
 10
38575.43762460815
 20
7997.941101586448
 30
0.0
 11
38575.43762460815
 21
7832.941101586449
 31
0.0
  0
SOLID
  5
83FE
330
79BF
100
AcDbEntity
  8
6d
  6
Continuous
 62
     0
440
 16777216
100
AcDbTrace
 10
38572.93762460815
 20
8030.441101586445
 30
0.0
 11
38577.93762460815
 21
8030.441101586445
 31
0.0
 12
38575.43762460815
 22
8045.441101586446
 32
0.0
 13
38575.43762460815
 23
8045.441101586446
 33
0.0
  0
SOLID
  5
83FF
330
79BF
100
AcDbEntity
  8
6d
  6
Continuous
 62
     0
440
 16777216
100
AcDbTrace
 10
38572.93762460815
 20
8012.941101586449
 30
0.0
 11
38577.93762460815
 21
8012.941101586449
 31
0.0
 12
38575.43762460815
 22
7997.941101586448
 32
0.0
 13
38575.43762460815
 23
7997.941101586448
 33
0.0
  0
MTEXT
  5
8400
330
79BF
100
AcDbEntity
  8
6d
  6
Continuous
 62
     0
440
 16777216
100
AcDbMText
 10
38530.43762460814
 20
7907.941101586437
 30
0.0
 40
30.0
 41
11.62766746175475
 46
0.0
 71
     5
 72
     1
  1
47,5{\Ftxt|c134; [1.87"]}
 11
0.0000000000000001
 21
1.0
 31
0.0
 73
     1
 44
1.0
  0
POINT
  5
8401
330
79BF
100
AcDbEntity
  8
Defpoints
  6
Continuous
 62
     0
440
 16777216
100
AcDbPoint
 10
38595.29567689321
 20
8045.441101586446
 30
0.0
  0
POINT
  5
8402
330
79BF
100
AcDbEntity
  8
Defpoints
  6
Continuous
 62
     0
440
 16777216
100
AcDbPoint
 10
38595.29567689321
 20
7997.941101586448
 30
0.0
  0
POINT
  5
8403
330
79BF
100
AcDbEntity
  8
Defpoints
  6
Continuous
 62
     0
440
 16777216
100
AcDbPoint
 10
38575.43762460815
 20
7997.941101586448
 30
0.0
  0
ENDBLK
  5
79CB
330
79BF
100
AcDbEntity
  8
0
100
AcDbBlockEnd
  0
BLOCK
  5
79D7
330
79CC
100
AcDbEntity
  8
0
100
AcDbBlockBegin
  2
*D76
 70
     1
 10
0.0
 20
0.0
 30
0.0
  3
*D76
  1

  0
LINE
  5
8444
330
79CC
100
AcDbEntity
  8
6d
  6
Continuous
 62
     0
440
 16777216
370
    -2
100
AcDbLine
 10
39410.36366221093
 20
7940.172752790383
 30
0.0
 11
39410.36366221093
 21
7897.255078918057
 31
0.0
  0
LINE
  5
8445
330
79CC
100
AcDbEntity
  8
6d
  6
Continuous
 62
     0
440
 16777216
370
    -2
100
AcDbLine
 10
39457.86366221094
 20
7940.172752790383
 30
0.0
 11
39457.86366221094
 21
7897.255078918057
 31
0.0
  0
LINE
  5
8446
330
79CC
100
AcDbEntity
  8
6d
  6
Continuous
 62
     0
440
 16777216
370
    -2
100
AcDbLine
 10
39425.36366221093
 20
7898.505078918057
 30
0.0
 11
39442.86366221094
 21
7898.505078918057
 31
0.0
  0
LINE
  5
8447
330
79CC
100
AcDbEntity
  8
6d
  6
Continuous
 62
     0
440
 16777216
370
    -2
100
AcDbLine
 10
39457.86366221094
 20
7898.505078918057
 30
0.0
 11
39757.86366221094
 21
7898.505078918057
 31
0.0
  0
SOLID
  5
8448
330
79CC
100
AcDbEntity
  8
6d
  6
Continuous
 62
     0
440
 16777216
100
AcDbTrace
 10
39425.36366221093
 20
7901.005078918057
 30
0.0
 11
39425.36366221093
 21
7896.005078918057
 31
0.0
 12
39410.36366221093
 22
7898.505078918057
 32
0.0
 13
39410.36366221093
 23
7898.505078918057
 33
0.0
  0
SOLID
  5
8449
330
79CC
100
AcDbEntity
  8
6d
  6
Continuous
 62
     0
440
 16777216
100
AcDbTrace
 10
39442.86366221094
 20
7901.005078918057
 30
0.0
 11
39442.86366221094
 21
7896.005078918057
 31
0.0
 12
39457.86366221094
 22
7898.505078918057
 32
0.0
 13
39457.86366221094
 23
7898.505078918057
 33
0.0
  0
MTEXT
  5
844A
330
79CC
100
AcDbEntity
  8
6d
  6
Continuous
 62
     0
440
 16777216
100
AcDbMText
 10
39615.36366221094
 20
7921.005078918057
 30
0.0
 40
30.0
 41
0.0
 46
0.0
 71
     5
 72
     1
  1
47,5{\Ftxt|c134; [1.87"]}
 73
     1
 44
1.0
  0
POINT
  5
844B
330
79CC
100
AcDbEntity
  8
Defpoints
  6
Continuous
 62
     0
440
 16777216
100
AcDbPoint
 10
39410.36366221093
 20
7941.172752790382
 30
0.0
  0
POINT
  5
844C
330
79CC
100
AcDbEntity
  8
Defpoints
  6
Continuous
 62
     0
440
 16777216
100
AcDbPoint
 10
39457.86366221094
 20
7941.172752790382
 30
0.0
  0
POINT
  5
844D
330
79CC
100
AcDbEntity
  8
Defpoints
  6
Continuous
 62
     0
440
 16777216
100
AcDbPoint
 10
39457.86366221094
 20
7898.505078918057
 30
0.0
  0
ENDBLK
  5
79D8
330
79CC
100
AcDbEntity
  8
0
100
AcDbBlockEnd
  0
BLOCK
  5
79E5
330
79D9
100
AcDbEntity
  8
0
100
AcDbBlockBegin
  2
*D77
 70
     1
 10
0.0
 20
0.0
 30
0.0
  3
*D77
  1

  0
LINE
  5
818D
330
79D9
100
AcDbEntity
  8
6d
  6
Continuous
 62
     0
440
 16777216
370
    -2
100
AcDbLine
 10
38624.86366221093
 20
9349.046628007823
 30
0.0
 11
38624.86366221093
 21
9393.864321356742
 31
0.0
  0
LINE
  5
818E
330
79D9
100
AcDbEntity
  8
6d
  6
Continuous
 62
     0
440
 16777216
370
    -2
100
AcDbLine
 10
38619.86366221093
 20
9344.046628007825
 30
0.0
 11
38619.86366221093
 21
9393.864321356742
 31
0.0
  0
LINE
  5
818F
330
79D9
100
AcDbEntity
  8
6d
  6
Continuous
 62
     0
440
 16777216
370
    -2
100
AcDbLine
 10
38639.86366221093
 20
9392.614321356742
 30
0.0
 11
38654.86366221093
 21
9392.614321356742
 31
0.0
  0
LINE
  5
8190
330
79D9
100
AcDbEntity
  8
6d
  6
Continuous
 62
     0
440
 16777216
370
    -2
100
AcDbLine
 10
38604.86366221093
 20
9392.614321356742
 30
0.0
 11
38429.86366221093
 21
9392.614321356742
 31
0.0
  0
LINE
  5
8191
330
79D9
100
AcDbEntity
  8
6d
  6
Continuous
 62
     0
440
 16777216
370
    -2
100
AcDbLine
 10
38624.86366221093
 20
9392.614321356742
 30
0.0
 11
38619.86366221093
 21
9392.614321356742
 31
0.0
  0
SOLID
  5
8192
330
79D9
100
AcDbEntity
  8
6d
  6
Continuous
 62
     0
440
 16777216
100
AcDbTrace
 10
38639.86366221093
 20
9395.114321356741
 30
0.0
 11
38639.86366221093
 21
9390.11432135674
 31
0.0
 12
38624.86366221093
 22
9392.614321356742
 32
0.0
 13
38624.86366221093
 23
9392.614321356742
 33
0.0
  0
SOLID
  5
8193
330
79D9
100
AcDbEntity
  8
6d
  6
Continuous
 62
     0
440
 16777216
100
AcDbTrace
 10
38604.86366221093
 20
9395.114321356741
 30
0.0
 11
38604.86366221093
 21
9390.11432135674
 31
0.0
 12
38619.86366221093
 22
9392.614321356742
 32
0.0
 13
38619.86366221093
 23
9392.614321356742
 33
0.0
  0
MTEXT
  5
8194
330
79D9
100
AcDbEntity
  8
6d
  6
Continuous
 62
     0
440
 16777216
100
AcDbMText
 10
38509.86366221093
 20
9412.614321356741
 30
0.0
 40
30.0
 41
0.0
 46
0.0
 71
     5
 72
     1
  1
5{\Ftxt|c134; [.2"]}
 73
     1
 44
1.0
  0
POINT
  5
8195
330
79D9
100
AcDbEntity
  8
Defpoints
  6
Continuous
 62
     0
440
 16777216
100
AcDbPoint
 10
38624.86366221093
 20
9348.046628007821
 30
0.0
  0
POINT
  5
8196
330
79D9
100
AcDbEntity
  8
Defpoints
  6
Continuous
 62
     0
440
 16777216
100
AcDbPoint
 10
38619.86366221093
 20
9343.046628007824
 30
0.0
  0
POINT
  5
8197
330
79D9
100
AcDbEntity
  8
Defpoints
  6
Continuous
 62
     0
440
 16777216
100
AcDbPoint
 10
38619.86366221093
 20
9392.614321356742
 30
0.0
  0
ENDBLK
  5
79E6
330
79D9
100
AcDbEntity
  8
0
100
AcDbBlockEnd
  0
BLOCK
  5
79F3
330
79E7
100
AcDbEntity
  8
0
100
AcDbBlockBegin
  2
*D78
 70
     1
 10
0.0
 20
0.0
 30
0.0
  3
*D78
  1

  0
LINE
  5
8297
330
79E7
100
AcDbEntity
  8
6d
  6
Continuous
 62
     0
440
 16777216
370
    -2
100
AcDbLine
 10
38038.31871080075
 20
8533.941101586455
 30
0.0
 11
37961.49600175011
 21
8533.941101586455
 31
0.0
  0
LINE
  5
8298
330
79E7
100
AcDbEntity
  8
6d
  6
Continuous
 62
     0
440
 16777216
370
    -2
100
AcDbLine
 10
38036.31871080076
 20
8535.94110158645
 30
0.0
 11
37961.49600175011
 21
8535.94110158645
 31
0.0
  0
LINE
  5
8299
330
79E7
100
AcDbEntity
  8
6d
  6
Continuous
 62
     0
440
 16777216
370
    -2
100
AcDbLine
 10
37962.74600175011
 20
8518.941101586454
 30
0.0
 11
37962.74600175011
 21
8503.941101586454
 31
0.0
  0
LINE
  5
829A
330
79E7
100
AcDbEntity
  8
6d
  6
Continuous
 62
     0
440
 16777216
370
    -2
100
AcDbLine
 10
37962.74600175011
 20
8550.941101586451
 30
0.0
 11
37962.74600175011
 21
8750.94110158645
 31
0.0
  0
LINE
  5
829B
330
79E7
100
AcDbEntity
  8
6d
  6
Continuous
 62
     0
440
 16777216
370
    -2
100
AcDbLine
 10
37962.74600175011
 20
8533.941101586455
 30
0.0
 11
37962.74600175011
 21
8535.94110158645
 31
0.0
  0
SOLID
  5
829C
330
79E7
100
AcDbEntity
  8
6d
  6
Continuous
 62
     0
440
 16777216
100
AcDbTrace
 10
37960.24600175011
 20
8518.941101586454
 30
0.0
 11
37965.24600175011
 21
8518.941101586454
 31
0.0
 12
37962.74600175011
 22
8533.941101586455
 32
0.0
 13
37962.74600175011
 23
8533.941101586455
 33
0.0
  0
SOLID
  5
829D
330
79E7
100
AcDbEntity
  8
6d
  6
Continuous
 62
     0
440
 16777216
100
AcDbTrace
 10
37960.24600175011
 20
8550.941101586451
 30
0.0
 11
37965.24600175011
 21
8550.941101586451
 31
0.0
 12
37962.74600175011
 22
8535.94110158645
 32
0.0
 13
37962.74600175011
 23
8535.94110158645
 33
0.0
  0
MTEXT
  5
829E
330
79E7
100
AcDbEntity
  8
6d
  6
Continuous
 62
     0
440
 16777216
100
AcDbMText
 10
37942.7460017501
 20
8658.441101586438
 30
0.0
 40
30.0
 41
0.0
 46
0.0
 71
     5
 72
     1
  1
2{\Ftxt|c134; [.08"]}
 11
0.0000000000000001
 21
1.0
 31
0.0
 73
     1
 44
1.0
  0
POINT
  5
829F
330
79E7
100
AcDbEntity
  8
Defpoints
  6
Continuous
 62
     0
440
 16777216
100
AcDbPoint
 10
38039.31871080075
 20
8533.941101586455
 30
0.0
  0
POINT
  5
82A0
330
79E7
100
AcDbEntity
  8
Defpoints
  6
Continuous
 62
     0
440
 16777216
100
AcDbPoint
 10
38037.31871080076
 20
8535.94110158645
 30
0.0
  0
POINT
  5
82A1
330
79E7
100
AcDbEntity
  8
Defpoints
  6
Continuous
 62
     0
440
 16777216
100
AcDbPoint
 10
37962.74600175011
 20
8535.94110158645
 30
0.0
  0
ENDBLK
  5
79F4
330
79E7
100
AcDbEntity
  8
0
100
AcDbBlockEnd
  0
BLOCK
  5
79FF
330
79F5
100
AcDbEntity
  8
0
100
AcDbBlockBegin
  2
*D79
 70
     1
 10
0.0
 20
0.0
 30
0.0
  3
*D79
  1

  0
LINE
  5
83E7
330
79F5
100
AcDbEntity
  8
6d
  6
Continuous
 62
     0
440
 16777216
370
    -2
100
AcDbLine
 10
38742.36366221095
 20
8445.44110158645
 30
0.0
 11
38574.18762460815
 21
8445.44110158645
 31
0.0
  0
LINE
  5
83E8
330
79F5
100
AcDbEntity
  8
6d
  6
Continuous
 62
     0
440
 16777216
370
    -2
100
AcDbLine
 10
38742.36366221095
 20
8045.441101586446
 30
0.0
 11
38574.18762460815
 21
8045.441101586446
 31
0.0
  0
LINE
  5
83E9
330
79F5
100
AcDbEntity
  8
6d
  6
Continuous
 62
     0
440
 16777216
370
    -2
100
AcDbLine
 10
38575.43762460815
 20
8430.441101586451
 30
0.0
 11
38575.43762460815
 21
8060.441101586446
 31
0.0
  0
SOLID
  5
83EA
330
79F5
100
AcDbEntity
  8
6d
  6
Continuous
 62
     0
440
 16777216
100
AcDbTrace
 10
38572.93762460815
 20
8430.441101586451
 30
0.0
 11
38577.93762460815
 21
8430.441101586451
 31
0.0
 12
38575.43762460815
 22
8445.44110158645
 32
0.0
 13
38575.43762460815
 23
8445.44110158645
 33
0.0
  0
SOLID
  5
83EB
330
79F5
100
AcDbEntity
  8
6d
  6
Continuous
 62
     0
440
 16777216
100
AcDbTrace
 10
38572.93762460815
 20
8060.441101586446
 30
0.0
 11
38577.93762460815
 21
8060.441101586446
 31
0.0
 12
38575.43762460815
 22
8045.441101586446
 32
0.0
 13
38575.43762460815
 23
8045.441101586446
 33
0.0
  0
MTEXT
  5
83EC
330
79F5
100
AcDbEntity
  8
6d
  6
Continuous
 62
     0
440
 16777216
100
AcDbMText
 10
38555.43762460814
 20
8245.441101586434
 30
0.0
 40
30.0
 41
0.0
 46
0.0
 71
     5
 72
     1
  1
400{\Ftxt|c134; [15.75"]}
 11
0.0000000000000001
 21
1.0
 31
0.0
 73
     1
 44
1.0
  0
POINT
  5
83ED
330
79F5
100
AcDbEntity
  8
Defpoints
  6
Continuous
 62
     0
440
 16777216
100
AcDbPoint
 10
38743.36366221095
 20
8445.44110158645
 30
0.0
  0
POINT
  5
83EE
330
79F5
100
AcDbEntity
  8
Defpoints
  6
Continuous
 62
     0
440
 16777216
100
AcDbPoint
 10
38743.36366221095
 20
8045.441101586446
 30
0.0
  0
POINT
  5
83EF
330
79F5
100
AcDbEntity
  8
Defpoints
  6
Continuous
 62
     0
440
 16777216
100
AcDbPoint
 10
38575.43762460815
 20
8045.441101586446
 30
0.0
  0
ENDBLK
  5
7A00
330
79F5
100
AcDbEntity
  8
0
100
AcDbBlockEnd
  0
BLOCK
  5
7A0B
330
7A01
100
AcDbEntity
  8
0
100
AcDbBlockBegin
  2
*D80
 70
     1
 10
0.0
 20
0.0
 30
0.0
  3
*D80
  1

  0
LINE
  5
83D5
330
7A01
100
AcDbEntity
  8
6d
  6
Continuous
 62
     0
440
 16777216
370
    -2
100
AcDbLine
 10
38656.86366221095
 20
7997.941101586448
 30
0.0
 11
38503.5769731615
 21
7997.941101586448
 31
0.0
  0
LINE
  5
83D6
330
7A01
100
AcDbEntity
  8
6d
  6
Continuous
 62
     0
440
 16777216
370
    -2
100
AcDbLine
 10
38656.86366221095
 20
8555.94110158645
 30
0.0
 11
38503.5769731615
 21
8555.94110158645
 31
0.0
  0
LINE
  5
83D7
330
7A01
100
AcDbEntity
  8
6d
  6
Continuous
 62
     0
440
 16777216
370
    -2
100
AcDbLine
 10
38504.8269731615
 20
8012.941101586449
 30
0.0
 11
38504.8269731615
 21
8540.941101586451
 31
0.0
  0
SOLID
  5
83D8
330
7A01
100
AcDbEntity
  8
6d
  6
Continuous
 62
     0
440
 16777216
100
AcDbTrace
 10
38502.3269731615
 20
8012.941101586449
 30
0.0
 11
38507.3269731615
 21
8012.941101586449
 31
0.0
 12
38504.8269731615
 22
7997.941101586448
 32
0.0
 13
38504.8269731615
 23
7997.941101586448
 33
0.0
  0
SOLID
  5
83D9
330
7A01
100
AcDbEntity
  8
6d
  6
Continuous
 62
     0
440
 16777216
100
AcDbTrace
 10
38502.3269731615
 20
8540.941101586451
 30
0.0
 11
38507.3269731615
 21
8540.941101586451
 31
0.0
 12
38504.8269731615
 22
8555.94110158645
 32
0.0
 13
38504.8269731615
 23
8555.94110158645
 33
0.0
  0
MTEXT
  5
83DA
330
7A01
100
AcDbEntity
  8
6d
  6
Continuous
 62
     0
440
 16777216
100
AcDbMText
 10
38484.82697316149
 20
8276.941101586437
 30
0.0
 40
30.0
 41
0.0
 46
0.0
 71
     5
 72
     1
  1
558{\Ftxt|c134; [22"]}
 11
0.0000000000000001
 21
1.0
 31
0.0
 73
     1
 44
1.0
  0
POINT
  5
83DB
330
7A01
100
AcDbEntity
  8
Defpoints
  6
Continuous
 62
     0
440
 16777216
100
AcDbPoint
 10
38657.86366221095
 20
7997.941101586448
 30
0.0
  0
POINT
  5
83DC
330
7A01
100
AcDbEntity
  8
Defpoints
  6
Continuous
 62
     0
440
 16777216
100
AcDbPoint
 10
38657.86366221095
 20
8555.94110158645
 30
0.0
  0
POINT
  5
83DD
330
7A01
100
AcDbEntity
  8
Defpoints
  6
Continuous
 62
     0
440
 16777216
100
AcDbPoint
 10
38504.8269731615
 20
8555.94110158645
 30
0.0
  0
ENDBLK
  5
7A0C
330
7A01
100
AcDbEntity
  8
0
100
AcDbBlockEnd
  0
BLOCK
  5
7A17
330
7A0D
100
AcDbEntity
  8
0
100
AcDbBlockBegin
  2
*D81
 70
     1
 10
0.0
 20
0.0
 30
0.0
  3
*D81
  1

  0
LINE
  5
8431
330
7A0D
100
AcDbEntity
  8
6d
  6
Continuous
 62
     0
440
 16777216
370
    -2
100
AcDbLine
 10
38667.36366221093
 20
8120.441101586441
 30
0.0
 11
38667.36366221093
 21
7897.255078918057
 31
0.0
  0
LINE
  5
8432
330
7A0D
100
AcDbEntity
  8
6d
  6
Continuous
 62
     0
440
 16777216
370
    -2
100
AcDbLine
 10
39410.36366221093
 20
8120.441101586447
 30
0.0
 11
39410.36366221093
 21
7897.255078918057
 31
0.0
  0
LINE
  5
8433
330
7A0D
100
AcDbEntity
  8
6d
  6
Continuous
 62
     0
440
 16777216
370
    -2
100
AcDbLine
 10
38682.36366221093
 20
7898.505078918057
 30
0.0
 11
39395.36366221093
 21
7898.505078918057
 31
0.0
  0
SOLID
  5
8434
330
7A0D
100
AcDbEntity
  8
6d
  6
Continuous
 62
     0
440
 16777216
100
AcDbTrace
 10
38682.36366221093
 20
7901.005078918057
 30
0.0
 11
38682.36366221093
 21
7896.005078918057
 31
0.0
 12
38667.36366221093
 22
7898.505078918057
 32
0.0
 13
38667.36366221093
 23
7898.505078918057
 33
0.0
  0
SOLID
  5
8435
330
7A0D
100
AcDbEntity
  8
6d
  6
Continuous
 62
     0
440
 16777216
100
AcDbTrace
 10
39395.36366221093
 20
7901.005078918057
 30
0.0
 11
39395.36366221093
 21
7896.005078918057
 31
0.0
 12
39410.36366221093
 22
7898.505078918057
 32
0.0
 13
39410.36366221093
 23
7898.505078918057
 33
0.0
  0
MTEXT
  5
8436
330
7A0D
100
AcDbEntity
  8
6d
  6
Continuous
 62
     0
440
 16777216
100
AcDbMText
 10
39038.86366221093
 20
7918.505078918056
 30
0.0
 40
30.0
 41
0.0
 46
0.0
 71
     5
 72
     1
  1
743{\Ftxt|c134; [29.25"]}
 73
     1
 44
1.0
  0
POINT
  5
8437
330
7A0D
100
AcDbEntity
  8
Defpoints
  6
Continuous
 62
     0
440
 16777216
100
AcDbPoint
 10
38667.36366221093
 20
8121.441101586441
 30
0.0
  0
POINT
  5
8438
330
7A0D
100
AcDbEntity
  8
Defpoints
  6
Continuous
 62
     0
440
 16777216
100
AcDbPoint
 10
39410.36366221093
 20
8121.441101586446
 30
0.0
  0
POINT
  5
8439
330
7A0D
100
AcDbEntity
  8
Defpoints
  6
Continuous
 62
     0
440
 16777216
100
AcDbPoint
 10
39410.36366221093
 20
7898.505078918057
 30
0.0
  0
ENDBLK
  5
7A18
330
7A0D
100
AcDbEntity
  8
0
100
AcDbBlockEnd
  0
BLOCK
  5
7A23
330
7A19
100
AcDbEntity
  8
0
100
AcDbBlockBegin
  2
*D82
 70
     1
 10
0.0
 20
0.0
 30
0.0
  3
*D82
  1

  0
LINE
  5
841F
330
7A19
100
AcDbEntity
  8
6d
  6
Continuous
 62
     0
440
 16777216
370
    -2
100
AcDbLine
 10
38619.86366221093
 20
8034.941101586445
 30
0.0
 11
38619.86366221093
 21
7802.235710529974
 31
0.0
  0
LINE
  5
8420
330
7A19
100
AcDbEntity
  8
6d
  6
Continuous
 62
     0
440
 16777216
370
    -2
100
AcDbLine
 10
39457.86366221094
 20
8034.941101586445
 30
0.0
 11
39457.86366221094
 21
7802.235710529974
 31
0.0
  0
LINE
  5
8421
330
7A19
100
AcDbEntity
  8
6d
  6
Continuous
 62
     0
440
 16777216
370
    -2
100
AcDbLine
 10
38634.86366221093
 20
7803.485710529975
 30
0.0
 11
39442.86366221094
 21
7803.485710529975
 31
0.0
  0
SOLID
  5
8422
330
7A19
100
AcDbEntity
  8
6d
  6
Continuous
 62
     0
440
 16777216
100
AcDbTrace
 10
38634.86366221093
 20
7805.985710529974
 30
0.0
 11
38634.86366221093
 21
7800.985710529975
 31
0.0
 12
38619.86366221093
 22
7803.485710529975
 32
0.0
 13
38619.86366221093
 23
7803.485710529975
 33
0.0
  0
SOLID
  5
8423
330
7A19
100
AcDbEntity
  8
6d
  6
Continuous
 62
     0
440
 16777216
100
AcDbTrace
 10
39442.86366221094
 20
7805.985710529974
 30
0.0
 11
39442.86366221094
 21
7800.985710529975
 31
0.0
 12
39457.86366221094
 22
7803.485710529975
 32
0.0
 13
39457.86366221094
 23
7803.485710529975
 33
0.0
  0
MTEXT
  5
8424
330
7A19
100
AcDbEntity
  8
6d
  6
Continuous
 62
     0
440
 16777216
100
AcDbMText
 10
39038.86366221093
 20
7823.485710529974
 30
0.0
 40
30.0
 41
0.0
 46
0.0
 71
     5
 72
     1
  1
838{\Ftxt|c134; [33"]}
 73
     1
 44
1.0
  0
POINT
  5
8425
330
7A19
100
AcDbEntity
  8
Defpoints
  6
Continuous
 62
     0
440
 16777216
100
AcDbPoint
 10
38619.86366221093
 20
8035.941101586443
 30
0.0
  0
POINT
  5
8426
330
7A19
100
AcDbEntity
  8
Defpoints
  6
Continuous
 62
     0
440
 16777216
100
AcDbPoint
 10
39457.86366221094
 20
8035.941101586447
 30
0.0
  0
POINT
  5
8427
330
7A19
100
AcDbEntity
  8
Defpoints
  6
Continuous
 62
     0
440
 16777216
100
AcDbPoint
 10
39457.86366221094
 20
7803.485710529975
 30
0.0
  0
ENDBLK
  5
7A24
330
7A19
100
AcDbEntity
  8
0
100
AcDbBlockEnd
  0
BLOCK
  5
7A31
330
7A25
100
AcDbEntity
  8
0
100
AcDbBlockBegin
  2
*D83
 70
     1
 10
0.0
 20
0.0
 30
0.0
  3
*D83
  1

  0
LINE
  5
8121
330
7A25
100
AcDbEntity
  8
6d
  6
Continuous
 62
     0
440
 16777216
370
    -2
100
AcDbLine
 10
37989.09570801518
 20
9076.30952999365
 30
0.0
 11
37897.09664451787
 21
9076.30952999365
 31
0.0
  0
LINE
  5
8122
330
7A25
100
AcDbEntity
  8
6d
  6
Continuous
 62
     0
440
 16777216
370
    -2
100
AcDbLine
 10
37974.09570801503
 20
9088.809529993651
 30
0.0
 11
37897.09664451787
 21
9088.809529993651
 31
0.0
  0
LINE
  5
8123
330
7A25
100
AcDbEntity
  8
6d
  6
Continuous
 62
     0
440
 16777216
370
    -2
100
AcDbLine
 10
37898.34664451786
 20
9061.30952999365
 30
0.0
 11
37898.34664451786
 21
9046.309529993651
 31
0.0
  0
LINE
  5
8124
330
7A25
100
AcDbEntity
  8
6d
  6
Continuous
 62
     0
440
 16777216
370
    -2
100
AcDbLine
 10
37898.34664451786
 20
9103.809529993652
 30
0.0
 11
37898.34664451786
 21
9208.809529993652
 31
0.0
  0
LINE
  5
8125
330
7A25
100
AcDbEntity
  8
6d
  6
Continuous
 62
     0
440
 16777216
370
    -2
100
AcDbLine
 10
37898.34664451786
 20
9076.30952999365
 30
0.0
 11
37898.34664451786
 21
9088.809529993651
 31
0.0
  0
SOLID
  5
8126
330
7A25
100
AcDbEntity
  8
6d
  6
Continuous
 62
     0
440
 16777216
100
AcDbTrace
 10
37895.84664451786
 20
9061.30952999365
 30
0.0
 11
37900.84664451787
 21
9061.30952999365
 31
0.0
 12
37898.34664451786
 22
9076.30952999365
 32
0.0
 13
37898.34664451786
 23
9076.30952999365
 33
0.0
  0
SOLID
  5
8127
330
7A25
100
AcDbEntity
  8
6d
  6
Continuous
 62
     0
440
 16777216
100
AcDbTrace
 10
37895.84664451786
 20
9103.809529993652
 30
0.0
 11
37900.84664451787
 21
9103.809529993652
 31
0.0
 12
37898.34664451786
 22
9088.809529993651
 32
0.0
 13
37898.34664451786
 23
9088.809529993651
 33
0.0
  0
MTEXT
  5
8128
330
7A25
100
AcDbEntity
  8
6d
  6
Continuous
 62
     0
440
 16777216
100
AcDbMText
 10
37853.34664451786
 20
9163.80952999364
 30
0.0
 40
30.0
 41
21.13688678245671
 46
0.0
 71
     5
 72
     1
  1
2.5{\Ftxt|c134; [.1"]}
 11
0.0000000000000001
 21
1.0
 31
0.0
 73
     1
 44
1.0
  0
POINT
  5
8129
330
7A25
100
AcDbEntity
  8
Defpoints
  6
Continuous
 62
     0
440
 16777216
100
AcDbPoint
 10
37990.09570801518
 20
9076.30952999365
 30
0.0
  0
POINT
  5
812A
330
7A25
100
AcDbEntity
  8
Defpoints
  6
Continuous
 62
     0
440
 16777216
100
AcDbPoint
 10
37975.09570801504
 20
9088.809529993651
 30
0.0
  0
POINT
  5
812B
330
7A25
100
AcDbEntity
  8
Defpoints
  6
Continuous
 62
     0
440
 16777216
100
AcDbPoint
 10
37898.34664451786
 20
9088.809529993651
 30
0.0
  0
ENDBLK
  5
7A32
330
7A25
100
AcDbEntity
  8
0
100
AcDbBlockEnd
  0
BLOCK
  5
7A4A
330
7A3E
100
AcDbEntity
  8
0
100
AcDbBlockBegin
  2
*D84
 70
     1
 10
0.0
 20
0.0
 30
0.0
  3
*D84
  1

  0
LINE
  5
80CF
330
7A3E
100
AcDbEntity
  8
6d
  6
Continuous
 62
     0
440
 16777216
370
    -2
100
AcDbLine
 10
37965.09570801505
 20
9482.309529993671
 30
0.0
 11
37965.09570801505
 21
9555.202699903176
 31
0.0
  0
LINE
  5
80D0
330
7A3E
100
AcDbEntity
  8
6d
  6
Continuous
 62
     0
440
 16777216
370
    -2
100
AcDbLine
 10
37990.09570801505
 20
9507.30952999366
 30
0.0
 11
37990.09570801505
 21
9555.202699903176
 31
0.0
  0
LINE
  5
80D1
330
7A3E
100
AcDbEntity
  8
6d
  6
Continuous
 62
     0
440
 16777216
370
    -2
100
AcDbLine
 10
37950.09570801505
 20
9553.952699903176
 30
0.0
 11
37935.09570801506
 21
9553.952699903176
 31
0.0
  0
LINE
  5
80D2
330
7A3E
100
AcDbEntity
  8
6d
  6
Continuous
 62
     0
440
 16777216
370
    -2
100
AcDbLine
 10
38005.09570801505
 20
9553.952699903176
 30
0.0
 11
38180.09570801505
 21
9553.952699903176
 31
0.0
  0
LINE
  5
80D3
330
7A3E
100
AcDbEntity
  8
6d
  6
Continuous
 62
     0
440
 16777216
370
    -2
100
AcDbLine
 10
37965.09570801505
 20
9553.952699903176
 30
0.0
 11
37990.09570801505
 21
9553.952699903176
 31
0.0
  0
SOLID
  5
80D4
330
7A3E
100
AcDbEntity
  8
6d
  6
Continuous
 62
     0
440
 16777216
100
AcDbTrace
 10
37950.09570801505
 20
9556.452699903177
 30
0.0
 11
37950.09570801505
 21
9551.452699903178
 31
0.0
 12
37965.09570801505
 22
9553.952699903176
 32
0.0
 13
37965.09570801505
 23
9553.952699903176
 33
0.0
  0
SOLID
  5
80D5
330
7A3E
100
AcDbEntity
  8
6d
  6
Continuous
 62
     0
440
 16777216
100
AcDbTrace
 10
38005.09570801505
 20
9556.452699903177
 30
0.0
 11
38005.09570801505
 21
9551.452699903178
 31
0.0
 12
37990.09570801505
 22
9553.952699903176
 32
0.0
 13
37990.09570801505
 23
9553.952699903176
 33
0.0
  0
MTEXT
  5
80D6
330
7A3E
100
AcDbEntity
  8
6d
  6
Continuous
 62
     0
440
 16777216
100
AcDbMText
 10
38100.09570801505
 20
9573.952699903177
 30
0.0
 40
30.0
 41
0.0
 46
0.0
 71
     5
 72
     1
  1
5{\Ftxt|c134; [.2"]}
 73
     1
 44
1.0
  0
POINT
  5
80D7
330
7A3E
100
AcDbEntity
  8
Defpoints
  6
Continuous
 62
     0
440
 16777216
100
AcDbPoint
 10
37965.09570801505
 20
9481.309529993671
 30
0.0
  0
POINT
  5
80D8
330
7A3E
100
AcDbEntity
  8
Defpoints
  6
Continuous
 62
     0
440
 16777216
100
AcDbPoint
 10
37990.09570801505
 20
9506.309529993663
 30
0.0
  0
POINT
  5
80D9
330
7A3E
100
AcDbEntity
  8
Defpoints
  6
Continuous
 62
     0
440
 16777216
100
AcDbPoint
 10
37990.09570801505
 20
9553.952699903176
 30
0.0
  0
ENDBLK
  5
7A4B
330
7A3E
100
AcDbEntity
  8
0
100
AcDbBlockEnd
  0
BLOCK
  5
7A58
330
7A4C
100
AcDbEntity
  8
0
100
AcDbBlockBegin
  2
*D85
 70
     1
 10
0.0
 20
0.0
 30
0.0
  3
*D85
  1

  0
LINE
  5
80F9
330
7A4C
100
AcDbEntity
  8
6d
  6
Continuous
 62
     0
440
 16777216
370
    -2
100
AcDbLine
 10
37989.09570801507
 20
9506.309529993654
 30
0.0
 11
37859.76780642159
 21
9506.309529993654
 31
0.0
  0
LINE
  5
80FA
330
7A4C
100
AcDbEntity
  8
6d
  6
Continuous
 62
     0
440
 16777216
370
    -2
100
AcDbLine
 10
37964.09570801507
 20
9481.309529993653
 30
0.0
 11
37859.76780642159
 21
9481.309529993653
 31
0.0
  0
LINE
  5
80FB
330
7A4C
100
AcDbEntity
  8
6d
  6
Continuous
 62
     0
440
 16777216
370
    -2
100
AcDbLine
 10
37861.01780642159
 20
9521.309529993654
 30
0.0
 11
37861.01780642159
 21
9536.309529993655
 31
0.0
  0
LINE
  5
80FC
330
7A4C
100
AcDbEntity
  8
6d
  6
Continuous
 62
     0
440
 16777216
370
    -2
100
AcDbLine
 10
37861.01780642159
 20
9466.309529993655
 30
0.0
 11
37861.01780642159
 21
9291.309529993654
 31
0.0
  0
LINE
  5
80FD
330
7A4C
100
AcDbEntity
  8
6d
  6
Continuous
 62
     0
440
 16777216
370
    -2
100
AcDbLine
 10
37861.01780642159
 20
9506.309529993654
 30
0.0
 11
37861.01780642159
 21
9481.309529993653
 31
0.0
  0
SOLID
  5
80FE
330
7A4C
100
AcDbEntity
  8
6d
  6
Continuous
 62
     0
440
 16777216
100
AcDbTrace
 10
37858.51780642159
 20
9521.309529993654
 30
0.0
 11
37863.51780642159
 21
9521.309529993654
 31
0.0
 12
37861.01780642159
 22
9506.309529993654
 32
0.0
 13
37861.01780642159
 23
9506.309529993654
 33
0.0
  0
SOLID
  5
80FF
330
7A4C
100
AcDbEntity
  8
6d
  6
Continuous
 62
     0
440
 16777216
100
AcDbTrace
 10
37858.51780642159
 20
9466.309529993655
 30
0.0
 11
37863.51780642159
 21
9466.309529993655
 31
0.0
 12
37861.01780642159
 22
9481.309529993653
 32
0.0
 13
37861.01780642159
 23
9481.309529993653
 33
0.0
  0
MTEXT
  5
8100
330
7A4C
100
AcDbEntity
  8
6d
  6
Continuous
 62
     0
440
 16777216
100
AcDbMText
 10
37841.01780642158
 20
9371.309529993641
 30
0.0
 40
30.0
 41
0.0
 46
0.0
 71
     5
 72
     1
  1
5{\Ftxt|c134; [.2"]}
 11
0.0000000000000001
 21
1.0
 31
0.0
 73
     1
 44
1.0
  0
POINT
  5
8101
330
7A4C
100
AcDbEntity
  8
Defpoints
  6
Continuous
 62
     0
440
 16777216
100
AcDbPoint
 10
37990.09570801507
 20
9506.309529993654
 30
0.0
  0
POINT
  5
8102
330
7A4C
100
AcDbEntity
  8
Defpoints
  6
Continuous
 62
     0
440
 16777216
100
AcDbPoint
 10
37965.09570801507
 20
9481.309529993653
 30
0.0
  0
POINT
  5
8103
330
7A4C
100
AcDbEntity
  8
Defpoints
  6
Continuous
 62
     0
440
 16777216
100
AcDbPoint
 10
37861.01780642159
 20
9481.309529993653
 30
0.0
  0
ENDBLK
  5
7A59
330
7A4C
100
AcDbEntity
  8
0
100
AcDbBlockEnd
  0
BLOCK
  5
7A64
330
7A5A
100
AcDbEntity
  8
0
100
AcDbBlockBegin
  2
*D86
 70
     1
 10
0.0
 20
0.0
 30
0.0
  3
*D86
  1

  0
LINE
  5
8277
330
7A5A
100
AcDbEntity
  8
6d
  6
Continuous
 62
     0
440
 16777216
370
    -2
100
AcDbLine
 10
38993.86366221094
 20
9138.046628007822
 30
0.0
 11
38993.86366221094
 21
9048.921405989542
 31
0.0
  0
LINE
  5
8278
330
7A5A
100
AcDbEntity
  8
6d
  6
Continuous
 62
     0
440
 16777216
370
    -2
100
AcDbLine
 10
39083.86366221094
 20
9138.046628007822
 30
0.0
 11
39083.86366221094
 21
9048.921405989542
 31
0.0
  0
LINE
  5
8279
330
7A5A
100
AcDbEntity
  8
6d
  6
Continuous
 62
     0
440
 16777216
370
    -2
100
AcDbLine
 10
39008.86366221094
 20
9050.171405989543
 30
0.0
 11
39068.86366221094
 21
9050.171405989543
 31
0.0
  0
LINE
  5
827A
330
7A5A
100
AcDbEntity
  8
6d
  6
Continuous
 62
     0
440
 16777216
370
    -2
100
AcDbLine
 10
39083.86366221094
 20
9050.171405989543
 30
0.0
 11
39343.86366221094
 21
9050.171405989543
 31
0.0
  0
SOLID
  5
827B
330
7A5A
100
AcDbEntity
  8
6d
  6
Continuous
 62
     0
440
 16777216
100
AcDbTrace
 10
39008.86366221094
 20
9052.671405989542
 30
0.0
 11
39008.86366221094
 21
9047.671405989543
 31
0.0
 12
38993.86366221094
 22
9050.171405989543
 32
0.0
 13
38993.86366221094
 23
9050.171405989543
 33
0.0
  0
SOLID
  5
827C
330
7A5A
100
AcDbEntity
  8
6d
  6
Continuous
 62
     0
440
 16777216
100
AcDbTrace
 10
39068.86366221094
 20
9052.671405989542
 30
0.0
 11
39068.86366221094
 21
9047.671405989543
 31
0.0
 12
39083.86366221094
 22
9050.171405989543
 32
0.0
 13
39083.86366221094
 23
9050.171405989543
 33
0.0
  0
MTEXT
  5
827D
330
7A5A
100
AcDbEntity
  8
6d
  6
Continuous
 62
     0
440
 16777216
100
AcDbMText
 10
39221.36366221094
 20
9070.171405989542
 30
0.0
 40
30.0
 41
0.0
 46
0.0
 71
     5
 72
     1
  1
%%C90{\Ftxt|c134; [3.5"]}
 73
     1
 44
1.0
  0
POINT
  5
827E
330
7A5A
100
AcDbEntity
  8
Defpoints
  6
Continuous
 62
     0
440
 16777216
100
AcDbPoint
 10
38993.86366221094
 20
9139.046628007822
 30
0.0
  0
POINT
  5
827F
330
7A5A
100
AcDbEntity
  8
Defpoints
  6
Continuous
 62
     0
440
 16777216
100
AcDbPoint
 10
39083.86366221094
 20
9139.046628007822
 30
0.0
  0
POINT
  5
8280
330
7A5A
100
AcDbEntity
  8
Defpoints
  6
Continuous
 62
     0
440
 16777216
100
AcDbPoint
 10
39083.86366221094
 20
9050.171405989543
 30
0.0
  0
ENDBLK
  5
7A65
330
7A5A
100
AcDbEntity
  8
0
100
AcDbBlockEnd
  0
BLOCK
  5
7A70
330
7A66
100
AcDbEntity
  8
0
100
AcDbBlockBegin
  2
*D87
 70
     1
 10
0.0
 20
0.0
 30
0.0
  3
*D87
  1

  0
LINE
  5
8263
330
7A66
100
AcDbEntity
  8
6d
  6
Continuous
 62
     0
440
 16777216
370
    -2
100
AcDbLine
 10
38981.86366221093
 20
9143.046628007821
 30
0.0
 11
38981.86366221093
 21
9204.181315504483
 31
0.0
  0
LINE
  5
8264
330
7A66
100
AcDbEntity
  8
6d
  6
Continuous
 62
     0
440
 16777216
370
    -2
100
AcDbLine
 10
39095.86366221094
 20
9143.046628007821
 30
0.0
 11
39095.86366221094
 21
9204.181315504483
 31
0.0
  0
LINE
  5
8265
330
7A66
100
AcDbEntity
  8
6d
  6
Continuous
 62
     0
440
 16777216
370
    -2
100
AcDbLine
 10
38996.86366221093
 20
9202.931315504484
 30
0.0
 11
39080.86366221094
 21
9202.931315504484
 31
0.0
  0
LINE
  5
8266
330
7A66
100
AcDbEntity
  8
6d
  6
Continuous
 62
     0
440
 16777216
370
    -2
100
AcDbLine
 10
39095.86366221094
 20
9202.931315504484
 30
0.0
 11
39370.86366221094
 21
9202.931315504484
 31
0.0
  0
SOLID
  5
8267
330
7A66
100
AcDbEntity
  8
6d
  6
Continuous
 62
     0
440
 16777216
100
AcDbTrace
 10
38996.86366221093
 20
9205.431315504483
 30
0.0
 11
38996.86366221093
 21
9200.431315504484
 31
0.0
 12
38981.86366221093
 22
9202.931315504484
 32
0.0
 13
38981.86366221093
 23
9202.931315504484
 33
0.0
  0
SOLID
  5
8268
330
7A66
100
AcDbEntity
  8
6d
  6
Continuous
 62
     0
440
 16777216
100
AcDbTrace
 10
39080.86366221094
 20
9205.431315504483
 30
0.0
 11
39080.86366221094
 21
9200.431315504484
 31
0.0
 12
39095.86366221094
 22
9202.931315504484
 32
0.0
 13
39095.86366221094
 23
9202.931315504484
 33
0.0
  0
MTEXT
  5
8269
330
7A66
100
AcDbEntity
  8
6d
  6
Continuous
 62
     0
440
 16777216
100
AcDbMText
 10
39240.86366221094
 20
9222.931315504483
 30
0.0
 40
30.0
 41
0.0
 46
0.0
 71
     5
 72
     1
  1
%%C{\Ftxt|c134;114 [4.5"]}
 73
     1
 44
1.0
  0
POINT
  5
826A
330
7A66
100
AcDbEntity
  8
Defpoints
  6
Continuous
 62
     0
440
 16777216
100
AcDbPoint
 10
38981.86366221093
 20
9142.046628007822
 30
0.0
  0
POINT
  5
826B
330
7A66
100
AcDbEntity
  8
Defpoints
  6
Continuous
 62
     0
440
 16777216
100
AcDbPoint
 10
39095.86366221094
 20
9142.046628007822
 30
0.0
  0
POINT
  5
826C
330
7A66
100
AcDbEntity
  8
Defpoints
  6
Continuous
 62
     0
440
 16777216
100
AcDbPoint
 10
39095.86366221094
 20
9202.931315504484
 30
0.0
  0
ENDBLK
  5
7A71
330
7A66
100
AcDbEntity
  8
0
100
AcDbBlockEnd
  0
BLOCK
  5
7A7C
330
7A72
100
AcDbEntity
  8
0
100
AcDbBlockBegin
  2
*D88
 70
     1
 10
0.0
 20
0.0
 30
0.0
  3
*D88
  1

  0
LINE
  5
824F
330
7A72
100
AcDbEntity
  8
6d
  6
Continuous
 62
     0
440
 16777216
370
    -2
100
AcDbLine
 10
38978.86366221093
 20
9146.046628007821
 30
0.0
 11
38978.86366221093
 21
9267.319498698766
 31
0.0
  0
LINE
  5
8250
330
7A72
100
AcDbEntity
  8
6d
  6
Continuous
 62
     0
440
 16777216
370
    -2
100
AcDbLine
 10
39098.86366221094
 20
9146.046628007821
 30
0.0
 11
39098.86366221094
 21
9267.319498698766
 31
0.0
  0
LINE
  5
8251
330
7A72
100
AcDbEntity
  8
6d
  6
Continuous
 62
     0
440
 16777216
370
    -2
100
AcDbLine
 10
38993.86366221093
 20
9266.069498698765
 30
0.0
 11
39083.86366221094
 21
9266.069498698765
 31
0.0
  0
LINE
  5
8252
330
7A72
100
AcDbEntity
  8
6d
  6
Continuous
 62
     0
440
 16777216
370
    -2
100
AcDbLine
 10
39098.86366221094
 20
9266.069498698765
 30
0.0
 11
39378.86366221094
 21
9266.069498698765
 31
0.0
  0
SOLID
  5
8253
330
7A72
100
AcDbEntity
  8
6d
  6
Continuous
 62
     0
440
 16777216
100
AcDbTrace
 10
38993.86366221093
 20
9268.569498698765
 30
0.0
 11
38993.86366221093
 21
9263.569498698766
 31
0.0
 12
38978.86366221093
 22
9266.069498698765
 32
0.0
 13
38978.86366221093
 23
9266.069498698765
 33
0.0
  0
SOLID
  5
8254
330
7A72
100
AcDbEntity
  8
6d
  6
Continuous
 62
     0
440
 16777216
100
AcDbTrace
 10
39083.86366221094
 20
9268.569498698765
 30
0.0
 11
39083.86366221094
 21
9263.569498698766
 31
0.0
 12
39098.86366221094
 22
9266.069498698765
 32
0.0
 13
39098.86366221094
 23
9266.069498698765
 33
0.0
  0
MTEXT
  5
8255
330
7A72
100
AcDbEntity
  8
6d
  6
Continuous
 62
     0
440
 16777216
100
AcDbMText
 10
39246.36366221094
 20
9286.069498698765
 30
0.0
 40
30.0
 41
0.0
 46
0.0
 71
     5
 72
     1
  1
%%C120{\Ftxt|c134; [4.7"]}
 73
     1
 44
1.0
  0
POINT
  5
8256
330
7A72
100
AcDbEntity
  8
Defpoints
  6
Continuous
 62
     0
440
 16777216
100
AcDbPoint
 10
38978.86366221093
 20
9145.046628007822
 30
0.0
  0
POINT
  5
8257
330
7A72
100
AcDbEntity
  8
Defpoints
  6
Continuous
 62
     0
440
 16777216
100
AcDbPoint
 10
39098.86366221094
 20
9145.046628007822
 30
0.0
  0
POINT
  5
8258
330
7A72
100
AcDbEntity
  8
Defpoints
  6
Continuous
 62
     0
440
 16777216
100
AcDbPoint
 10
39098.86366221094
 20
9266.069498698765
 30
0.0
  0
ENDBLK
  5
7A7D
330
7A72
100
AcDbEntity
  8
0
100
AcDbBlockEnd
  0
BLOCK
  5
7A8A
330
7A7E
100
AcDbEntity
  8
0
100
AcDbBlockBegin
  2
*D89
 70
     1
 10
0.0
 20
0.0
 30
0.0
  3
*D89
  1

  0
LINE
  5
81CB
330
7A7E
100
AcDbEntity
  8
6d
  6
Continuous
 62
     0
440
 16777216
370
    -2
100
AcDbLine
 10
38987.97737421699
 20
9145.046628007825
 30
0.0
 11
38948.73075801461
 21
9145.046628007825
 31
0.0
  0
LINE
  5
81CC
330
7A7E
100
AcDbEntity
  8
6d
  6
Continuous
 62
     0
440
 16777216
370
    -2
100
AcDbLine
 10
38987.97737421698
 20
9142.046628007825
 30
0.0
 11
38948.73075801461
 21
9142.046628007825
 31
0.0
  0
LINE
  5
81CD
330
7A7E
100
AcDbEntity
  8
6d
  6
Continuous
 62
     0
440
 16777216
370
    -2
100
AcDbLine
 10
38949.98075801461
 20
9160.046628007824
 30
0.0
 11
38949.98075801461
 21
9175.046628007825
 31
0.0
  0
LINE
  5
81CE
330
7A7E
100
AcDbEntity
  8
6d
  6
Continuous
 62
     0
440
 16777216
370
    -2
100
AcDbLine
 10
38949.98075801461
 20
9127.046628007825
 30
0.0
 11
38949.98075801461
 21
8932.046628007825
 31
0.0
  0
LINE
  5
81CF
330
7A7E
100
AcDbEntity
  8
6d
  6
Continuous
 62
     0
440
 16777216
370
    -2
100
AcDbLine
 10
38949.98075801461
 20
9145.046628007825
 30
0.0
 11
38949.98075801461
 21
9142.046628007825
 31
0.0
  0
SOLID
  5
81D0
330
7A7E
100
AcDbEntity
  8
6d
  6
Continuous
 62
     0
440
 16777216
100
AcDbTrace
 10
38947.48075801461
 20
9160.046628007824
 30
0.0
 11
38952.48075801461
 21
9160.046628007824
 31
0.0
 12
38949.98075801461
 22
9145.046628007825
 32
0.0
 13
38949.98075801461
 23
9145.046628007825
 33
0.0
  0
SOLID
  5
81D1
330
7A7E
100
AcDbEntity
  8
6d
  6
Continuous
 62
     0
440
 16777216
100
AcDbTrace
 10
38947.48075801461
 20
9127.046628007825
 30
0.0
 11
38952.48075801461
 21
9127.046628007825
 31
0.0
 12
38949.98075801461
 22
9142.046628007825
 32
0.0
 13
38949.98075801461
 23
9142.046628007825
 33
0.0
  0
MTEXT
  5
81D2
330
7A7E
100
AcDbEntity
  8
6d
  6
Continuous
 62
     0
440
 16777216
100
AcDbMText
 10
38929.9807580146
 20
9022.046628007812
 30
0.0
 40
30.0
 41
0.0
 46
0.0
 71
     5
 72
     1
  1
3{\Ftxt|c134; [.12"]}
 11
0.0000000000000001
 21
1.0
 31
0.0
 73
     1
 44
1.0
  0
POINT
  5
81D3
330
7A7E
100
AcDbEntity
  8
Defpoints
  6
Continuous
 62
     0
440
 16777216
100
AcDbPoint
 10
38988.97737421699
 20
9145.046628007825
 30
0.0
  0
POINT
  5
81D4
330
7A7E
100
AcDbEntity
  8
Defpoints
  6
Continuous
 62
     0
440
 16777216
100
AcDbPoint
 10
38988.97737421698
 20
9142.046628007825
 30
0.0
  0
POINT
  5
81D5
330
7A7E
100
AcDbEntity
  8
Defpoints
  6
Continuous
 62
     0
440
 16777216
100
AcDbPoint
 10
38949.98075801461
 20
9142.046628007825
 30
0.0
  0
ENDBLK
  5
7A8B
330
7A7E
100
AcDbEntity
  8
0
100
AcDbBlockEnd
  0
BLOCK
  5
7A98
330
7A8C
100
AcDbEntity
  8
0
100
AcDbBlockBegin
  2
*D90
 70
     1
 10
0.0
 20
0.0
 30
0.0
  3
*D90
  1

  0
LINE
  5
81E1
330
7A8C
100
AcDbEntity
  8
6d
  6
Continuous
 62
     0
440
 16777216
370
    -2
100
AcDbLine
 10
38992.90267038668
 20
9145.046628007825
 30
0.0
 11
38891.42566112807
 21
9145.046628007825
 31
0.0
  0
LINE
  5
81E2
330
7A8C
100
AcDbEntity
  8
6d
  6
Continuous
 62
     0
440
 16777216
370
    -2
100
AcDbLine
 10
38994.9843031457
 20
9139.046628007825
 30
0.0
 11
38891.42566112807
 21
9139.046628007825
 31
0.0
  0
LINE
  5
81E3
330
7A8C
100
AcDbEntity
  8
6d
  6
Continuous
 62
     0
440
 16777216
370
    -2
100
AcDbLine
 10
38892.67566112808
 20
9160.046628007824
 30
0.0
 11
38892.67566112808
 21
9175.046628007825
 31
0.0
  0
LINE
  5
81E4
330
7A8C
100
AcDbEntity
  8
6d
  6
Continuous
 62
     0
440
 16777216
370
    -2
100
AcDbLine
 10
38892.67566112808
 20
9124.046628007825
 30
0.0
 11
38892.67566112808
 21
8919.046628007825
 31
0.0
  0
LINE
  5
81E5
330
7A8C
100
AcDbEntity
  8
6d
  6
Continuous
 62
     0
440
 16777216
370
    -2
100
AcDbLine
 10
38892.67566112808
 20
9145.046628007825
 30
0.0
 11
38892.67566112808
 21
9139.046628007825
 31
0.0
  0
SOLID
  5
81E6
330
7A8C
100
AcDbEntity
  8
6d
  6
Continuous
 62
     0
440
 16777216
100
AcDbTrace
 10
38890.17566112807
 20
9160.046628007824
 30
0.0
 11
38895.17566112807
 21
9160.046628007824
 31
0.0
 12
38892.67566112808
 22
9145.046628007825
 32
0.0
 13
38892.67566112808
 23
9145.046628007825
 33
0.0
  0
SOLID
  5
81E7
330
7A8C
100
AcDbEntity
  8
6d
  6
Continuous
 62
     0
440
 16777216
100
AcDbTrace
 10
38890.17566112807
 20
9124.046628007825
 30
0.0
 11
38895.17566112807
 21
9124.046628007825
 31
0.0
 12
38892.67566112808
 22
9139.046628007825
 32
0.0
 13
38892.67566112808
 23
9139.046628007825
 33
0.0
  0
MTEXT
  5
81E8
330
7A8C
100
AcDbEntity
  8
6d
  6
Continuous
 62
     0
440
 16777216
100
AcDbMText
 10
38872.67566112807
 20
9014.046628007813
 30
0.0
 40
30.0
 41
0.0
 46
0.0
 71
     5
 72
     1
  1
6{\Ftxt|c134; [.24"]}
 11
0.0000000000000001
 21
1.0
 31
0.0
 73
     1
 44
1.0
  0
POINT
  5
81E9
330
7A8C
100
AcDbEntity
  8
Defpoints
  6
Continuous
 62
     0
440
 16777216
100
AcDbPoint
 10
38993.90267038668
 20
9145.046628007825
 30
0.0
  0
POINT
  5
81EA
330
7A8C
100
AcDbEntity
  8
Defpoints
  6
Continuous
 62
     0
440
 16777216
100
AcDbPoint
 10
38995.98430314571
 20
9139.046628007825
 30
0.0
  0
POINT
  5
81EB
330
7A8C
100
AcDbEntity
  8
Defpoints
  6
Continuous
 62
     0
440
 16777216
100
AcDbPoint
 10
38892.67566112808
 20
9139.046628007825
 30
0.0
  0
ENDBLK
  5
7A99
330
7A8C
100
AcDbEntity
  8
0
100
AcDbBlockEnd
  0
BLOCK
  5
7AB5
330
7AAE
100
AcDbEntity
  8
0
100
AcDbBlockBegin
  2
*D91
 70
     1
 10
0.0
 20
0.0
 30
0.0
  3
*D91
  1

  0
LINE
  5
8322
330
7AAE
100
AcDbEntity
  8
6d
  6
Continuous
 62
     0
440
 16777216
370
    -2
100
AcDbLine
 10
39647.70400745127
 20
8725.191619271598
 30
0.0
 11
39459.06995538541
 21
8553.604340019273
 31
0.0
  0
MTEXT
  5
8323
330
7AAE
100
AcDbEntity
  8
6d
  6
Continuous
 62
     0
440
 16777216
100
AcDbMText
 10
39545.47721594951
 20
8659.239491942335
 30
0.0
 40
30.0
 41
0.0
 46
0.0
 71
     5
 72
     1
  1
R38{\Ftxt|c134; [1.5"]}
 11
0.7397413806504174
 21
0.6728912911855929
 31
0.0
 73
     1
 44
1.0
  0
LINE
  5
8324
330
7AAE
100
AcDbEntity
  8
6d
  6
Continuous
 62
     0
440
 16777216
370
    -2
100
AcDbLine
 10
39419.86366221094
 20
8517.941101586439
 30
0.0
 11
39447.97383467566
 21
8543.510970651485
 31
0.0
  0
SOLID
  5
8325
330
7AAE
100
AcDbEntity
  8
6d
  6
Continuous
 62
     0
440
 16777216
100
AcDbTrace
 10
39457.38772715745
 20
8555.4536934709
 30
0.0
 11
39460.75218361337
 21
8551.754986567647
 31
0.0
 12
39447.97383467566
 22
8543.510970651485
 32
0.0
 13
39447.97383467566
 23
8543.510970651485
 33
0.0
  0
POINT
  5
8326
330
7AAE
100
AcDbEntity
  8
Defpoints
  6
Continuous
 62
     0
440
 16777216
100
AcDbPoint
 10
39447.97383467566
 20
8543.510970651485
 30
0.0
  0
POINT
  5
8327
330
7AAE
100
AcDbEntity
  8
Defpoints
  6
Continuous
 62
     0
440
 16777216
100
AcDbPoint
 10
39419.86366221094
 20
8517.941101586439
 30
0.0
  0
ENDBLK
  5
7AB6
330
7AAE
100
AcDbEntity
  8
0
100
AcDbBlockEnd
  0
BLOCK
  5
7AC1
330
7AB7
100
AcDbEntity
  8
0
100
AcDbBlockBegin
  2
*D92
 70
     1
 10
0.0
 20
0.0
 30
0.0
  3
*D92
  1

  0
LINE
  5
840D
330
7AB7
100
AcDbEntity
  8
6d
  6
Continuous
 62
     0
440
 16777216
370
    -2
100
AcDbLine
 10
39099.86366221095
 20
8317.44110158645
 30
0.0
 11
39150.30784615875
 21
8317.44110158645
 31
0.0
  0
LINE
  5
840E
330
7AB7
100
AcDbEntity
  8
6d
  6
Continuous
 62
     0
440
 16777216
370
    -2
100
AcDbLine
 10
39099.86366221095
 20
8445.44110158645
 30
0.0
 11
39150.30784615875
 21
8445.44110158645
 31
0.0
  0
LINE
  5
840F
330
7AB7
100
AcDbEntity
  8
6d
  6
Continuous
 62
     0
440
 16777216
370
    -2
100
AcDbLine
 10
39149.05784615875
 20
8332.44110158645
 30
0.0
 11
39149.05784615875
 21
8430.441101586451
 31
0.0
  0
SOLID
  5
8410
330
7AB7
100
AcDbEntity
  8
6d
  6
Continuous
 62
     0
440
 16777216
100
AcDbTrace
 10
39146.55784615875
 20
8332.44110158645
 30
0.0
 11
39151.55784615875
 21
8332.44110158645
 31
0.0
 12
39149.05784615875
 22
8317.44110158645
 32
0.0
 13
39149.05784615875
 23
8317.44110158645
 33
0.0
  0
SOLID
  5
8411
330
7AB7
100
AcDbEntity
  8
6d
  6
Continuous
 62
     0
440
 16777216
100
AcDbTrace
 10
39146.55784615875
 20
8430.441101586451
 30
0.0
 11
39151.55784615875
 21
8430.441101586451
 31
0.0
 12
39149.05784615875
 22
8445.44110158645
 32
0.0
 13
39149.05784615875
 23
8445.44110158645
 33
0.0
  0
MTEXT
  5
8412
330
7AB7
100
AcDbEntity
  8
6d
  6
Continuous
 62
     0
440
 16777216
100
AcDbMText
 10
39104.05784615874
 20
8381.441101586437
 30
0.0
 40
30.0
 41
9.689704146752774
 46
0.0
 71
     5
 72
     1
  1
128{\Ftxt|c134; [5"]}
 11
0.0000000000000001
 21
1.0
 31
0.0
 73
     1
 44
1.0
  0
POINT
  5
8413
330
7AB7
100
AcDbEntity
  8
Defpoints
  6
Continuous
 62
     0
440
 16777216
100
AcDbPoint
 10
39098.86366221095
 20
8317.44110158645
 30
0.0
  0
POINT
  5
8414
330
7AB7
100
AcDbEntity
  8
Defpoints
  6
Continuous
 62
     0
440
 16777216
100
AcDbPoint
 10
39098.86366221095
 20
8445.44110158645
 30
0.0
  0
POINT
  5
8415
330
7AB7
100
AcDbEntity
  8
Defpoints
  6
Continuous
 62
     0
440
 16777216
100
AcDbPoint
 10
39149.05784615875
 20
8445.44110158645
 30
0.0
  0
ENDBLK
  5
7AC2
330
7AB7
100
AcDbEntity
  8
0
100
AcDbBlockEnd
  0
BLOCK
  5
7ACE
330
7AC3
100
AcDbEntity
  8
0
100
AcDbBlockBegin
  2
*D93
 70
     1
 10
0.0
 20
0.0
 30
0.0
  3
*D93
  1

  0
LINE
  5
8306
330
7AC3
100
AcDbEntity
  8
6d
  6
Continuous
 62
     0
440
 16777216
370
    -2
100
AcDbLine
 10
39262.86366221095
 20
8501.941101586451
 30
0.0
 11
39330.31841719397
 21
8501.941101586451
 31
0.0
  0
LINE
  5
8307
330
7AC3
100
AcDbEntity
  8
6d
  6
Continuous
 62
     0
440
 16777216
370
    -2
100
AcDbLine
 10
39262.86366221095
 20
8555.94110158645
 30
0.0
 11
39330.31841719397
 21
8555.94110158645
 31
0.0
  0
LINE
  5
8308
330
7AC3
100
AcDbEntity
  8
6d
  6
Continuous
 62
     0
440
 16777216
370
    -2
100
AcDbLine
 10
39329.06841719397
 20
8516.94110158645
 30
0.0
 11
39329.06841719397
 21
8540.941101586451
 31
0.0
  0
LINE
  5
8309
330
7AC3
100
AcDbEntity
  8
6d
  6
Continuous
 62
     0
440
 16777216
370
    -2
100
AcDbLine
 10
39329.06841719397
 20
8555.94110158645
 30
0.0
 11
39329.06841719397
 21
8750.94110158645
 31
0.0
  0
SOLID
  5
830A
330
7AC3
100
AcDbEntity
  8
6d
  6
Continuous
 62
     0
440
 16777216
100
AcDbTrace
 10
39326.56841719397
 20
8516.94110158645
 30
0.0
 11
39331.56841719397
 21
8516.94110158645
 31
0.0
 12
39329.06841719397
 22
8501.941101586451
 32
0.0
 13
39329.06841719397
 23
8501.941101586451
 33
0.0
  0
SOLID
  5
830B
330
7AC3
100
AcDbEntity
  8
6d
  6
Continuous
 62
     0
440
 16777216
100
AcDbTrace
 10
39326.56841719397
 20
8540.941101586451
 30
0.0
 11
39331.56841719397
 21
8540.941101586451
 31
0.0
 12
39329.06841719397
 22
8555.94110158645
 32
0.0
 13
39329.06841719397
 23
8555.94110158645
 33
0.0
  0
MTEXT
  5
830C
330
7AC3
100
AcDbEntity
  8
6d
  6
Continuous
 62
     0
440
 16777216
100
AcDbMText
 10
39309.06841719396
 20
8660.941101586436
 30
0.0
 40
30.0
 41
0.0
 46
0.0
 71
     5
 72
     1
  1
54{\Ftxt|c134; [2"]}
 11
0.0000000000000001
 21
1.0
 31
0.0
 73
     1
 44
1.0
  0
POINT
  5
830D
330
7AC3
100
AcDbEntity
  8
Defpoints
  6
Continuous
 62
     0
440
 16777216
100
AcDbPoint
 10
39261.86366221095
 20
8501.941101586451
 30
0.0
  0
POINT
  5
830E
330
7AC3
100
AcDbEntity
  8
Defpoints
  6
Continuous
 62
     0
440
 16777216
100
AcDbPoint
 10
39261.86366221095
 20
8555.94110158645
 30
0.0
  0
POINT
  5
830F
330
7AC3
100
AcDbEntity
  8
Defpoints
  6
Continuous
 62
     0
440
 16777216
100
AcDbPoint
 10
39329.06841719397
 20
8555.94110158645
 30
0.0
  0
ENDBLK
  5
7ACF
330
7AC3
100
AcDbEntity
  8
0
100
AcDbBlockEnd
  0
BLOCK
  5
7ADA
330
7AD0
100
AcDbEntity
  8
0
100
AcDbBlockBegin
  2
*D94
 70
     1
 10
0.0
 20
0.0
 30
0.0
  3
*D94
  1

  0
LINE
  5
82E1
330
7AD0
100
AcDbEntity
  8
6d
  6
Continuous
 62
     0
440
 16777216
370
    -2
100
AcDbLine
 10
39038.86366221093
 20
8556.941101586446
 30
0.0
 11
39038.86366221093
 21
8589.924267554293
 31
0.0
  0
LINE
  5
82E2
330
7AD0
100
AcDbEntity
  8
6d
  6
Continuous
 62
     0
440
 16777216
370
    -2
100
AcDbLine
 10
38936.86366221094
 20
8502.941101586447
 30
0.0
 11
38936.86366221094
 21
8589.924267554293
 31
0.0
  0
LINE
  5
82E3
330
7AD0
100
AcDbEntity
  8
6d
  6
Continuous
 62
     0
440
 16777216
370
    -2
100
AcDbLine
 10
39023.86366221093
 20
8588.674267554292
 30
0.0
 11
38951.86366221094
 21
8588.674267554292
 31
0.0
  0
SOLID
  5
82E4
330
7AD0
100
AcDbEntity
  8
6d
  6
Continuous
 62
     0
440
 16777216
100
AcDbTrace
 10
39023.86366221093
 20
8591.174267554292
 30
0.0
 11
39023.86366221093
 21
8586.174267554291
 31
0.0
 12
39038.86366221093
 22
8588.674267554292
 32
0.0
 13
39038.86366221093
 23
8588.674267554292
 33
0.0
  0
SOLID
  5
82E5
330
7AD0
100
AcDbEntity
  8
6d
  6
Continuous
 62
     0
440
 16777216
100
AcDbTrace
 10
38951.86366221094
 20
8591.174267554292
 30
0.0
 11
38951.86366221094
 21
8586.174267554291
 31
0.0
 12
38936.86366221094
 22
8588.674267554292
 32
0.0
 13
38936.86366221094
 23
8588.674267554292
 33
0.0
  0
MTEXT
  5
82E6
330
7AD0
100
AcDbEntity
  8
6d
  6
Continuous
 62
     0
440
 16777216
100
AcDbMText
 10
38987.86366221093
 20
8633.674267554292
 30
0.0
 40
30.0
 41
9.689704146752774
 46
0.0
 71
     5
 72
     1
  1
102{\Ftxt|c134; [4"]}
 73
     1
 44
1.0
  0
POINT
  5
82E7
330
7AD0
100
AcDbEntity
  8
Defpoints
  6
Continuous
 62
     0
440
 16777216
100
AcDbPoint
 10
39038.86366221093
 20
8555.941101586446
 30
0.0
  0
POINT
  5
82E8
330
7AD0
100
AcDbEntity
  8
Defpoints
  6
Continuous
 62
     0
440
 16777216
100
AcDbPoint
 10
38936.86366221094
 20
8501.941101586446
 30
0.0
  0
POINT
  5
82E9
330
7AD0
100
AcDbEntity
  8
Defpoints
  6
Continuous
 62
     0
440
 16777216
100
AcDbPoint
 10
38936.86366221094
 20
8588.674267554292
 30
0.0
  0
ENDBLK
  5
7ADB
330
7AD0
100
AcDbEntity
  8
0
100
AcDbBlockEnd
  0
BLOCK
  5
7AE6
330
7ADC
100
AcDbEntity
  8
0
100
AcDbBlockBegin
  2
*D95
 70
     1
 10
0.0
 20
0.0
 30
0.0
  3
*D95
  1

  0
LINE
  5
82F3
330
7ADC
100
AcDbEntity
  8
6d
  6
Continuous
 62
     0
440
 16777216
370
    -2
100
AcDbLine
 10
39038.86366221093
 20
8502.941101586447
 30
0.0
 11
39038.86366221093
 21
8589.924267554293
 31
0.0
  0
LINE
  5
82F4
330
7ADC
100
AcDbEntity
  8
6d
  6
Continuous
 62
     0
440
 16777216
370
    -2
100
AcDbLine
 10
39242.86366221093
 20
8502.941101586447
 30
0.0
 11
39242.86366221093
 21
8589.924267554293
 31
0.0
  0
LINE
  5
82F5
330
7ADC
100
AcDbEntity
  8
6d
  6
Continuous
 62
     0
440
 16777216
370
    -2
100
AcDbLine
 10
39053.86366221094
 20
8588.674267554292
 30
0.0
 11
39227.86366221093
 21
8588.674267554292
 31
0.0
  0
SOLID
  5
82F6
330
7ADC
100
AcDbEntity
  8
6d
  6
Continuous
 62
     0
440
 16777216
100
AcDbTrace
 10
39053.86366221094
 20
8591.174267554292
 30
0.0
 11
39053.86366221094
 21
8586.174267554291
 31
0.0
 12
39038.86366221093
 22
8588.674267554292
 32
0.0
 13
39038.86366221093
 23
8588.674267554292
 33
0.0
  0
SOLID
  5
82F7
330
7ADC
100
AcDbEntity
  8
6d
  6
Continuous
 62
     0
440
 16777216
100
AcDbTrace
 10
39227.86366221093
 20
8591.174267554292
 30
0.0
 11
39227.86366221093
 21
8586.174267554291
 31
0.0
 12
39242.86366221093
 22
8588.674267554292
 32
0.0
 13
39242.86366221093
 23
8588.674267554292
 33
0.0
  0
MTEXT
  5
82F8
330
7ADC
100
AcDbEntity
  8
6d
  6
Continuous
 62
     0
440
 16777216
100
AcDbMText
 10
39140.86366221093
 20
8633.674267554292
 30
0.0
 40
30.0
 41
3.875889153918251
 46
0.0
 71
     5
 72
     1
  1
204{\Ftxt|c134; [8"]}
 73
     1
 44
1.0
  0
POINT
  5
82F9
330
7ADC
100
AcDbEntity
  8
Defpoints
  6
Continuous
 62
     0
440
 16777216
100
AcDbPoint
 10
39038.86366221093
 20
8501.941101586446
 30
0.0
  0
POINT
  5
82FA
330
7ADC
100
AcDbEntity
  8
Defpoints
  6
Continuous
 62
     0
440
 16777216
100
AcDbPoint
 10
39242.86366221093
 20
8501.941101586446
 30
0.0
  0
POINT
  5
82FB
330
7ADC
100
AcDbEntity
  8
Defpoints
  6
Continuous
 62
     0
440
 16777216
100
AcDbPoint
 10
39242.86366221093
 20
8588.674267554292
 30
0.0
  0
ENDBLK
  5
7AE7
330
7ADC
100
AcDbEntity
  8
0
100
AcDbBlockEnd
  0
BLOCK
  5
7AF1
330
7AE8
100
AcDbEntity
  8
0
100
AcDbBlockBegin
  2
*D96
 70
     1
 10
0.0
 20
0.0
 30
0.0
  3
*D96
  1

  0
LINE
  5
8330
330
7AE8
100
AcDbEntity
  8
6d
  6
Continuous
 62
     0
440
 16777216
370
    -2
100
AcDbLine
 10
38766.72284494245
 20
8268.332235532071
 30
0.0
 11
38916.84709547348
 21
8474.457705580043
 31
0.0
  0
LINE
  5
8331
330
7AE8
100
AcDbEntity
  8
6d
  6
Continuous
 62
     0
440
 16777216
370
    -2
100
AcDbLine
 10
38956.88022894842
 20
8529.424497592842
 30
0.0
 11
38965.71106721495
 21
8541.54952524272
 31
0.0
  0
MTEXT
  5
8332
330
7AE8
100
AcDbEntity
  8
6d
  6
Continuous
 62
     0
440
 16777216
100
AcDbMText
 10
38821.20284754153
 20
8377.106907753157
 30
0.0
 40
30.0
 41
0.0
 46
0.0
 71
     5
 72
     1
  1
∅38{\Ftxt|c134; [1.5"]}
 11
0.5887225511020553
 21
0.8083351766587224
 31
0.0
 73
     1
 44
1.0
  0
LINE
  5
8333
330
7AE8
100
AcDbEntity
  8
6d
  6
Continuous
 62
     0
440
 16777216
370
    -2
100
AcDbLine
 10
38948.04939068189
 20
8517.299469942962
 30
0.0
 11
38925.67793374001
 21
8486.582733229928
 31
0.0
  0
SOLID
  5
8334
330
7AE8
100
AcDbEntity
  8
6d
  6
Continuous
 62
     0
440
 16777216
100
AcDbTrace
 10
38954.85939100677
 20
8530.896303970596
 30
0.0
 11
38958.90106689006
 21
8527.952691215086
 31
0.0
 12
38948.04939068189
 22
8517.299469942962
 32
0.0
 13
38948.04939068189
 23
8517.299469942962
 33
0.0
  0
SOLID
  5
8335
330
7AE8
100
AcDbEntity
  8
6d
  6
Continuous
 62
     0
440
 16777216
100
AcDbTrace
 10
38914.82625753183
 20
8475.929511957799
 30
0.0
 11
38918.86793341512
 21
8472.985899202287
 31
0.0
 12
38925.67793374001
 22
8486.582733229928
 32
0.0
 13
38925.67793374001
 23
8486.582733229928
 33
0.0
  0
POINT
  5
8336
330
7AE8
100
AcDbEntity
  8
Defpoints
  6
Continuous
 62
     0
440
 16777216
100
AcDbPoint
 10
38925.67793374001
 20
8486.582733229928
 30
0.0
  0
POINT
  5
8337
330
7AE8
100
AcDbEntity
  8
Defpoints
  6
Continuous
 62
     0
440
 16777216
100
AcDbPoint
 10
38948.04939068189
 20
8517.299469942962
 30
0.0
  0
ENDBLK
  5
7AF2
330
7AE8
100
AcDbEntity
  8
0
100
AcDbBlockEnd
  0
BLOCK
  5
7AF9
330
7AF3
100
AcDbEntity
  8
0
100
AcDbBlockBegin
  2
*D97
 70
     1
 10
0.0
 20
0.0
 30
0.0
  3
*D97
  1

  0
LINE
  5
833D
330
7AF3
100
AcDbEntity
  8
6d
  6
Continuous
 62
     0
440
 16777216
370
    -2
100
AcDbLine
 10
38871.89219614329
 20
8223.305795986384
 30
0.0
 11
38695.55731727266
 21
8083.552404279133
 31
0.0
  0
MTEXT
  5
833E
330
7AF3
100
AcDbEntity
  8
6d
  6
Continuous
 62
     0
440
 16777216
100
AcDbMText
 10
38777.18006229635
 20
8173.761757978166
 30
0.0
 40
30.0
 41
0.0
 46
0.0
 71
     5
 72
     1
  1
R76{\Ftxt|c134; [3"]}
 11
0.783710572758348
 21
0.6211261853655681
 31
0.0
 73
     1
 44
1.0
  0
SOLID
  5
833F
330
7AF3
100
AcDbEntity
  8
6d
  6
Continuous
 62
     0
440
 16777216
100
AcDbTrace
 10
38694.00450180925
 20
8085.511680711027
 30
0.0
 11
38697.11013273608
 21
8081.593127847236
 31
0.0
 12
38683.80165868129
 22
8074.235511498649
 32
0.0
 13
38683.80165868129
 23
8074.235511498649
 33
0.0
  0
POINT
  5
8340
330
7AF3
100
AcDbEntity
  8
Defpoints
  6
Continuous
 62
     0
440
 16777216
100
AcDbPoint
 10
38683.80165868129
 20
8074.235511498649
 30
0.0
  0
POINT
  5
8341
330
7AF3
100
AcDbEntity
  8
Defpoints
  6
Continuous
 62
     0
440
 16777216
100
AcDbPoint
 10
38743.36366221093
 20
8121.441101586437
 30
0.0
  0
ENDBLK
  5
7AFA
330
7AF3
100
AcDbEntity
  8
0
100
AcDbBlockEnd
  0
BLOCK
  5
7B01
330
7AFB
100
AcDbEntity
  8
0
100
AcDbBlockBegin
  2
*D98
 70
     1
 10
0.0
 20
0.0
 30
0.0
  3
*D98
  1

  0
LINE
  5
8453
330
7AFB
100
AcDbEntity
  8
6d
  6
Continuous
 62
     0
440
 16777216
370
    -2
100
AcDbLine
 10
39263.71673953749
 20
8279.278048871196
 30
0.0
 11
39418.54334337119
 21
8455.438850555054
 31
0.0
  0
MTEXT
  5
8454
330
7AFB
100
AcDbEntity
  8
6d
  6
Continuous
 62
     0
440
 16777216
100
AcDbMText
 10
39318.01096831246
 20
8371.349416416869
 30
0.0
 40
30.0
 41
0.0
 46
0.0
 71
     5
 72
     1
  1
R13{\Ftxt|c134; [.5"]}
 11
0.6601594198937613
 21
0.7511255156933046
 31
0.0
 73
     1
 44
1.0
  0
SOLID
  5
8455
330
7AFB
100
AcDbEntity
  8
6d
  6
Continuous
 62
     0
440
 16777216
100
AcDbTrace
 10
39416.66552958196
 20
8457.089249104788
 30
0.0
 11
39420.42115716043
 21
8453.788452005321
 31
0.0
 12
39428.4457346696
 22
8466.705733290453
 32
0.0
 13
39428.4457346696
 23
8466.705733290453
 33
0.0
  0
POINT
  5
8456
330
7AFB
100
AcDbEntity
  8
Defpoints
  6
Continuous
 62
     0
440
 16777216
100
AcDbPoint
 10
39428.4457346696
 20
8466.705733290453
 30
0.0
  0
POINT
  5
8457
330
7AFB
100
AcDbEntity
  8
Defpoints
  6
Continuous
 62
     0
440
 16777216
100
AcDbPoint
 10
39419.86366221093
 20
8456.941101586386
 30
0.0
  0
ENDBLK
  5
7B02
330
7AFB
100
AcDbEntity
  8
0
100
AcDbBlockEnd
  0
BLOCK
  5
7B0F
330
7B03
100
AcDbEntity
  8
0
100
AcDbBlockBegin
  2
*D99
 70
     1
 10
0.0
 20
0.0
 30
0.0
  3
*D99
  1

  0
LINE
  5
81A3
330
7B03
100
AcDbEntity
  8
6d
  6
Continuous
 62
     0
440
 16777216
370
    -2
100
AcDbLine
 10
38623.86366221094
 20
9348.046628007827
 30
0.0
 11
38574.42207818646
 21
9348.046628007827
 31
0.0
  0
LINE
  5
81A4
330
7B03
100
AcDbEntity
  8
6d
  6
Continuous
 62
     0
440
 16777216
370
    -2
100
AcDbLine
 10
38618.86366221094
 20
9343.046628007829
 30
0.0
 11
38574.42207818646
 21
9343.046628007829
 31
0.0
  0
LINE
  5
81A5
330
7B03
100
AcDbEntity
  8
6d
  6
Continuous
 62
     0
440
 16777216
370
    -2
100
AcDbLine
 10
38575.67207818646
 20
9363.046628007825
 30
0.0
 11
38575.67207818646
 21
9378.046628007826
 31
0.0
  0
LINE
  5
81A6
330
7B03
100
AcDbEntity
  8
6d
  6
Continuous
 62
     0
440
 16777216
370
    -2
100
AcDbLine
 10
38575.67207818646
 20
9328.046628007829
 30
0.0
 11
38575.67207818646
 21
9153.046628007828
 31
0.0
  0
LINE
  5
81A7
330
7B03
100
AcDbEntity
  8
6d
  6
Continuous
 62
     0
440
 16777216
370
    -2
100
AcDbLine
 10
38575.67207818646
 20
9348.046628007827
 30
0.0
 11
38575.67207818646
 21
9343.046628007829
 31
0.0
  0
SOLID
  5
81A8
330
7B03
100
AcDbEntity
  8
6d
  6
Continuous
 62
     0
440
 16777216
100
AcDbTrace
 10
38573.17207818646
 20
9363.046628007825
 30
0.0
 11
38578.17207818646
 21
9363.046628007825
 31
0.0
 12
38575.67207818646
 22
9348.046628007827
 32
0.0
 13
38575.67207818646
 23
9348.046628007827
 33
0.0
  0
SOLID
  5
81A9
330
7B03
100
AcDbEntity
  8
6d
  6
Continuous
 62
     0
440
 16777216
100
AcDbTrace
 10
38573.17207818646
 20
9328.046628007829
 30
0.0
 11
38578.17207818646
 21
9328.046628007829
 31
0.0
 12
38575.67207818646
 22
9343.046628007829
 32
0.0
 13
38575.67207818646
 23
9343.046628007829
 33
0.0
  0
MTEXT
  5
81AA
330
7B03
100
AcDbEntity
  8
6d
  6
Continuous
 62
     0
440
 16777216
100
AcDbMText
 10
38555.67207818645
 20
9233.046628007818
 30
0.0
 40
30.0
 41
0.0
 46
0.0
 71
     5
 72
     1
  1
5{\Ftxt|c134; [.2"]}
 11
0.0000000000000001
 21
1.0
 31
0.0
 73
     1
 44
1.0
  0
POINT
  5
81AB
330
7B03
100
AcDbEntity
  8
Defpoints
  6
Continuous
 62
     0
440
 16777216
100
AcDbPoint
 10
38624.86366221094
 20
9348.046628007827
 30
0.0
  0
POINT
  5
81AC
330
7B03
100
AcDbEntity
  8
Defpoints
  6
Continuous
 62
     0
440
 16777216
100
AcDbPoint
 10
38619.86366221094
 20
9343.046628007829
 30
0.0
  0
POINT
  5
81AD
330
7B03
100
AcDbEntity
  8
Defpoints
  6
Continuous
 62
     0
440
 16777216
100
AcDbPoint
 10
38575.67207818646
 20
9343.046628007829
 30
0.0
  0
ENDBLK
  5
7B10
330
7B03
100
AcDbEntity
  8
0
100
AcDbBlockEnd
  0
BLOCK
  5
7B28
330
7B1C
100
AcDbEntity
  8
0
100
AcDbBlockBegin
  2
*D100
 70
     1
 10
0.0
 20
0.0
 30
0.0
  3
*D100
  1

  0
LINE
  5
8177
330
7B1C
100
AcDbEntity
  8
6d
  6
Continuous
 62
     0
440
 16777216
370
    -2
100
AcDbLine
 10
38639.86366221093
 20
9349.046628007823
 30
0.0
 11
38639.86366221093
 21
9466.162615132583
 31
0.0
  0
LINE
  5
8178
330
7B1C
100
AcDbEntity
  8
6d
  6
Continuous
 62
     0
440
 16777216
370
    -2
100
AcDbLine
 10
38619.86366221093
 20
9354.796601768395
 30
0.0
 11
38619.86366221093
 21
9466.162615132583
 31
0.0
  0
LINE
  5
8179
330
7B1C
100
AcDbEntity
  8
6d
  6
Continuous
 62
     0
440
 16777216
370
    -2
100
AcDbLine
 10
38654.86366221093
 20
9464.912615132583
 30
0.0
 11
38669.86366221093
 21
9464.912615132583
 31
0.0
  0
LINE
  5
817A
330
7B1C
100
AcDbEntity
  8
6d
  6
Continuous
 62
     0
440
 16777216
370
    -2
100
AcDbLine
 10
38604.86366221093
 20
9464.912615132583
 30
0.0
 11
38404.86366221093
 21
9464.912615132583
 31
0.0
  0
LINE
  5
817B
330
7B1C
100
AcDbEntity
  8
6d
  6
Continuous
 62
     0
440
 16777216
370
    -2
100
AcDbLine
 10
38639.86366221093
 20
9464.912615132583
 30
0.0
 11
38619.86366221093
 21
9464.912615132583
 31
0.0
  0
SOLID
  5
817C
330
7B1C
100
AcDbEntity
  8
6d
  6
Continuous
 62
     0
440
 16777216
100
AcDbTrace
 10
38654.86366221093
 20
9467.412615132584
 30
0.0
 11
38654.86366221093
 21
9462.412615132583
 31
0.0
 12
38639.86366221093
 22
9464.912615132583
 32
0.0
 13
38639.86366221093
 23
9464.912615132583
 33
0.0
  0
SOLID
  5
817D
330
7B1C
100
AcDbEntity
  8
6d
  6
Continuous
 62
     0
440
 16777216
100
AcDbTrace
 10
38604.86366221093
 20
9467.412615132584
 30
0.0
 11
38604.86366221093
 21
9462.412615132583
 31
0.0
 12
38619.86366221093
 22
9464.912615132583
 32
0.0
 13
38619.86366221093
 23
9464.912615132583
 33
0.0
  0
MTEXT
  5
817E
330
7B1C
100
AcDbEntity
  8
6d
  6
Continuous
 62
     0
440
 16777216
100
AcDbMText
 10
38497.36366221092
 20
9484.912615132584
 30
0.0
 40
30.0
 41
0.0
 46
0.0
 71
     5
 72
     1
  1
20{\Ftxt|c134; [.8"]}
 73
     1
 44
1.0
  0
POINT
  5
817F
330
7B1C
100
AcDbEntity
  8
Defpoints
  6
Continuous
 62
     0
440
 16777216
100
AcDbPoint
 10
38639.86366221093
 20
9348.046628007821
 30
0.0
  0
POINT
  5
8180
330
7B1C
100
AcDbEntity
  8
Defpoints
  6
Continuous
 62
     0
440
 16777216
100
AcDbPoint
 10
38619.86366221093
 20
9353.796601768394
 30
0.0
  0
POINT
  5
8181
330
7B1C
100
AcDbEntity
  8
Defpoints
  6
Continuous
 62
     0
440
 16777216
100
AcDbPoint
 10
38619.86366221093
 20
9464.912615132583
 30
0.0
  0
ENDBLK
  5
7B29
330
7B1C
100
AcDbEntity
  8
0
100
AcDbBlockEnd
  0
BLOCK
  5
7B35
330
7B2A
100
AcDbEntity
  8
0
100
AcDbBlockBegin
  2
*D101
 70
     1
 10
0.0
 20
0.0
 30
0.0
  3
*D101
  1

  0
LINE
  5
814C
330
7B2A
100
AcDbEntity
  8
6d
  6
Continuous
 62
     0
440
 16777216
370
    -2
100
AcDbLine
 10
38667.36366221094
 20
9344.046628007822
 30
0.0
 11
38667.36366221094
 21
9642.649099275409
 31
0.0
  0
LINE
  5
814D
330
7B2A
100
AcDbEntity
  8
6d
  6
Continuous
 62
     0
440
 16777216
370
    -2
100
AcDbLine
 10
38619.86366221093
 20
9360.436386766542
 30
0.0
 11
38619.86366221093
 21
9642.649099275409
 31
0.0
  0
LINE
  5
814E
330
7B2A
100
AcDbEntity
  8
6d
  6
Continuous
 62
     0
440
 16777216
370
    -2
100
AcDbLine
 10
38652.36366221094
 20
9641.399099275409
 30
0.0
 11
38634.86366221093
 21
9641.399099275409
 31
0.0
  0
LINE
  5
814F
330
7B2A
100
AcDbEntity
  8
6d
  6
Continuous
 62
     0
440
 16777216
370
    -2
100
AcDbLine
 10
38619.86366221093
 20
9641.399099275409
 30
0.0
 11
38319.86366221093
 21
9641.399099275409
 31
0.0
  0
SOLID
  5
8150
330
7B2A
100
AcDbEntity
  8
6d
  6
Continuous
 62
     0
440
 16777216
100
AcDbTrace
 10
38652.36366221094
 20
9643.899099275408
 30
0.0
 11
38652.36366221094
 21
9638.899099275409
 31
0.0
 12
38667.36366221094
 22
9641.399099275409
 32
0.0
 13
38667.36366221094
 23
9641.399099275409
 33
0.0
  0
SOLID
  5
8151
330
7B2A
100
AcDbEntity
  8
6d
  6
Continuous
 62
     0
440
 16777216
100
AcDbTrace
 10
38634.86366221093
 20
9643.899099275408
 30
0.0
 11
38634.86366221093
 21
9638.899099275409
 31
0.0
 12
38619.86366221093
 22
9641.399099275409
 32
0.0
 13
38619.86366221093
 23
9641.399099275409
 33
0.0
  0
MTEXT
  5
8152
330
7B2A
100
AcDbEntity
  8
6d
  6
Continuous
 62
     0
440
 16777216
100
AcDbMText
 10
38462.36366221093
 20
9663.899099275409
 30
0.0
 40
30.0
 41
0.0
 46
0.0
 71
     5
 72
     1
  1
47,5{\Ftxt|c134; [1.87"]}
 73
     1
 44
1.0
  0
POINT
  5
8153
330
7B2A
100
AcDbEntity
  8
Defpoints
  6
Continuous
 62
     0
440
 16777216
100
AcDbPoint
 10
38667.36366221094
 20
9343.046628007822
 30
0.0
  0
POINT
  5
8154
330
7B2A
100
AcDbEntity
  8
Defpoints
  6
Continuous
 62
     0
440
 16777216
100
AcDbPoint
 10
38619.86366221093
 20
9359.436386766542
 30
0.0
  0
POINT
  5
8155
330
7B2A
100
AcDbEntity
  8
Defpoints
  6
Continuous
 62
     0
440
 16777216
100
AcDbPoint
 10
38619.86366221093
 20
9641.399099275409
 30
0.0
  0
ENDBLK
  5
7B36
330
7B2A
100
AcDbEntity
  8
0
100
AcDbBlockEnd
  0
BLOCK
  5
7B3E
330
7B37
100
AcDbEntity
  8
0
100
AcDbBlockBegin
  2
*D102
 70
     1
 10
0.0
 20
0.0
 30
0.0
  3
*D102
  1

  0
LINE
  5
8281
330
7B37
100
AcDbEntity
  8
6d
  6
Continuous
 62
     0
440
 16777216
370
    -2
100
AcDbLine
 10
38822.97652801482
 20
9495.960474573164
 30
0.0
 11
38676.94779266775
 21
9352.083414369188
 31
0.0
  0
MTEXT
  5
8282
330
7B37
100
AcDbEntity
  8
6d
  6
Continuous
 62
     0
440
 16777216
100
AcDbMText
 10
38741.26788868774
 20
9443.532445244201
 30
0.0
 40
30.0
 41
0.0
 46
0.0
 71
     5
 72
     1
  1
R5{\Ftxt|c134; [.2"]}
 11
0.7123352943758866
 21
0.7018393180681879
 31
0.0
 73
     1
 44
1.0
  0
LINE
  5
8283
330
7B37
100
AcDbEntity
  8
6d
  6
Continuous
 62
     0
440
 16777216
370
    -2
100
AcDbLine
 10
38662.70108678023
 20
9338.046628007816
 30
0.0
 11
38666.26276325212
 21
9341.555824598165
 31
0.0
  0
SOLID
  5
8284
330
7B37
100
AcDbEntity
  8
6d
  6
Continuous
 62
     0
440
 16777216
100
AcDbTrace
 10
38675.19319437259
 20
9353.864252605127
 30
0.0
 11
38678.70239096292
 21
9350.302576133248
 31
0.0
 12
38666.26276325212
 22
9341.555824598165
 32
0.0
 13
38666.26276325212
 23
9341.555824598165
 33
0.0
  0
POINT
  5
8285
330
7B37
100
AcDbEntity
  8
Defpoints
  6
Continuous
 62
     0
440
 16777216
100
AcDbPoint
 10
38666.26276325212
 20
9341.555824598165
 30
0.0
  0
POINT
  5
8286
330
7B37
100
AcDbEntity
  8
Defpoints
  6
Continuous
 62
     0
440
 16777216
100
AcDbPoint
 10
38662.70108678023
 20
9338.046628007816
 30
0.0
  0
ENDBLK
  5
7B3F
330
7B37
100
AcDbEntity
  8
0
100
AcDbBlockEnd
  0
BLOCK
  5
7B52
330
7B48
100
AcDbEntity
  8
0
100
AcDbBlockBegin
  2
*D103
 70
     1
 10
0.0
 20
0.0
 30
0.0
  3
*D103
  1

  0
LINE
  5
8226
330
7B48
100
AcDbEntity
  8
6d
  6
Continuous
 62
     0
440
 16777216
370
    -2
100
AcDbLine
 10
38601.89287019869
 20
9348.046628007827
 30
0.0
 11
38495.20704884569
 21
9348.046628007827
 31
0.0
  0
LINE
  5
8227
330
7B48
100
AcDbEntity
  8
6d
  6
Continuous
 62
     0
440
 16777216
370
    -2
100
AcDbLine
 10
38988.73709253678
 20
9145.046628007825
 30
0.0
 11
38495.20704884569
 21
9145.046628007825
 31
0.0
  0
LINE
  5
8228
330
7B48
100
AcDbEntity
  8
6d
  6
Continuous
 62
     0
440
 16777216
370
    -2
100
AcDbLine
 10
38496.45704884569
 20
9333.046628007826
 30
0.0
 11
38496.45704884569
 21
9160.046628007824
 31
0.0
  0
SOLID
  5
8229
330
7B48
100
AcDbEntity
  8
6d
  6
Continuous
 62
     0
440
 16777216
100
AcDbTrace
 10
38493.95704884569
 20
9333.046628007826
 30
0.0
 11
38498.95704884569
 21
9333.046628007826
 31
0.0
 12
38496.45704884569
 22
9348.046628007827
 32
0.0
 13
38496.45704884569
 23
9348.046628007827
 33
0.0
  0
SOLID
  5
822A
330
7B48
100
AcDbEntity
  8
6d
  6
Continuous
 62
     0
440
 16777216
100
AcDbTrace
 10
38493.95704884569
 20
9160.046628007824
 30
0.0
 11
38498.95704884569
 21
9160.046628007824
 31
0.0
 12
38496.45704884569
 22
9145.046628007825
 32
0.0
 13
38496.45704884569
 23
9145.046628007825
 33
0.0
  0
MTEXT
  5
822B
330
7B48
100
AcDbEntity
  8
6d
  6
Continuous
 62
     0
440
 16777216
100
AcDbMText
 10
38476.45704884568
 20
9248.626877905138
 30
0.0
 40
30.0
 41
0.0
 46
0.0
 71
     5
 72
     1
  1
203{\Ftxt|c134; [8"]}
 11
0.0000000000000001
 21
1.0
 31
0.0
 73
     1
 44
1.0
  0
POINT
  5
822C
330
7B48
100
AcDbEntity
  8
Defpoints
  6
Continuous
 62
     0
440
 16777216
100
AcDbPoint
 10
38602.89287019869
 20
9348.046628007827
 30
0.0
  0
POINT
  5
822D
330
7B48
100
AcDbEntity
  8
Defpoints
  6
Continuous
 62
     0
440
 16777216
100
AcDbPoint
 10
38989.73709253677
 20
9145.046628007825
 30
0.0
  0
POINT
  5
822E
330
7B48
100
AcDbEntity
  8
Defpoints
  6
Continuous
 62
     0
440
 16777216
100
AcDbPoint
 10
38496.45704884569
 20
9145.046628007825
 30
0.0
  0
ENDBLK
  5
7B53
330
7B48
100
AcDbEntity
  8
0
100
AcDbBlockEnd
  0
BLOCK
  5
7B60
330
7B54
100
AcDbEntity
  8
0
100
AcDbBlockBegin
  2
*D104
 70
     1
 10
0.0
 20
0.0
 30
0.0
  3
*D104
  1

  0
LINE
  5
82AD
330
7B54
100
AcDbEntity
  8
6d
  6
Continuous
 62
     0
440
 16777216
370
    -2
100
AcDbLine
 10
38038.31871080076
 20
8520.94110158645
 30
0.0
 11
37925.29515591786
 21
8520.94110158645
 31
0.0
  0
LINE
  5
82AE
330
7B54
100
AcDbEntity
  8
6d
  6
Continuous
 62
     0
440
 16777216
370
    -2
100
AcDbLine
 10
38038.31871080075
 20
8482.941101586449
 30
0.0
 11
37925.29515591786
 21
8482.941101586449
 31
0.0
  0
LINE
  5
82AF
330
7B54
100
AcDbEntity
  8
6d
  6
Continuous
 62
     0
440
 16777216
370
    -2
100
AcDbLine
 10
37926.54515591786
 20
8535.94110158645
 30
0.0
 11
37926.54515591786
 21
8550.941101586451
 31
0.0
  0
LINE
  5
82B0
330
7B54
100
AcDbEntity
  8
6d
  6
Continuous
 62
     0
440
 16777216
370
    -2
100
AcDbLine
 10
37926.54515591786
 20
8467.94110158645
 30
0.0
 11
37926.54515591786
 21
8212.94110158645
 31
0.0
  0
LINE
  5
82B1
330
7B54
100
AcDbEntity
  8
6d
  6
Continuous
 62
     0
440
 16777216
370
    -2
100
AcDbLine
 10
37926.54515591786
 20
8520.94110158645
 30
0.0
 11
37926.54515591786
 21
8482.941101586449
 31
0.0
  0
SOLID
  5
82B2
330
7B54
100
AcDbEntity
  8
6d
  6
Continuous
 62
     0
440
 16777216
100
AcDbTrace
 10
37924.04515591786
 20
8535.94110158645
 30
0.0
 11
37929.04515591786
 21
8535.94110158645
 31
0.0
 12
37926.54515591786
 22
8520.94110158645
 32
0.0
 13
37926.54515591786
 23
8520.94110158645
 33
0.0
  0
SOLID
  5
82B3
330
7B54
100
AcDbEntity
  8
6d
  6
Continuous
 62
     0
440
 16777216
100
AcDbTrace
 10
37924.04515591786
 20
8467.94110158645
 30
0.0
 11
37929.04515591786
 21
8467.94110158645
 31
0.0
 12
37926.54515591786
 22
8482.941101586449
 32
0.0
 13
37926.54515591786
 23
8482.941101586449
 33
0.0
  0
MTEXT
  5
82B4
330
7B54
100
AcDbEntity
  8
6d
  6
Continuous
 62
     0
440
 16777216
100
AcDbMText
 10
37906.54515591786
 20
8332.941101586436
 30
0.0
 40
30.0
 41
0.0
 46
0.0
 71
     5
 72
     1
  1
%%C38{\Ftxt|c134; [1.5"]}
 11
0.0000000000000001
 21
1.0
 31
0.0
 73
     1
 44
1.0
  0
POINT
  5
82B5
330
7B54
100
AcDbEntity
  8
Defpoints
  6
Continuous
 62
     0
440
 16777216
100
AcDbPoint
 10
38039.31871080076
 20
8520.94110158645
 30
0.0
  0
POINT
  5
82B6
330
7B54
100
AcDbEntity
  8
Defpoints
  6
Continuous
 62
     0
440
 16777216
100
AcDbPoint
 10
38039.31871080075
 20
8482.941101586449
 30
0.0
  0
POINT
  5
82B7
330
7B54
100
AcDbEntity
  8
Defpoints
  6
Continuous
 62
     0
440
 16777216
100
AcDbPoint
 10
37926.54515591786
 20
8482.941101586449
 30
0.0
  0
ENDBLK
  5
7B61
330
7B54
100
AcDbEntity
  8
0
100
AcDbBlockEnd
  0
BLOCK
  5
7B6E
330
7B62
100
AcDbEntity
  8
0
100
AcDbBlockBegin
  2
*D105
 70
     1
 10
0.0
 20
0.0
 30
0.0
  3
*D105
  1

  0
LINE
  5
7EF1
330
7B62
100
AcDbEntity
  8
6d
  6
Continuous
 62
     0
440
 16777216
370
    -2
100
AcDbLine
 10
38039.31871080073
 20
8534.941101586451
 30
0.0
 11
38039.31871080073
 21
8547.43265907282
 31
0.0
  0
LINE
  5
7EF2
330
7B62
100
AcDbEntity
  8
6d
  6
Continuous
 62
     0
440
 16777216
370
    -2
100
AcDbLine
 10
38037.31871080074
 20
8536.941101586446
 30
0.0
 11
38037.31871080074
 21
8547.43265907282
 31
0.0
  0
LINE
  5
7EF3
330
7B62
100
AcDbEntity
  8
6d
  6
Continuous
 62
     0
440
 16777216
370
    -2
100
AcDbLine
 10
38054.31871080073
 20
8546.182659072819
 30
0.0
 11
38069.31871080074
 21
8546.182659072819
 31
0.0
  0
LINE
  5
7EF4
330
7B62
100
AcDbEntity
  8
6d
  6
Continuous
 62
     0
440
 16777216
370
    -2
100
AcDbLine
 10
38022.31871080074
 20
8546.182659072819
 30
0.0
 11
37977.31871080074
 21
8546.182659072819
 31
0.0
  0
LINE
  5
7EF5
330
7B62
100
AcDbEntity
  8
6d
  6
Continuous
 62
     0
440
 16777216
370
    -2
100
AcDbLine
 10
38039.31871080073
 20
8546.182659072819
 30
0.0
 11
38037.31871080074
 21
8546.182659072819
 31
0.0
  0
SOLID
  5
7EF6
330
7B62
100
AcDbEntity
  8
6d
  6
Continuous
 62
     0
440
 16777216
100
AcDbTrace
 10
38054.31871080073
 20
8548.68265907282
 30
0.0
 11
38054.31871080073
 21
8543.682659072819
 31
0.0
 12
38039.31871080073
 22
8546.182659072819
 32
0.0
 13
38039.31871080073
 23
8546.182659072819
 33
0.0
  0
SOLID
  5
7EF7
330
7B62
100
AcDbEntity
  8
6d
  6
Continuous
 62
     0
440
 16777216
100
AcDbTrace
 10
38022.31871080074
 20
8548.68265907282
 30
0.0
 11
38022.31871080074
 21
8543.682659072819
 31
0.0
 12
38037.31871080074
 22
8546.182659072819
 32
0.0
 13
38037.31871080074
 23
8546.182659072819
 33
0.0
  0
MTEXT
  5
7EF8
330
7B62
100
AcDbEntity
  8
6d
  6
Continuous
 62
     0
440
 16777216
100
AcDbMText
 10
37992.31871080074
 20
8566.18265907282
 30
0.0
 40
30.0
 41
0.0
 46
0.0
 71
     5
 72
     1
  1
2
 73
     1
 44
1.0
  0
POINT
  5
7EF9
330
7B62
100
AcDbEntity
  8
Defpoints
  6
Continuous
 62
     0
440
 16777216
100
AcDbPoint
 10
38039.31871080073
 20
8533.941101586449
 30
0.0
  0
POINT
  5
7EFA
330
7B62
100
AcDbEntity
  8
Defpoints
  6
Continuous
 62
     0
440
 16777216
100
AcDbPoint
 10
38037.31871080074
 20
8535.941101586447
 30
0.0
  0
POINT
  5
7EFB
330
7B62
100
AcDbEntity
  8
Defpoints
  6
Continuous
 62
     0
440
 16777216
100
AcDbPoint
 10
38037.31871080074
 20
8546.182659072819
 30
0.0
  0
ENDBLK
  5
7B6F
330
7B62
100
AcDbEntity
  8
0
100
AcDbBlockEnd
  0
BLOCK
  5
7B87
330
7B7B
100
AcDbEntity
  8
0
100
AcDbBlockBegin
  2
*D106
 70
     1
 10
0.0
 20
0.0
 30
0.0
  3
*D106
  1

  0
LINE
  5
82C3
330
7B7B
100
AcDbEntity
  8
6d
  6
Continuous
 62
     0
440
 16777216
370
    -2
100
AcDbLine
 10
38038.31871080075
 20
8472.441101586451
 30
0.0
 11
37998.2803061498
 21
8472.441101586451
 31
0.0
  0
LINE
  5
82C4
330
7B7B
100
AcDbEntity
  8
6d
  6
Continuous
 62
     0
440
 16777216
370
    -2
100
AcDbLine
 10
38041.31871080078
 20
8469.941101586449
 30
0.0
 11
37998.2803061498
 21
8469.941101586449
 31
0.0
  0
LINE
  5
82C5
330
7B7B
100
AcDbEntity
  8
6d
  6
Continuous
 62
     0
440
 16777216
370
    -2
100
AcDbLine
 10
37999.5303061498
 20
8487.441101586449
 30
0.0
 11
37999.5303061498
 21
8502.44110158645
 31
0.0
  0
LINE
  5
82C6
330
7B7B
100
AcDbEntity
  8
6d
  6
Continuous
 62
     0
440
 16777216
370
    -2
100
AcDbLine
 10
37999.5303061498
 20
8454.941101586449
 30
0.0
 11
37999.5303061498
 21
8244.94110158645
 31
0.0
  0
LINE
  5
82C7
330
7B7B
100
AcDbEntity
  8
6d
  6
Continuous
 62
     0
440
 16777216
370
    -2
100
AcDbLine
 10
37999.5303061498
 20
8472.441101586451
 30
0.0
 11
37999.5303061498
 21
8469.941101586449
 31
0.0
  0
SOLID
  5
82C8
330
7B7B
100
AcDbEntity
  8
6d
  6
Continuous
 62
     0
440
 16777216
100
AcDbTrace
 10
37997.0303061498
 20
8487.441101586449
 30
0.0
 11
38002.0303061498
 21
8487.441101586449
 31
0.0
 12
37999.5303061498
 22
8472.441101586451
 32
0.0
 13
37999.5303061498
 23
8472.441101586451
 33
0.0
  0
SOLID
  5
82C9
330
7B7B
100
AcDbEntity
  8
6d
  6
Continuous
 62
     0
440
 16777216
100
AcDbTrace
 10
37997.0303061498
 20
8454.941101586449
 30
0.0
 11
38002.0303061498
 21
8454.941101586449
 31
0.0
 12
37999.5303061498
 22
8469.941101586449
 32
0.0
 13
37999.5303061498
 23
8469.941101586449
 33
0.0
  0
MTEXT
  5
82CA
330
7B7B
100
AcDbEntity
  8
6d
  6
Continuous
 62
     0
440
 16777216
100
AcDbMText
 10
37977.03030614979
 20
8342.441101586437
 30
0.0
 40
30.0
 41
0.0
 46
0.0
 71
     5
 72
     1
  1
2,5{\Ftxt|c134; [.1"]}
 11
0.0000000000000001
 21
1.0
 31
0.0
 73
     1
 44
1.0
  0
POINT
  5
82CB
330
7B7B
100
AcDbEntity
  8
Defpoints
  6
Continuous
 62
     0
440
 16777216
100
AcDbPoint
 10
38039.31871080075
 20
8472.441101586451
 30
0.0
  0
POINT
  5
82CC
330
7B7B
100
AcDbEntity
  8
Defpoints
  6
Continuous
 62
     0
440
 16777216
100
AcDbPoint
 10
38042.31871080078
 20
8469.941101586449
 30
0.0
  0
POINT
  5
82CD
330
7B7B
100
AcDbEntity
  8
Defpoints
  6
Continuous
 62
     0
440
 16777216
100
AcDbPoint
 10
37999.5303061498
 20
8469.941101586449
 30
0.0
  0
ENDBLK
  5
7B88
330
7B7B
100
AcDbEntity
  8
0
100
AcDbBlockEnd
  0
BLOCK
  5
7BA3
330
7B97
100
AcDbEntity
  8
0
100
AcDbBlockBegin
  2
*D107
 70
     1
 10
0.0
 20
0.0
 30
0.0
  3
*D107
  1

  0
LINE
  5
7F12
330
7B97
100
AcDbEntity
  8
6d
  6
Continuous
 62
     0
440
 16777216
370
    -2
100
AcDbLine
 10
37975.09570801502
 20
9395.309529993665
 30
0.0
 11
37975.09570801502
 21
9381.035885500372
 31
0.0
  0
LINE
  5
7F13
330
7B97
100
AcDbEntity
  8
6d
  6
Continuous
 62
     0
440
 16777216
370
    -2
100
AcDbLine
 10
37965.09570801505
 20
9395.309529993665
 30
0.0
 11
37965.09570801505
 21
9381.035885500372
 31
0.0
  0
LINE
  5
7F14
330
7B97
100
AcDbEntity
  8
6d
  6
Continuous
 62
     0
440
 16777216
370
    -2
100
AcDbLine
 10
37990.09570801502
 20
9382.285885500373
 30
0.0
 11
38005.09570801502
 21
9382.285885500373
 31
0.0
  0
LINE
  5
7F15
330
7B97
100
AcDbEntity
  8
6d
  6
Continuous
 62
     0
440
 16777216
370
    -2
100
AcDbLine
 10
37950.09570801505
 20
9382.285885500373
 30
0.0
 11
37905.09570801506
 21
9382.285885500373
 31
0.0
  0
LINE
  5
7F16
330
7B97
100
AcDbEntity
  8
6d
  6
Continuous
 62
     0
440
 16777216
370
    -2
100
AcDbLine
 10
37975.09570801502
 20
9382.285885500373
 30
0.0
 11
37965.09570801505
 21
9382.285885500373
 31
0.0
  0
SOLID
  5
7F17
330
7B97
100
AcDbEntity
  8
6d
  6
Continuous
 62
     0
440
 16777216
100
AcDbTrace
 10
37990.09570801502
 20
9384.785885500372
 30
0.0
 11
37990.09570801502
 21
9379.785885500373
 31
0.0
 12
37975.09570801502
 22
9382.285885500373
 32
0.0
 13
37975.09570801502
 23
9382.285885500373
 33
0.0
  0
SOLID
  5
7F18
330
7B97
100
AcDbEntity
  8
6d
  6
Continuous
 62
     0
440
 16777216
100
AcDbTrace
 10
37950.09570801505
 20
9384.785885500372
 30
0.0
 11
37950.09570801505
 21
9379.785885500373
 31
0.0
 12
37965.09570801505
 22
9382.285885500373
 32
0.0
 13
37965.09570801505
 23
9382.285885500373
 33
0.0
  0
MTEXT
  5
7F19
330
7B97
100
AcDbEntity
  8
6d
  6
Continuous
 62
     0
440
 16777216
100
AcDbMText
 10
37920.09570801506
 20
9402.285885500372
 30
0.0
 40
30.0
 41
0.0
 46
0.0
 71
     5
 72
     1
  1
2
 73
     1
 44
1.0
  0
POINT
  5
7F1A
330
7B97
100
AcDbEntity
  8
Defpoints
  6
Continuous
 62
     0
440
 16777216
100
AcDbPoint
 10
37975.09570801502
 20
9396.309529993667
 30
0.0
  0
POINT
  5
7F1B
330
7B97
100
AcDbEntity
  8
Defpoints
  6
Continuous
 62
     0
440
 16777216
100
AcDbPoint
 10
37965.09570801505
 20
9396.309529993665
 30
0.0
  0
POINT
  5
7F1C
330
7B97
100
AcDbEntity
  8
Defpoints
  6
Continuous
 62
     0
440
 16777216
100
AcDbPoint
 10
37965.09570801505
 20
9382.285885500373
 30
0.0
  0
ENDBLK
  5
7BA4
330
7B97
100
AcDbEntity
  8
0
100
AcDbBlockEnd
  0
BLOCK
  5
7C47
330
7C41
100
AcDbEntity
  8
0
100
AcDbBlockBegin
  2
*D108
 70
     1
 10
0.0
 20
0.0
 30
0.0
  3
*D108
  1

  0
LINE
  5
8287
330
7C41
100
AcDbEntity
  8
6d
  6
Continuous
 62
     0
440
 16777216
370
    -2
100
AcDbLine
 10
38840.04708610547
 20
9354.690066768755
 30
0.0
 11
38705.50185538319
 21
9180.628063764386
 31
0.0
  0
MTEXT
  5
8288
330
7C41
100
AcDbEntity
  8
6d
  6
Continuous
 62
     0
440
 16777216
100
AcDbMText
 10
38761.53742151855
 20
9285.82438179829
 30
0.0
 40
30.0
 41
0.0
 46
0.0
 71
     5
 72
     1
  1
R50{\Ftxt|c134; [2"]}
 11
0.6115692305557517
 21
0.7911909227471243
 31
0.0
 73
     1
 44
1.0
  0
SOLID
  5
8289
330
7C41
100
AcDbEntity
  8
6d
  6
Continuous
 62
     0
440
 16777216
100
AcDbTrace
 10
38703.52387807633
 20
9182.156986840775
 30
0.0
 11
38707.47983269006
 21
9179.099140687997
 31
0.0
 12
38696.32831692486
 22
9168.760199923182
 32
0.0
 13
38696.32831692486
 23
9168.760199923182
 33
0.0
  0
POINT
  5
828A
330
7C41
100
AcDbEntity
  8
Defpoints
  6
Continuous
 62
     0
440
 16777216
100
AcDbPoint
 10
38696.32831692486
 20
9168.760199923182
 30
0.0
  0
POINT
  5
828B
330
7C41
100
AcDbEntity
  8
Defpoints
  6
Continuous
 62
     0
440
 16777216
100
AcDbPoint
 10
38726.90677845267
 20
9208.319746060567
 30
0.0
  0
ENDBLK
  5
7C48
330
7C41
100
AcDbEntity
  8
0
100
AcDbBlockEnd
  0
BLOCK
  5
7C5B
330
7C55
100
AcDbEntity
  8
0
100
AcDbBlockBegin
  2
*D109
 70
     1
 10
0.0
 20
0.0
 30
0.0
  3
*D109
  1

  0
LINE
  5
82D3
330
7C55
100
AcDbEntity
  8
6d
  6
Continuous
 62
     0
440
 16777216
370
    -2
100
AcDbLine
 10
38032.07475762395
 20
8288.406457543839
 30
0.0
 11
38219.70391936079
 21
8403.277244369439
 31
0.0
  0
MTEXT
  5
82D4
330
7C55
100
AcDbEntity
  8
6d
  6
Continuous
 62
     0
440
 16777216
100
AcDbMText
 10
38109.05009099447
 20
8358.982997927295
 30
0.0
 40
30.0
 41
0.0
 46
0.0
 71
     5
 72
     1
  1
R50{\Ftxt|c134; [2"]}
 11
0.8528598260765322
 21
0.522139940116352
 31
0.0
 73
     1
 44
1.0
  0
SOLID
  5
82D5
330
7C55
100
AcDbEntity
  8
6d
  6
Continuous
 62
     0
440
 16777216
100
AcDbTrace
 10
38218.3985695105
 20
8405.409393934631
 30
0.0
 11
38221.00926921108
 21
8401.145094804247
 31
0.0
 12
38232.49681675194
 22
8411.10934347118
 32
0.0
 13
38232.49681675194
 23
8411.10934347118
 33
0.0
  0
POINT
  5
82D6
330
7C55
100
AcDbEntity
  8
Defpoints
  6
Continuous
 62
     0
440
 16777216
100
AcDbPoint
 10
38232.49681675194
 20
8411.10934347118
 30
0.0
  0
POINT
  5
82D7
330
7C55
100
AcDbEntity
  8
Defpoints
  6
Continuous
 62
     0
440
 16777216
100
AcDbPoint
 10
38189.85382544811
 20
8385.002346465361
 30
0.0
  0
ENDBLK
  5
7C5C
330
7C55
100
AcDbEntity
  8
0
100
AcDbBlockEnd
  0
BLOCK
  5
7C92
330
7C7E
100
AcDbEntity
  8
0
100
AcDbBlockBegin
  2
A$C45CC6445
 70
     0
 10
0.0
 20
0.0
 30
0.0
  3
A$C45CC6445
  1

  0
LINE
  5
7C7F
330
7C7E
100
AcDbEntity
  8
0
100
AcDbLine
 10
52.99999796049815
 20
86.89999253501241
 30
0.0
 11
11.59999796049669
 21
86.89999253501241
 31
0.0
  0
LINE
  5
7C80
330
7C7E
100
AcDbEntity
  8
0
100
AcDbLine
 10
64.59999796049851
 20
72.59999253501291
 30
0.0
 11
64.59999796049851
 21
81.89999253501241
 31
0.0
  0
LINE
  5
7C81
330
7C7E
100
AcDbEntity
  8
0
100
AcDbLine
 10
11.59999796049669
 20
93.49999253501255
 30
0.0
 11
52.99999796049815
 21
93.4999925350125
 31
0.0
  0
ARC
  5
7C82
330
7C7E
100
AcDbEntity
  8
0
100
AcDbCircle
 10
11.59999796049669
 20
81.89999253501241
 30
0.0
 40
5.0
100
AcDbArc
 50
90.0
 51
180.0
  0
ARC
  5
7C83
330
7C7E
100
AcDbEntity
  8
0
100
AcDbCircle
 10
11.59999796049669
 20
81.89999253501241
 30
0.0
 40
11.6
100
AcDbArc
 50
90.0
 51
180.0
  0
ARC
  5
7C84
330
7C7E
100
AcDbEntity
  8
0
100
AcDbCircle
 10
52.99999796049815
 20
81.89999253501241
 30
0.0
 40
5.0
100
AcDbArc
 50
0.0
 51
90.0
  0
ARC
  5
7C85
330
7C7E
100
AcDbEntity
  8
0
100
AcDbCircle
 10
52.99999796049815
 20
81.89999253501241
 30
0.0
 40
11.6
100
AcDbArc
 50
0.0
 51
90.0
  0
LINE
  5
7C86
330
7C7E
100
AcDbEntity
  8
0
100
AcDbLine
 10
64.59999796049851
 20
81.89999253501241
 30
0.0
 11
64.59999796049851
 21
6.599992535011097
 31
0.0
  0
LINE
  5
7C87
330
7C7E
100
AcDbEntity
  8
0
100
AcDbLine
 10
6.599997960496693
 20
81.89999253501218
 30
0.0
 11
6.599997960498512
 21
13.19999253500964
 31
0.0
  0
LINE
  5
7C88
330
7C7E
100
AcDbEntity
  8
0
100
AcDbLine
 10
-0.000002039500032
 20
6.599992535011097
 30
0.0
 11
-0.000002039500032
 21
81.89999253501241
 31
0.0
  0
LINE
  5
7C89
330
7C7E
100
AcDbEntity
  8
0
100
AcDbLine
 10
6.599997960498512
 20
6.599992535011097
 30
0.0
 11
6.599997960498512
 21
81.89999253501241
 31
0.0
  0
LINE
  5
7C8A
330
7C7E
100
AcDbEntity
  8
0
100
AcDbLine
 10
13.19999796049706
 20
19.99999253501255
 30
0.0
 11
13.19999796049706
 21
6.599992535011097
 31
0.0
  0
LINE
  5
7C8B
330
7C7E
100
AcDbEntity
  8
0
100
AcDbLine
 10
13.19999796049706
 20
19.99999253501255
 30
0.0
 11
6.599997960498512
 21
19.99999253501255
 31
0.0
  0
ARC
  5
7C8C
330
7C7E
100
AcDbEntity
  8
0
100
AcDbCircle
 10
6.599997960498512
 20
6.599992535011097
 30
0.0
 40
6.599999999998544
100
AcDbArc
 50
180.0
 51
0.0
  0
ARC
  5
7C8D
330
7C7E
100
AcDbEntity
  8
0
100
AcDbCircle
 10
57.99999796049633
 20
6.599992535011097
 30
0.0
 40
6.599999999998544
100
AcDbArc
 50
180.0
 51
0.0
  0
LINE
  5
7C8E
330
7C7E
100
AcDbEntity
  8
0
100
AcDbLine
 10
51.39999796049778
 20
19.99999253501255
 30
0.0
 11
57.99999796049633
 21
19.99999253501255
 31
0.0
  0
LINE
  5
7C8F
330
7C7E
100
AcDbEntity
  8
0
100
AcDbLine
 10
51.39999796049778
 20
19.99999253501255
 30
0.0
 11
51.39999796049778
 21
6.599992535011097
 31
0.0
  0
LINE
  5
7C90
330
7C7E
100
AcDbEntity
  8
0
100
AcDbLine
 10
57.99999796049633
 20
6.599992535011097
 30
0.0
 11
57.99999796049633
 21
81.89999253501241
 31
0.0
  0
LINE
  5
7C91
330
7C7E
100
AcDbEntity
  8
0
100
AcDbLine
 10
57.99999796049815
 20
81.89999253501218
 30
0.0
 11
57.99999796049633
 21
13.19999253500964
 31
0.0
  0
ENDBLK
  5
7C93
330
7C7E
100
AcDbEntity
  8
0
100
AcDbBlockEnd
  0
BLOCK
  5
7E0C
330
7E02
100
AcDbEntity
  8
0
100
AcDbBlockBegin
  2
*D111
 70
     1
 10
0.0
 20
0.0
 30
0.0
  3
*D111
  1

  0
LINE
  5
80E4
330
7E02
100
AcDbEntity
  8
6d
  6
Continuous
 62
     0
440
 16777216
370
    -2
100
AcDbLine
 10
37988.09570801507
 20
9506.309529993654
 30
0.0
 11
37783.18661764475
 21
9506.309529993654
 31
0.0
  0
LINE
  5
80E5
330
7E02
100
AcDbEntity
  8
6d
  6
Continuous
 62
     0
440
 16777216
370
    -2
100
AcDbLine
 10
37964.09570801507
 20
9406.309529993654
 30
0.0
 11
37783.18661764475
 21
9406.309529993654
 31
0.0
  0
LINE
  5
80E6
330
7E02
100
AcDbEntity
  8
6d
  6
Continuous
 62
     0
440
 16777216
370
    -2
100
AcDbLine
 10
37784.43661764475
 20
9491.309529993655
 30
0.0
 11
37784.43661764475
 21
9421.309529993655
 31
0.0
  0
LINE
  5
80E7
330
7E02
100
AcDbEntity
  8
6d
  6
Continuous
 62
     0
440
 16777216
370
    -2
100
AcDbLine
 10
37784.43661764475
 20
9406.309529993654
 30
0.0
 11
37784.43661764475
 21
9221.309529993654
 31
0.0
  0
SOLID
  5
80E8
330
7E02
100
AcDbEntity
  8
6d
  6
Continuous
 62
     0
440
 16777216
100
AcDbTrace
 10
37781.93661764475
 20
9491.309529993655
 30
0.0
 11
37786.93661764475
 21
9491.309529993655
 31
0.0
 12
37784.43661764475
 22
9506.309529993654
 32
0.0
 13
37784.43661764475
 23
9506.309529993654
 33
0.0
  0
SOLID
  5
80E9
330
7E02
100
AcDbEntity
  8
6d
  6
Continuous
 62
     0
440
 16777216
100
AcDbTrace
 10
37781.93661764475
 20
9421.309529993655
 30
0.0
 11
37786.93661764475
 21
9421.309529993655
 31
0.0
 12
37784.43661764475
 22
9406.309529993654
 32
0.0
 13
37784.43661764475
 23
9406.309529993654
 33
0.0
  0
MTEXT
  5
80EA
330
7E02
100
AcDbEntity
  8
6d
  6
Continuous
 62
     0
440
 16777216
100
AcDbMText
 10
37764.43661764475
 20
9306.309529993642
 30
0.0
 40
30.0
 41
0.0
 46
0.0
 71
     5
 72
     1
  1
25{\Ftxt|c134; [1"]}
 11
0.0000000000000001
 21
1.0
 31
0.0
 73
     1
 44
1.0
  0
POINT
  5
80EB
330
7E02
100
AcDbEntity
  8
Defpoints
  6
Continuous
 62
     0
440
 16777216
100
AcDbPoint
 10
37989.09570801507
 20
9506.309529993654
 30
0.0
  0
POINT
  5
80EC
330
7E02
100
AcDbEntity
  8
Defpoints
  6
Continuous
 62
     0
440
 16777216
100
AcDbPoint
 10
37965.09570801507
 20
9406.309529993654
 30
0.0
  0
POINT
  5
80ED
330
7E02
100
AcDbEntity
  8
Defpoints
  6
Continuous
 62
     0
440
 16777216
100
AcDbPoint
 10
37784.43661764475
 20
9406.309529993654
 30
0.0
  0
ENDBLK
  5
7E0D
330
7E02
100
AcDbEntity
  8
0
100
AcDbBlockEnd
  0
BLOCK
  5
7F87
330
7F7B
100
AcDbEntity
  8
0
100
AcDbBlockBegin
  2
*D112
 70
     1
 10
0.0
 20
0.0
 30
0.0
  3
*D112
  1

  0
LINE
  5
8161
330
7F7B
100
AcDbEntity
  8
6d
  6
Continuous
 62
     0
440
 16777216
370
    -2
100
AcDbLine
 10
38644.86366221093
 20
9344.046628007822
 30
0.0
 11
38644.86366221093
 21
9565.922455979878
 31
0.0
  0
LINE
  5
8162
330
7F7B
100
AcDbEntity
  8
6d
  6
Continuous
 62
     0
440
 16777216
370
    -2
100
AcDbLine
 10
38619.86366221093
 20
9344.046628007822
 30
0.0
 11
38619.86366221093
 21
9565.922455979878
 31
0.0
  0
LINE
  5
8163
330
7F7B
100
AcDbEntity
  8
6d
  6
Continuous
 62
     0
440
 16777216
370
    -2
100
AcDbLine
 10
38659.86366221093
 20
9564.672455979879
 30
0.0
 11
38674.86366221093
 21
9564.672455979879
 31
0.0
  0
LINE
  5
8164
330
7F7B
100
AcDbEntity
  8
6d
  6
Continuous
 62
     0
440
 16777216
370
    -2
100
AcDbLine
 10
38604.86366221093
 20
9564.672455979879
 30
0.0
 11
38419.86366221093
 21
9564.672455979879
 31
0.0
  0
LINE
  5
8165
330
7F7B
100
AcDbEntity
  8
6d
  6
Continuous
 62
     0
440
 16777216
370
    -2
100
AcDbLine
 10
38644.86366221093
 20
9564.672455979879
 30
0.0
 11
38619.86366221093
 21
9564.672455979879
 31
0.0
  0
SOLID
  5
8166
330
7F7B
100
AcDbEntity
  8
6d
  6
Continuous
 62
     0
440
 16777216
100
AcDbTrace
 10
38659.86366221093
 20
9567.172455979878
 30
0.0
 11
38659.86366221093
 21
9562.172455979879
 31
0.0
 12
38644.86366221093
 22
9564.672455979879
 32
0.0
 13
38644.86366221093
 23
9564.672455979879
 33
0.0
  0
SOLID
  5
8167
330
7F7B
100
AcDbEntity
  8
6d
  6
Continuous
 62
     0
440
 16777216
100
AcDbTrace
 10
38604.86366221093
 20
9567.172455979878
 30
0.0
 11
38604.86366221093
 21
9562.172455979879
 31
0.0
 12
38619.86366221093
 22
9564.672455979879
 32
0.0
 13
38619.86366221093
 23
9564.672455979879
 33
0.0
  0
MTEXT
  5
8168
330
7F7B
100
AcDbEntity
  8
6d
  6
Continuous
 62
     0
440
 16777216
100
AcDbMText
 10
38504.86366221092
 20
9584.672455979879
 30
0.0
 40
30.0
 41
0.0
 46
0.0
 71
     5
 72
     1
  1
25{\Ftxt|c134; [1"]}
 73
     1
 44
1.0
  0
POINT
  5
8169
330
7F7B
100
AcDbEntity
  8
Defpoints
  6
Continuous
 62
     0
440
 16777216
100
AcDbPoint
 10
38644.86366221093
 20
9343.046628007822
 30
0.0
  0
POINT
  5
816A
330
7F7B
100
AcDbEntity
  8
Defpoints
  6
Continuous
 62
     0
440
 16777216
100
AcDbPoint
 10
38619.86366221093
 20
9343.046628007822
 30
0.0
  0
POINT
  5
816B
330
7F7B
100
AcDbEntity
  8
Defpoints
  6
Continuous
 62
     0
440
 16777216
100
AcDbPoint
 10
38619.86366221093
 20
9564.672455979879
 30
0.0
  0
ENDBLK
  5
7F88
330
7F7B
100
AcDbEntity
  8
0
100
AcDbBlockEnd
  0
BLOCK
  5
7FB6
330
7FAC
100
AcDbEntity
  8
0
100
AcDbBlockBegin
  2
*D113
 70
     1
 10
0.0
 20
0.0
 30
0.0
  3
*D113
  1

  0
LINE
  5
810D
330
7FAC
100
AcDbEntity
  8
6d
  6
Continuous
 62
     0
440
 16777216
370
    -2
100
AcDbLine
 10
37934.59617626644
 20
9506.309529993654
 30
0.0
 11
37717.50009520455
 21
9506.309529993654
 31
0.0
  0
LINE
  5
810E
330
7FAC
100
AcDbEntity
  8
6d
  6
Continuous
 62
     0
440
 16777216
370
    -2
100
AcDbLine
 10
37942.09617626651
 20
9076.30952999365
 30
0.0
 11
37717.50009520455
 21
9076.30952999365
 31
0.0
  0
LINE
  5
810F
330
7FAC
100
AcDbEntity
  8
6d
  6
Continuous
 62
     0
440
 16777216
370
    -2
100
AcDbLine
 10
37718.75009520455
 20
9491.309529993655
 30
0.0
 11
37718.75009520455
 21
9091.309529993649
 31
0.0
  0
SOLID
  5
8110
330
7FAC
100
AcDbEntity
  8
6d
  6
Continuous
 62
     0
440
 16777216
100
AcDbTrace
 10
37716.25009520455
 20
9491.309529993655
 30
0.0
 11
37721.25009520455
 21
9491.309529993655
 31
0.0
 12
37718.75009520455
 22
9506.309529993654
 32
0.0
 13
37718.75009520455
 23
9506.309529993654
 33
0.0
  0
SOLID
  5
8111
330
7FAC
100
AcDbEntity
  8
6d
  6
Continuous
 62
     0
440
 16777216
100
AcDbTrace
 10
37716.25009520455
 20
9091.309529993649
 30
0.0
 11
37721.25009520455
 21
9091.309529993649
 31
0.0
 12
37718.75009520455
 22
9076.30952999365
 32
0.0
 13
37718.75009520455
 23
9076.30952999365
 33
0.0
  0
MTEXT
  5
8112
330
7FAC
100
AcDbEntity
  8
6d
  6
Continuous
 62
     0
440
 16777216
100
AcDbMText
 10
37698.75009520454
 20
9291.30952999364
 30
0.0
 40
30.0
 41
0.0
 46
0.0
 71
     5
 72
     1
  1
86{\Ftxt|c134; [3.4"]}
 11
0.0000000000000001
 21
1.0
 31
0.0
 73
     1
 44
1.0
  0
POINT
  5
8113
330
7FAC
100
AcDbEntity
  8
Defpoints
  6
Continuous
 62
     0
440
 16777216
100
AcDbPoint
 10
37935.59617626644
 20
9506.309529993654
 30
0.0
  0
POINT
  5
8114
330
7FAC
100
AcDbEntity
  8
Defpoints
  6
Continuous
 62
     0
440
 16777216
100
AcDbPoint
 10
37943.09617626651
 20
9076.30952999365
 30
0.0
  0
POINT
  5
8115
330
7FAC
100
AcDbEntity
  8
Defpoints
  6
Continuous
 62
     0
440
 16777216
100
AcDbPoint
 10
37718.75009520455
 20
9076.30952999365
 30
0.0
  0
ENDBLK
  5
7FB7
330
7FAC
100
AcDbEntity
  8
0
100
AcDbBlockEnd
  0
BLOCK
  5
800A
330
8000
100
AcDbEntity
  8
0
100
AcDbBlockBegin
  2
*D114
 70
     1
 10
0.0
 20
0.0
 30
0.0
  3
*D114
  1

  0
LINE
  5
83C3
330
8000
100
AcDbEntity
  8
6d
  6
Continuous
 62
     0
440
 16777216
370
    -2
100
AcDbLine
 10
39420.86366221096
 20
8469.941101586449
 30
0.0
 11
39580.01633092348
 21
8469.941101586449
 31
0.0
  0
LINE
  5
83C4
330
8000
100
AcDbEntity
  8
6d
  6
Continuous
 62
     0
440
 16777216
370
    -2
100
AcDbLine
 10
39420.86366221095
 20
8022.94110158645
 30
0.0
 11
39580.01633092348
 21
8022.94110158645
 31
0.0
  0
LINE
  5
83C5
330
8000
100
AcDbEntity
  8
6d
  6
Continuous
 62
     0
440
 16777216
370
    -2
100
AcDbLine
 10
39578.76633092348
 20
8454.941101586449
 30
0.0
 11
39578.76633092348
 21
8037.941101586451
 31
0.0
  0
MTEXT
  5
83C6
330
8000
100
AcDbEntity
  8
6d
  6
Continuous
 62
     0
440
 16777216
100
AcDbMText
 10
39533.76633092346
 20
8183.045620721834
 30
0.0
 40
30.0
 41
13.56559330067102
 46
0.0
 71
     5
 72
     1
  1
447{\Ftxt|c134; [17.6"]}
 11
0.0000000000000001
 21
1.0
 31
0.0
 73
     1
 44
1.0
  0
SOLID
  5
83C7
330
8000
100
AcDbEntity
  8
6d
  6
Continuous
 62
     0
440
 16777216
100
AcDbTrace
 10
39576.26633092348
 20
8454.941101586449
 30
0.0
 11
39581.26633092348
 21
8454.941101586449
 31
0.0
 12
39578.76633092348
 22
8469.941101586449
 32
0.0
 13
39578.76633092348
 23
8469.941101586449
 33
0.0
  0
SOLID
  5
83C8
330
8000
100
AcDbEntity
  8
6d
  6
Continuous
 62
     0
440
 16777216
100
AcDbTrace
 10
39576.26633092348
 20
8037.941101586451
 30
0.0
 11
39581.26633092348
 21
8037.941101586451
 31
0.0
 12
39578.76633092348
 22
8022.94110158645
 32
0.0
 13
39578.76633092348
 23
8022.94110158645
 33
0.0
  0
POINT
  5
83C9
330
8000
100
AcDbEntity
  8
Defpoints
  6
Continuous
 62
     0
440
 16777216
100
AcDbPoint
 10
39419.86366221096
 20
8469.941101586449
 30
0.0
  0
POINT
  5
83CA
330
8000
100
AcDbEntity
  8
Defpoints
  6
Continuous
 62
     0
440
 16777216
100
AcDbPoint
 10
39419.86366221095
 20
8022.94110158645
 30
0.0
  0
POINT
  5
83CB
330
8000
100
AcDbEntity
  8
Defpoints
  6
Continuous
 62
     0
440
 16777216
100
AcDbPoint
 10
39578.76633092348
 20
8022.94110158645
 30
0.0
  0
ENDBLK
  5
800B
330
8000
100
AcDbEntity
  8
0
100
AcDbBlockEnd
  0
BLOCK
  5
8016
330
800C
100
AcDbEntity
  8
0
100
AcDbBlockBegin
  2
*D115
 70
     1
 10
0.0
 20
0.0
 30
0.0
  3
*D115
  1

  0
LINE
  5
8380
330
800C
100
AcDbEntity
  8
6d
  6
Continuous
 62
     0
440
 16777216
370
    -2
100
AcDbLine
 10
39420.86366221096
 20
8469.941101586449
 30
0.0
 11
39580.01633092351
 21
8469.941101586449
 31
0.0
  0
LINE
  5
8381
330
800C
100
AcDbEntity
  8
6d
  6
Continuous
 62
     0
440
 16777216
370
    -2
100
AcDbLine
 10
39420.86366221096
 20
8555.94110158645
 30
0.0
 11
39580.01633092351
 21
8555.94110158645
 31
0.0
  0
LINE
  5
8382
330
800C
100
AcDbEntity
  8
6d
  6
Continuous
 62
     0
440
 16777216
370
    -2
100
AcDbLine
 10
39578.76633092351
 20
8484.94110158645
 30
0.0
 11
39578.76633092351
 21
8540.941101586451
 31
0.0
  0
MTEXT
  5
8383
330
800C
100
AcDbEntity
  8
6d
  6
Continuous
 62
     0
440
 16777216
100
AcDbMText
 10
39624.51907342429
 20
8516.169714013372
 30
0.0
 40
30.0
 41
9.689704146752774
 46
0.0
 71
     5
 72
     1
  1
86{\Ftxt|c134; [3.4"]}
 11
0.0000000000000001
 21
1.0
 31
0.0
 73
     1
 44
1.0
  0
SOLID
  5
8384
330
800C
100
AcDbEntity
  8
6d
  6
Continuous
 62
     0
440
 16777216
100
AcDbTrace
 10
39576.26633092351
 20
8484.94110158645
 30
0.0
 11
39581.26633092351
 21
8484.94110158645
 31
0.0
 12
39578.76633092351
 22
8469.941101586449
 32
0.0
 13
39578.76633092351
 23
8469.941101586449
 33
0.0
  0
SOLID
  5
8385
330
800C
100
AcDbEntity
  8
6d
  6
Continuous
 62
     0
440
 16777216
100
AcDbTrace
 10
39576.26633092351
 20
8540.941101586451
 30
0.0
 11
39581.26633092351
 21
8540.941101586451
 31
0.0
 12
39578.76633092351
 22
8555.94110158645
 32
0.0
 13
39578.76633092351
 23
8555.94110158645
 33
0.0
  0
POINT
  5
8386
330
800C
100
AcDbEntity
  8
Defpoints
  6
Continuous
 62
     0
440
 16777216
100
AcDbPoint
 10
39419.86366221096
 20
8469.941101586449
 30
0.0
  0
POINT
  5
8387
330
800C
100
AcDbEntity
  8
Defpoints
  6
Continuous
 62
     0
440
 16777216
100
AcDbPoint
 10
39419.86366221096
 20
8555.94110158645
 30
0.0
  0
POINT
  5
8388
330
800C
100
AcDbEntity
  8
Defpoints
  6
Continuous
 62
     0
440
 16777216
100
AcDbPoint
 10
39578.76633092351
 20
8555.94110158645
 30
0.0
  0
ENDBLK
  5
8017
330
800C
100
AcDbEntity
  8
0
100
AcDbBlockEnd
  0
BLOCK
  5
8080
330
8074
100
AcDbEntity
  8
0
100
AcDbBlockBegin
  2
*D116
 70
     1
 10
0.0
 20
0.0
 30
0.0
  3
*D116
  1

  0
LINE
  5
834D
330
8074
100
AcDbEntity
  8
6d
  6
Continuous
 62
     0
440
 16777216
370
    -2
100
AcDbLine
 10
39410.36366221093
 20
8283.654008421901
 30
0.0
 11
39410.36366221093
 21
8311.228377739039
 31
0.0
  0
LINE
  5
834E
330
8074
100
AcDbEntity
  8
6d
  6
Continuous
 62
     0
440
 16777216
370
    -2
100
AcDbLine
 10
39432.86366221093
 20
8283.654008421901
 30
0.0
 11
39432.86366221093
 21
8311.228377739039
 31
0.0
  0
LINE
  5
834F
330
8074
100
AcDbEntity
  8
6d
  6
Continuous
 62
     0
440
 16777216
370
    -2
100
AcDbLine
 10
39395.36366221093
 20
8309.978377739041
 30
0.0
 11
39380.36366221093
 21
8309.978377739041
 31
0.0
  0
LINE
  5
8350
330
8074
100
AcDbEntity
  8
6d
  6
Continuous
 62
     0
440
 16777216
370
    -2
100
AcDbLine
 10
39447.86366221094
 20
8309.978377739041
 30
0.0
 11
39567.86366221093
 21
8309.978377739041
 31
0.0
  0
LINE
  5
8351
330
8074
100
AcDbEntity
  8
6d
  6
Continuous
 62
     0
440
 16777216
370
    -2
100
AcDbLine
 10
39410.36366221093
 20
8309.978377739041
 30
0.0
 11
39432.86366221093
 21
8309.978377739041
 31
0.0
  0
SOLID
  5
8352
330
8074
100
AcDbEntity
  8
6d
  6
Continuous
 62
     0
440
 16777216
100
AcDbTrace
 10
39395.36366221093
 20
8312.47837773904
 30
0.0
 11
39395.36366221093
 21
8307.478377739041
 31
0.0
 12
39410.36366221093
 22
8309.978377739041
 32
0.0
 13
39410.36366221093
 23
8309.978377739041
 33
0.0
  0
SOLID
  5
8353
330
8074
100
AcDbEntity
  8
6d
  6
Continuous
 62
     0
440
 16777216
100
AcDbTrace
 10
39447.86366221094
 20
8312.47837773904
 30
0.0
 11
39447.86366221094
 21
8307.478377739041
 31
0.0
 12
39432.86366221093
 22
8309.978377739041
 32
0.0
 13
39432.86366221093
 23
8309.978377739041
 33
0.0
  0
MTEXT
  5
8354
330
8074
100
AcDbEntity
  8
6d
  6
Continuous
 62
     0
440
 16777216
100
AcDbMText
 10
39515.36366221093
 20
8354.97837773904
 30
0.0
 40
30.0
 41
25.19322328634007
 46
0.0
 71
     5
 72
     1
  1
22,5{\Ftxt|c134; [.9"]}
 73
     1
 44
1.0
  0
POINT
  5
8355
330
8074
100
AcDbEntity
  8
Defpoints
  6
Continuous
 62
     0
440
 16777216
100
AcDbPoint
 10
39410.36366221093
 20
8282.654008421902
 30
0.0
  0
POINT
  5
8356
330
8074
100
AcDbEntity
  8
Defpoints
  6
Continuous
 62
     0
440
 16777216
100
AcDbPoint
 10
39432.86366221093
 20
8282.654008421902
 30
0.0
  0
POINT
  5
8357
330
8074
100
AcDbEntity
  8
Defpoints
  6
Continuous
 62
     0
440
 16777216
100
AcDbPoint
 10
39432.86366221093
 20
8309.978377739041
 30
0.0
  0
ENDBLK
  5
8081
330
8074
100
AcDbEntity
  8
0
100
AcDbBlockEnd
  0
ENDSEC
  0
SECTION
  2
ENTITIES
  0
MTEXT
  5
4882
330
1F
100
AcDbEntity
  8
图层1
  6
Continuous
100
AcDbMText
 10
26175.61430357125
 20
4887.637278792645
 30
0.0
 40
3.0
 41
0.0
 46
0.0
 71
     1
 72
     1
  1

 73
     1
 44
1.0
  0
DIMENSION
  5
78A5
102
{ACAD_XDICTIONARY
360
78A6
102
}
102
{ACAD_REACTORS
330
78A7
102
}
330
1F
100
AcDbEntity
  8
6d
  6
Continuous
 62
     0
100
AcDbDimension
280
     0
  2
*D90
 10
38892.67566112808
 20
9139.046628007825
 30
0.0
 11
38872.67566112807
 21
9014.046628007813
 31
0.0
 70
    32
  1
<>{\Ftxt|c134; [.24"]}
 71
     5
 42
6.0
 73
     0
 74
     0
 75
     0
  3
ISO-25
100
AcDbAlignedDimension
 13
38993.90267038666
 23
9145.046628007822
 33
0.0
 14
38995.98430314569
 24
9139.046628007822
 34
0.0
 50
90.0
100
AcDbRotatedDimension
1001
ACAD
1000
DSTYLE
1002
{
1070
    41
1040
15.0
1070
   140
1040
30.0
1070
   141
1040
0.5
1070
   179
1070
     2
1002
}
  0
DIMENSION
  5
78A8
102
{ACAD_XDICTIONARY
360
78A9
102
}
102
{ACAD_REACTORS
330
78AA
102
}
330
1F
100
AcDbEntity
  8
6d
  6
Continuous
 62
     0
100
AcDbDimension
280
     0
  2
*D89
 10
38949.98075801461
 20
9142.046628007825
 30
0.0
 11
38929.9807580146
 21
9022.046628007812
 31
0.0
 70
    32
  1
<>{\Ftxt|c134; [.12"]}
 71
     5
 42
3.0
 73
     0
 74
     0
 75
     0
  3
ISO-25
100
AcDbAlignedDimension
 13
38988.97737421697
 23
9145.046628007822
 33
0.0
 14
38988.97737421696
 24
9142.046628007822
 34
0.0
 50
90.0
100
AcDbRotatedDimension
1001
ACAD
1000
DSTYLE
1002
{
1070
    41
1040
15.0
1070
   140
1040
30.0
1070
   141
1040
0.5
1070
   179
1070
     2
1002
}
  0
DIMENSION
  5
78AB
102
{ACAD_XDICTIONARY
360
78AC
102
}
102
{ACAD_REACTORS
330
78AD
102
}
330
1F
100
AcDbEntity
  8
6d
  6
Continuous
 62
     0
100
AcDbDimension
280
     0
  2
*D88
 10
39098.86366221094
 20
9266.069498698765
 30
0.0
 11
39246.36366221094
 21
9286.069498698765
 31
0.0
 70
    32
  1
%%C<>{\Ftxt|c134; [4.7"]}
 71
     5
 42
120.0000000000145
 73
     0
 74
     0
 75
     0
  3
ISO-25
100
AcDbAlignedDimension
 13
38978.86366221093
 23
9145.046628007822
 33
0.0
 14
39098.86366221094
 24
9145.046628007822
 34
0.0
100
AcDbRotatedDimension
1001
ACAD
1000
DSTYLE
1002
{
1070
    41
1040
15.0
1070
   140
1040
30.0
1070
   141
1040
0.5
1070
   179
1070
     2
1002
}
  0
DIMENSION
  5
78AE
102
{ACAD_XDICTIONARY
360
78AF
102
}
102
{ACAD_REACTORS
330
78B0
102
}
330
1F
100
AcDbEntity
  8
6d
  6
Continuous
 62
     0
100
AcDbDimension
280
     0
  2
*D87
 10
39095.86366221094
 20
9202.931315504484
 30
0.0
 11
39240.86366221094
 21
9222.931315504483
 31
0.0
 70
    32
  1
%%C{\Ftxt|c134;114 [4.5"]}
 71
     5
 42
114.0000000000072
 73
     0
 74
     0
 75
     0
  3
ISO-25
100
AcDbAlignedDimension
 13
38981.86366221093
 23
9142.046628007822
 33
0.0
 14
39095.86366221094
 24
9142.046628007822
 34
0.0
100
AcDbRotatedDimension
1001
ACAD
1000
DSTYLE
1002
{
1070
    41
1040
15.0
1070
   140
1040
30.0
1070
   141
1040
0.5
1070
   179
1070
     2
1002
}
  0
DIMENSION
  5
78B1
102
{ACAD_XDICTIONARY
360
78B2
102
}
102
{ACAD_REACTORS
330
78B3
102
}
330
1F
100
AcDbEntity
  8
6d
  6
Continuous
 62
     0
100
AcDbDimension
280
     0
  2
*D86
 10
39083.86366221094
 20
9050.171405989543
 30
0.0
 11
39221.36366221094
 21
9070.171405989542
 31
0.0
 70
    32
  1
%%C<>{\Ftxt|c134; [3.5"]}
 71
     5
 42
90.00000000000728
 73
     0
 74
     0
 75
     0
  3
ISO-25
100
AcDbAlignedDimension
 13
38993.86366221094
 23
9139.046628007822
 33
0.0
 14
39083.86366221094
 24
9139.046628007822
 34
0.0
100
AcDbRotatedDimension
1001
ACAD
1000
DSTYLE
1002
{
1070
    41
1040
15.0
1070
   140
1040
30.0
1070
   141
1040
0.5
1070
   179
1070
     2
1002
}
  0
DIMENSION
  5
78B4
102
{ACAD_XDICTIONARY
360
78B5
102
}
102
{ACAD_REACTORS
330
78B6
102
}
330
1F
100
AcDbEntity
  8
6d
  6
Continuous
 62
     0
100
AcDbDimension
280
     0
  2
*D85
 10
37861.01780642159
 20
9481.309529993653
 30
0.0
 11
37841.01780642158
 21
9371.309529993641
 31
0.0
 70
    32
  1
5{\Ftxt|c134; [.2"]}
 71
     5
 42
25.0
 73
     0
 74
     0
 75
     0
  3
ISO-25
100
AcDbAlignedDimension
 13
37990.09570801505
 23
9506.30952999365
 33
0.0
 14
37965.09570801505
 24
9481.30952999365
 34
0.0
 50
90.0
100
AcDbRotatedDimension
1001
ACAD
1000
DSTYLE
1002
{
1070
    41
1040
15.0
1070
   140
1040
30.0
1070
   141
1040
0.5
1070
   179
1070
     2
1002
}
  0
DIMENSION
  5
78B7
102
{ACAD_XDICTIONARY
360
78B8
102
}
102
{ACAD_REACTORS
330
78B9
102
}
330
1F
100
AcDbEntity
  8
6d
  6
Continuous
 62
     0
100
AcDbDimension
280
     0
  2
*D84
 10
37990.09570801505
 20
9553.952699903176
 30
0.0
 11
38100.09570801505
 21
9573.952699903177
 31
0.0
 70
    32
  1
5{\Ftxt|c134; [.2"]}
 71
     5
 42
24.99999999999273
 73
     0
 74
     0
 75
     0
  3
ISO-25
100
AcDbAlignedDimension
 13
37965.09570801505
 23
9481.309529993671
 33
0.0
 14
37990.09570801505
 24
9506.309529993663
 34
0.0
100
AcDbRotatedDimension
1001
ACAD
1000
DSTYLE
1002
{
1070
    41
1040
15.0
1070
   140
1040
30.0
1070
   141
1040
0.5
1070
   179
1070
     2
1002
}
  0
DIMENSION
  5
78BB
330
1F
100
AcDbEntity
  8
6d
  6
Continuous
 62
     0
100
AcDbDimension
280
     0
  2
*D74
 10
37975.09570801502
 20
8989.105325086345
 30
0.0
 11
37855.09570801502
 21
9009.105325086343
 31
0.0
 70
    32
  1
3{\Ftxt|c134; [.12"]}
 71
     5
 42
15.00000000014552
 73
     0
 74
     0
 75
     0
  3
ISO-25
100
AcDbAlignedDimension
 13
37990.09570801517
 23
9076.309529993679
 33
0.0
 14
37975.09570801502
 24
9088.809529993648
 34
0.0
100
AcDbRotatedDimension
1001
ACAD
1000
DSTYLE
1002
{
1070
    41
1040
15.0
1070
   140
1040
30.0
1070
   141
1040
0.5
1070
   179
1070
     2
1002
}
  0
DIMENSION
  5
78BC
102
{ACAD_XDICTIONARY
360
78BD
102
}
102
{ACAD_REACTORS
330
78BE
102
}
330
1F
100
AcDbEntity
  8
6d
  6
Continuous
 62
     0
100
AcDbDimension
280
     0
  2
*D83
 10
37898.34664451786
 20
9088.809529993651
 30
0.0
 11
37853.34664451786
 21
9163.80952999364
 31
0.0
 70
    32
  1
2.5{\Ftxt|c134; [.1"]}
 71
     5
 42
12.50000000000182
 73
     0
 74
     0
 75
     0
  3
ISO-25
100
AcDbAlignedDimension
 13
37990.09570801517
 23
9076.309529993647
 33
0.0
 14
37975.09570801502
 24
9088.809529993648
 34
0.0
 50
90.0
100
AcDbRotatedDimension
1001
ACAD
1000
DSTYLE
1002
{
1070
    41
1040
15.0
1070
   140
1040
30.0
1070
   141
1040
0.5
1070
   179
1070
     2
1002
}
  0
DIMENSION
  5
78C2
102
{ACAD_XDICTIONARY
360
78C3
102
}
102
{ACAD_REACTORS
330
78C4
102
}
330
1F
100
AcDbEntity
  8
6d
  6
Continuous
 62
     0
100
AcDbDimension
280
     0
  2
*D107
 10
37965.09570801505
 20
9382.285885500373
 30
0.0
 11
37920.09570801506
 21
9402.285885500372
 31
0.0
 70
    32
  1
2
 71
     5
 42
9.99999999996362
 73
     0
 74
     0
 75
     0
  3
ISO-25
100
AcDbAlignedDimension
 13
37975.09570801502
 23
9396.309529993667
 33
0.0
 14
37965.09570801505
 24
9396.309529993665
 34
0.0
100
AcDbRotatedDimension
1001
ACAD
1000
DSTYLE
1002
{
1070
    41
1040
15.0
1070
   140
1040
30.0
1070
   141
1040
0.5
1070
   179
1070
     2
1002
}
  0
SPLINE
  5
78C5
330
1F
100
AcDbEntity
  8
6d
  6
Continuous
 62
     0
100
AcDbSpline
210
0.0
220
0.0
230
1.0
 70
  1064
 71
     3
 72
    11
 73
     7
 74
     5
 42
0.000000001
 43
0.0000000001
 44
0.0000000001
 40
0.0
 40
0.0
 40
0.0
 40
0.0
 40
105.3450167659297
 40
148.3463788008424
 40
240.0532616140405
 40
318.3441836620474
 40
318.3441836620474
 40
318.3441836620474
 40
318.3441836620474
 10
37866.77842353693
 20
8904.469774206473
 30
0.0
 10
37896.01900499314
 20
8890.113821489318
 30
0.0
 10
37937.19546028479
 20
8869.897833441603
 30
0.0
 10
38037.82702343541
 20
8853.984783447209
 30
0.0
 10
37982.61769556464
 20
8986.097348551881
 30
0.0
 10
38057.55128373974
 20
8966.975213314546
 30
0.0
 10
38092.06125706194
 20
8958.168690192202
 30
0.0
 11
37866.77842353693
 21
8904.469774206473
 31
0.0
 11
37965.09570801505
 21
8866.637458254889
 31
0.0
 11
38008.09707004997
 21
8866.637458254889
 31
0.0
 11
38013.77033501394
 21
8958.168690192202
 31
0.0
 11
38092.06125706194
 21
8958.168690192202
 31
0.0
  0
MTEXT
  5
78C6
102
{ACAD_REACTORS
330
78C7
102
}
330
1F
100
AcDbEntity
  8
6d
  6
Continuous
 62
     0
100
AcDbMText
 10
38139.88557201401
 20
8600.590589497839
 30
0.0
 40
30.0
 41
0.0
 46
0.0
 71
     1
 72
     1
  1
I
 73
     1
 44
1.0
  0
LEADER
  5
78C7
330
1F
100
AcDbEntity
  8
6d
  6
Continuous
 62
     0
100
AcDbLeader
  3
ISO-25
 73
     0
 74
     0
 75
     1
 40
30.0
 41
10.0
 76
     3
 10
38077.8037750158
 20
8511.585039609174
 30
0.0
 10
38119.88557201401
 20
8585.590589497838
 30
0.0
 10
38134.88557201401
 20
8585.590589497838
 30
0.0
340
78C6
213
0.0
223
-15.0
233
0.0
1001
ACAD
1000
DSTYLE
1002
{
1070
   147
1040
5.0
1070
    77
1070
     0
1070
    41
1040
15.0
1070
   140
1040
30.0
1070
   141
1040
0.5
1070
   179
1070
     2
1002
}
  0
CIRCLE
  5
78C8
330
1F
100
AcDbEntity
  8
6d
  6
Continuous
 62
     0
100
AcDbCircle
 10
38047.56495330247
 20
8501.993326610117
 30
0.0
 40
68.3209839631636
  0
LINE
  5
78C9
102
{ACAD_REACTORS
330
78BE
102
}
330
1F
100
AcDbEntity
  8
6下模
  6
Continuous
 62
     0
100
AcDbLine
 10
37990.09570801516
 20
8862.748299023586
 30
0.0
 11
37990.09570801517
 21
9076.309529993647
 31
0.0
  0
LINE
  5
78CA
102
{ACAD_REACTORS
330
78C4
330
78B9
102
}
330
1F
100
AcDbEntity
  8
6下模
  6
Continuous
 62
     0
100
AcDbLine
 10
37965.09570801505
 20
8866.637458254874
 30
0.0
 11
37965.09570801505
 21
9481.309529993671
 31
0.0
  0
LINE
  5
78CB
330
1F
100
AcDbEntity
  8
6下模
  6
Continuous
 62
     0
100
AcDbLine
 10
37994.33834870217
 20
9502.066889306535
 30
0.0
 11
37994.33834870217
 21
9474.809529993653
 31
0.0
  0
LINE
  5
78CC
102
{ACAD_REACTORS
330
78B6
102
}
330
1F
100
AcDbEntity
  8
6下模
  6
Continuous
 62
     0
100
AcDbLine
 10
37990.09570801505
 20
9506.30952999365
 30
0.0
 11
37965.09570801505
 21
9481.30952999365
 31
0.0
  0
LINE
  5
78CD
330
1F
100
AcDbEntity
  8
6下模
  6
Continuous
 62
     0
100
AcDbLine
 10
37965.09570801505
 20
9481.30952999365
 30
0.0
 11
37965.09570801505
 21
9406.30952999365
 31
0.0
  0
LINE
  5
78CE
102
{ACAD_REACTORS
330
78C4
330
7E18
102
}
330
1F
100
AcDbEntity
  8
6下模
  6
Continuous
 62
     0
100
AcDbLine
 10
37965.09570801505
 20
9406.30952999365
 30
0.0
 11
37975.09570801502
 21
9396.309529993667
 31
0.0
  0
LINE
  5
78CF
330
1F
100
AcDbEntity
  8
6下模
  6
Continuous
 62
     0
100
AcDbLine
 10
37994.33834870217
 20
9502.066889306535
 30
0.0
 11
37971.09570801504
 21
9478.824248619403
 31
0.0
  0
LINE
  5
78D0
330
1F
100
AcDbEntity
  8
6下模
  6
Continuous
 62
     0
100
AcDbLine
 10
37971.09570801504
 20
9478.824248619403
 30
0.0
 11
37971.09570801504
 21
9408.794811367862
 31
0.0
  0
LINE
  5
78D1
330
1F
100
AcDbEntity
  8
6下模
  6
Continuous
 62
     0
100
AcDbLine
 10
37971.09570801504
 20
9408.794811367862
 30
0.0
 11
37981.09570801504
 21
9398.794811367835
 31
0.0
  0
LINE
  5
78D2
102
{ACAD_REACTORS
330
78B9
102
}
330
1F
100
AcDbEntity
  8
6下模
  6
Continuous
 62
     0
100
AcDbLine
 10
37990.09570801505
 20
9506.30952999365
 30
0.0
 11
37994.33834870217
 21
9502.066889306535
 31
0.0
  0
ARC
  5
78D3
330
1F
100
AcDbEntity
  8
6下模
  6
Continuous
 62
     0
100
AcDbCircle
 10
38015.09570801506
 20
8977.12240714714
 30
0.0
 40
25.0
100
AcDbArc
 50
180.0000000000833
 51
266.0000000000535
  0
LINE
  5
78D4
330
1F
100
AcDbEntity
  8
6下模
  6
Continuous
 62
     0
100
AcDbLine
 10
37990.09570801505
 20
8956.774866596845
 30
0.0
 11
37990.09570801505
 21
8953.809529993579
 31
0.0
  0
LINE
  5
78D5
330
1F
100
AcDbEntity
  8
6下模
  6
Continuous
 62
     0
100
AcDbLine
 10
37990.09570801505
 20
8953.809529993579
 30
0.0
 11
37993.3914053488
 21
8953.809529993579
 31
0.0
  0
ARC
  5
78D6
330
1F
100
AcDbEntity
  8
6下模
  6
Continuous
 62
     0
100
AcDbCircle
 10
38015.09570801506
 20
8977.12240714714
 30
0.0
 40
19.0
100
AcDbArc
 50
180.0000000000833
 51
266.0000000000535
  0
LINE
  5
78D7
102
{ACAD_REACTORS
330
78BE
102
}
330
1F
100
AcDbEntity
  8
6下模
  6
Continuous
 62
     0
100
AcDbLine
 10
37975.09570801502
 20
9088.809529993648
 30
0.0
 11
37975.09570801502
 21
9396.309529993667
 31
0.0
  0
LINE
  5
78D8
330
1F
100
AcDbEntity
  8
6下模
  6
Continuous
 62
     0
100
AcDbLine
 10
37975.09570801509
 20
9331.309529993651
 30
0.0
 11
37981.09570801508
 21
9331.309529993651
 31
0.0
  0
LINE
  5
78D9
330
1F
100
AcDbEntity
  8
6下模
  6
Continuous
 62
     0
100
AcDbLine
 10
37975.09570801509
 20
9141.309529993653
 30
0.0
 11
37981.09570801508
 21
9141.309529993653
 31
0.0
  0
LINE
  5
78DA
330
1F
100
AcDbEntity
  8
6下模
  6
Continuous
 62
     0
100
AcDbLine
 10
37981.095708015
 20
9091.619779669567
 30
0.0
 11
37981.09570801504
 21
9398.794811367835
 31
0.0
  0
LINE
  5
78DB
330
1F
100
AcDbEntity
  8
6下模
  6
Continuous
 62
     0
100
AcDbLine
 10
37975.09570801502
 20
9088.809529993648
 30
0.0
 11
37990.0957080152
 21
9076.309529993649
 31
0.0
  0
LINE
  5
78DC
330
1F
100
AcDbEntity
  8
6下模
  6
Continuous
 62
     0
100
AcDbLine
 10
37981.095708015
 20
9091.619779669567
 30
0.0
 11
37996.09570801515
 21
9079.119779669554
 31
0.0
  0
LINE
  5
78DD
330
1F
100
AcDbEntity
  8
6下模
  6
Continuous
 62
     0
100
AcDbLine
 10
37996.09570801519
 20
8977.12240714714
 30
0.0
 11
37996.09570801515
 21
9079.119779669554
 31
0.0
  0
DIMENSION
  5
78E1
102
{ACAD_XDICTIONARY
360
78E2
102
}
102
{ACAD_REACTORS
330
78E3
102
}
330
1F
100
AcDbEntity
  8
6d
  6
Continuous
 62
     0
100
AcDbDimension
280
     0
  2
*D106
 10
37999.5303061498
 20
8469.941101586449
 30
0.0
 11
37977.03030614979
 21
8342.441101586437
 31
0.0
 70
    32
  1
<>{\Ftxt|c134; [.1"]}
 71
     5
 42
2.5
 73
     0
 74
     0
 75
     0
  3
ISO-25
100
AcDbAlignedDimension
 13
38039.31871080073
 23
8472.441101586445
 33
0.0
 14
38042.31871080076
 24
8469.941101586448
 34
0.0
 50
90.0
100
AcDbRotatedDimension
1001
ACAD
1000
DSTYLE
1002
{
1070
    41
1040
15.0
1070
   140
1040
30.0
1070
   141
1040
0.5
1070
   179
1070
     2
1002
}
  0
DIMENSION
  5
78E4
330
1F
100
AcDbEntity
  8
6d
  6
Continuous
 62
     0
100
AcDbDimension
280
     0
  2
*D78
 10
37962.74600175011
 20
8535.94110158645
 30
0.0
 11
37942.7460017501
 21
8658.441101586438
 31
0.0
 70
    32
  1
<>{\Ftxt|c134; [.08"]}
 71
     5
 42
1.999999999996362
 73
     0
 74
     0
 75
     0
  3
ISO-25
100
AcDbAlignedDimension
 13
38039.31871080073
 23
8533.941101586449
 33
0.0
 14
38037.31871080074
 24
8535.941101586447
 34
0.0
 50
90.0
100
AcDbRotatedDimension
1001
ACAD
1000
DSTYLE
1002
{
1070
    41
1040
15.0
1070
   140
1040
30.0
1070
   141
1040
0.5
1070
   179
1070
     2
1002
}
  0
DIMENSION
  5
78E5
102
{ACAD_XDICTIONARY
360
78E6
102
}
102
{ACAD_REACTORS
330
78E7
102
}
330
1F
100
AcDbEntity
  8
6d
  6
Continuous
 62
     0
100
AcDbDimension
280
     0
  2
*D105
 10
38037.31871080074
 20
8546.182659072819
 30
0.0
 11
37992.31871080074
 21
8566.18265907282
 31
0.0
 70
    32
 71
     5
 42
1.999999999992724
 73
     0
 74
     0
 75
     0
  3
ISO-25
100
AcDbAlignedDimension
 13
38039.31871080073
 23
8533.941101586449
 33
0.0
 14
38037.31871080074
 24
8535.941101586447
 34
0.0
100
AcDbRotatedDimension
1001
ACAD
1000
DSTYLE
1002
{
1070
    41
1040
15.0
1070
   140
1040
30.0
1070
   141
1040
0.5
1070
   179
1070
     2
1002
}
  0
DIMENSION
  5
78E8
102
{ACAD_XDICTIONARY
360
78E9
102
}
102
{ACAD_REACTORS
330
78EA
102
}
330
1F
100
AcDbEntity
  8
6d
  6
Continuous
 62
     0
100
AcDbDimension
280
     0
  2
*D104
 10
37926.54515591786
 20
8482.941101586449
 30
0.0
 11
37906.54515591786
 21
8332.941101586436
 31
0.0
 70
    32
  1
%%C<>{\Ftxt|c134; [1.5"]}
 71
     5
 42
38.0
 73
     0
 74
     0
 75
     0
  3
ISO-25
100
AcDbAlignedDimension
 13
38039.31871080075
 23
8520.941101586446
 33
0.0
 14
38039.31871080073
 24
8482.941101586446
 34
0.0
 50
90.0
100
AcDbRotatedDimension
1001
ACAD
1000
DSTYLE
1002
{
1070
    41
1040
15.0
1070
   140
1040
30.0
1070
   141
1040
0.5
1070
   179
1070
     2
1002
}
  0
DIMENSION
  5
78EB
330
1F
100
AcDbEntity
  8
6d
  6
Continuous
 62
     0
100
AcDbDimension
280
     0
  2
*D103
 10
38496.45704884569
 20
9145.046628007825
 30
0.0
 11
38496.45704884568
 21
9248.626877905138
 31
0.0
 70
   160
  1
<>{\Ftxt|c134; [8"]}
 71
     5
 42
203.0
 73
     0
 74
     0
 75
     0
  3
ISO-25
100
AcDbAlignedDimension
 13
38602.89287019868
 23
9348.046628007821
 33
0.0
 14
38989.73709253676
 24
9145.046628007822
 34
0.0
 50
90.0
100
AcDbRotatedDimension
1001
ACAD
1000
DSTYLE
1002
{
1070
    41
1040
15.0
1070
   140
1040
30.0
1070
   141
1040
0.5
1070
   179
1070
     2
1002
}
  0
DIMENSION
  5
78F1
330
1F
100
AcDbEntity
  8
6d
  6
Continuous
 62
     0
100
AcDbDimension
280
     0
  2
*D102
 10
38662.70108678023
 20
9338.046628007816
 30
0.0
 11
38741.26788868774
 21
9443.532445244201
 31
0.0
 70
    36
  1
<>{\Ftxt|c134; [.2"]}
 71
     5
 42
5.000000000007275
 73
     0
 74
     0
 75
     0
  3
ISO-25
100
AcDbRadialDimension
 15
38666.26276325212
 25
9341.555824598165
 35
0.0
 40
0.0
1001
ACAD
1000
DSTYLE
1002
{
1070
    41
1040
15.0
1070
   140
1040
30.0
1070
   141
1040
0.5
1070
   179
1070
     2
1070
   288
1070
     1
1002
}
  0
DIMENSION
  5
78F4
102
{ACAD_XDICTIONARY
360
78F5
102
}
102
{ACAD_REACTORS
330
78F6
102
}
330
1F
100
AcDbEntity
  8
6d
  6
Continuous
 62
     0
100
AcDbDimension
280
     0
  2
*D101
 10
38619.86366221093
 20
9641.399099275409
 30
0.0
 11
38462.36366221093
 21
9663.899099275409
 31
0.0
 70
    32
  1
<>{\Ftxt|c134; [1.87"]}
 71
     5
 42
47.50000000001455
 73
     0
 74
     0
 75
     0
  3
ISO-25
100
AcDbAlignedDimension
 13
38667.36366221094
 23
9343.046628007822
 33
0.0
 14
38619.86366221093
 24
9359.436386766542
 34
0.0
100
AcDbRotatedDimension
1001
ACAD
1000
DSTYLE
1002
{
1070
    41
1040
15.0
1070
   140
1040
30.0
1070
   141
1040
0.5
1070
   179
1070
     2
1002
}
  0
DIMENSION
  5
78F7
102
{ACAD_XDICTIONARY
360
78F8
102
}
102
{ACAD_REACTORS
330
78F9
102
}
330
1F
100
AcDbEntity
  8
6d
  6
Continuous
 62
     0
100
AcDbDimension
280
     0
  2
*D100
 10
38619.86366221093
 20
9464.912615132583
 30
0.0
 11
38497.36366221092
 21
9484.912615132584
 31
0.0
 70
    32
  1
<>{\Ftxt|c134; [.8"]}
 71
     5
 42
20.0
 73
     0
 74
     0
 75
     0
  3
ISO-25
100
AcDbAlignedDimension
 13
38639.86366221093
 23
9348.046628007821
 33
0.0
 14
38619.86366221093
 24
9353.796601768394
 34
0.0
100
AcDbRotatedDimension
1001
ACAD
1000
DSTYLE
1002
{
1070
    41
1040
15.0
1070
   140
1040
30.0
1070
   141
1040
0.5
1070
   179
1070
     2
1002
}
  0
DIMENSION
  5
78FA
330
1F
100
AcDbEntity
  8
6d
  6
Continuous
 62
     0
100
AcDbDimension
280
     0
  2
*D77
 10
38619.86366221093
 20
9392.614321356742
 30
0.0
 11
38509.86366221093
 21
9412.614321356741
 31
0.0
 70
    32
  1
<>{\Ftxt|c134; [.2"]}
 71
     5
 42
5.0
 73
     0
 74
     0
 75
     0
  3
ISO-25
100
AcDbAlignedDimension
 13
38624.86366221093
 23
9348.046628007821
 33
0.0
 14
38619.86366221093
 24
9343.046628007824
 34
0.0
100
AcDbRotatedDimension
1001
ACAD
1000
DSTYLE
1002
{
1070
    41
1040
15.0
1070
   140
1040
30.0
1070
   141
1040
0.5
1070
   179
1070
     2
1002
}
  0
DIMENSION
  5
78FB
102
{ACAD_XDICTIONARY
360
78FC
102
}
102
{ACAD_REACTORS
330
78FD
102
}
330
1F
100
AcDbEntity
  8
6d
  6
Continuous
 62
     0
100
AcDbDimension
280
     0
  2
*D99
 10
38575.67207818646
 20
9343.046628007829
 30
0.0
 11
38555.67207818645
 21
9233.046628007818
 31
0.0
 70
    32
  1
<>{\Ftxt|c134; [.2"]}
 71
     5
 42
4.999999999996362
 73
     0
 74
     0
 75
     0
  3
ISO-25
100
AcDbAlignedDimension
 13
38624.86366221093
 23
9348.046628007821
 33
0.0
 14
38619.86366221093
 24
9343.046628007824
 34
0.0
 50
90.0
100
AcDbRotatedDimension
1001
ACAD
1000
DSTYLE
1002
{
1070
    41
1040
15.0
1070
   140
1040
30.0
1070
   141
1040
0.5
1070
   179
1070
     2
1002
}
  0
DIMENSION
  5
78FE
102
{ACAD_XDICTIONARY
360
78FF
102
}
102
{ACAD_REACTORS
330
7900
102
}
330
1F
100
AcDbEntity
  8
6d
  6
Continuous
 62
     0
100
AcDbDimension
280
     0
  2
*D98
 10
39419.86366221093
 20
8456.941101586386
 30
0.0
 11
39333.03347862633
 21
8358.146228018993
 31
0.0
 70
   164
  1
<>{\Ftxt|c134; [.5"]}
 71
     5
 42
13.00000000007276
 73
     0
 74
     0
 75
     0
  3
ISO-25
100
AcDbRadialDimension
 15
39428.4457346696
 25
8466.705733290453
 35
0.0
 40
0.0
1001
ACAD
1000
DSTYLE
1002
{
1070
    41
1040
15.0
1070
   140
1040
30.0
1070
   141
1040
0.5
1070
   179
1070
     2
1070
   279
1070
     1
1070
   288
1070
     1
1002
}
  0
DIMENSION
  5
7901
102
{ACAD_XDICTIONARY
360
7902
102
}
102
{ACAD_REACTORS
330
7903
102
}
330
1F
100
AcDbEntity
  8
6d
  6
Continuous
 62
     0
100
AcDbDimension
280
     0
  2
*D97
 10
38743.36366221093
 20
8121.441101586437
 30
0.0
 11
38789.60258600366
 21
8158.087546522997
 31
0.0
 70
   164
  1
<>{\Ftxt|c134; [3"]}
 71
     5
 42
76.00000000000727
 73
     0
 74
     0
 75
     0
  3
ISO-25
100
AcDbRadialDimension
 15
38683.80165868129
 25
8074.235511498649
 35
0.0
 40
0.0
1001
ACAD
1000
DSTYLE
1002
{
1070
    41
1040
15.0
1070
   140
1040
30.0
1070
   141
1040
0.5
1070
   179
1070
     2
1070
   288
1070
     1
1002
}
  0
DIMENSION
  5
7904
102
{ACAD_XDICTIONARY
360
7905
102
}
102
{ACAD_REACTORS
330
7906
102
}
330
1F
100
AcDbEntity
  8
6d
  6
Continuous
 62
     0
100
AcDbDimension
280
     0
  2
*D96
 10
38948.04939068189
 20
8517.299469942962
 30
0.0
 11
38821.20284754153
 21
8377.106907753157
 31
0.0
 70
    35
  1
<>{\Ftxt|c134; [1.5"]}
 71
     5
 42
38.00000000000364
 73
     0
 74
     0
 75
     0
  3
ISO-25
100
AcDbDiametricDimension
 15
38925.67793374001
 25
8486.582733229928
 35
0.0
 40
0.0
1001
ACAD
1000
DSTYLE
1002
{
1070
    41
1040
15.0
1070
   140
1040
30.0
1070
   141
1040
0.5
1070
   179
1070
     2
1070
   288
1070
     1
1002
}
  0
DIMENSION
  5
7907
102
{ACAD_XDICTIONARY
360
7908
102
}
102
{ACAD_REACTORS
330
7909
102
}
330
1F
100
AcDbEntity
  8
6d
  6
Continuous
 62
     0
100
AcDbDimension
280
     0
  2
*D95
 10
39242.86366221093
 20
8588.674267554292
 30
0.0
 11
39140.86366221093
 21
8633.674267554292
 31
0.0
 70
    32
  1
<>{\Ftxt|c134; [8"]}
 71
     5
 42
204.0
 73
     0
 74
     0
 75
     0
  3
ISO-25
100
AcDbAlignedDimension
 13
39038.86366221093
 23
8501.941101586446
 33
0.0
 14
39242.86366221093
 24
8501.941101586446
 34
0.0
100
AcDbRotatedDimension
1001
ACAD
1000
DSTYLE
1002
{
1070
    41
1040
15.0
1070
   140
1040
30.0
1070
   141
1040
0.5
1070
   179
1070
     2
1002
}
  0
DIMENSION
  5
790A
102
{ACAD_XDICTIONARY
360
790B
102
}
102
{ACAD_REACTORS
330
790C
102
}
330
1F
100
AcDbEntity
  8
6d
  6
Continuous
 62
     0
100
AcDbDimension
280
     0
  2
*D94
 10
38936.86366221094
 20
8588.674267554292
 30
0.0
 11
38987.86366221093
 21
8633.674267554292
 31
0.0
 70
    32
  1
<>{\Ftxt|c134; [4"]}
 71
     5
 42
102.0
 73
     0
 74
     0
 75
     0
  3
ISO-25
100
AcDbAlignedDimension
 13
39038.86366221093
 23
8555.941101586446
 33
0.0
 14
38936.86366221094
 24
8501.941101586446
 34
0.0
100
AcDbRotatedDimension
1001
ACAD
1000
DSTYLE
1002
{
1070
    41
1040
15.0
1070
   140
1040
30.0
1070
   141
1040
0.5
1070
   179
1070
     2
1002
}
  0
DIMENSION
  5
790D
102
{ACAD_XDICTIONARY
360
790E
102
}
102
{ACAD_REACTORS
330
790F
102
}
330
1F
100
AcDbEntity
  8
6d
  6
Continuous
 62
     0
100
AcDbDimension
280
     0
  2
*D93
 10
39329.06841719397
 20
8555.94110158645
 30
0.0
 11
39309.06841719396
 21
8660.941101586436
 31
0.0
 70
    32
  1
<>{\Ftxt|c134; [2"]}
 71
     5
 42
54.0
 73
     0
 74
     0
 75
     0
  3
ISO-25
100
AcDbAlignedDimension
 13
39261.86366221093
 23
8501.941101586446
 33
0.0
 14
39261.86366221093
 24
8555.941101586446
 34
0.0
 50
90.0
100
AcDbRotatedDimension
1001
ACAD
1000
DSTYLE
1002
{
1070
    41
1040
15.0
1070
   140
1040
30.0
1070
   141
1040
0.5
1070
   179
1070
     2
1002
}
  0
DIMENSION
  5
7910
102
{ACAD_XDICTIONARY
360
7911
102
}
102
{ACAD_REACTORS
330
7912
102
}
330
1F
100
AcDbEntity
  8
6d
  6
Continuous
 62
     0
100
AcDbDimension
280
     0
  2
*D92
 10
39149.05784615875
 20
8445.44110158645
 30
0.0
 11
39104.05784615874
 21
8381.441101586437
 31
0.0
 70
    32
  1
<>{\Ftxt|c134; [5"]}
 71
     5
 42
128.0
 73
     0
 74
     0
 75
     0
  3
ISO-25
100
AcDbAlignedDimension
 13
39098.86366221094
 23
8317.441101586446
 33
0.0
 14
39098.86366221094
 24
8445.441101586446
 34
0.0
 50
90.0
100
AcDbRotatedDimension
1001
ACAD
1000
DSTYLE
1002
{
1070
    41
1040
15.0
1070
   140
1040
30.0
1070
   141
1040
0.5
1070
   179
1070
     2
1002
}
  0
DIMENSION
  5
7913
102
{ACAD_XDICTIONARY
360
7914
102
}
102
{ACAD_REACTORS
330
7915
102
}
330
1F
100
AcDbEntity
  8
6d
  6
Continuous
 62
     0
100
AcDbDimension
280
     0
  2
*D91
 10
39419.86366221094
 20
8517.941101586439
 30
0.0
 11
39545.47721594951
 21
8659.239491942335
 31
0.0
 70
    36
  1
<>{\Ftxt|c134; [1.5"]}
 71
     5
 42
37.99999999999272
 73
     0
 74
     0
 75
     0
  3
ISO-25
100
AcDbRadialDimension
 15
39447.97383467566
 25
8543.510970651485
 35
0.0
 40
0.0
1001
ACAD
1000
DSTYLE
1002
{
1070
    41
1040
15.0
1070
   140
1040
30.0
1070
   141
1040
0.5
1070
   179
1070
     2
1070
   288
1070
     1
1002
}
  0
DIMENSION
  5
7916
330
1F
100
AcDbEntity
  8
6d
  6
Continuous
 62
     0
100
AcDbDimension
280
     0
  2
*D76
 10
39457.86366221094
 20
7898.505078918057
 30
0.0
 11
39615.36366221094
 21
7921.005078918057
 31
0.0
 70
    32
  1
<>{\Ftxt|c134; [1.87"]}
 71
     5
 42
47.50000000000727
 73
     0
 74
     0
 75
     0
  3
ISO-25
100
AcDbAlignedDimension
 13
39410.36366221093
 23
7941.172752790382
 33
0.0
 14
39457.86366221094
 24
7941.172752790382
 34
0.0
100
AcDbRotatedDimension
1001
ACAD
1000
DSTYLE
1002
{
1070
    41
1040
15.0
1070
   140
1040
30.0
1070
   141
1040
0.5
1070
   179
1070
     2
1002
}
  0
DIMENSION
  5
7917
330
1F
100
AcDbEntity
  8
6d
  6
Continuous
 62
     0
100
AcDbDimension
280
     0
  2
*D75
 10
38575.43762460815
 20
7997.941101586448
 30
0.0
 11
38530.43762460814
 21
7907.941101586437
 31
0.0
 70
    32
  1
<>{\Ftxt|c134; [1.87"]}
 71
     5
 42
47.49999999999636
 73
     0
 74
     0
 75
     0
  3
ISO-25
100
AcDbAlignedDimension
 13
38595.2956768932
 23
8045.441101586442
 33
0.0
 14
38595.2956768932
 24
7997.941101586445
 34
0.0
 50
90.0
100
AcDbRotatedDimension
1001
ACAD
1000
DSTYLE
1002
{
1070
    41
1040
15.0
1070
   140
1040
30.0
1070
   141
1040
0.5
1070
   179
1070
     2
1002
}
  0
DIMENSION
  5
7918
102
{ACAD_XDICTIONARY
360
7919
102
}
102
{ACAD_REACTORS
330
791A
102
}
330
1F
100
AcDbEntity
  8
6d
  6
Continuous
 62
     0
100
AcDbDimension
280
     0
  2
*D82
 10
39457.86366221094
 20
7803.485710529975
 30
0.0
 11
39038.86366221093
 21
7823.485710529974
 31
0.0
 70
    32
  1
<>{\Ftxt|c134; [33"]}
 71
     5
 42
838.0000000000073
 73
     0
 74
     0
 75
     0
  3
ISO-25
100
AcDbAlignedDimension
 13
38619.86366221093
 23
8035.941101586443
 33
0.0
 14
39457.86366221094
 24
8035.941101586447
 34
0.0
100
AcDbRotatedDimension
1001
ACAD
1000
DSTYLE
1002
{
1070
    41
1040
15.0
1070
   140
1040
30.0
1070
   141
1040
0.5
1070
   179
1070
     2
1002
}
  0
DIMENSION
  5
791B
102
{ACAD_XDICTIONARY
360
791C
102
}
102
{ACAD_REACTORS
330
791D
102
}
330
1F
100
AcDbEntity
  8
6d
  6
Continuous
 62
     0
100
AcDbDimension
280
     0
  2
*D81
 10
39410.36366221093
 20
7898.505078918057
 30
0.0
 11
39038.86366221093
 21
7918.505078918056
 31
0.0
 70
    32
  1
<>{\Ftxt|c134; [29.25"]}
 71
     5
 42
743.0
 73
     0
 74
     0
 75
     0
  3
ISO-25
100
AcDbAlignedDimension
 13
38667.36366221093
 23
8121.441101586441
 33
0.0
 14
39410.36366221093
 24
8121.441101586446
 34
0.0
100
AcDbRotatedDimension
1001
ACAD
1000
DSTYLE
1002
{
1070
    41
1040
15.0
1070
   140
1040
30.0
1070
   141
1040
0.5
1070
   179
1070
     2
1002
}
  0
DIMENSION
  5
791E
102
{ACAD_XDICTIONARY
360
791F
102
}
102
{ACAD_REACTORS
330
7920
102
}
330
1F
100
AcDbEntity
  8
6d
  6
Continuous
 62
     0
100
AcDbDimension
280
     0
  2
*D80
 10
38504.8269731615
 20
8555.94110158645
 30
0.0
 11
38484.82697316149
 21
8276.941101586437
 31
0.0
 70
    32
  1
<>{\Ftxt|c134; [22"]}
 71
     5
 42
558.0
 73
     0
 74
     0
 75
     0
  3
ISO-25
100
AcDbAlignedDimension
 13
38657.86366221093
 23
7997.941101586445
 33
0.0
 14
38657.86366221093
 24
8555.941101586446
 34
0.0
 50
90.0
100
AcDbRotatedDimension
1001
ACAD
1000
DSTYLE
1002
{
1070
    41
1040
15.0
1070
   140
1040
30.0
1070
   141
1040
0.5
1070
   179
1070
     2
1002
}
  0
DIMENSION
  5
7921
102
{ACAD_XDICTIONARY
360
7922
102
}
102
{ACAD_REACTORS
330
7923
102
}
330
1F
100
AcDbEntity
  8
6d
  6
Continuous
 62
     0
100
AcDbDimension
280
     0
  2
*D79
 10
38575.43762460815
 20
8045.441101586446
 30
0.0
 11
38555.43762460814
 21
8245.441101586434
 31
0.0
 70
    32
  1
<>{\Ftxt|c134; [15.75"]}
 71
     5
 42
400.0000000000036
 73
     0
 74
     0
 75
     0
  3
ISO-25
100
AcDbAlignedDimension
 13
38743.36366221093
 23
8445.441101586446
 33
0.0
 14
38743.36366221093
 24
8045.441101586442
 34
0.0
 50
90.0
100
AcDbRotatedDimension
1001
ACAD
1000
DSTYLE
1002
{
1070
    41
1040
15.0
1070
   140
1040
30.0
1070
   141
1040
0.5
1070
   179
1070
     2
1002
}
  0
LINE
  5
7924
330
1F
100
AcDbEntity
  8
6下模
  6
Continuous
 62
     0
100
AcDbLine
 10
38043.51871080077
 20
8450.103677017144
 30
0.0
 11
38043.51871080076
 21
8470.503151521628
 31
0.0
  0
LINE
  5
7925
330
1F
100
AcDbEntity
  8
6下模
  6
Continuous
 62
     0
100
AcDbLine
 10
38040.51871080073
 20
8473.003151521629
 30
0.0
 11
38043.51871080076
 21
8470.503151521628
 31
0.0
  0
LINE
  5
7926
102
{ACAD_REACTORS
330
78E3
102
}
330
1F
100
AcDbEntity
  8
6下模
  6
Continuous
 62
     0
100
AcDbLine
 10
38039.31871080073
 20
8472.441101586445
 30
0.0
 11
38042.31871080077
 21
8469.941101586448
 31
0.0
  0
LINE
  5
7927
330
1F
100
AcDbEntity
  8
6下模
  6
Continuous
 62
     0
100
AcDbLine
 10
38040.51871080073
 20
8473.003151521629
 30
0.0
 11
38040.51871080074
 21
8534.438157861282
 31
0.0
  0
LINE
  5
7928
102
{ACAD_REACTORS
330
78EA
102
}
330
1F
100
AcDbEntity
  8
6下模
  6
Continuous
 62
     0
100
AcDbLine
 10
38039.31871080075
 20
8482.941101586446
 30
0.0
 11
38040.51871080075
 21
8482.941101586446
 31
0.0
  0
LINE
  5
7929
102
{ACAD_REACTORS
330
78EA
102
}
330
1F
100
AcDbEntity
  8
6下模
  6
Continuous
 62
     0
100
AcDbLine
 10
38039.31871080075
 20
8520.941101586446
 30
0.0
 11
38040.51871080075
 21
8520.941101586446
 31
0.0
  0
LINE
  5
792A
102
{ACAD_REACTORS
330
78E7
102
}
330
1F
100
AcDbEntity
  8
6下模
  6
Continuous
 62
     0
100
AcDbLine
 10
38039.31871080073
 20
8472.441101586445
 30
0.0
 11
38039.31871080073
 21
8533.941101586449
 31
0.0
  0
LINE
  5
792F
330
1F
100
AcDbEntity
  8
6下模
  6
Continuous
 62
     0
100
AcDbLine
 10
38047.05363620053
 20
8446.312933626142
 30
0.0
 11
38193.42535690383
 21
8436.077625838677
 31
0.0
  0
ARC
  5
7930
330
1F
100
AcDbEntity
  8
6下模
  6
Continuous
 62
     0
100
AcDbCircle
 10
38047.31871080074
 20
8450.103677017144
 30
0.0
 40
3.799999999999999
100
AcDbArc
 50
180.0000000000833
 51
266.0000000000535
  0
LINE
  5
7931
330
1F
100
AcDbEntity
  8
6下模
  6
Continuous
 62
     0
100
AcDbLine
 10
38042.31871080074
 20
8445.441101586432
 30
0.0
 11
38042.97785026749
 21
8445.441101586432
 31
0.0
  0
LINE
  5
7932
330
1F
100
AcDbEntity
  8
6下模
  6
Continuous
 62
     0
100
AcDbLine
 10
38042.31871080074
 20
8446.034168907084
 30
0.0
 11
38042.31871080074
 21
8445.441101586432
 31
0.0
  0
ARC
  5
7933
330
1F
100
AcDbEntity
  8
6下模
  6
Continuous
 62
     0
100
AcDbCircle
 10
38047.31871080074
 20
8450.103677017144
 30
0.0
 40
5.0
100
AcDbArc
 50
180.0000000000833
 51
266.0000000000535
  0
LINE
  5
7934
330
1F
100
AcDbEntity
  8
6下模
  6
Continuous
 62
     0
100
AcDbLine
 10
38046.96992843203
 20
8445.115856765829
 30
0.0
 11
38193.34164913532
 21
8434.880548978361
 31
0.0
  0
LINE
  5
7935
330
1F
100
AcDbEntity
  8
6下模
  6
Continuous
 62
     0
100
AcDbLine
 10
38042.31871080074
 20
7997.941101586445
 30
0.0
 11
38037.31871080074
 21
8002.941101586447
 31
0.0
  0
LINE
  5
7936
330
1F
100
AcDbEntity
  8
6下模
  6
Continuous
 62
     0
100
AcDbLine
 10
38037.31871080074
 20
8002.941101586442
 30
0.0
 11
38037.31871080074
 21
8550.941101586451
 31
0.0
  0
LINE
  5
7937
330
1F
100
AcDbEntity
  8
6下模
  6
Continuous
 62
     0
100
AcDbLine
 10
38037.31871080074
 20
8017.941101586446
 30
0.0
 11
38042.31871080074
 21
8022.941101586445
 31
0.0
  0
LINE
  5
7938
102
{ACAD_REACTORS
330
78E3
102
}
330
1F
100
AcDbEntity
  8
6下模
  6
Continuous
 62
     0
100
AcDbLine
 10
38042.31871080075
 20
8022.941101586459
 30
0.0
 11
38042.31871080076
 21
8469.941101586448
 31
0.0
  0
LINE
  5
7939
330
1F
100
AcDbEntity
  8
6下模
  6
Continuous
 62
     0
100
AcDbLine
 10
38046.96992843203
 20
8045.766346407065
 30
0.0
 11
38185.76717065968
 21
8055.471995062593
 31
0.0
  0
ARC
  5
793A
330
1F
100
AcDbEntity
  8
6下模
  6
Continuous
 62
     0
100
AcDbCircle
 10
38047.31871080074
 20
8040.778526155747
 30
0.0
 40
5.0
100
AcDbArc
 50
93.99999999994651
 51
179.9999999999166
  0
LINE
  5
793B
330
1F
100
AcDbEntity
  8
6下模
  6
Continuous
 62
     0
100
AcDbLine
 10
38042.31871080074
 20
8044.848034265807
 30
0.0
 11
38042.31871080074
 21
8045.44110158646
 31
0.0
  0
LINE
  5
793C
330
1F
100
AcDbEntity
  8
6下模
  6
Continuous
 62
     0
100
AcDbLine
 10
38042.31871080074
 20
8045.44110158646
 30
0.0
 11
38042.97785026749
 21
8045.44110158646
 31
0.0
  0
LINE
  5
793D
330
1F
100
AcDbEntity
  8
6下模
  6
Continuous
 62
     0
100
AcDbLine
 10
38043.16723893816
 20
7998.789629723869
 30
0.0
 11
38038.51871080074
 21
8003.438157861294
 31
0.0
  0
LINE
  5
793E
330
1F
100
AcDbEntity
  8
6下模
  6
Continuous
 62
     0
100
AcDbLine
 10
38038.51871080074
 20
8003.438157861294
 30
0.0
 11
38038.51871080074
 21
8017.444045311604
 31
0.0
  0
LINE
  5
793F
330
1F
100
AcDbEntity
  8
6下模
  6
Continuous
 62
     0
100
AcDbLine
 10
38038.51871080074
 20
8017.444045311604
 30
0.0
 11
38043.51871080074
 21
8022.444045311605
 31
0.0
  0
LINE
  5
7940
330
1F
100
AcDbEntity
  8
6下模
  6
Continuous
 62
     0
100
AcDbLine
 10
38043.51871080074
 20
8022.444045311605
 30
0.0
 11
38043.51871080074
 21
8040.778526155751
 31
0.0
  0
ARC
  5
7941
330
1F
100
AcDbEntity
  8
6下模
  6
Continuous
 62
     0
100
AcDbCircle
 10
38047.31871080074
 20
8040.778526155747
 30
0.0
 40
3.799999999999999
100
AcDbArc
 50
93.99999999994651
 51
179.9999999999166
  0
LINE
  5
7942
330
1F
100
AcDbEntity
  8
6下模
  6
Continuous
 62
     0
100
AcDbLine
 10
38047.05363620053
 20
8044.569269546752
 30
0.0
 11
38185.85087842817
 21
8054.274918202279
 31
0.0
  0
LINE
  5
7943
330
1F
100
AcDbEntity
  8
6下模
  6
Continuous
 62
     0
100
AcDbLine
 10
38042.31871080074
 20
7997.941101586445
 30
0.0
 11
38043.16723893816
 21
7998.789629723869
 31
0.0
  0
LINE
  5
7944
330
1F
100
AcDbEntity
  8
6下模
  6
Continuous
 62
     0
100
AcDbLine
 10
38042.31871080074
 20
8555.941101586446
 30
0.0
 11
38043.16723893816
 21
8555.092573449023
 31
0.0
  0
LINE
  5
7945
330
1F
100
AcDbEntity
  8
6下模
  6
Continuous
 62
     0
100
AcDbLine
 10
38038.51871080074
 20
8536.438157861288
 30
0.0
 11
38040.51871080074
 21
8534.438157861282
 31
0.0
  0
LINE
  5
7946
330
1F
100
AcDbEntity
  8
6下模
  6
Continuous
 62
     0
100
AcDbLine
 10
38038.51871080074
 20
8550.444045311598
 30
0.0
 11
38038.51871080074
 21
8536.438157861288
 31
0.0
  0
LINE
  5
7947
330
1F
100
AcDbEntity
  8
6下模
  6
Continuous
 62
     0
100
AcDbLine
 10
38043.16723893816
 20
8555.092573449023
 30
0.0
 11
38038.51871080074
 21
8550.444045311598
 31
0.0
  0
LINE
  5
7948
102
{ACAD_REACTORS
330
78E7
102
}
330
1F
100
AcDbEntity
  8
6下模
  6
Continuous
 62
     0
100
AcDbLine
 10
38037.31871080074
 20
8535.941101586447
 30
0.0
 11
38039.31871080073
 21
8533.941101586449
 31
0.0
  0
LINE
  5
7949
330
1F
100
AcDbEntity
  8
6下模
  6
Continuous
 62
     0
100
AcDbLine
 10
38037.31871080074
 20
8550.941101586445
 30
0.0
 11
38037.31871080074
 21
8535.941101586447
 31
0.0
  0
LINE
  5
794A
330
1F
100
AcDbEntity
  8
6下模
  6
Continuous
 62
     0
100
AcDbLine
 10
38042.31871080074
 20
8555.941101586446
 30
0.0
 11
38037.31871080074
 21
8550.941101586445
 31
0.0
  0
LINE
  5
794B
330
1F
100
AcDbEntity
  8
6下模
  6
Continuous
 62
     0
100
AcDbLine
 10
38240.31871080074
 20
8377.441101586439
 30
0.0
 11
38240.31871080074
 21
8257.441101586454
 31
0.0
  0
LINE
  5
794C
330
1F
100
AcDbEntity
  8
6下模
  6
Continuous
 62
     0
100
AcDbLine
 10
38232.21082371021
 20
8102.733399763435
 30
0.0
 11
38240.31871080074
 21
8257.441101586447
 31
0.0
  0
LINE
  5
794D
330
1F
100
AcDbEntity
  8
6下模
  6
Continuous
 62
     0
100
AcDbLine
 10
38233.4091791519
 20
8102.670596615944
 30
0.0
 11
38241.49295837284
 21
8256.918292883696
 31
0.0
  0
LINE
  5
794E
330
1F
100
AcDbEntity
  8
6下模
  6
Continuous
 62
     0
100
AcDbLine
 10
38243.31871080074
 20
8374.441101586453
 30
0.0
 11
38243.31871080074
 21
8260.441101586446
 31
0.0
  0
LINE
  5
794F
330
1F
100
AcDbEntity
  8
6下模
  6
Continuous
 62
     0
100
AcDbLine
 10
38246.31871080074
 20
8362.441101586453
 30
0.0
 11
38246.31871080074
 21
8272.441101586446
 31
0.0
  0
LINE
  5
7950
330
1F
100
AcDbEntity
  8
6下模
  6
Continuous
 62
     0
100
AcDbLine
 10
38247.51871080074
 20
8362.588828337196
 30
0.0
 11
38247.51871080074
 21
8272.293374835703
 31
0.0
  0
LINE
  5
7951
330
1F
100
AcDbEntity
  8
6下模
  6
Continuous
 62
     0
100
AcDbLine
 10
38240.31871080074
 20
8257.441101586447
 30
0.0
 11
38243.31871080074
 21
8260.441101586446
 31
0.0
  0
LINE
  5
7952
330
1F
100
AcDbEntity
  8
6下模
  6
Continuous
 62
     0
100
AcDbLine
 10
38243.31871080074
 20
8260.441101586446
 30
0.0
 11
38246.31871080074
 21
8272.441101586446
 31
0.0
  0
LINE
  5
7953
330
1F
100
AcDbEntity
  8
6下模
  6
Continuous
 62
     0
100
AcDbLine
 10
38244.40226762604
 20
8259.827602136894
 30
0.0
 11
38247.51871080074
 21
8272.293374835703
 31
0.0
  0
LINE
  5
7954
330
1F
100
AcDbEntity
  8
6下模
  6
Continuous
 62
     0
100
AcDbLine
 10
38241.49295837284
 20
8256.918292883696
 30
0.0
 11
38244.40226762604
 21
8259.827602136894
 31
0.0
  0
LINE
  5
7955
330
1F
100
AcDbEntity
  8
6下模
  6
Continuous
 62
     0
100
AcDbLine
 10
38240.98365762756
 20
8387.681947425013
 30
0.0
 11
38241.49295837284
 21
8377.963910289196
 31
0.0
  0
LINE
  5
7956
330
1F
100
AcDbEntity
  8
6下模
  6
Continuous
 62
     0
100
AcDbLine
 10
38239.78530218585
 20
8387.61914427754
 30
0.0
 11
38240.31871080074
 21
8377.441101586446
 31
0.0
  0
LINE
  5
7957
330
1F
100
AcDbEntity
  8
6下模
  6
Continuous
 62
     0
100
AcDbLine
 10
38241.49295837284
 20
8377.963910289203
 30
0.0
 11
38244.40226762604
 21
8375.054601036005
 31
0.0
  0
LINE
  5
7958
330
1F
100
AcDbEntity
  8
6下模
  6
Continuous
 62
     0
100
AcDbLine
 10
38244.40226762604
 20
8375.054601036005
 30
0.0
 11
38247.51871080074
 21
8362.588828337196
 31
0.0
  0
LINE
  5
7959
330
1F
100
AcDbEntity
  8
6下模
  6
Continuous
 62
     0
100
AcDbLine
 10
38243.31871080074
 20
8374.441101586453
 30
0.0
 11
38246.31871080074
 21
8362.441101586453
 31
0.0
  0
LINE
  5
795A
330
1F
100
AcDbEntity
  8
6下模
  6
Continuous
 62
     0
100
AcDbLine
 10
38240.31871080074
 20
8377.441101586454
 30
0.0
 11
38243.31871080074
 21
8374.441101586453
 31
0.0
  0
LINE
  5
795B
330
1F
100
AcDbEntity
  8
6d
  6
CENTER
 62
     0
100
AcDbLine
 10
37994.68055324255
 20
8317.441101586446
 30
0.0
 11
38321.52825534153
 21
8317.441101586446
 31
0.0
  0
LINE
  5
795C
330
1F
100
AcDbEntity
  8
6下模
  6
Continuous
 62
     0
100
AcDbLine
 10
38043.16723893816
 20
7998.789629723869
 30
0.0
 11
38043.16723893816
 21
8004.241101586446
 31
0.0
  0
LINE
  5
795D
330
1F
100
AcDbEntity
  8
6下模
  6
Continuous
 62
     0
100
AcDbLine
 10
38043.16723893816
 20
8555.092573449023
 30
0.0
 11
38043.16723893817
 21
8549.64110158645
 31
0.0
  0
LINE
  5
795E
330
1F
100
AcDbEntity
  8
6下模
  6
Continuous
 62
     0
100
AcDbLine
 10
38640.16660593608
 20
9346.046628007822
 30
0.0
 11
39435.86366221094
 21
9346.046628007822
 31
0.0
  0
LINE
  5
795F
330
1F
100
AcDbEntity
  8
6下模
  6
Continuous
 62
     0
100
AcDbLine
 10
39457.01513407352
 20
9342.198099870399
 30
0.0
 11
39451.56366221095
 21
9342.198099870399
 31
0.0
  0
LINE
  5
7960
330
1F
100
AcDbEntity
  8
6下模
  6
Continuous
 62
     0
100
AcDbLine
 10
38620.71219034835
 20
9342.198099870399
 30
0.0
 11
38626.16366221093
 21
9342.198099870399
 31
0.0
  0
LINE
  5
7961
330
1F
100
AcDbEntity
  8
6d
  6
CENTER
 62
     0
100
AcDbLine
 10
39038.86366221093
 20
9390.684785566016
 30
0.0
 11
39038.86366221093
 21
9063.837083467028
 31
0.0
  0
LINE
  5
7962
102
{ACAD_REACTORS
330
78B0
330
78AD
102
}
330
1F
100
AcDbEntity
  8
6下模
  6
Continuous
 62
     0
100
AcDbLine
 10
39098.86366221094
 20
9145.046628007822
 30
0.0
 11
39095.86366221094
 21
9142.046628007822
 31
0.0
  0
LINE
  5
7963
102
{ACAD_REACTORS
330
78B3
102
}
330
1F
100
AcDbEntity
  8
6下模
  6
Continuous
 62
     0
100
AcDbLine
 10
39095.86366221094
 20
9142.046628007822
 30
0.0
 11
39083.86366221094
 21
9139.046628007822
 31
0.0
  0
LINE
  5
7964
330
1F
100
AcDbEntity
  8
6下模
  6
Continuous
 62
     0
100
AcDbLine
 10
39096.47716166049
 20
9140.963071182524
 30
0.0
 11
39084.01138896169
 21
9137.846628007821
 31
0.0
  0
LINE
  5
7965
330
1F
100
AcDbEntity
  8
6下模
  6
Continuous
 62
     0
100
AcDbLine
 10
39099.38647091369
 20
9143.872380435725
 30
0.0
 11
39096.47716166049
 21
9140.963071182524
 31
0.0
  0
LINE
  5
7966
330
1F
100
AcDbEntity
  8
6下模
  6
Continuous
 62
     0
100
AcDbLine
 10
39353.43734378136
 20
9158.388269322838
 30
0.0
 11
39098.86366221094
 21
9145.046628007822
 31
0.0
  0
LINE
  5
7969
330
1F
100
AcDbEntity
  8
6下模
  6
Continuous
 62
     0
100
AcDbLine
 10
39353.50014692884
 20
9157.189913881127
 30
0.0
 11
39099.38647091368
 21
9143.872380435725
 31
0.0
  0
LINE
  5
796A
330
1F
100
AcDbEntity
  8
6下模
  6
Continuous
 62
     0
100
AcDbLine
 10
38978.34085350818
 20
9143.872380435725
 30
0.0
 11
38981.25016276138
 21
9140.963071182524
 31
0.0
  0
LINE
  5
796B
330
1F
100
AcDbEntity
  8
6下模
  6
Continuous
 62
     0
100
AcDbLine
 10
38981.25016276138
 20
9140.963071182524
 30
0.0
 11
38993.71593546019
 21
9137.846628007821
 31
0.0
  0
LINE
  5
796C
102
{ACAD_REACTORS
330
78B3
330
78B0
102
}
330
1F
100
AcDbEntity
  8
6下模
  6
Continuous
 62
     0
100
AcDbLine
 10
38981.86366221093
 20
9142.046628007822
 30
0.0
 11
38993.86366221094
 21
9139.046628007822
 31
0.0
  0
LINE
  5
796D
330
1F
100
AcDbEntity
  8
6下模
  6
Continuous
 62
     0
100
AcDbLine
 10
38978.86366221094
 20
9145.046628007822
 30
0.0
 11
38981.86366221093
 21
9142.046628007822
 31
0.0
  0
LINE
  5
796E
330
1F
100
AcDbEntity
  8
6下模
  6
Continuous
 62
     0
100
AcDbLine
 10
39084.01138896169
 20
9137.846628007821
 30
0.0
 11
38993.71593546019
 21
9137.846628007821
 31
0.0
  0
LINE
  5
796F
102
{ACAD_REACTORS
330
78A7
102
}
330
1F
100
AcDbEntity
  8
6下模
  6
Continuous
 62
     0
100
AcDbLine
 10
39083.86366221094
 20
9139.046628007822
 30
0.0
 11
38993.86366221094
 21
9139.046628007822
 31
0.0
  0
LINE
  5
7970
102
{ACAD_REACTORS
330
78AA
102
}
330
1F
100
AcDbEntity
  8
6下模
  6
Continuous
 62
     0
100
AcDbLine
 10
39095.86366221094
 20
9142.046628007822
 30
0.0
 11
38981.86366221093
 21
9142.046628007822
 31
0.0
  0
LINE
  5
7971
330
1F
100
AcDbEntity
  8
6下模
  6
Continuous
 62
     0
100
AcDbLine
 10
38724.22717749302
 20
9157.189913881126
 30
0.0
 11
38978.34085350818
 21
9143.872380435725
 31
0.0
  0
LINE
  5
7974
330
1F
100
AcDbEntity
  8
6下模
  6
Continuous
 62
     0
100
AcDbLine
 10
38724.28998064051
 20
9158.388269322838
 30
0.0
 11
38978.86366221094
 21
9145.046628007822
 31
0.0
  0
LINE
  5
7975
102
{ACAD_REACTORS
330
78AD
330
78AA
330
78A7
102
}
330
1F
100
AcDbEntity
  8
6下模
  6
Continuous
 62
     0
100
AcDbLine
 10
39098.86366221093
 20
9145.046628007822
 30
0.0
 11
38978.86366221094
 21
9145.046628007822
 31
0.0
  0
LINE
  5
7976
330
1F
100
AcDbEntity
  8
6下模
  6
Continuous
 62
     0
100
AcDbLine
 10
39457.86366221094
 20
9343.046628007822
 30
0.0
 11
39452.86366221094
 21
9348.046628007821
 31
0.0
  0
LINE
  5
7977
330
1F
100
AcDbEntity
  8
6下模
  6
Continuous
 62
     0
100
AcDbLine
 10
39452.86366221094
 20
9348.046628007821
 30
0.0
 11
39437.86366221094
 21
9348.046628007821
 31
0.0
  0
LINE
  5
7978
330
1F
100
AcDbEntity
  8
6下模
  6
Continuous
 62
     0
100
AcDbLine
 10
39437.86366221094
 20
9348.046628007821
 30
0.0
 11
39432.86366221094
 21
9343.046628007822
 31
0.0
  0
LINE
  5
7979
330
1F
100
AcDbEntity
  8
6下模
  6
Continuous
 62
     0
100
AcDbLine
 10
39432.86366221094
 20
9343.046628007822
 30
0.0
 11
39415.02623764164
 21
9343.046628007822
 31
0.0
  0
LINE
  5
797A
330
1F
100
AcDbEntity
  8
6下模
  6
Continuous
 62
     0
100
AcDbLine
 10
39410.03841739032
 20
9338.395410376527
 30
0.0
 11
39400.69874848221
 21
9204.831922373362
 31
0.0
  0
ARC
  5
797B
330
1F
100
AcDbEntity
  8
6下模
  6
Continuous
 62
     0
100
AcDbCircle
 10
39415.02623764164
 20
9338.046628007814
 30
0.0
 40
5.0
100
AcDbArc
 50
90.00000000008338
 51
176.0000000000535
  0
LINE
  5
797C
330
1F
100
AcDbEntity
  8
6下模
  6
Continuous
 62
     0
100
AcDbLine
 10
39410.95672953158
 20
9343.046628007822
 30
0.0
 11
39410.36366221093
 21
9343.046628007822
 31
0.0
  0
LINE
  5
797D
330
1F
100
AcDbEntity
  8
6下模
  6
Continuous
 62
     0
100
AcDbLine
 10
39410.36366221093
 20
9343.046628007822
 30
0.0
 11
39410.36366221093
 21
9342.387488541074
 31
0.0
  0
LINE
  5
797E
330
1F
100
AcDbEntity
  8
6下模
  6
Continuous
 62
     0
100
AcDbLine
 10
39457.01513407352
 20
9342.198099870399
 30
0.0
 11
39452.36660593609
 21
9346.846628007822
 31
0.0
  0
LINE
  5
797F
330
1F
100
AcDbEntity
  8
6下模
  6
Continuous
 62
     0
100
AcDbLine
 10
39452.36660593609
 20
9346.846628007822
 30
0.0
 11
39438.36071848578
 21
9346.846628007822
 31
0.0
  0
LINE
  5
7980
330
1F
100
AcDbEntity
  8
6下模
  6
Continuous
 62
     0
100
AcDbLine
 10
39438.36071848578
 20
9346.846628007822
 30
0.0
 11
39433.36071848579
 21
9341.84662800782
 31
0.0
  0
LINE
  5
7981
330
1F
100
AcDbEntity
  8
6下模
  6
Continuous
 62
     0
100
AcDbLine
 10
39433.36071848579
 20
9341.84662800782
 30
0.0
 11
39415.02623764164
 21
9341.84662800782
 31
0.0
  0
ARC
  5
7982
330
1F
100
AcDbEntity
  8
6下模
  6
Continuous
 62
     0
100
AcDbCircle
 10
39415.02623764164
 20
9338.046628007814
 30
0.0
 40
3.799999999999999
100
AcDbArc
 50
90.00000000008338
 51
176.0000000000535
  0
LINE
  5
7983
330
1F
100
AcDbEntity
  8
6下模
  6
Continuous
 62
     0
100
AcDbLine
 10
39411.23549425064
 20
9338.311702608036
 30
0.0
 11
39401.89582534251
 21
9204.748214604864
 31
0.0
  0
LINE
  5
7984
330
1F
100
AcDbEntity
  8
6下模
  6
Continuous
 62
     0
100
AcDbLine
 10
39457.86366221094
 20
9343.046628007822
 30
0.0
 11
39457.01513407352
 21
9342.198099870399
 31
0.0
  0
LINE
  5
7985
102
{ACAD_REACTORS
330
78FD
102
}
330
1F
100
AcDbEntity
  8
6下模
  6
Continuous
 62
     0
100
AcDbLine
 10
38619.86366221093
 20
9343.046628007822
 30
0.0
 11
38620.71219034835
 21
9342.198099870399
 31
0.0
  0
LINE
  5
7986
330
1F
100
AcDbEntity
  8
6下模
  6
Continuous
 62
     0
100
AcDbLine
 10
38666.49183017123
 20
9338.311702608036
 30
0.0
 11
38675.83149907935
 21
9204.748214604862
 31
0.0
  0
ARC
  5
7987
330
1F
100
AcDbEntity
  8
6下模
  6
Continuous
 62
     0
100
AcDbCircle
 10
38662.70108678023
 20
9338.046628007814
 30
0.0
 40
3.799999999999999
100
AcDbArc
 50
3.99999999994651
 51
89.99999999991663
  0
LINE
  5
7988
330
1F
100
AcDbEntity
  8
6下模
  6
Continuous
 62
     0
100
AcDbLine
 10
38644.36660593609
 20
9341.84662800782
 30
0.0
 11
38662.70108678023
 21
9341.84662800782
 31
0.0
  0
LINE
  5
7989
330
1F
100
AcDbEntity
  8
6下模
  6
Continuous
 62
     0
100
AcDbLine
 10
38639.36660593608
 20
9346.846628007822
 30
0.0
 11
38644.36660593609
 21
9341.84662800782
 31
0.0
  0
LINE
  5
798A
330
1F
100
AcDbEntity
  8
6下模
  6
Continuous
 62
     0
100
AcDbLine
 10
38625.36071848578
 20
9346.846628007822
 30
0.0
 11
38639.36660593608
 21
9346.846628007822
 31
0.0
  0
LINE
  5
798B
330
1F
100
AcDbEntity
  8
6下模
  6
Continuous
 62
     0
100
AcDbLine
 10
38620.71219034835
 20
9342.198099870399
 30
0.0
 11
38625.36071848578
 21
9346.846628007822
 31
0.0
  0
LINE
  5
798C
102
{ACAD_REACTORS
330
78F6
102
}
330
1F
100
AcDbEntity
  8
6下模
  6
Continuous
 62
     0
100
AcDbLine
 10
38667.36366221094
 20
9343.046628007822
 30
0.0
 11
38667.36366221094
 21
9342.387488541074
 31
0.0
  0
LINE
  5
798D
330
1F
100
AcDbEntity
  8
6下模
  6
Continuous
 62
     0
100
AcDbLine
 10
38666.77059489029
 20
9343.046628007822
 30
0.0
 11
38667.36366221094
 21
9343.046628007822
 31
0.0
  0
ARC
  5
798E
330
1F
100
AcDbEntity
  8
6下模
  6
Continuous
 62
     0
100
AcDbCircle
 10
38662.70108678023
 20
9338.046628007814
 30
0.0
 40
5.0
100
AcDbArc
 50
3.99999999994651
 51
89.99999999991663
  0
LINE
  5
798F
330
1F
100
AcDbEntity
  8
6下模
  6
Continuous
 62
     0
100
AcDbLine
 10
38667.68890703155
 20
9338.395410376527
 30
0.0
 11
38677.02857593966
 21
9204.83192237336
 31
0.0
  0
LINE
  5
7990
102
{ACAD_REACTORS
330
7F95
102
}
330
1F
100
AcDbEntity
  8
6下模
  6
Continuous
 62
     0
100
AcDbLine
 10
38644.86366221093
 20
9343.046628007822
 30
0.0
 11
39415.02623764164
 21
9343.046628007781
 31
0.0
  0
LINE
  5
7991
102
{ACAD_REACTORS
330
78F9
102
}
330
1F
100
AcDbEntity
  8
6下模
  6
Continuous
 62
     0
100
AcDbLine
 10
38639.86366221093
 20
9348.046628007821
 30
0.0
 11
38644.86366221093
 21
9343.046628007822
 31
0.0
  0
LINE
  5
7992
102
{ACAD_REACTORS
330
78FD
102
}
330
1F
100
AcDbEntity
  8
6下模
  6
Continuous
 62
     0
100
AcDbLine
 10
38624.86366221093
 20
9348.046628007821
 30
0.0
 11
39437.86366221094
 21
9348.046628007821
 31
0.0
  0
LINE
  5
7993
102
{ACAD_REACTORS
330
7F95
102
}
330
1F
100
AcDbEntity
  8
6下模
  6
Continuous
 62
     0
100
AcDbLine
 10
38619.86366221093
 20
9343.046628007822
 30
0.0
 11
38624.86366221093
 21
9348.046628007821
 31
0.0
  0
CIRCLE
  5
7994
102
{ACAD_REACTORS
330
790F
330
7909
102
}
330
1F
100
AcDbEntity
  8
6下模
  6
Continuous
 62
     0
100
AcDbCircle
 10
39242.86366221093
 20
8501.941101586446
 30
0.0
 40
19.0
  0
CIRCLE
  5
7995
330
1F
100
AcDbEntity
  8
6下模
  6
Continuous
 62
     0
100
AcDbCircle
 10
39140.86366221093
 20
8501.941101586446
 30
0.0
 40
19.0
  0
CIRCLE
  5
7996
102
{ACAD_REACTORS
330
790C
330
7906
102
}
330
1F
100
AcDbEntity
  8
6下模
  6
Continuous
 62
     0
100
AcDbCircle
 10
38936.86366221094
 20
8501.941101586446
 30
0.0
 40
19.0
  0
CIRCLE
  5
7997
102
{ACAD_REACTORS
330
7909
102
}
330
1F
100
AcDbEntity
  8
6下模
  6
Continuous
 62
     0
100
AcDbCircle
 10
39038.86366221093
 20
8501.941101586446
 30
0.0
 40
19.0
  0
LINE
  5
7998
330
1F
100
AcDbEntity
  8
6d
  6
CENTER
 62
     0
100
AcDbLine
 10
38917.86366221094
 20
8501.941101586446
 30
0.0
 11
39261.86366221093
 21
8501.941101586446
 31
0.0
  0
ARC
  5
7999
330
1F
100
AcDbEntity
  8
6下模
  6
Continuous
 62
     0
100
AcDbCircle
 10
39420.36366221095
 20
8456.941101586446
 30
0.0
 40
15.5
100
AcDbArc
 50
359.9999999999983
 51
90.0
  0
ARC
  5
799A
330
1F
100
AcDbEntity
  8
6下模
  6
Continuous
 62
     0
100
AcDbCircle
 10
38657.36366221092
 20
8456.941101586446
 30
0.0
 40
15.5
100
AcDbArc
 50
90.0
 51
180.0000000000016
  0
ARC
  5
799B
102
{ACAD_REACTORS
330
7900
102
}
330
1F
100
AcDbEntity
  8
6下模
  6
Continuous
 62
     0
100
AcDbCircle
 10
39419.86366221096
 20
8456.941101586446
 30
0.0
 40
13.0
100
AcDbArc
 50
0.0
 51
90.0
  0
ARC
  5
799C
330
1F
100
AcDbEntity
  8
6下模
  6
Continuous
 62
     0
100
AcDbCircle
 10
38657.86366221092
 20
8456.941101586446
 30
0.0
 40
13.0
100
AcDbArc
 50
90.0
 51
180.0
  0
LINE
  5
799D
330
1F
100
AcDbEntity
  8
6下模
  6
Continuous
 62
     0
100
AcDbLine
 10
38657.86366221092
 20
8469.941101586448
 30
0.0
 11
39419.86366221096
 21
8469.941101586448
 31
0.0
  0
LWPOLYLINE
  5
799E
102
{ACAD_REACTORS
330
808E
102
}
330
1F
100
AcDbEntity
  8
6下模
  6
Continuous
 62
     0
100
AcDbPolyline
 90
        6
 70
     0
 43
0.0
 10
39432.86366221093
 20
8456.941101586446
 10
39432.86366221094
 20
8035.941101586447
 42
-0.4142135623730951
 10
39419.86366221094
 20
8022.941101586445
 10
38657.86366221093
 20
8022.941101586445
 42
-0.41421356237309
 10
38644.86366221093
 20
8035.941101586443
 10
38644.86366221093
 20
8456.941101586446
  0
LINE
  5
799F
330
1F
100
AcDbEntity
  8
6下模
  6
Continuous
 62
     0
100
AcDbLine
 10
38657.36366221092
 20
8472.441101586445
 30
0.0
 11
39420.36366221095
 21
8472.441101586445
 31
0.0
  0
LWPOLYLINE
  5
79A0
330
1F
100
AcDbEntity
  8
6下模
  6
Continuous
 62
     0
100
AcDbPolyline
 90
        6
 70
     0
 43
0.0
 10
38641.86366221093
 20
8456.941101586446
 10
38641.86366221093
 20
8517.941101586446
 42
-0.4142135623730951
 10
38657.86366221093
 20
8533.941101586446
 10
39419.86366221093
 20
8533.941101586446
 42
-0.4142135623730951
 10
39435.86366221094
 20
8517.941101586446
 10
39435.86366221094
 20
8456.941101586446
  0
LWPOLYLINE
  5
79A1
330
1F
100
AcDbEntity
  8
6下模
  6
Continuous
 62
     0
100
AcDbPolyline
 90
        8
 70
     1
 43
0.0
 10
39419.86366221093
 20
8535.941101586447
 42
-0.4142135623730951
 10
39437.86366221094
 20
8517.941101586446
 10
39437.86366221094
 20
8035.941101586447
 42
-0.4142135623730951
 10
39419.86366221094
 20
8017.941101586446
 10
38657.86366221093
 20
8017.941101586446
 42
-0.4142135623730839
 10
38639.86366221094
 20
8035.941101586443
 10
38639.86366221093
 20
8517.941101586446
 42
-0.4142135623730951
 10
38657.86366221093
 20
8535.941101586447
  0
LWPOLYLINE
  5
79A2
330
1F
100
AcDbEntity
  8
6下模
  6
Continuous
 62
     0
100
AcDbPolyline
 90
        8
 70
     1
 43
0.0
 10
39419.86366221093
 20
8550.941101586445
 42
-0.4142135623730951
 10
39452.86366221094
 20
8517.941101586446
 10
39452.86366221094
 20
8035.941101586447
 42
-0.4142135623730951
 10
39419.86366221094
 20
8002.941101586447
 10
38657.86366221093
 20
8002.941101586445
 42
-0.4142135623730891
 10
38624.86366221093
 20
8035.941101586443
 10
38624.86366221093
 20
8517.941101586446
 42
-0.4142135623730951
 10
38657.86366221093
 20
8550.941101586445
  0
LWPOLYLINE
  5
79A3
102
{ACAD_REACTORS
330
7920
330
791A
330
7915
330
790F
330
790C
102
}
330
1F
100
AcDbEntity
  8
6下模
  6
Continuous
 62
     0
100
AcDbPolyline
 90
        8
 70
     1
 43
0.0
 10
39419.86366221093
 20
8555.941101586446
 42
-0.4142135623730951
 10
39457.86366221093
 20
8517.941101586446
 10
39457.86366221094
 20
8035.941101586447
 42
-0.4142135623730951
 10
39419.86366221094
 20
7997.941101586445
 10
38657.86366221093
 20
7997.941101586445
 42
-0.4142135623730897
 10
38619.86366221093
 20
8035.941101586443
 10
38619.86366221093
 20
8517.941101586446
 42
-0.4142135623730951
 10
38657.86366221093
 20
8555.941101586446
  0
CIRCLE
  5
79A4
330
1F
100
AcDbEntity
  8
6下模
  6
Continuous
 62
     0
100
AcDbCircle
 10
39038.86366221093
 20
8317.441101586446
 30
0.0
 40
45.0
  0
CIRCLE
  5
79A5
330
1F
100
AcDbEntity
  8
6下模
  6
Continuous
 62
     0
100
AcDbCircle
 10
39038.86366221093
 20
8317.441101586446
 30
0.0
 40
57.0
  0
CIRCLE
  5
79A6
330
1F
100
AcDbEntity
  8
6下模
  6
Continuous
 62
     0
100
AcDbCircle
 10
39038.86366221093
 20
8317.441101586446
 30
0.0
 40
60.0
  0
LINE
  5
79A7
330
1F
100
AcDbEntity
  8
6d
  6
CENTER
 62
     0
100
AcDbLine
 10
39038.86366221093
 20
8555.941101586446
 30
0.0
 11
39038.86366221093
 21
7997.941101586445
 31
0.0
  0
LINE
  5
79A8
102
{ACAD_REACTORS
330
7912
102
}
330
1F
100
AcDbEntity
  8
6d
  6
CENTER
 62
     0
100
AcDbLine
 10
38978.86366221094
 20
8317.441101586446
 30
0.0
 11
39098.86366221094
 21
8317.441101586446
 31
0.0
  0
ARC
  5
79A9
102
{ACAD_REACTORS
330
7923
330
791D
330
7903
102
}
330
1F
100
AcDbEntity
  8
6下模
  6
Continuous
 62
     0
100
AcDbCircle
 10
38743.36366221093
 20
8121.441101586441
 30
0.0
 40
76.0
100
AcDbArc
 50
179.9999999999965
 51
270.0000000000055
  0
ARC
  5
79AA
102
{ACAD_REACTORS
330
791D
102
}
330
1F
100
AcDbEntity
  8
6下模
  6
Continuous
 62
     0
100
AcDbCircle
 10
39334.36366221093
 20
8121.441101586441
 30
0.0
 40
76.0
100
AcDbArc
 50
270.0
 51
0.0000000000034283
  0
ARC
  5
79AB
330
1F
100
AcDbEntity
  8
6下模
  6
Continuous
 62
     0
100
AcDbCircle
 10
39334.36366221093
 20
8369.441101586446
 30
0.0
 40
76.0
100
AcDbArc
 50
359.9999999999993
 51
89.99999999999451
  0
ARC
  5
79AC
330
1F
100
AcDbEntity
  8
6下模
  6
Continuous
 62
     0
100
AcDbCircle
 10
38743.36366221093
 20
8369.441101586446
 30
0.0
 40
76.0
100
AcDbArc
 50
90.0
 51
180.0000000000007
  0
LINE
  5
79AD
102
{ACAD_REACTORS
330
7923
330
7912
102
}
330
1F
100
AcDbEntity
  8
6下模
  6
Continuous
 62
     0
100
AcDbLine
 10
38743.36366221093
 20
8445.441101586446
 30
0.0
 11
39334.36366221093
 21
8445.441101586446
 31
0.0
  0
LINE
  5
79AE
102
{ACAD_REACTORS
330
808E
102
}
330
1F
100
AcDbEntity
  8
6下模
  6
Continuous
 62
     0
100
AcDbLine
 10
39410.36366221093
 20
8369.441101586446
 30
0.0
 11
39410.36366221093
 21
8121.441101586446
 31
0.0
  0
LINE
  5
79AF
102
{ACAD_REACTORS
330
791D
102
}
330
1F
100
AcDbEntity
  8
6下模
  6
Continuous
 62
     0
100
AcDbLine
 10
38667.36366221093
 20
8369.441101586446
 30
0.0
 11
38667.36366221093
 21
8121.441101586446
 31
0.0
  0
LINE
  5
79B0
330
1F
100
AcDbEntity
  8
6下模
  6
Continuous
 62
     0
100
AcDbLine
 10
39334.36366221093
 20
8045.441101586446
 30
0.0
 11
38743.36366221093
 21
8045.441101586446
 31
0.0
  0
ARC
  5
7C3B
330
1F
100
AcDbEntity
  8
6下模
  6
Continuous
 62
     0
100
AcDbCircle
 10
38726.90677845265
 20
9208.319746060565
 30
0.0
 40
50.0
100
AcDbArc
 50
183.9999999999992
 51
267.0000000000001
  0
ARC
  5
7C3C
330
1F
100
AcDbEntity
  8
6下模
  6
Continuous
 62
     0
100
AcDbCircle
 10
39350.82054596922
 20
9208.319746060565
 30
0.0
 40
50.0
100
AcDbArc
 50
272.9999999999999
 51
356.000000000001
  0
ARC
  5
7C3D
330
1F
100
AcDbEntity
  8
6下模
  6
Continuous
 62
     0
100
AcDbCircle
 10
39350.82054596921
 20
9208.319746060563
 30
0.0
 40
51.2
100
AcDbArc
 50
272.9999999999999
 51
356.0000000000011
  0
ARC
  5
7C3E
330
1F
100
AcDbEntity
  8
6下模
  6
Continuous
 62
     0
100
AcDbCircle
 10
38726.90677845265
 20
9208.31974606056
 30
0.0
 40
51.2
100
AcDbArc
 50
183.9999999999989
 51
267.0000000000001
  0
LINE
  5
7C3F
330
1F
100
AcDbEntity
  8
0
  6
Continuous
 62
     0
100
AcDbLine
 10
38667.68890703155
 20
9338.395410376527
 30
0.0
 11
38667.68890703155
 21
9306.677573642799
 31
0.0
  0
DIMENSION
  5
7C40
330
1F
100
AcDbEntity
  8
6d
  6
Continuous
 62
     0
100
AcDbDimension
280
     0
  2
*D108
 10
38726.90677845267
 20
9208.319746060567
 30
0.0
 11
38777.3612399735
 21
9273.592997187174
 31
0.0
 70
   164
  1
<>{\Ftxt|c134; [2"]}
 71
     5
 42
50.00000000004002
 73
     0
 74
     0
 75
     0
  3
ISO-25
100
AcDbRadialDimension
 15
38696.32831692486
 25
9168.760199923182
 35
0.0
 40
0.0
1001
ACAD
1000
DSTYLE
1002
{
1070
    41
1040
15.0
1070
   140
1040
30.0
1070
   141
1040
0.5
1070
   179
1070
     2
1070
   288
1070
     1
1002
}
  0
ARC
  5
7C50
330
1F
100
AcDbEntity
  8
6下模
  6
Continuous
 62
     0
100
AcDbCircle
 10
38189.85382544813
 20
8385.002346465375
 30
0.0
 40
51.2
100
AcDbArc
 50
3.000000000000118
 51
86.00000000000159
  0
ARC
  5
7C51
330
1F
100
AcDbEntity
  8
6下模
  6
Continuous
 62
     0
100
AcDbCircle
 10
38182.27934697247
 20
8105.350197575582
 30
0.0
 40
51.2
100
AcDbArc
 50
273.9999999999985
 51
357.0000000000003
  0
ARC
  5
7C52
330
1F
100
AcDbEntity
  8
6下模
  6
Continuous
 62
     0
100
AcDbCircle
 10
38182.27934697248
 20
8105.350197575583
 30
0.0
 40
50.0
100
AcDbArc
 50
273.999999999999
 51
356.9999999999989
  0
ARC
  5
7C53
102
{ACAD_REACTORS
330
7C63
102
}
330
1F
100
AcDbEntity
  8
6下模
  6
Continuous
 62
     0
100
AcDbCircle
 10
38189.85382544812
 20
8385.00234646537
 30
0.0
 40
50.0
100
AcDbArc
 50
3.000000000026632
 51
86.00000000000022
  0
DIMENSION
  5
7C54
102
{ACAD_XDICTIONARY
360
7C5D
102
}
102
{ACAD_REACTORS
330
7C63
102
}
330
1F
100
AcDbEntity
  8
6d
  6
Continuous
 62
     0
100
AcDbDimension
280
     0
  2
*D109
 10
38189.85382544811
 20
8385.002346465361
 30
0.0
 11
38119.4928897968
 21
8341.925801405762
 31
0.0
 70
   164
  1
<>{\Ftxt|c134; [2"]}
 71
     5
 42
50.00000000000728
 73
     0
 74
     0
 75
     0
  3
ISO-25
100
AcDbRadialDimension
 15
38232.49681675194
 25
8411.10934347118
 35
0.0
 40
0.0
1001
ACAD
1000
DSTYLE
1002
{
1070
    41
1040
15.0
1070
   140
1040
30.0
1070
   141
1040
0.5
1070
   179
1070
     2
1002
}
  0
LINE
  5
7CA9
330
1F
100
AcDbEntity
  8
4冲头
 62
     0
100
AcDbLine
 10
38636.36366221093
 20
9346.846628007822
 30
0.0
 11
38628.36366221094
 21
9346.846628007822
 31
0.0
  0
LINE
  5
7CAA
330
1F
100
AcDbEntity
  8
4冲头
 62
     0
100
AcDbLine
 10
38627.36366221093
 20
9331.062348799001
 30
0.0
 11
38627.36366221093
 21
9344.646628007822
 31
0.0
  0
LINE
  5
7CAB
330
1F
100
AcDbEntity
  8
4冲头
 62
     0
100
AcDbLine
 10
38627.36366221093
 20
9334.846628007822
 30
0.0
 11
38628.56366221094
 21
9334.846628007822
 31
0.0
  0
LINE
  5
7CAC
330
1F
100
AcDbEntity
  8
4冲头
 62
     0
100
AcDbLine
 10
38628.56366221094
 20
9334.846628007822
 30
0.0
 11
38628.56366221094
 21
9331.062348799001
 31
0.0
  0
ARC
  5
7CAD
330
1F
100
AcDbEntity
  8
4冲头
 62
     0
100
AcDbCircle
 10
38627.36366221093
 20
9331.062348799001
 30
0.0
 40
1.200000000000727
100
AcDbArc
 50
180.0
 51
0.0
  0
ARC
  5
7CAE
330
1F
100
AcDbEntity
  8
4冲头
 62
     0
100
AcDbCircle
 10
38637.36366221094
 20
9331.062348799001
 30
0.0
 40
1.200000000000727
100
AcDbArc
 50
180.0
 51
0.0
  0
LINE
  5
7CAF
330
1F
100
AcDbEntity
  8
4冲头
 62
     0
100
AcDbLine
 10
38636.16366221093
 20
9334.846628007822
 30
0.0
 11
38636.16366221093
 21
9331.062348799001
 31
0.0
  0
ARC
  5
7CB0
330
1F
100
AcDbEntity
  8
4冲头
 62
     0
100
AcDbCircle
 10
38628.36366221094
 20
9344.646628007822
 30
0.0
 40
2.2
100
AcDbArc
 50
90.0
 51
180.0
  0
ARC
  5
7CB1
330
1F
100
AcDbEntity
  8
4冲头
 62
     0
100
AcDbCircle
 10
38636.36366221093
 20
9344.646628007822
 30
0.0
 40
2.2
100
AcDbArc
 50
0.0
 51
90.0
  0
ARC
  5
7CB2
330
1F
100
AcDbEntity
  8
4冲头
 62
     0
100
AcDbCircle
 10
38628.36366221094
 20
9344.646628007822
 30
0.0
 40
1.0
100
AcDbArc
 50
90.0
 51
180.0
  0
ARC
  5
7CB3
330
1F
100
AcDbEntity
  8
4冲头
 62
     0
100
AcDbCircle
 10
38636.36366221093
 20
9344.646628007822
 30
0.0
 40
1.0
100
AcDbArc
 50
0.0
 51
90.0
  0
LINE
  5
7CB4
330
1F
100
AcDbEntity
  8
4冲头
 62
     0
100
AcDbLine
 10
38638.56366221094
 20
9344.646628007822
 30
0.0
 11
38638.56366221094
 21
9331.062348799001
 31
0.0
  0
LINE
  5
7CB5
330
1F
100
AcDbEntity
  8
4冲头
 62
     0
100
AcDbLine
 10
38637.36366221094
 20
9334.846628007822
 30
0.0
 11
38636.16366221093
 21
9334.846628007822
 31
0.0
  0
LINE
  5
7CB6
330
1F
100
AcDbEntity
  8
4冲头
 62
     0
100
AcDbLine
 10
38637.36366221094
 20
9331.062348799001
 30
0.0
 11
38637.36366221094
 21
9344.646628007822
 31
0.0
  0
LINE
  5
7CB7
330
1F
100
AcDbEntity
  8
4冲头
 62
     0
100
AcDbLine
 10
38628.36366221094
 20
9345.646628007822
 30
0.0
 11
38636.36366221093
 21
9345.646628007822
 31
0.0
  0
LINE
  5
7CB8
330
1F
100
AcDbEntity
  8
4冲头
 62
     0
100
AcDbLine
 10
38626.16366221093
 20
9344.646628007822
 30
0.0
 11
38626.16366221093
 21
9331.062348799001
 31
0.0
  0
LINE
  5
7CB9
330
1F
100
AcDbEntity
  8
4冲头
 62
     0
100
AcDbLine
 10
38626.16366221093
 20
9344.546628007822
 30
0.0
 11
38626.16366221093
 21
9344.646628007822
 31
0.0
  0
LINE
  5
7CBA
330
1F
100
AcDbEntity
  8
6下模
  6
Continuous
 62
     0
100
AcDbLine
 10
38638.56366221094
 20
9342.198099870399
 30
0.0
 11
38644.01513407351
 21
9342.198099870399
 31
0.0
  0
LINE
  5
7CBB
330
1F
100
AcDbEntity
  8
4冲头
 62
     0
100
AcDbLine
 10
39451.56366221094
 20
9344.546628007822
 30
0.0
 11
39451.56366221094
 21
9344.646628007822
 31
0.0
  0
LINE
  5
7CBC
330
1F
100
AcDbEntity
  8
4冲头
 62
     0
100
AcDbLine
 10
39451.56366221094
 20
9344.646628007822
 30
0.0
 11
39451.56366221094
 21
9331.062348799001
 31
0.0
  0
LINE
  5
7CBD
330
1F
100
AcDbEntity
  8
4冲头
 62
     0
100
AcDbLine
 10
39449.36366221094
 20
9345.646628007822
 30
0.0
 11
39441.36366221093
 21
9345.646628007822
 31
0.0
  0
LINE
  5
7CBE
330
1F
100
AcDbEntity
  8
4冲头
 62
     0
100
AcDbLine
 10
39440.36366221093
 20
9331.062348799001
 30
0.0
 11
39440.36366221093
 21
9344.646628007822
 31
0.0
  0
LINE
  5
7CBF
330
1F
100
AcDbEntity
  8
4冲头
 62
     0
100
AcDbLine
 10
39440.36366221093
 20
9334.846628007822
 30
0.0
 11
39441.56366221094
 21
9334.846628007822
 31
0.0
  0
LINE
  5
7CC0
330
1F
100
AcDbEntity
  8
4冲头
 62
     0
100
AcDbLine
 10
39439.16366221093
 20
9344.646628007822
 30
0.0
 11
39439.16366221093
 21
9331.062348799001
 31
0.0
  0
ARC
  5
7CC1
330
1F
100
AcDbEntity
  8
4冲头
 62
     0
100
AcDbCircle
 10
39441.36366221093
 20
9344.646628007822
 30
0.0
 40
1.0
100
AcDbArc
 50
90.0
 51
180.0
  0
ARC
  5
7CC2
330
1F
100
AcDbEntity
  8
4冲头
 62
     0
100
AcDbCircle
 10
39449.36366221094
 20
9344.646628007822
 30
0.0
 40
1.0
100
AcDbArc
 50
0.000000000000007
 51
90.0
  0
ARC
  5
7CC3
330
1F
100
AcDbEntity
  8
4冲头
 62
     0
100
AcDbCircle
 10
39441.36366221093
 20
9344.646628007822
 30
0.0
 40
2.2
100
AcDbArc
 50
90.0
 51
180.0
  0
ARC
  5
7CC4
330
1F
100
AcDbEntity
  8
4冲头
 62
     0
100
AcDbCircle
 10
39449.36366221094
 20
9344.646628007822
 30
0.0
 40
2.2
100
AcDbArc
 50
0.000000000000007
 51
90.0
  0
LINE
  5
7CC5
330
1F
100
AcDbEntity
  8
4冲头
 62
     0
100
AcDbLine
 10
39441.56366221094
 20
9334.846628007822
 30
0.0
 11
39441.56366221094
 21
9331.062348799001
 31
0.0
  0
ARC
  5
7CC6
330
1F
100
AcDbEntity
  8
4冲头
 62
     0
100
AcDbCircle
 10
39440.36366221093
 20
9331.062348799001
 30
0.0
 40
1.200000000000727
100
AcDbArc
 50
180.0
 51
0.000000000000007
  0
ARC
  5
7CC7
330
1F
100
AcDbEntity
  8
4冲头
 62
     0
100
AcDbCircle
 10
39450.36366221093
 20
9331.062348799001
 30
0.0
 40
1.200000000000727
100
AcDbArc
 50
180.0
 51
0.000000000000007
  0
LINE
  5
7CC8
330
1F
100
AcDbEntity
  8
4冲头
 62
     0
100
AcDbLine
 10
39449.16366221093
 20
9334.846628007822
 30
0.0
 11
39449.16366221093
 21
9331.062348799001
 31
0.0
  0
LINE
  5
7CC9
330
1F
100
AcDbEntity
  8
4冲头
 62
     0
100
AcDbLine
 10
39450.36366221093
 20
9334.846628007822
 30
0.0
 11
39449.16366221093
 21
9334.846628007822
 31
0.0
  0
LINE
  5
7CCA
330
1F
100
AcDbEntity
  8
4冲头
 62
     0
100
AcDbLine
 10
39450.36366221093
 20
9331.062348799001
 30
0.0
 11
39450.36366221093
 21
9344.646628007822
 31
0.0
  0
LINE
  5
7CCB
330
1F
100
AcDbEntity
  8
4冲头
 62
     0
100
AcDbLine
 10
39441.36366221093
 20
9346.846628007822
 30
0.0
 11
39449.36366221094
 21
9346.846628007822
 31
0.0
  0
LINE
  5
7CCC
330
1F
100
AcDbEntity
  8
6下模
  6
Continuous
 62
     0
100
AcDbLine
 10
39439.16366221093
 20
9342.198099870399
 30
0.0
 11
39433.71219034836
 21
9342.198099870399
 31
0.0
  0
LINE
  5
7CCD
330
1F
100
AcDbEntity
  8
4冲头
 62
     0
100
AcDbLine
 10
38054.30299000956
 20
8015.44110158645
 30
0.0
 11
38040.71871080074
 21
8015.44110158645
 31
0.0
  0
LINE
  5
7CCE
330
1F
100
AcDbEntity
  8
4冲头
 62
     0
100
AcDbLine
 10
38050.51871080074
 20
8015.44110158645
 30
0.0
 11
38050.51871080074
 21
8014.241101586446
 31
0.0
  0
LINE
  5
7CCF
330
1F
100
AcDbEntity
  8
4冲头
 62
     0
100
AcDbLine
 10
38050.51871080074
 20
8014.241101586446
 30
0.0
 11
38054.30299000956
 21
8014.241101586446
 31
0.0
  0
ARC
  5
7CD0
330
1F
100
AcDbEntity
  8
4冲头
 62
     0
100
AcDbCircle
 10
38054.30299000955
 20
8015.441101586452
 30
0.0
 40
1.200000000000727
100
AcDbArc
 50
270.0
 51
90.00000000000003
  0
ARC
  5
7CD1
330
1F
100
AcDbEntity
  8
4冲头
 62
     0
100
AcDbCircle
 10
38054.30299000955
 20
8005.441101586452
 30
0.0
 40
1.200000000000727
100
AcDbArc
 50
270.0
 51
90.00000000000003
  0
LINE
  5
7CD2
330
1F
100
AcDbEntity
  8
4冲头
 62
     0
100
AcDbLine
 10
38050.51871080074
 20
8006.641101586454
 30
0.0
 11
38054.30299000956
 21
8006.641101586454
 31
0.0
  0
LINE
  5
7CD3
330
1F
100
AcDbEntity
  8
4冲头
 62
     0
100
AcDbLine
 10
38040.71871080074
 20
8004.241101586446
 30
0.0
 11
38054.30299000956
 21
8004.241101586446
 31
0.0
  0
LINE
  5
7CD4
330
1F
100
AcDbEntity
  8
4冲头
 62
     0
100
AcDbLine
 10
38050.51871080074
 20
8005.44110158645
 30
0.0
 11
38050.51871080074
 21
8006.641101586454
 31
0.0
  0
LINE
  5
7CD5
330
1F
100
AcDbEntity
  8
4冲头
 62
     0
100
AcDbLine
 10
38054.30299000956
 20
8005.44110158645
 30
0.0
 11
38040.71871080074
 21
8005.44110158645
 31
0.0
  0
LINE
  5
7CD6
330
1F
100
AcDbEntity
  8
4冲头
 62
     0
100
AcDbLine
 10
38040.71871080074
 20
8016.641101586454
 30
0.0
 11
38054.30299000956
 21
8016.641101586454
 31
0.0
  0
LINE
  5
7CD7
330
1F
100
AcDbEntity
  8
4冲头
 62
     0
100
AcDbLine
 10
38038.51871080074
 20
8006.44110158645
 30
0.0
 11
38038.51871080074
 21
8014.44110158645
 31
0.0
  0
ARC
  5
7CD8
330
1F
100
AcDbEntity
  8
4冲头
 62
     0
100
AcDbCircle
 10
38040.71871080074
 20
8014.441101586452
 30
0.0
 40
2.2
100
AcDbArc
 50
90.00000000000003
 51
180.0
  0
ARC
  5
7CD9
330
1F
100
AcDbEntity
  8
4冲头
 62
     0
100
AcDbCircle
 10
38040.71871080074
 20
8006.441101586451
 30
0.0
 40
2.2
100
AcDbArc
 50
180.0
 51
270.0
  0
ARC
  5
7CDA
330
1F
100
AcDbEntity
  8
4冲头
 62
     0
100
AcDbCircle
 10
38040.71871080074
 20
8014.441101586452
 30
0.0
 40
1.0
100
AcDbArc
 50
90.00000000000003
 51
180.0
  0
ARC
  5
7CDB
330
1F
100
AcDbEntity
  8
4冲头
 62
     0
100
AcDbCircle
 10
38040.71871080074
 20
8006.441101586451
 30
0.0
 40
1.0
100
AcDbArc
 50
180.0
 51
270.0
  0
LINE
  5
7CDC
330
1F
100
AcDbEntity
  8
4冲头
 62
     0
100
AcDbLine
 10
38039.71871080074
 20
8014.44110158645
 30
0.0
 11
38039.71871080074
 21
8006.44110158645
 31
0.0
  0
LINE
  5
7CDD
330
1F
100
AcDbEntity
  8
4冲头
 62
     0
100
AcDbLine
 10
38040.81871080073
 20
8016.641101586454
 30
0.0
 11
38040.71871080074
 21
8016.641101586454
 31
0.0
  0
LINE
  5
7CDE
330
1F
100
AcDbEntity
  8
4冲头
 62
     0
100
AcDbLine
 10
38040.81871080073
 20
8549.641101586447
 30
0.0
 11
38040.71871080074
 21
8549.641101586447
 31
0.0
  0
LINE
  5
7CDF
330
1F
100
AcDbEntity
  8
4冲头
 62
     0
100
AcDbLine
 10
38039.71871080074
 20
8547.441101586443
 30
0.0
 11
38039.71871080074
 21
8539.441101586442
 31
0.0
  0
ARC
  5
7CE0
330
1F
100
AcDbEntity
  8
4冲头
 62
     0
100
AcDbCircle
 10
38040.71871080074
 20
8539.441101586445
 30
0.0
 40
1.0
100
AcDbArc
 50
180.0
 51
270.0
  0
ARC
  5
7CE1
330
1F
100
AcDbEntity
  8
4冲头
 62
     0
100
AcDbCircle
 10
38040.71871080074
 20
8547.441101586445
 30
0.0
 40
1.0
100
AcDbArc
 50
90.00000000000003
 51
180.0
  0
ARC
  5
7CE2
330
1F
100
AcDbEntity
  8
4冲头
 62
     0
100
AcDbCircle
 10
38040.71871080074
 20
8539.441101586445
 30
0.0
 40
2.2
100
AcDbArc
 50
180.0
 51
270.0
  0
ARC
  5
7CE3
330
1F
100
AcDbEntity
  8
4冲头
 62
     0
100
AcDbCircle
 10
38040.71871080074
 20
8547.441101586445
 30
0.0
 40
2.2
100
AcDbArc
 50
90.00000000000003
 51
180.0
  0
LINE
  5
7CE4
330
1F
100
AcDbEntity
  8
4冲头
 62
     0
100
AcDbLine
 10
38038.51871080074
 20
8539.441101586442
 30
0.0
 11
38038.51871080074
 21
8547.441101586443
 31
0.0
  0
LINE
  5
7CE5
330
1F
100
AcDbEntity
  8
4冲头
 62
     0
100
AcDbLine
 10
38040.71871080074
 20
8549.641101586447
 30
0.0
 11
38054.30299000956
 21
8549.641101586447
 31
0.0
  0
LINE
  5
7CE6
330
1F
100
AcDbEntity
  8
4冲头
 62
     0
100
AcDbLine
 10
38054.30299000956
 20
8538.441101586442
 30
0.0
 11
38040.71871080074
 21
8538.441101586442
 31
0.0
  0
LINE
  5
7CE7
330
1F
100
AcDbEntity
  8
4冲头
 62
     0
100
AcDbLine
 10
38050.51871080074
 20
8538.441101586442
 30
0.0
 11
38050.51871080074
 21
8539.641101586447
 31
0.0
  0
LINE
  5
7CE8
330
1F
100
AcDbEntity
  8
4冲头
 62
     0
100
AcDbLine
 10
38040.71871080074
 20
8537.241101586438
 30
0.0
 11
38054.30299000956
 21
8537.241101586438
 31
0.0
  0
LINE
  5
7CE9
330
1F
100
AcDbEntity
  8
4冲头
 62
     0
100
AcDbLine
 10
38050.51871080074
 20
8539.641101586447
 30
0.0
 11
38054.30299000956
 21
8539.641101586447
 31
0.0
  0
ARC
  5
7CEA
330
1F
100
AcDbEntity
  8
4冲头
 62
     0
100
AcDbCircle
 10
38054.30299000955
 20
8538.441101586444
 30
0.0
 40
1.200000000000727
100
AcDbArc
 50
270.0
 51
90.00000000000003
  0
ARC
  5
7CEB
330
1F
100
AcDbEntity
  8
4冲头
 62
     0
100
AcDbCircle
 10
38054.30299000955
 20
8548.441101586444
 30
0.0
 40
1.200000000000727
100
AcDbArc
 50
270.0
 51
90.00000000000003
  0
LINE
  5
7CEC
330
1F
100
AcDbEntity
  8
4冲头
 62
     0
100
AcDbLine
 10
38050.51871080074
 20
8547.241101586438
 30
0.0
 11
38054.30299000956
 21
8547.241101586438
 31
0.0
  0
LINE
  5
7CED
330
1F
100
AcDbEntity
  8
4冲头
 62
     0
100
AcDbLine
 10
38050.51871080074
 20
8548.441101586442
 30
0.0
 11
38050.51871080074
 21
8547.241101586438
 31
0.0
  0
LINE
  5
7CEE
330
1F
100
AcDbEntity
  8
4冲头
 62
     0
100
AcDbLine
 10
38054.30299000956
 20
8548.441101586442
 30
0.0
 11
38040.71871080074
 21
8548.441101586442
 31
0.0
  0
LINE
  5
7CEF
330
1F
100
AcDbEntity
  8
6下模
  6
Continuous
 62
     0
100
AcDbLine
 10
38043.16723893816
 20
8016.641101586454
 30
0.0
 11
38043.16723893816
 21
8022.092573449031
 31
0.0
  0
LINE
  5
7CF0
330
1F
100
AcDbEntity
  8
6下模
  6
Continuous
 62
     0
100
AcDbLine
 10
38043.16723893817
 20
8537.241101586438
 30
0.0
 11
38043.16723893817
 21
8470.796044740451
 31
0.0
  0
LINE
  5
7CF1
330
1F
100
AcDbEntity
  8
4冲头
 62
     0
100
AcDbLine
 10
38050.01710405914
 20
9468.809529993633
 30
0.0
 11
37982.09570801503
 21
9468.809529993633
 31
0.0
  0
LINE
  5
7CF2
330
1F
100
AcDbEntity
  8
4冲头
 62
     0
100
AcDbLine
 10
38031.09570801504
 20
9468.809529993633
 30
0.0
 11
38031.09570801504
 21
9462.809529993611
 31
0.0
  0
LINE
  5
7CF3
330
1F
100
AcDbEntity
  8
4冲头
 62
     0
100
AcDbLine
 10
38031.09570801504
 20
9462.809529993611
 30
0.0
 11
38050.01710405914
 21
9462.809529993611
 31
0.0
  0
ARC
  5
7CF4
330
1F
100
AcDbEntity
  8
4冲头
 62
     0
100
AcDbCircle
 10
38050.0171040591
 20
9468.809529993642
 30
0.0
 40
6.000000000003637
100
AcDbArc
 50
270.0
 51
90.00000000000003
  0
ARC
  5
7CF5
330
1F
100
AcDbEntity
  8
4冲头
 62
     0
100
AcDbCircle
 10
38050.0171040591
 20
9418.809529993643
 30
0.0
 40
6.000000000003637
100
AcDbArc
 50
270.0
 51
90.00000000000003
  0
LINE
  5
7CF6
330
1F
100
AcDbEntity
  8
4冲头
 62
     0
100
AcDbLine
 10
38031.09570801504
 20
9424.809529993654
 30
0.0
 11
38050.01710405914
 21
9424.809529993654
 31
0.0
  0
LINE
  5
7CF7
330
1F
100
AcDbEntity
  8
4冲头
 62
     0
100
AcDbLine
 10
37982.09570801503
 20
9412.80952999361
 30
0.0
 11
38050.01710405914
 21
9412.80952999361
 31
0.0
  0
LINE
  5
7CF8
330
1F
100
AcDbEntity
  8
4冲头
 62
     0
100
AcDbLine
 10
38031.09570801504
 20
9418.809529993632
 30
0.0
 11
38031.09570801504
 21
9424.809529993654
 31
0.0
  0
LINE
  5
7CF9
330
1F
100
AcDbEntity
  8
4冲头
 62
     0
100
AcDbLine
 10
38050.01710405914
 20
9418.809529993632
 30
0.0
 11
37982.09570801503
 21
9418.809529993632
 31
0.0
  0
LINE
  5
7CFA
330
1F
100
AcDbEntity
  8
4冲头
 62
     0
100
AcDbLine
 10
37982.09570801503
 20
9474.809529993654
 30
0.0
 11
38050.01710405914
 21
9474.809529993654
 31
0.0
  0
LINE
  5
7CFB
330
1F
100
AcDbEntity
  8
4冲头
 62
     0
100
AcDbLine
 10
37971.09570801504
 20
9423.809529993631
 30
0.0
 11
37971.09570801504
 21
9463.809529993632
 31
0.0
  0
ARC
  5
7CFC
330
1F
100
AcDbEntity
  8
4冲头
 62
     0
100
AcDbCircle
 10
37982.09570801503
 20
9463.809529993641
 30
0.0
 40
11.0
100
AcDbArc
 50
90.00000000000003
 51
180.0
  0
ARC
  5
7CFD
330
1F
100
AcDbEntity
  8
4冲头
 62
     0
100
AcDbCircle
 10
37982.09570801503
 20
9423.809529993642
 30
0.0
 40
11.0
100
AcDbArc
 50
180.0
 51
270.0
  0
ARC
  5
7CFE
330
1F
100
AcDbEntity
  8
4冲头
 62
     0
100
AcDbCircle
 10
37982.09570801503
 20
9463.809529993641
 30
0.0
 40
5.0
100
AcDbArc
 50
90.00000000000003
 51
180.0
  0
ARC
  5
7CFF
330
1F
100
AcDbEntity
  8
4冲头
 62
     0
100
AcDbCircle
 10
37982.09570801503
 20
9423.809529993642
 30
0.0
 40
5.0
100
AcDbArc
 50
180.0
 51
270.0
  0
LINE
  5
7D00
330
1F
100
AcDbEntity
  8
4冲头
 62
     0
100
AcDbLine
 10
37977.09570801503
 20
9463.809529993632
 30
0.0
 11
37977.09570801503
 21
9423.809529993631
 31
0.0
  0
LINE
  5
7D01
330
1F
100
AcDbEntity
  8
4冲头
 62
     0
100
AcDbLine
 10
37982.59570801502
 20
9474.809529993654
 30
0.0
 11
37982.09570801503
 21
9474.809529993654
 31
0.0
  0
LINE
  5
7D02
330
1F
100
AcDbEntity
  8
6下模
  6
Continuous
 62
     0
100
AcDbLine
 10
37994.33834870218
 20
9412.809529993609
 30
0.0
 11
37994.33834870221
 21
9080.584245763672
 31
0.0
  0
DIMENSION
  5
7E01
102
{ACAD_XDICTIONARY
360
7E0E
102
}
102
{ACAD_REACTORS
330
7E18
102
}
330
1F
100
AcDbEntity
  8
6d
  6
Continuous
 62
     0
100
AcDbDimension
280
     0
  2
*D111
 10
37784.43661764475
 20
9406.309529993654
 30
0.0
 11
37764.43661764475
 21
9306.309529993642
 31
0.0
 70
    32
  1
25{\Ftxt|c134; [1"]}
 71
     5
 42
100.0
 73
     0
 74
     0
 75
     0
  3
ISO-25
100
AcDbAlignedDimension
 13
37989.09570801506
 23
9506.30952999365
 33
0.0
 14
37965.09570801505
 24
9406.30952999365
 34
0.0
 50
90.0
100
AcDbRotatedDimension
1001
ACAD
1000
DSTYLE
1002
{
1070
    41
1040
15.0
1070
   140
1040
30.0
1070
   141
1040
0.5
1070
   179
1070
     2
1002
}
  0
DIMENSION
  5
7F7A
102
{ACAD_XDICTIONARY
360
7F89
102
}
102
{ACAD_REACTORS
330
7F95
102
}
330
1F
100
AcDbEntity
  8
6d
  6
Continuous
100
AcDbDimension
280
     0
  2
*D112
 10
38619.86366221093
 20
9564.672455979879
 30
0.0
 11
38504.86366221092
 21
9584.672455979879
 31
0.0
 70
    32
  1
<>{\Ftxt|c134; [1"]}
 71
     5
 42
25.0
 73
     0
 74
     0
 75
     0
  3
ISO-25
100
AcDbAlignedDimension
 13
38644.86366221093
 23
9343.046628007822
 33
0.0
 14
38619.86366221093
 24
9343.046628007822
 34
0.0
100
AcDbRotatedDimension
1001
ACAD
1000
DSTYLE
1002
{
1070
    41
1040
15.0
1070
   140
1040
30.0
1070
   141
1040
0.5
1070
   179
1070
     2
1002
}
  0
DIMENSION
  5
7FAB
330
1F
100
AcDbEntity
  8
6d
  6
Continuous
100
AcDbDimension
280
     0
  2
*D113
 10
37718.75009520455
 20
9076.30952999365
 30
0.0
 11
37698.75009520454
 21
9291.30952999364
 31
0.0
 70
    32
  1
86{\Ftxt|c134; [3.4"]}
 71
     5
 42
430.0000000000036
 73
     0
 74
     0
 75
     0
  3
ISO-25
100
AcDbAlignedDimension
 13
37935.59617626642
 23
9506.30952999365
 33
0.0
 14
37943.09617626649
 24
9076.309529993647
 34
0.0
 50
90.0
100
AcDbRotatedDimension
1001
ACAD
1000
DSTYLE
1002
{
1070
    41
1040
15.0
1070
   140
1040
30.0
1070
   141
1040
0.5
1070
   179
1070
     2
1002
}
  0
DIMENSION
  5
7FFA
330
1F
100
AcDbEntity
  8
6d
  6
Continuous
100
AcDbDimension
280
     0
  2
*D114
 10
39578.76633092348
 20
8022.94110158645
 30
0.0
 11
39533.76633092346
 21
8183.045620721834
 31
0.0
 70
   160
  1
<>{\Ftxt|c134; [17.6"]}
 71
     5
 42
447.0
 73
     0
 74
     0
 75
     0
  3
ISO-25
100
AcDbAlignedDimension
 13
39419.86366221095
 23
8469.941101586448
 33
0.0
 14
39419.86366221093
 24
8022.941101586445
 34
0.0
 50
90.0
100
AcDbRotatedDimension
1001
ACAD
1000
DSTYLE
1002
{
1070
    41
1040
15.0
1070
   140
1040
30.0
1070
   141
1040
0.5
1070
   179
1070
     2
1070
   279
1070
     2
1002
}
  0
DIMENSION
  5
7FFD
330
1F
100
AcDbEntity
  8
6d
  6
Continuous
100
AcDbDimension
280
     0
  2
*D115
 10
39578.76633092351
 20
8555.94110158645
 30
0.0
 11
39624.51907342429
 21
8516.169714013372
 31
0.0
 70
   160
  1
<>{\Ftxt|c134; [3.4"]}
 71
     5
 42
86.0
 73
     0
 74
     0
 75
     0
  3
ISO-25
100
AcDbAlignedDimension
 13
39419.86366221095
 23
8469.941101586448
 33
0.0
 14
39419.86366221094
 24
8555.941101586446
 34
0.0
 50
90.0
100
AcDbRotatedDimension
1001
ACAD
1000
DSTYLE
1002
{
1070
    41
1040
15.0
1070
   140
1040
30.0
1070
   141
1040
0.5
1070
   179
1070
     2
1070
   279
1070
     2
1002
}
  0
DIMENSION
  5
8073
102
{ACAD_XDICTIONARY
360
8082
102
}
102
{ACAD_REACTORS
330
808E
102
}
330
1F
100
AcDbEntity
  8
6d
  6
Continuous
100
AcDbDimension
280
     0
  2
*D116
 10
39432.86366221093
 20
8309.978377739041
 30
0.0
 11
39515.36366221093
 21
8354.97837773904
 31
0.0
 70
    32
  1
<>{\Ftxt|c134; [.9"]}
 71
     5
 42
22.5
 73
     0
 74
     0
 75
     0
  3
ISO-25
100
AcDbAlignedDimension
 13
39410.36366221093
 23
8282.654008421902
 33
0.0
 14
39432.86366221093
 24
8282.654008421902
 34
0.0
100
AcDbRotatedDimension
1001
ACAD
1000
DSTYLE
1002
{
1070
    41
1040
15.0
1070
   140
1040
30.0
1070
   141
1040
0.5
1070
   179
1070
     2
1002
}
  0
ENDSEC
  0
SECTION
  2
OBJECTS
  0
DICTIONARY
  5
C
330
0
100
AcDbDictionary
281
     1
  3
ACAD_CIP_PREVIOUS_PRODUCT_INFO
350
80C0
  3
ACAD_COLOR
350
6B
  3
ACAD_DETAILVIEWSTYLE
350
80B9
  3
ACAD_GROUP
350
D
  3
ACAD_LAYOUT
350
1A
  3
ACAD_MATERIAL
350
6A
  3
ACAD_MLEADERSTYLE
350
80B5
  3
ACAD_MLINESTYLE
350
17
  3
ACAD_PLOTSETTINGS
350
19
  3
ACAD_PLOTSTYLENAME
350
E
  3
ACAD_SCALELIST
350
80A3
  3
ACAD_SECTIONVIEWSTYLE
350
80B7
  3
ACAD_TABLESTYLE
350
806C
  3
ACAD_VISUALSTYLE
350
805B
  3
AcadDim
350
5D86
  3
ACDB_RECOMPOSE_DATA
350
8484
  3
AcDbVariableDictionary
350
5E
  3
lxx_dict
350
8096
  0
DICTIONARY
  5
845B
330
2
100
AcDbDictionary
280
     1
281
     1
  3
ACAD_LAYERSTATES
360
845C
  0
DICTIONARY
  5
83AE
330
10
100
AcDbDictionary
280
     1
281
     1
  3
ADSK_XREC_LAYER_RECONCILED
360
83AF
  0
DICTIONARY
  5
83B0
330
84
100
AcDbDictionary
280
     1
281
     1
  3
ADSK_XREC_LAYER_RECONCILED
360
83B1
  0
DICTIONARY
  5
83B2
330
86
100
AcDbDictionary
280
     1
281
     1
  3
ADSK_XREC_LAYER_RECONCILED
360
83B3
  0
DICTIONARY
  5
83B4
330
8C
100
AcDbDictionary
280
     1
281
     1
  3
ADSK_XREC_LAYER_RECONCILED
360
83B5
  0
DICTIONARY
  5
83B6
330
3FC1
100
AcDbDictionary
280
     1
281
     1
  3
ADSK_XREC_LAYER_RECONCILED
360
83B7
  0
DICTIONARY
  5
83B8
330
7C7C
100
AcDbDictionary
280
     1
281
     1
  3
ADSK_XREC_LAYER_RECONCILED
360
83B9
  0
DICTIONARY
  5
78A6
330
78A5
100
AcDbDictionary
280
     1
281
     1
  3
ACAD_DIMASSOC
360
78A7
  0
DICTIONARY
  5
78A9
330
78A8
100
AcDbDictionary
280
     1
281
     1
  3
ACAD_DIMASSOC
360
78AA
  0
DICTIONARY
  5
78AC
330
78AB
100
AcDbDictionary
280
     1
281
     1
  3
ACAD_DIMASSOC
360
78AD
  0
DICTIONARY
  5
78AF
330
78AE
100
AcDbDictionary
280
     1
281
     1
  3
ACAD_DIMASSOC
360
78B0
  0
DICTIONARY
  5
78B2
330
78B1
100
AcDbDictionary
280
     1
281
     1
  3
ACAD_DIMASSOC
360
78B3
  0
DICTIONARY
  5
78B5
330
78B4
100
AcDbDictionary
280
     1
281
     1
  3
ACAD_DIMASSOC
360
78B6
  0
DICTIONARY
  5
78B8
330
78B7
100
AcDbDictionary
280
     1
281
     1
  3
ACAD_DIMASSOC
360
78B9
  0
DICTIONARY
  5
78BD
330
78BC
100
AcDbDictionary
280
     1
281
     1
  3
ACAD_DIMASSOC
360
78BE
  0
DICTIONARY
  5
78C3
330
78C2
100
AcDbDictionary
280
     1
281
     1
  3
ACAD_DIMASSOC
360
78C4
  0
DICTIONARY
  5
78E2
330
78E1
100
AcDbDictionary
280
     1
281
     1
  3
ACAD_DIMASSOC
360
78E3
  0
DICTIONARY
  5
78E6
330
78E5
100
AcDbDictionary
280
     1
281
     1
  3
ACAD_DIMASSOC
360
78E7
  0
DICTIONARY
  5
78E9
330
78E8
100
AcDbDictionary
280
     1
281
     1
  3
ACAD_DIMASSOC
360
78EA
  0
DICTIONARY
  5
78F5
330
78F4
100
AcDbDictionary
280
     1
281
     1
  3
ACAD_DIMASSOC
360
78F6
  0
DICTIONARY
  5
78F8
330
78F7
100
AcDbDictionary
280
     1
281
     1
  3
ACAD_DIMASSOC
360
78F9
  0
DICTIONARY
  5
78FC
330
78FB
100
AcDbDictionary
280
     1
281
     1
  3
ACAD_DIMASSOC
360
78FD
  0
DICTIONARY
  5
78FF
330
78FE
100
AcDbDictionary
280
     1
281
     1
  3
ACAD_DIMASSOC
360
7900
  0
DICTIONARY
  5
7902
330
7901
100
AcDbDictionary
280
     1
281
     1
  3
ACAD_DIMASSOC
360
7903
  0
DICTIONARY
  5
7905
330
7904
100
AcDbDictionary
280
     1
281
     1
  3
ACAD_DIMASSOC
360
7906
  0
DICTIONARY
  5
7908
330
7907
100
AcDbDictionary
280
     1
281
     1
  3
ACAD_DIMASSOC
360
7909
  0
DICTIONARY
  5
790B
330
790A
100
AcDbDictionary
280
     1
281
     1
  3
ACAD_DIMASSOC
360
790C
  0
DICTIONARY
  5
790E
330
790D
100
AcDbDictionary
280
     1
281
     1
  3
ACAD_DIMASSOC
360
790F
  0
DICTIONARY
  5
7911
330
7910
100
AcDbDictionary
280
     1
281
     1
  3
ACAD_DIMASSOC
360
7912
  0
DICTIONARY
  5
7914
330
7913
100
AcDbDictionary
280
     1
281
     1
  3
ACAD_DIMASSOC
360
7915
  0
DICTIONARY
  5
7919
330
7918
100
AcDbDictionary
280
     1
281
     1
  3
ACAD_DIMASSOC
360
791A
  0
DICTIONARY
  5
791C
330
791B
100
AcDbDictionary
280
     1
281
     1
  3
ACAD_DIMASSOC
360
791D
  0
DICTIONARY
  5
791F
330
791E
100
AcDbDictionary
280
     1
281
     1
  3
ACAD_DIMASSOC
360
7920
  0
DICTIONARY
  5
7922
330
7921
100
AcDbDictionary
280
     1
281
     1
  3
ACAD_DIMASSOC
360
7923
  0
DICTIONARY
  5
7C5D
330
7C54
100
AcDbDictionary
280
     1
281
     1
  3
ACAD_DIMASSOC
360
7C63
  0
DICTIONARY
  5
7E0E
330
7E01
100
AcDbDictionary
280
     1
281
     1
  3
ACAD_DIMASSOC
360
7E18
  0
DICTIONARY
  5
7F89
330
7F7A
100
AcDbDictionary
280
     1
281
     1
  3
ACAD_DIMASSOC
360
7F95
  0
DICTIONARY
  5
8082
330
8073
100
AcDbDictionary
280
     1
281
     1
  3
ACAD_DIMASSOC
360
808E
  0
XRECORD
  5
80C0
102
{ACAD_REACTORS
330
C
102
}
330
C
100
AcDbXrecord
280
     1
300
ACDLT
300
2018
300

  0
DICTIONARY
  5
6B
102
{ACAD_REACTORS
330
C
102
}
330
C
100
AcDbDictionary
281
     1
  0
DICTIONARY
  5
80B9
102
{ACAD_REACTORS
330
C
102
}
330
C
100
AcDbDictionary
281
     1
  3
Metric50
350
80BA
  0
DICTIONARY
  5
D
102
{ACAD_REACTORS
330
C
102
}
330
C
100
AcDbDictionary
281
     1
  0
DICTIONARY
  5
1A
102
{ACAD_REACTORS
330
C
102
}
330
C
100
AcDbDictionary
281
     1
  3
Layout1
350
51
  3
Layout2
350
56
  3
Model
350
22
  0
DICTIONARY
  5
6A
102
{ACAD_REACTORS
330
C
102
}
330
C
100
AcDbDictionary
281
     1
  3
ByBlock
350
8059
  3
ByLayer
350
8058
  3
Global
350
805A
  0
DICTIONARY
  5
80B5
102
{ACAD_REACTORS
330
C
102
}
330
C
100
AcDbDictionary
281
     1
  3
Standard
350
80B6
  0
DICTIONARY
  5
17
102
{ACAD_REACTORS
330
C
102
}
330
C
100
AcDbDictionary
281
     1
  3
Standard
350
18
  0
DICTIONARY
  5
19
102
{ACAD_REACTORS
330
C
102
}
330
C
100
AcDbDictionary
281
     1
  0
ACDBDICTIONARYWDFLT
  5
E
102
{ACAD_REACTORS
330
C
102
}
330
C
100
AcDbDictionary
281
     1
  3
Normal
350
F
100
AcDbDictionaryWithDefault
340
F
  0
DICTIONARY
  5
80A3
102
{ACAD_REACTORS
330
C
102
}
330
C
100
AcDbDictionary
281
     1
  3
A0
350
80A4
  3
A1
350
80A5
  3
A2
350
80A6
  3
A3
350
80A7
  3
A4
350
80A8
  3
A5
350
80A9
  3
A6
350
80AA
  3
A7
350
80AB
  3
A8
350
80AC
  3
A9
350
80AD
  3
B0
350
80AE
  3
B1
350
80AF
  3
B2
350
80B0
  3
B3
350
80B1
  3
B4
350
80B2
  3
B5
350
80B3
  3
B6
350
80B4
  0
DICTIONARY
  5
80B7
102
{ACAD_REACTORS
330
C
102
}
330
C
100
AcDbDictionary
281
     1
  3
Metric50
350
80B8
  0
DICTIONARY
  5
806C
102
{ACAD_REACTORS
330
C
102
}
330
C
100
AcDbDictionary
281
     1
  3
Standard
350
806D
  0
DICTIONARY
  5
805B
102
{ACAD_REACTORS
330
C
102
}
330
C
100
AcDbDictionary
281
     1
  3
2dWireframe
350
8061
  3
3D Hidden
350
8063
  3
3dWireframe
350
8062
  3
Basic
350
8060
  3
Brighten
350
8067
  3
ColorChange
350
806B
  3
Conceptual
350
8064
  3
Dim
350
8066
  3
EdgeColorOff
350
80A2
  3
Facepattern
350
806A
  3
Flat
350
805C
  3
FlatWithEdges
350
805D
  3
Gouraud
350
805E
  3
GouraudWithEdges
350
805F
  3
Hidden
350
809A
  3
JitterOff
350
80A0
  3
Linepattern
350
8069
  3
OverhangOff
350
80A1
  3
Realistic
350
8065
  3
Shaded
350
809F
  3
Shaded with edges
350
809E
  3
Shades of Gray
350
809B
  3
Sketchy
350
809C
  3
Thicken
350
8068
  3
Wireframe
350
8099
  3
X-Ray
350
809D
  0
XRECORD
  5
5D86
102
{ACAD_REACTORS
330
C
102
}
330
C
100
AcDbXrecord
280
     1
 90
   990106
  3

 60
     0
 61
     0
 62
     1
 63
     3
 64
     0
 65
     0
 66
     0
 67
     3
 68
     1
 69
     0
 70
     0
 71
     0
 72
     0
 40
0.0
170
     0
340
0
  0
XRECORD
  5
8484
102
{ACAD_REACTORS
330
C
102
}
330
C
100
AcDbXrecord
280
     1
 90
        1
330
7FFA
330
7FFD
330
806D
  0
DICTIONARY
  5
5E
102
{ACAD_REACTORS
330
C
102
}
330
C
100
AcDbDictionary
281
     1
  3
CANNOSCALE
350
847E
  3
CMLEADERSTYLE
350
847A
  3
CTABLESTYLE
350
808F
  3
CVIEWDETAILSTYLE
350
847B
  3
CVIEWSECTIONSTYLE
350
847C
  3
DIMASSOC
350
5F
  3
HIDETEXT
350
63
  3
LAYEREVAL
350
8480
  3
LAYERNOTIFY
350
8481
  3
LIGHTINGUNITS
350
847F
  3
MSLTSCALE
350
847D
  3
PROJECTNAME
350
1CF
  0
DICTIONARY
  5
8096
102
{ACAD_REACTORS
330
C
102
}
330
C
100
AcDbDictionary
281
     1
  3
lxx_dimth
350
8097
  0
DICTIONARY
  5
845C
102
{ACAD_REACTORS
330
845B
102
}
330
845B
100
AcDbDictionary
281
     1
  0
XRECORD
  5
83AF
102
{ACAD_REACTORS
330
83AE
102
}
330
83AE
100
AcDbXrecord
280
     1
290
     1
  0
XRECORD
  5
83B1
102
{ACAD_REACTORS
330
83B0
102
}
330
83B0
100
AcDbXrecord
280
     1
290
     1
  0
XRECORD
  5
83B3
102
{ACAD_REACTORS
330
83B2
102
}
330
83B2
100
AcDbXrecord
280
     1
290
     1
  0
XRECORD
  5
83B5
102
{ACAD_REACTORS
330
83B4
102
}
330
83B4
100
AcDbXrecord
280
     1
290
     1
  0
XRECORD
  5
83B7
102
{ACAD_REACTORS
330
83B6
102
}
330
83B6
100
AcDbXrecord
280
     1
290
     1
  0
XRECORD
  5
83B9
102
{ACAD_REACTORS
330
83B8
102
}
330
83B8
100
AcDbXrecord
280
     1
290
     1
  0
DIMASSOC
  5
78A7
102
{ACAD_REACTORS
330
78A6
102
}
330
78A6
100
AcDbDimAssoc
330
78A5
 90
        3
 70
     0
 71
     0
  1
AcDbOsnapPointRef
 72
    10
331
7975
 73
     2
 91
        0
 40
0.8746749318689731
 10
0.0
 20
0.0
 30
0.0
 75
     0
  1
AcDbOsnapPointRef
 72
    10
331
796F
 73
     2
 91
        0
 40
0.976437322947137
 10
0.0
 20
0.0
 30
0.0
 75
     0
  0
DIMASSOC
  5
78AA
102
{ACAD_REACTORS
330
78A9
102
}
330
78A9
100
AcDbDimAssoc
330
78A8
 90
        3
 70
     0
 71
     0
  1
AcDbOsnapPointRef
 72
    10
331
7975
 73
     2
 91
        0
 40
0.9157190666164044
 10
0.0
 20
0.0
 30
0.0
 75
     0
  1
AcDbOsnapPointRef
 72
     8
331
7970
 73
     2
 91
        0
 40
0.9375990174909667
 10
0.0
 20
0.0
 30
0.0
 75
     1
  1
AcDbOsnapPointRef
 72
    10
331
7975
 73
     2
 91
        0
 40
0.9157190666164044
 10
0.0
 20
0.0
 30
0.0
 75
     0
  0
DIMASSOC
  5
78AD
102
{ACAD_REACTORS
330
78AC
102
}
330
78AC
100
AcDbDimAssoc
330
78AB
 90
        2
 70
     0
 71
     0
  1
AcDbOsnapPointRef
 72
    11
331
7962
 73
     2
 91
        0
 40
0.0
 10
0.0
 20
0.0
 30
0.0
332
7975
 74
     2
 92
        0
 75
     0
  0
DIMASSOC
  5
78B0
102
{ACAD_REACTORS
330
78AF
102
}
330
78AF
100
AcDbDimAssoc
330
78AE
 90
        3
 70
     0
 71
     0
  1
AcDbOsnapPointRef
 72
    13
331
796C
 73
     2
 91
        0
 40
0.0
 10
0.0
 20
0.0
 30
2.000000000000000E+50
 75
     0
  1
AcDbOsnapPointRef
 72
     1
331
7962
 73
     2
 91
        0
 40
1.0
 10
0.0
 20
0.0
 30
2.000000000000000E+50
 75
     0
  0
DIMASSOC
  5
78B3
102
{ACAD_REACTORS
330
78B2
102
}
330
78B2
100
AcDbDimAssoc
330
78B1
 90
        3
 70
     0
 71
     0
  1
AcDbOsnapPointRef
 72
     1
331
796C
 73
     2
 91
        0
 40
0.9999999999999998
 10
0.0
 20
0.0
 30
2.000000000000000E+50
 75
     0
  1
AcDbOsnapPointRef
 72
     1
331
7963
 73
     2
 91
        0
 40
0.9999999999999998
 10
0.0
 20
0.0
 30
2.000000000000000E+50
 75
     0
  0
DIMASSOC
  5
78B6
102
{ACAD_REACTORS
330
78B5
102
}
330
78B5
100
AcDbDimAssoc
330
78B4
 90
        3
 70
     0
 71
     0
  1
AcDbOsnapPointRef
 72
    13
331
78CC
 73
     2
 91
        0
 40
0.0
 10
0.0
 20
0.0
 30
2.000000000000000E+50
 75
     0
  1
AcDbOsnapPointRef
 72
     1
331
78CC
 73
     2
 91
        0
 40
1.0
 10
0.0
 20
0.0
 30
2.000000000000000E+50
 75
     0
  0
DIMASSOC
  5
78B9
102
{ACAD_REACTORS
330
78B8
102
}
330
78B8
100
AcDbDimAssoc
330
78B7
 90
        3
 70
     0
 71
     0
  1
AcDbOsnapPointRef
 72
     1
331
78CA
 73
     2
 91
        0
 40
1.0
 10
0.0
 20
0.0
 30
2.000000000000000E+50
 75
     0
  1
AcDbOsnapPointRef
 72
     8
331
78D2
 73
     2
 91
        0
 40
-0.0000000000020365
 10
0.0
 20
0.0
 30
0.0
 75
     1
  1
AcDbOsnapPointRef
 72
     1
331
78CA
 73
     2
 91
        0
 40
1.0
 10
0.0
 20
0.0
 30
2.000000000000000E+50
 75
     0
  0
DIMASSOC
  5
78BE
102
{ACAD_REACTORS
330
78BD
102
}
330
78BD
100
AcDbDimAssoc
330
78BC
 90
        3
 70
     0
 71
     0
  1
AcDbOsnapPointRef
 72
     1
331
78C9
 73
     2
 91
        0
 40
1.0
 10
0.0
 20
0.0
 30
2.000000000000000E+50
 75
     0
  1
AcDbOsnapPointRef
 72
    13
331
78D7
 73
     2
 91
        0
 40
0.0
 10
0.0
 20
0.0
 30
2.000000000000000E+50
 75
     0
  0
DIMASSOC
  5
78C4
102
{ACAD_REACTORS
330
78C3
102
}
330
78C3
100
AcDbDimAssoc
330
78C2
 90
        3
 70
     0
 71
     0
  1
AcDbOsnapPointRef
 72
     1
331
78CE
 73
     2
 91
        0
 40
1.0
 10
0.0
 20
0.0
 30
2.000000000000000E+50
 75
     0
  1
AcDbOsnapPointRef
 72
     8
331
78CA
 73
     2
 91
        0
 40
0.8617148819539577
 10
0.0
 20
0.0
 30
0.0
 75
     1
  1
AcDbOsnapPointRef
 72
     1
331
78CE
 73
     2
 91
        0
 40
1.0
 10
0.0
 20
0.0
 30
2.000000000000000E+50
 75
     0
  0
DIMASSOC
  5
78E3
102
{ACAD_REACTORS
330
78E2
102
}
330
78E2
100
AcDbDimAssoc
330
78E1
 90
        3
 70
     0
 71
     0
  1
AcDbOsnapPointRef
 72
    13
331
7926
 73
     2
 91
        0
 40
0.0
 10
0.0
 20
0.0
 30
2.000000000000000E+50
 75
     0
  1
AcDbOsnapPointRef
 72
     1
331
7938
 73
     2
 91
        0
 40
1.0
 10
0.0
 20
0.0
 30
2.000000000000000E+50
 75
     0
  0
DIMASSOC
  5
78E7
102
{ACAD_REACTORS
330
78E6
102
}
330
78E6
100
AcDbDimAssoc
330
78E5
 90
        3
 70
     0
 71
     0
  1
AcDbOsnapPointRef
 72
     1
331
792A
 73
     2
 91
        0
 40
1.0
 10
0.0
 20
0.0
 30
2.000000000000000E+50
 75
     0
  1
AcDbOsnapPointRef
 72
    13
331
7948
 73
     2
 91
        0
 40
0.0
 10
0.0
 20
0.0
 30
2.000000000000000E+50
 75
     0
  0
DIMASSOC
  5
78EA
102
{ACAD_REACTORS
330
78E9
102
}
330
78E9
100
AcDbDimAssoc
330
78E8
 90
        3
 70
     0
 71
     0
  1
AcDbOsnapPointRef
 72
    13
331
7929
 73
     2
 91
        0
 40
0.0
 10
0.0
 20
0.0
 30
2.000000000000000E+50
 75
     0
  1
AcDbOsnapPointRef
 72
     8
331
7928
 73
     2
 91
        0
 40
-0.0000000000121266
 10
0.0
 20
0.0
 30
0.0
 75
     1
  1
AcDbOsnapPointRef
 72
    13
331
7929
 73
     2
 91
        0
 40
0.0
 10
0.0
 20
0.0
 30
2.000000000000000E+50
 75
     0
  0
DIMASSOC
  5
78F6
102
{ACAD_REACTORS
330
78F5
102
}
330
78F5
100
AcDbDimAssoc
330
78F4
 90
        1
 70
     0
 71
     0
  1
AcDbOsnapPointRef
 72
    13
331
798C
 73
     2
 91
        0
 40
0.0
 10
0.0
 20
0.0
 30
2.000000000000000E+50
 75
     0
  0
DIMASSOC
  5
78F9
102
{ACAD_REACTORS
330
78F8
102
}
330
78F8
100
AcDbDimAssoc
330
78F7
 90
        1
 70
     0
 71
     0
  1
AcDbOsnapPointRef
 72
    13
331
7991
 73
     2
 91
        0
 40
0.0
 10
0.0
 20
0.0
 30
2.000000000000000E+50
 75
     0
  0
DIMASSOC
  5
78FD
102
{ACAD_REACTORS
330
78FC
102
}
330
78FC
100
AcDbDimAssoc
330
78FB
 90
        3
 70
     0
 71
     0
  1
AcDbOsnapPointRef
 72
    13
331
7992
 73
     2
 91
        0
 40
0.0
 10
0.0
 20
0.0
 30
2.000000000000000E+50
 75
     0
  1
AcDbOsnapPointRef
 72
     8
331
7985
 73
     2
 91
        0
 40
-0.0000000000016078
 10
0.0
 20
0.0
 30
0.0
 75
     1
  1
AcDbOsnapPointRef
 72
    13
331
7992
 73
     2
 91
        0
 40
0.0
 10
0.0
 20
0.0
 30
2.000000000000000E+50
 75
     0
  0
DIMASSOC
  5
7900
102
{ACAD_REACTORS
330
78FF
102
}
330
78FF
100
AcDbDimAssoc
330
78FE
 90
        2
 70
     0
 71
     0
  1
AcDbOsnapPointRef
 72
     3
331
799B
 73
     2
 91
        0
 40
0.0
 10
0.0
 20
0.0
 30
0.0
 75
     0
  0
DIMASSOC
  5
7903
102
{ACAD_REACTORS
330
7902
102
}
330
7902
100
AcDbDimAssoc
330
7901
 90
        2
 70
     0
 71
     0
  1
AcDbOsnapPointRef
 72
     3
331
79A9
 73
     2
 91
        0
 40
0.0
 10
0.0
 20
0.0
 30
0.0
 75
     0
  0
DIMASSOC
  5
7906
102
{ACAD_REACTORS
330
7905
102
}
330
7905
100
AcDbDimAssoc
330
7904
 90
        2
 70
     0
 71
     0
  1
AcDbOsnapPointRef
 72
     3
331
7996
 73
     2
 91
        0
 40
0.0
 10
0.0
 20
0.0
 30
0.0
 75
     0
  0
DIMASSOC
  5
7909
102
{ACAD_REACTORS
330
7908
102
}
330
7908
100
AcDbDimAssoc
330
7907
 90
        3
 70
     0
 71
     0
  1
AcDbOsnapPointRef
 72
     3
331
7997
 73
     2
 91
        0
 40
0.0
 10
0.0
 20
0.0
 30
0.0
 75
     0
  1
AcDbOsnapPointRef
 72
     3
331
7994
 73
     2
 91
        0
 40
0.0
 10
0.0
 20
0.0
 30
0.0
 75
     0
  0
DIMASSOC
  5
790C
102
{ACAD_REACTORS
330
790B
102
}
330
790B
100
AcDbDimAssoc
330
790A
 90
        3
 70
     0
 71
     0
  1
AcDbOsnapPointRef
 72
     2
331
79A3
 73
     2
 91
        8
 40
0.5000000000000048
 10
0.0
 20
0.0
 30
0.0
 75
     0
  1
AcDbOsnapPointRef
 72
     3
331
7996
 73
     2
 91
        0
 40
0.0
 10
0.0
 20
0.0
 30
0.0
 75
     0
  0
DIMASSOC
  5
790F
102
{ACAD_REACTORS
330
790E
102
}
330
790E
100
AcDbDimAssoc
330
790D
 90
        3
 70
     0
 71
     0
  1
AcDbOsnapPointRef
 72
     5
331
7994
 73
     2
 91
        0
 40
0.0
 10
0.0
 20
0.0
 30
0.0
 75
     0
  1
AcDbOsnapPointRef
 72
     8
331
79A3
 73
     2
 91
        8
 40
0.7926509186351726
 10
0.0
 20
0.0
 30
0.0
 75
     1
  1
AcDbOsnapPointRef
 72
     5
331
7994
 73
     2
 91
        0
 40
0.0
 10
0.0
 20
0.0
 30
0.0
 75
     0
  0
DIMASSOC
  5
7912
102
{ACAD_REACTORS
330
7911
102
}
330
7911
100
AcDbDimAssoc
330
7910
 90
        3
 70
     0
 71
     0
  1
AcDbOsnapPointRef
 72
     1
331
79A8
 73
     2
 91
        0
 40
1.0
 10
0.0
 20
0.0
 30
2.000000000000000E+50
 75
     0
  1
AcDbOsnapPointRef
 72
     8
331
79AD
 73
     2
 91
        0
 40
0.6015228426395939
 10
0.0
 20
0.0
 30
0.0
 75
     1
  1
AcDbOsnapPointRef
 72
     1
331
79A8
 73
     2
 91
        0
 40
1.0
 10
0.0
 20
0.0
 30
2.000000000000000E+50
 75
     0
  0
DIMASSOC
  5
7915
102
{ACAD_REACTORS
330
7914
102
}
330
7914
100
AcDbDimAssoc
330
7913
 90
        2
 70
     0
 71
     0
  1
AcDbOsnapPointRef
 72
     3
331
79A3
 73
     2
 91
        1
 40
0.0
 10
0.0
 20
0.0
 30
0.0
 75
     0
  0
DIMASSOC
  5
791A
102
{ACAD_REACTORS
330
7919
102
}
330
7919
100
AcDbDimAssoc
330
7918
 90
        3
 70
     0
 71
     0
  1
AcDbOsnapPointRef
 72
     1
331
79A3
 73
     2
 91
        5
 40
3.141592653589817
 10
0.0
 20
0.0
 30
2.000000000000000E+50
 75
     0
  1
AcDbOsnapPointRef
 72
    11
331
79A3
 73
     2
 91
        0
 40
2.0
 10
0.0
 20
0.0
 30
0.0
332
79A3
 74
     2
 92
        0
 75
     0
  0
DIMASSOC
  5
791D
102
{ACAD_REACTORS
330
791C
102
}
330
791C
100
AcDbDimAssoc
330
791B
 90
        3
 70
     0
 71
     0
  1
AcDbOsnapPointRef
 72
    11
331
79AF
 73
     2
 91
        0
 40
1.0
 10
0.0
 20
0.0
 30
0.0
332
79A9
 74
     2
 92
        0
 75
     0
  1
AcDbOsnapPointRef
 72
     1
331
79AA
 73
     2
 91
        0
 40
6.283185307179645
 10
0.0
 20
0.0
 30
2.000000000000000E+50
 75
     0
  0
DIMASSOC
  5
7920
102
{ACAD_REACTORS
330
791F
102
}
330
791F
100
AcDbDimAssoc
330
791E
 90
        3
 70
     0
 71
     0
  1
AcDbOsnapPointRef
 72
     1
331
79A3
 73
     2
 91
        4
 40
0.9999999999999998
 10
0.0
 20
0.0
 30
2.000000000000000E+50
 75
     0
  1
AcDbOsnapPointRef
 72
     8
331
79A3
 73
     2
 91
        8
 40
0.0000000000000095
 10
0.0
 20
0.0
 30
0.0
 75
     1
  1
AcDbOsnapPointRef
 72
     1
331
79A3
 73
     2
 91
        4
 40
0.9999999999999998
 10
0.0
 20
0.0
 30
2.000000000000000E+50
 75
     0
  0
DIMASSOC
  5
7923
102
{ACAD_REACTORS
330
7922
102
}
330
7922
100
AcDbDimAssoc
330
7921
 90
        3
 70
     0
 71
     0
  1
AcDbOsnapPointRef
 72
    13
331
79AD
 73
     2
 91
        0
 40
0.0
 10
0.0
 20
0.0
 30
2.000000000000000E+50
 75
     0
  1
AcDbOsnapPointRef
 72
     1
331
79A9
 73
     2
 91
        0
 40
4.712388980384785
 10
0.0
 20
0.0
 30
2.000000000000000E+50
 75
     0
  0
DIMASSOC
  5
7C63
102
{ACAD_REACTORS
330
7C5D
102
}
330
7C5D
100
AcDbDimAssoc
330
7C54
 90
        2
 70
     0
 71
     0
  1
AcDbOsnapPointRef
 72
     3
331
7C53
 73
     2
 91
        0
 40
0.0
 10
0.0
 20
0.0
 30
0.0
 75
     0
  0
DIMASSOC
  5
7E18
102
{ACAD_REACTORS
330
7E0E
102
}
330
7E0E
100
AcDbDimAssoc
330
7E01
 90
        2
 70
     0
 71
     0
  1
AcDbOsnapPointRef
 72
    13
331
78CE
 73
     2
 91
        0
 40
0.0
 10
0.0
 20
0.0
 30
2.000000000000000E+50
 75
     0
  0
DIMASSOC
  5
7F95
102
{ACAD_REACTORS
330
7F89
102
}
330
7F89
100
AcDbDimAssoc
330
7F7A
 90
        3
 70
     0
 71
     0
  1
AcDbOsnapPointRef
 72
    13
331
7990
 73
     2
 91
        0
 40
0.0
 10
0.0
 20
0.0
 30
2.000000000000000E+50
 75
     0
  1
AcDbOsnapPointRef
 72
    13
331
7993
 73
     2
 91
        0
 40
0.0
 10
0.0
 20
0.0
 30
2.000000000000000E+50
 75
     0
  0
DIMASSOC
  5
808E
102
{ACAD_REACTORS
330
8082
102
}
330
8082
100
AcDbDimAssoc
330
8073
 90
        3
 70
     0
 71
     0
  1
AcDbOsnapPointRef
 72
    10
331
79AE
 73
     2
 91
        0
 40
0.3499479563086483
 10
0.0
 20
0.0
 30
0.0
 75
     0
  1
AcDbOsnapPointRef
 72
     8
331
799E
 73
     2
 91
        1
 40
0.4139835942150708
 10
0.0
 20
0.0
 30
0.0
 75
     1
  1
AcDbOsnapPointRef
 72
    10
331
79AE
 73
     2
 91
        0
 40
0.3499479563086483
 10
0.0
 20
0.0
 30
0.0
 75
     0
  0
ACDBDETAILVIEWSTYLE
  5
80BA
102
{ACAD_REACTORS
330
80B9
102
}
330
80B9
100
AcDbModelDocViewStyle
 70
     0
  3
Metric50
290
     1
300
Metric50
 90
        0
100
AcDbDetailViewStyle
 70
     0
 71
     0
 90
        3
 71
     1
340
11
 62
   256
 40
5.0
340
0
 62
   256
 40
5.0
300

 40
0.0
280
     1
 71
     2
340
16
 90
       25
 62
   256
 71
     3
340
11
 62
   256
 40
5.0
 90
        0
 40
15.0
 90
        1
300
%<\AcVar ViewDetailId>% (%<\AcVar ViewScale \f "%sn">%)
 71
     4
340
16
 90
       25
 62
   256
340
16
 90
       25
 62
   256
280
     0
  0
LAYOUT
  5
51
102
{ACAD_REACTORS
330
1A
102
}
330
1A
100
AcDbPlotSettings
  1

  2
None
  4

  6

 40
0.0
 41
0.0
 42
0.0
 43
0.0
 44
0.0
 45
0.0
 46
0.0
 47
0.0
 48
0.0
 49
0.0
140
0.0
141
0.0
142
1.0
143
1.0
 70
   688
 72
     0
 73
     0
 74
     5
  7

 75
    16
147
1.0
 76
     0
 77
     2
 78
   300
148
0.0
149
0.0
100
AcDbLayout
  1
Layout1
 70
     1
 71
     1
 10
0.0
 20
0.0
 11
12.0
 21
9.0
 12
0.0
 22
0.0
 32
0.0
 14
0.0
 24
0.0
 34
0.0
 15
0.0
 25
0.0
 35
0.0
146
0.0
 13
0.0
 23
0.0
 33
0.0
 16
1.0
 26
0.0
 36
0.0
 17
0.0
 27
1.0
 37
0.0
 76
     0
330
50
  0
LAYOUT
  5
56
102
{ACAD_REACTORS
330
1A
102
}
330
1A
100
AcDbPlotSettings
  1

  2
None
  4

  6

 40
0.0
 41
0.0
 42
0.0
 43
0.0
 44
0.0
 45
0.0
 46
0.0
 47
0.0
 48
0.0
 49
0.0
140
0.0
141
0.0
142
1.0
143
1.0
 70
   688
 72
     0
 73
     0
 74
     5
  7

 75
    16
147
1.0
 76
     0
 77
     2
 78
   300
148
0.0
149
0.0
100
AcDbLayout
  1
Layout2
 70
     1
 71
     2
 10
0.0
 20
0.0
 11
12.0
 21
9.0
 12
0.0
 22
0.0
 32
0.0
 14
0.0
 24
0.0
 34
0.0
 15
0.0
 25
0.0
 35
0.0
146
0.0
 13
0.0
 23
0.0
 33
0.0
 16
1.0
 26
0.0
 36
0.0
 17
0.0
 27
1.0
 37
0.0
 76
     0
330
55
  0
LAYOUT
  5
22
102
{ACAD_REACTORS
330
1A
102
}
330
1A
100
AcDbPlotSettings
  1

  2
Canon iP1100 series
  4
A4
  6

 40
4.180416584014892
 41
5.831417560577392
 42
4.180404663085937
 43
3.757080078125
 44
209.9733276367187
 45
296.9683227539062
 46
8.599999999999999
 47
0.0
 48
37641.10662087469
 49
6725.294275372546
140
39728.99142087648
141
9979.003075375171
142
1.0
143
11.32198058335615
 70
 11956
 72
     1
 73
     0
 74
     4
  7

 75
     0
147
0.0883237692060741
 76
     0
 77
     2
 78
   300
148
-37641.10662087469
149
-6725.294275372546
100
AcDbLayout
  1
Model
 70
     1
 71
     0
 10
0.0
 20
0.0
 11
12.0
 21
9.0
 12
0.0
 22
0.0
 32
0.0
 14
0.0
 24
0.0
 34
0.0
 15
0.0
 25
0.0
 35
0.0
146
0.0
 13
0.0
 23
0.0
 33
0.0
 16
1.0
 26
0.0
 36
0.0
 17
0.0
 27
1.0
 37
0.0
 76
     0
330
1F
331
8056
  0
MATERIAL
  5
8059
102
{ACAD_REACTORS
330
6A
102
}
330
6A
100
AcDbMaterial
  1
ByBlock
 73
     1
 78
     1
172
     1
176
     1
270
     1
274
     1
 94
       63
  0
MATERIAL
  5
8058
102
{ACAD_REACTORS
330
6A
102
}
330
6A
100
AcDbMaterial
  1
ByLayer
 73
     1
 78
     1
172
     1
176
     1
270
     1
274
     1
 94
       63
  0
MATERIAL
  5
805A
102
{ACAD_REACTORS
330
6A
102
}
330
6A
100
AcDbMaterial
  1
Global
 73
     1
 78
     1
172
     1
176
     1
270
     1
274
     1
 94
       63
  0
MLEADERSTYLE
  5
80B6
102
{ACAD_REACTORS
330
80B5
102
}
330
80B5
100
AcDbMLeaderStyle
179
     2
170
     2
171
     1
172
     0
 90
        2
 40
0.0
 41
0.0
173
     1
 91
-1056964608
340
14
 92
       -2
290
     1
 42
2.0
291
     1
 43
0.36
  3
Standard
 44
4.0
300

342
11
174
     1
178
     6
175
     1
176
     0
 93
-1056964608
 45
4.0
292
     0
297
     0
 46
4.0
 94
-1056964608
 47
1.0
 49
1.0
140
1.0
293
     1
141
0.0
294
     1
177
     0
142
1.0
295
     1
296
     0
143
0.125
271
     0
272
     9
273
     9
298
     1
  0
MLINESTYLE
  5
18
102
{ACAD_REACTORS
330
17
102
}
330
17
100
AcDbMlineStyle
  2
STANDARD
 70
     0
  3

 62
   256
 51
90.0
 52
90.0
 71
     2
 49
0.5
 62
   256
  6
BYLAYER
 49
-0.5
 62
   256
  6
BYLAYER
  0
ACDBPLACEHOLDER
  5
F
102
{ACAD_REACTORS
330
E
102
}
330
E
  0
SCALE
  5
80A4
102
{ACAD_REACTORS
330
80A3
102
}
330
80A3
100
AcDbScale
 70
     0
300
1:1
140
1.0
141
1.0
290
     1
  0
SCALE
  5
80A5
102
{ACAD_REACTORS
330
80A3
102
}
330
80A3
100
AcDbScale
 70
     0
300
1:2
140
1.0
141
2.0
290
     0
  0
SCALE
  5
80A6
102
{ACAD_REACTORS
330
80A3
102
}
330
80A3
100
AcDbScale
 70
     0
300
1:4
140
1.0
141
4.0
290
     0
  0
SCALE
  5
80A7
102
{ACAD_REACTORS
330
80A3
102
}
330
80A3
100
AcDbScale
 70
     0
300
1:5
140
1.0
141
5.0
290
     0
  0
SCALE
  5
80A8
102
{ACAD_REACTORS
330
80A3
102
}
330
80A3
100
AcDbScale
 70
     0
300
1:8
140
1.0
141
8.0
290
     0
  0
SCALE
  5
80A9
102
{ACAD_REACTORS
330
80A3
102
}
330
80A3
100
AcDbScale
 70
     0
300
1:10
140
1.0
141
10.0
290
     0
  0
SCALE
  5
80AA
102
{ACAD_REACTORS
330
80A3
102
}
330
80A3
100
AcDbScale
 70
     0
300
1:16
140
1.0
141
16.0
290
     0
  0
SCALE
  5
80AB
102
{ACAD_REACTORS
330
80A3
102
}
330
80A3
100
AcDbScale
 70
     0
300
1:20
140
1.0
141
20.0
290
     0
  0
SCALE
  5
80AC
102
{ACAD_REACTORS
330
80A3
102
}
330
80A3
100
AcDbScale
 70
     0
300
1:30
140
1.0
141
30.0
290
     0
  0
SCALE
  5
80AD
102
{ACAD_REACTORS
330
80A3
102
}
330
80A3
100
AcDbScale
 70
     0
300
1:40
140
1.0
141
40.0
290
     0
  0
SCALE
  5
80AE
102
{ACAD_REACTORS
330
80A3
102
}
330
80A3
100
AcDbScale
 70
     0
300
1:50
140
1.0
141
50.0
290
     0
  0
SCALE
  5
80AF
102
{ACAD_REACTORS
330
80A3
102
}
330
80A3
100
AcDbScale
 70
     0
300
1:100
140
1.0
141
100.0
290
     0
  0
SCALE
  5
80B0
102
{ACAD_REACTORS
330
80A3
102
}
330
80A3
100
AcDbScale
 70
     0
300
2:1
140
2.0
141
1.0
290
     0
  0
SCALE
  5
80B1
102
{ACAD_REACTORS
330
80A3
102
}
330
80A3
100
AcDbScale
 70
     0
300
4:1
140
4.0
141
1.0
290
     0
  0
SCALE
  5
80B2
102
{ACAD_REACTORS
330
80A3
102
}
330
80A3
100
AcDbScale
 70
     0
300
8:1
140
8.0
141
1.0
290
     0
  0
SCALE
  5
80B3
102
{ACAD_REACTORS
330
80A3
102
}
330
80A3
100
AcDbScale
 70
     0
300
10:1
140
10.0
141
1.0
290
     0
  0
SCALE
  5
80B4
102
{ACAD_REACTORS
330
80A3
102
}
330
80A3
100
AcDbScale
 70
     0
300
100:1
140
100.0
141
1.0
290
     0
  0
ACDBSECTIONVIEWSTYLE
  5
80B8
102
{ACAD_REACTORS
330
80B7
102
}
330
80B7
100
AcDbModelDocViewStyle
 70
     0
  3
Metric50
290
     1
300
Metric50
 90
        0
100
AcDbSectionViewStyle
 70
     0
 71
     0
 90
      102
 71
     1
340
11
 62
   256
 40
5.0
340
0
340
0
 62
   256
 40
5.0
300
I, O, Q, S, X, Z
 40
10.0
 90
        0
 40
2.5
 90
        0
 71
     2
340
16
 90
       25
 62
   256
340
16
 90
       50
 62
   256
 40
5.0
 40
2.5
 40
5.0
 71
     3
340
11
 62
   256
 40
5.0
 90
        0
 40
15.0
 90
        1
300
%<\AcVar ViewSectionStartId>%-%<\AcVar ViewSectionEndId>% (%<\AcVar ViewScale \f "%sn">%)
 71
     4
 62
   256
 62
   257
300
ANSI31
 40
1.0
 90
        0
290
     0
290
     0
 90
        6
 40
0.0
 40
1.570796326794896
 40
0.2617993877991494
 40
1.308996938995747
 40
-0.2617993877991494
 40
1.832595714594046
  0
TABLESTYLE
  5
806D
102
{ACAD_XDICTIONARY
360
8482
102
}
102
{ACAD_REACTORS
330
806C
102
}
330
806C
100
AcDbTableStyle
280
     0
  3
Standard
 70
     0
 71
     0
 40
1.5
 41
1.5
280
     0
281
     0
  7
Standard
140
4.5
170
     2
 62
     0
 63
     7
283
     0
 90
      512
 91
        0
  1

274
    -2
284
     1
 64
     0
275
    -2
285
     1
 65
     0
276
    -2
286
     1
 66
     0
277
    -2
287
     1
 67
     0
278
    -2
288
     1
 68
     0
279
    -2
289
     1
 69
     0
  7
Standard
140
6.0
170
     5
 62
     0
 63
     7
283
     0
 90
      512
 91
        0
  1

274
    -2
284
     1
 64
     0
275
    -2
285
     1
 65
     0
276
    -2
286
     1
 66
     0
277
    -2
287
     1
 67
     0
278
    -2
288
     1
 68
     0
279
    -2
289
     1
 69
     0
  7
Standard
140
4.5
170
     5
 62
     0
 63
     7
283
     0
 90
      512
 91
        0
  1

274
    -2
284
     1
 64
     0
275
    -2
285
     1
 65
     0
276
    -2
286
     1
 66
     0
277
    -2
287
     1
 67
     0
278
    -2
288
     1
 68
     0
279
    -2
289
     1
 69
     0
  0
VISUALSTYLE
  5
8061
102
{ACAD_REACTORS
330
805B
102
}
330
805B
100
AcDbVisualStyle
  2
2dWireframe
 70
     4
177
     3
291
     0
 70
    58
 90
        0
176
     1
 90
        2
176
     1
 90
        0
176
     1
 90
        0
176
     1
 40
0.6
176
     1
 40
30.0
176
     1
 62
     7
420
 16777215
176
     1
 90
        1
176
     1
 90
        4
176
     1
 62
     7
176
     1
 62
   257
176
     1
 90
        1
176
     1
 90
        1
176
     1
 40
1.0
176
     1
 90
        0
176
     1
 62
   257
176
     1
 40
1.0
176
     1
 90
        1
176
     1
 90
        6
176
     1
 90
        2
176
     1
 62
     7
176
     1
 90
        5
176
     1
 90
        0
176
     1
 90
        0
176
     1
290
     0
176
     1
 90
        1
176
     1
 40
0.0
176
     1
 90
        0
176
     1
290
     1
176
     1
290
     1
176
     1
290
     0
176
     1
290
     0
176
     1
290
     0
176
     1
290
     0
176
     1
290
     0
176
     1
290
     0
176
     1
290
     0
176
     1
 90
       50
176
     1
 40
0.0
176
     1
 40
1.0
176
     1
 90
        0
176
     1
 62
    18
420
        0
176
     1
 90
       50
176
     1
 90
        3
176
     1
 62
     5
420
      255
176
     1
290
     0
176
     1
 90
       50
176
     1
 90
       50
176
     1
 90
       50
176
     1
290
     0
176
     1
 90
       50
176
     1
 62
   256
176
     0
 40
1.0
176
     0
 90
        2
176
     1
  1
strokes_ogs.tif
176
     1
290
     0
176
     1
 40
1.0
176
     1
 40
1.0
176
     1
  0
VISUALSTYLE
  5
8063
102
{ACAD_REACTORS
330
805B
102
}
330
805B
100
AcDbVisualStyle
  2
3D Hidden
 70
     6
177
     3
291
     0
 70
    58
 90
        1
176
     1
 90
        2
176
     1
 90
        2
176
     1
 90
        0
176
     1
 40
0.6
176
     1
 40
30.0
176
     1
 62
     7
420
 16777215
176
     1
 90
        2
176
     1
 90
        2
176
     1
 62
     7
176
     1
 62
   257
176
     1
 90
        2
176
     1
 90
        1
176
     1
 40
40.0
176
     1
 90
        0
176
     1
 62
   257
176
     1
 40
1.0
176
     1
 90
        1
176
     1
 90
        6
176
     1
 90
        2
176
     1
 62
     7
176
     1
 90
        3
176
     1
 90
        0
176
     1
 90
        0
176
     1
290
     0
176
     1
 90
        1
176
     1
 40
0.0
176
     1
 90
        0
176
     1
290
     0
176
     1
290
     1
176
     1
290
     1
176
     1
290
     0
176
     1
290
     0
176
     1
290
     0
176
     1
290
     0
176
     1
290
     0
176
     1
290
     0
176
     1
 90
       50
176
     1
 40
0.0
176
     1
 40
1.0
176
     1
 90
        0
176
     1
 62
    18
420
        0
176
     1
 90
       50
176
     1
 90
        3
176
     1
 62
     5
420
      255
176
     1
290
     0
176
     1
 90
       50
176
     1
 90
       50
176
     1
 90
       50
176
     1
290
     0
176
     1
 90
       50
176
     1
 62
   256
176
     0
 40
1.0
176
     0
 90
        2
176
     1
  1
strokes_ogs.tif
176
     1
290
     0
176
     1
 40
1.0
176
     1
 40
1.0
176
     1
  0
VISUALSTYLE
  5
8062
102
{ACAD_REACTORS
330
805B
102
}
330
805B
100
AcDbVisualStyle
  2
3dWireframe
 70
     5
177
     3
291
     0
 70
    58
 90
        0
176
     1
 90
        2
176
     1
 90
        0
176
     1
 90
        0
176
     1
 40
0.6
176
     1
 40
30.0
176
     1
 62
     7
420
 16777215
176
     1
 90
        1
176
     1
 90
        4
176
     1
 62
     7
176
     1
 62
   257
176
     1
 90
        1
176
     1
 90
        1
176
     1
 40
1.0
176
     1
 90
        0
176
     1
 62
   257
176
     1
 40
1.0
176
     1
 90
        1
176
     1
 90
        6
176
     1
 90
        2
176
     1
 62
     7
176
     1
 90
        5
176
     1
 90
        0
176
     1
 90
        0
176
     1
290
     0
176
     1
 90
        1
176
     1
 40
0.0
176
     1
 90
        0
176
     1
290
     0
176
     1
290
     1
176
     1
290
     1
176
     1
290
     0
176
     1
290
     0
176
     1
290
     0
176
     1
290
     0
176
     1
290
     0
176
     1
290
     0
176
     1
 90
       50
176
     1
 40
0.0
176
     1
 40
1.0
176
     1
 90
        0
176
     1
 62
    18
420
        0
176
     1
 90
       50
176
     1
 90
        3
176
     1
 62
     5
420
      255
176
     1
290
     0
176
     1
 90
       50
176
     1
 90
       50
176
     1
 90
       50
176
     1
290
     0
176
     1
 90
       50
176
     1
 62
   256
176
     0
 40
1.0
176
     0
 90
        2
176
     1
  1
strokes_ogs.tif
176
     1
290
     0
176
     1
 40
1.0
176
     1
 40
1.0
176
     1
  0
VISUALSTYLE
  5
8060
102
{ACAD_REACTORS
330
805B
102
}
330
805B
100
AcDbVisualStyle
  2
Basic
 70
     7
177
     3
291
     1
 70
    58
 90
        1
176
     1
 90
        0
176
     1
 90
        1
176
     1
 90
        0
176
     1
 40
0.6
176
     1
 40
30.0
176
     1
 62
     7
420
 16777215
176
     1
 90
        0
176
     1
 90
        4
176
     1
 62
     7
176
     1
 62
   257
176
     1
 90
        1
176
     1
 90
        1
176
     1
 40
1.0
176
     1
 90
        8
176
     1
 62
     7
176
     1
 40
1.0
176
     1
 90
        1
176
     1
 90
        6
176
     1
 90
        2
176
     1
 62
     7
176
     1
 90
        5
176
     1
 90
        0
176
     1
 90
        0
176
     1
290
     0
176
     1
 90
        1
176
     1
 40
0.0
176
     1
 90
        0
176
     1
290
     0
176
     1
290
     1
176
     1
290
     1
176
     1
290
     0
176
     1
290
     0
176
     1
290
     0
176
     1
290
     0
176
     1
290
     0
176
     1
290
     0
176
     1
 90
       50
176
     1
 40
0.0
176
     1
 40
1.0
176
     1
 90
        0
176
     1
 62
    18
420
        0
176
     1
 90
       50
176
     1
 90
        3
176
     1
 62
     5
420
      255
176
     1
290
     0
176
     1
 90
       50
176
     1
 90
       50
176
     1
 90
       50
176
     1
290
     0
176
     1
 90
       50
176
     1
 62
   256
176
     0
 40
1.0
176
     0
 90
        2
176
     1
  1
strokes_ogs.tif
176
     1
290
     0
176
     1
 40
1.0
176
     1
 40
1.0
176
     1
  0
VISUALSTYLE
  5
8067
102
{ACAD_REACTORS
330
805B
102
}
330
805B
100
AcDbVisualStyle
  2
Brighten
 70
    12
177
     3
291
     1
 70
    58
 90
        2
176
     1
 90
        2
176
     1
 90
        0
176
     1
 90
        0
176
     1
 40
0.6
176
     1
 40
30.0
176
     1
 62
     7
420
 16777215
176
     1
 90
        1
176
     1
 90
        4
176
     1
 62
     7
176
     1
 62
   257
176
     1
 90
        1
176
     1
 90
        1
176
     1
 40
1.0
176
     1
 90
        8
176
     1
 62
     7
176
     1
 40
1.0
176
     1
 90
        1
176
     1
 90
        6
176
     1
 90
        2
176
     1
 62
     7
176
     1
 90
        5
176
     1
 90
        0
176
     1
 90
        0
176
     1
290
     0
176
     1
 90
        1
176
     1
 40
50.0
176
     1
 90
        0
176
     1
290
     0
176
     1
290
     1
176
     1
290
     1
176
     1
290
     0
176
     1
290
     0
176
     1
290
     0
176
     1
290
     0
176
     1
290
     0
176
     1
290
     0
176
     1
 90
       50
176
     1
 40
0.0
176
     1
 40
1.0
176
     1
 90
        0
176
     1
 62
    18
420
        0
176
     1
 90
       50
176
     1
 90
        3
176
     1
 62
     5
420
      255
176
     1
290
     0
176
     1
 90
       50
176
     1
 90
       50
176
     1
 90
       50
176
     1
290
     0
176
     1
 90
       50
176
     1
 62
   256
176
     0
 40
1.0
176
     0
 90
        2
176
     1
  1
strokes_ogs.tif
176
     1
290
     0
176
     1
 40
1.0
176
     1
 40
1.0
176
     1
  0
VISUALSTYLE
  5
806B
102
{ACAD_REACTORS
330
805B
102
}
330
805B
100
AcDbVisualStyle
  2
ColorChange
 70
    16
177
     3
291
     1
 70
    58
 90
        2
176
     1
 90
        2
176
     1
 90
        3
176
     1
 90
        0
176
     1
 40
0.6
176
     1
 40
30.0
176
     1
 62
     8
420
  8421504
176
     1
 90
        1
176
     1
 90
        4
176
     1
 62
     7
176
     1
 62
   257
176
     1
 90
        1
176
     1
 90
        1
176
     1
 40
1.0
176
     1
 90
        8
176
     1
 62
     8
420
  8421504
176
     1
 40
1.0
176
     1
 90
        1
176
     1
 90
        6
176
     1
 90
        2
176
     1
 62
     7
176
     1
 90
        5
176
     1
 90
        0
176
     1
 90
        0
176
     1
290
     0
176
     1
 90
        1
176
     1
 40
0.0
176
     1
 90
        0
176
     1
290
     0
176
     1
290
     1
176
     1
290
     1
176
     1
290
     0
176
     1
290
     0
176
     1
290
     0
176
     1
290
     0
176
     1
290
     0
176
     1
290
     0
176
     1
 90
       50
176
     1
 40
0.0
176
     1
 40
1.0
176
     1
 90
        0
176
     1
 62
    18
420
        0
176
     1
 90
       50
176
     1
 90
        3
176
     1
 62
     5
420
      255
176
     1
290
     0
176
     1
 90
       50
176
     1
 90
       50
176
     1
 90
       50
176
     1
290
     0
176
     1
 90
       50
176
     1
 62
   256
176
     0
 40
1.0
176
     0
 90
        2
176
     1
  1
strokes_ogs.tif
176
     1
290
     0
176
     1
 40
1.0
176
     1
 40
1.0
176
     1
  0
VISUALSTYLE
  5
8064
102
{ACAD_REACTORS
330
805B
102
}
330
805B
100
AcDbVisualStyle
  2
Conceptual
 70
     9
177
     3
291
     0
 70
    58
 90
        3
176
     1
 90
        2
176
     1
 90
        0
176
     1
 90
        0
176
     1
 40
0.6
176
     1
 40
30.0
176
     1
 62
     7
420
 16777215
176
     1
 90
        2
176
     1
 90
        2
176
     1
 62
     7
176
     1
 62
   257
176
     1
 90
        1
176
     1
 90
        1
176
     1
 40
40.0
176
     1
 90
        8
176
     1
 62
     7
176
     1
 40
1.0
176
     1
 90
        1
176
     1
 90
        6
176
     1
 90
        2
176
     1
 62
     7
176
     1
 90
        3
176
     1
 90
        0
176
     1
 90
        0
176
     1
290
     0
176
     1
 90
        1
176
     1
 40
0.0
176
     1
 90
        0
176
     1
290
     0
176
     1
290
     1
176
     1
290
     1
176
     1
290
     0
176
     1
290
     0
176
     1
290
     0
176
     1
290
     0
176
     1
290
     0
176
     1
290
     0
176
     1
 90
       50
176
     1
 40
0.0
176
     1
 40
1.0
176
     1
 90
        0
176
     1
 62
    18
420
        0
176
     1
 90
       50
176
     1
 90
        3
176
     1
 62
     5
420
      255
176
     1
290
     0
176
     1
 90
       50
176
     1
 90
       50
176
     1
 90
       50
176
     1
290
     0
176
     1
 90
       50
176
     1
 62
   256
176
     0
 40
1.0
176
     0
 90
        2
176
     1
  1
strokes_ogs.tif
176
     1
290
     0
176
     1
 40
1.0
176
     1
 40
1.0
176
     1
  0
VISUALSTYLE
  5
8066
102
{ACAD_REACTORS
330
805B
102
}
330
805B
100
AcDbVisualStyle
  2
Dim
 70
    11
177
     3
291
     1
 70
    58
 90
        2
176
     1
 90
        2
176
     1
 90
        0
176
     1
 90
        0
176
     1
 40
0.6
176
     1
 40
30.0
176
     1
 62
     7
420
 16777215
176
     1
 90
        1
176
     1
 90
        4
176
     1
 62
     7
176
     1
 62
   257
176
     1
 90
        1
176
     1
 90
        1
176
     1
 40
1.0
176
     1
 90
        8
176
     1
 62
     7
176
     1
 40
1.0
176
     1
 90
        1
176
     1
 90
        6
176
     1
 90
        2
176
     1
 62
     7
176
     1
 90
        5
176
     1
 90
        0
176
     1
 90
        0
176
     1
290
     0
176
     1
 90
        1
176
     1
 40
-50.0
176
     1
 90
        0
176
     1
290
     0
176
     1
290
     1
176
     1
290
     1
176
     1
290
     0
176
     1
290
     0
176
     1
290
     0
176
     1
290
     0
176
     1
290
     0
176
     1
290
     0
176
     1
 90
       50
176
     1
 40
0.0
176
     1
 40
1.0
176
     1
 90
        0
176
     1
 62
    18
420
        0
176
     1
 90
       50
176
     1
 90
        3
176
     1
 62
     5
420
      255
176
     1
290
     0
176
     1
 90
       50
176
     1
 90
       50
176
     1
 90
       50
176
     1
290
     0
176
     1
 90
       50
176
     1
 62
   256
176
     0
 40
1.0
176
     0
 90
        2
176
     1
  1
strokes_ogs.tif
176
     1
290
     0
176
     1
 40
1.0
176
     1
 40
1.0
176
     1
  0
VISUALSTYLE
  5
80A2
102
{ACAD_REACTORS
330
805B
102
}
330
805B
100
AcDbVisualStyle
  2
EdgeColorOff
 70
    22
177
     3
291
     1
 70
    58
 90
        2
176
     0
 90
        2
176
     0
 90
        0
176
     0
 90
        0
176
     0
 40
0.6
176
     0
 40
30.0
176
     0
 62
     7
420
 16777215
176
     0
 90
        1
176
     0
 90
        4
176
     0
 62
     7
176
     0
 62
   257
176
     0
 90
        1
176
     0
 90
        1
176
     0
 40
1.0
176
     0
 90
        8
176
     2
 62
     7
176
     0
 40
1.0
176
     0
 90
        1
176
     0
 90
        6
176
     0
 90
        2
176
     0
 62
     7
176
     0
 90
        5
176
     0
 90
        0
176
     0
 90
        0
176
     0
290
     0
176
     0
 90
        1
176
     0
 40
0.0
176
     0
 90
        0
176
     0
290
     0
176
     0
290
     1
176
     0
290
     1
176
     0
290
     0
176
     0
290
     0
176
     0
290
     0
176
     0
290
     0
176
     0
290
     0
176
     0
290
     0
176
     0
 90
       50
176
     0
 40
0.0
176
     0
 40
1.0
176
     0
 90
        0
176
     0
 62
    18
420
        0
176
     0
 90
       50
176
     0
 90
        3
176
     0
 62
     5
420
      255
176
     0
290
     0
176
     0
 90
       50
176
     0
 90
       50
176
     0
 90
       50
176
     0
290
     0
176
     0
 90
       50
176
     0
 62
   256
176
     0
 40
1.0
176
     0
 90
        2
176
     0
  1
strokes_ogs.tif
176
     0
290
     0
176
     0
 40
1.0
176
     0
 40
1.0
176
     0
  0
VISUALSTYLE
  5
806A
102
{ACAD_REACTORS
330
805B
102
}
330
805B
100
AcDbVisualStyle
  2
Facepattern
 70
    15
177
     3
291
     1
 70
    58
 90
        2
176
     1
 90
        2
176
     1
 90
        0
176
     1
 90
        0
176
     1
 40
0.6
176
     1
 40
30.0
176
     1
 62
     7
420
 16777215
176
     1
 90
        1
176
     1
 90
        4
176
     1
 62
     7
176
     1
 62
   257
176
     1
 90
        1
176
     1
 90
        1
176
     1
 40
1.0
176
     1
 90
        8
176
     1
 62
     7
176
     1
 40
1.0
176
     1
 90
        1
176
     1
 90
        6
176
     1
 90
        2
176
     1
 62
     7
176
     1
 90
        5
176
     1
 90
        0
176
     1
 90
        0
176
     1
290
     0
176
     1
 90
        1
176
     1
 40
0.0
176
     1
 90
        0
176
     1
290
     0
176
     1
290
     1
176
     1
290
     1
176
     1
290
     0
176
     1
290
     0
176
     1
290
     0
176
     1
290
     0
176
     1
290
     0
176
     1
290
     0
176
     1
 90
       50
176
     1
 40
0.0
176
     1
 40
1.0
176
     1
 90
        0
176
     1
 62
    18
420
        0
176
     1
 90
       50
176
     1
 90
        3
176
     1
 62
     5
420
      255
176
     1
290
     0
176
     1
 90
       50
176
     1
 90
       50
176
     1
 90
       50
176
     1
290
     0
176
     1
 90
       50
176
     1
 62
   256
176
     0
 40
1.0
176
     0
 90
        2
176
     1
  1
strokes_ogs.tif
176
     1
290
     0
176
     1
 40
1.0
176
     1
 40
1.0
176
     1
  0
VISUALSTYLE
  5
805C
102
{ACAD_REACTORS
330
805B
102
}
330
805B
100
AcDbVisualStyle
  2
Flat
 70
     0
177
     3
291
     1
 70
    58
 90
        2
176
     1
 90
        1
176
     1
 90
        1
176
     1
 90
        2
176
     1
 40
0.6
176
     1
 40
30.0
176
     1
 62
     7
420
 16777215
176
     1
 90
        0
176
     1
 90
        4
176
     1
 62
     7
176
     1
 62
   257
176
     1
 90
        1
176
     1
 90
        1
176
     1
 40
1.0
176
     1
 90
        8
176
     1
 62
     7
176
     1
 40
1.0
176
     1
 90
        1
176
     1
 90
        6
176
     1
 90
        2
176
     1
 62
     7
176
     1
 90
        5
176
     1
 90
        0
176
     1
 90
        0
176
     1
290
     0
176
     1
 90
       13
176
     1
 40
0.0
176
     1
 90
        0
176
     1
290
     0
176
     1
290
     1
176
     1
290
     1
176
     1
290
     0
176
     1
290
     0
176
     1
290
     0
176
     1
290
     0
176
     1
290
     0
176
     1
290
     0
176
     1
 90
       50
176
     1
 40
0.0
176
     1
 40
1.0
176
     1
 90
        0
176
     1
 62
    18
420
        0
176
     1
 90
       50
176
     1
 90
        3
176
     1
 62
     5
420
      255
176
     1
290
     0
176
     1
 90
       50
176
     1
 90
       50
176
     1
 90
       50
176
     1
290
     0
176
     1
 90
       50
176
     1
 62
   256
176
     0
 40
1.0
176
     0
 90
        2
176
     1
  1
strokes_ogs.tif
176
     1
290
     0
176
     1
 40
1.0
176
     1
 40
1.0
176
     1
  0
VISUALSTYLE
  5
805D
102
{ACAD_REACTORS
330
805B
102
}
330
805B
100
AcDbVisualStyle
  2
FlatWithEdges
 70
     1
177
     3
291
     1
 70
    58
 90
        2
176
     1
 90
        1
176
     1
 90
        1
176
     1
 90
        2
176
     1
 40
0.6
176
     1
 40
30.0
176
     1
 62
     7
420
 16777215
176
     1
 90
        1
176
     1
 90
        4
176
     1
 62
     7
176
     1
 62
   257
176
     1
 90
        1
176
     1
 90
        1
176
     1
 40
1.0
176
     1
 90
        0
176
     1
 62
   257
176
     1
 40
1.0
176
     1
 90
        1
176
     1
 90
        6
176
     1
 90
        2
176
     1
 62
     7
176
     1
 90
        5
176
     1
 90
        0
176
     1
 90
        0
176
     1
290
     0
176
     1
 90
       13
176
     1
 40
0.0
176
     1
 90
        0
176
     1
290
     0
176
     1
290
     1
176
     1
290
     1
176
     1
290
     0
176
     1
290
     0
176
     1
290
     0
176
     1
290
     0
176
     1
290
     0
176
     1
290
     0
176
     1
 90
       50
176
     1
 40
0.0
176
     1
 40
1.0
176
     1
 90
        0
176
     1
 62
    18
420
        0
176
     1
 90
       50
176
     1
 90
        3
176
     1
 62
     5
420
      255
176
     1
290
     0
176
     1
 90
       50
176
     1
 90
       50
176
     1
 90
       50
176
     1
290
     0
176
     1
 90
       50
176
     1
 62
   256
176
     0
 40
1.0
176
     0
 90
        2
176
     1
  1
strokes_ogs.tif
176
     1
290
     0
176
     1
 40
1.0
176
     1
 40
1.0
176
     1
  0
VISUALSTYLE
  5
805E
102
{ACAD_REACTORS
330
805B
102
}
330
805B
100
AcDbVisualStyle
  2
Gouraud
 70
     2
177
     3
291
     1
 70
    58
 90
        2
176
     1
 90
        2
176
     1
 90
        1
176
     1
 90
        2
176
     1
 40
0.6
176
     1
 40
30.0
176
     1
 62
     7
420
 16777215
176
     1
 90
        0
176
     1
 90
        4
176
     1
 62
     7
176
     1
 62
   257
176
     1
 90
        1
176
     1
 90
        1
176
     1
 40
1.0
176
     1
 90
        0
176
     1
 62
     7
176
     1
 40
1.0
176
     1
 90
        1
176
     1
 90
        6
176
     1
 90
        2
176
     1
 62
     7
176
     1
 90
        5
176
     1
 90
        0
176
     1
 90
        0
176
     1
290
     0
176
     1
 90
       13
176
     1
 40
0.0
176
     1
 90
        0
176
     1
290
     0
176
     1
290
     1
176
     1
290
     1
176
     1
290
     0
176
     1
290
     0
176
     1
290
     0
176
     1
290
     0
176
     1
290
     0
176
     1
290
     0
176
     1
 90
       50
176
     1
 40
0.0
176
     1
 40
1.0
176
     1
 90
        0
176
     1
 62
    18
420
        0
176
     1
 90
       50
176
     1
 90
        3
176
     1
 62
     5
420
      255
176
     1
290
     0
176
     1
 90
       50
176
     1
 90
       50
176
     1
 90
       50
176
     1
290
     0
176
     1
 90
       50
176
     1
 62
   256
176
     0
 40
1.0
176
     0
 90
        2
176
     1
  1
strokes_ogs.tif
176
     1
290
     0
176
     1
 40
1.0
176
     1
 40
1.0
176
     1
  0
VISUALSTYLE
  5
805F
102
{ACAD_REACTORS
330
805B
102
}
330
805B
100
AcDbVisualStyle
  2
GouraudWithEdges
 70
     3
177
     3
291
     1
 70
    58
 90
        2
176
     1
 90
        2
176
     1
 90
        1
176
     1
 90
        2
176
     1
 40
0.6
176
     1
 40
30.0
176
     1
 62
     7
420
 16777215
176
     1
 90
        1
176
     1
 90
        4
176
     1
 62
     7
176
     1
 62
   257
176
     1
 90
        1
176
     1
 90
        1
176
     1
 40
1.0
176
     1
 90
        0
176
     1
 62
   257
176
     1
 40
1.0
176
     1
 90
        1
176
     1
 90
        6
176
     1
 90
        2
176
     1
 62
     7
176
     1
 90
        5
176
     1
 90
        0
176
     1
 90
        0
176
     1
290
     0
176
     1
 90
       13
176
     1
 40
0.0
176
     1
 90
        0
176
     1
290
     0
176
     1
290
     1
176
     1
290
     1
176
     1
290
     0
176
     1
290
     0
176
     1
290
     0
176
     1
290
     0
176
     1
290
     0
176
     1
290
     0
176
     1
 90
       50
176
     1
 40
0.0
176
     1
 40
1.0
176
     1
 90
        0
176
     1
 62
    18
420
        0
176
     1
 90
       50
176
     1
 90
        3
176
     1
 62
     5
420
      255
176
     1
290
     0
176
     1
 90
       50
176
     1
 90
       50
176
     1
 90
       50
176
     1
290
     0
176
     1
 90
       50
176
     1
 62
   256
176
     0
 40
1.0
176
     0
 90
        2
176
     1
  1
strokes_ogs.tif
176
     1
290
     0
176
     1
 40
1.0
176
     1
 40
1.0
176
     1
  0
VISUALSTYLE
  5
809A
102
{ACAD_REACTORS
330
805B
102
}
330
805B
100
AcDbVisualStyle
  2
Hidden
 70
     6
177
     3
291
     0
 70
    58
 90
        1
176
     1
 90
        2
176
     1
 90
        2
176
     1
 90
        0
176
     1
 40
0.6
176
     1
 40
30.0
176
     1
 62
     7
420
 16777215
176
     1
 90
        2
176
     1
 90
        2
176
     1
 62
     7
176
     1
 62
   257
176
     1
 90
        2
176
     1
 90
        1
176
     1
 40
40.0
176
     1
 90
        0
176
     1
 62
   257
176
     1
 40
1.0
176
     1
 90
        1
176
     1
 90
        6
176
     1
 90
        2
176
     1
 62
     7
176
     1
 90
        3
176
     1
 90
        0
176
     1
 90
        0
176
     1
290
     0
176
     1
 90
        1
176
     1
 40
0.0
176
     1
 90
        0
176
     1
290
     0
176
     1
290
     1
176
     1
290
     1
176
     1
290
     0
176
     1
290
     0
176
     1
290
     0
176
     1
290
     0
176
     1
290
     0
176
     1
290
     0
176
     1
 90
       50
176
     1
 40
0.0
176
     1
 40
1.0
176
     1
 90
        0
176
     1
 62
    18
420
        0
176
     1
 90
       50
176
     1
 90
        3
176
     1
 62
     5
420
      255
176
     1
290
     0
176
     1
 90
       50
176
     1
 90
       50
176
     1
 90
       50
176
     1
290
     0
176
     1
 90
       50
176
     1
 62
   256
176
     0
 40
1.0
176
     0
 90
        2
176
     1
  1
strokes_ogs.tif
176
     1
290
     0
176
     1
 40
1.0
176
     1
 40
1.0
176
     1
  0
VISUALSTYLE
  5
80A0
102
{ACAD_REACTORS
330
805B
102
}
330
805B
100
AcDbVisualStyle
  2
JitterOff
 70
    20
177
     3
291
     1
 70
    58
 90
        2
176
     0
 90
        2
176
     0
 90
        0
176
     0
 90
        0
176
     0
 40
0.6
176
     0
 40
30.0
176
     0
 62
     7
420
 16777215
176
     0
 90
        1
176
     0
 90
        4
176
     0
 62
     7
176
     0
 62
   257
176
     0
 90
        1
176
     0
 90
        1
176
     0
 40
1.0
176
     0
 90
       10
176
     2
 62
     7
176
     0
 40
1.0
176
     0
 90
        1
176
     0
 90
        6
176
     0
 90
        2
176
     0
 62
     7
176
     0
 90
        5
176
     0
 90
        0
176
     0
 90
        0
176
     0
290
     0
176
     0
 90
        1
176
     0
 40
0.0
176
     0
 90
        0
176
     0
290
     0
176
     0
290
     1
176
     0
290
     1
176
     0
290
     0
176
     0
290
     0
176
     0
290
     0
176
     0
290
     0
176
     0
290
     0
176
     0
290
     0
176
     0
 90
       50
176
     0
 40
0.0
176
     0
 40
1.0
176
     0
 90
        0
176
     0
 62
    18
420
        0
176
     0
 90
       50
176
     0
 90
        3
176
     0
 62
     5
420
      255
176
     0
290
     0
176
     0
 90
       50
176
     0
 90
       50
176
     0
 90
       50
176
     0
290
     0
176
     0
 90
       50
176
     0
 62
   256
176
     0
 40
1.0
176
     0
 90
        2
176
     0
  1
strokes_ogs.tif
176
     0
290
     0
176
     0
 40
1.0
176
     0
 40
1.0
176
     0
  0
VISUALSTYLE
  5
8069
102
{ACAD_REACTORS
330
805B
102
}
330
805B
100
AcDbVisualStyle
  2
Linepattern
 70
    14
177
     3
291
     1
 70
    58
 90
        2
176
     1
 90
        2
176
     1
 90
        0
176
     1
 90
        0
176
     1
 40
0.6
176
     1
 40
30.0
176
     1
 62
     7
420
 16777215
176
     1
 90
        1
176
     1
 90
        4
176
     1
 62
     7
176
     1
 62
   257
176
     1
 90
        7
176
     1
 90
        7
176
     1
 40
1.0
176
     1
 90
        8
176
     1
 62
     7
176
     1
 40
1.0
176
     1
 90
        1
176
     1
 90
        6
176
     1
 90
        2
176
     1
 62
     7
176
     1
 90
        5
176
     1
 90
        0
176
     1
 90
        0
176
     1
290
     0
176
     1
 90
        1
176
     1
 40
0.0
176
     1
 90
        0
176
     1
290
     0
176
     1
290
     1
176
     1
290
     1
176
     1
290
     0
176
     1
290
     0
176
     1
290
     0
176
     1
290
     0
176
     1
290
     0
176
     1
290
     0
176
     1
 90
       50
176
     1
 40
0.0
176
     1
 40
1.0
176
     1
 90
        0
176
     1
 62
    18
420
        0
176
     1
 90
       50
176
     1
 90
        3
176
     1
 62
     5
420
      255
176
     1
290
     0
176
     1
 90
       50
176
     1
 90
       50
176
     1
 90
       50
176
     1
290
     0
176
     1
 90
       50
176
     1
 62
   256
176
     0
 40
1.0
176
     0
 90
        2
176
     1
  1
strokes_ogs.tif
176
     1
290
     0
176
     1
 40
1.0
176
     1
 40
1.0
176
     1
  0
VISUALSTYLE
  5
80A1
102
{ACAD_REACTORS
330
805B
102
}
330
805B
100
AcDbVisualStyle
  2
OverhangOff
 70
    21
177
     3
291
     1
 70
    58
 90
        2
176
     0
 90
        2
176
     0
 90
        0
176
     0
 90
        0
176
     0
 40
0.6
176
     0
 40
30.0
176
     0
 62
     7
420
 16777215
176
     0
 90
        1
176
     0
 90
        4
176
     0
 62
     7
176
     0
 62
   257
176
     0
 90
        1
176
     0
 90
        1
176
     0
 40
1.0
176
     0
 90
        9
176
     2
 62
     7
176
     0
 40
1.0
176
     0
 90
        1
176
     0
 90
        6
176
     0
 90
        2
176
     0
 62
     7
176
     0
 90
        5
176
     0
 90
        0
176
     0
 90
        0
176
     0
290
     0
176
     0
 90
        1
176
     0
 40
0.0
176
     0
 90
        0
176
     0
290
     0
176
     0
290
     1
176
     0
290
     1
176
     0
290
     0
176
     0
290
     0
176
     0
290
     0
176
     0
290
     0
176
     0
290
     0
176
     0
290
     0
176
     0
 90
       50
176
     0
 40
0.0
176
     0
 40
1.0
176
     0
 90
        0
176
     0
 62
    18
420
        0
176
     0
 90
       50
176
     0
 90
        3
176
     0
 62
     5
420
      255
176
     0
290
     0
176
     0
 90
       50
176
     0
 90
       50
176
     0
 90
       50
176
     0
290
     0
176
     0
 90
       50
176
     0
 62
   256
176
     0
 40
1.0
176
     0
 90
        2
176
     0
  1
strokes_ogs.tif
176
     0
290
     0
176
     0
 40
1.0
176
     0
 40
1.0
176
     0
  0
VISUALSTYLE
  5
8065
102
{ACAD_REACTORS
330
805B
102
}
330
805B
100
AcDbVisualStyle
  2
Realistic
 70
     8
177
     3
291
     0
 70
    58
 90
        2
176
     1
 90
        2
176
     1
 90
        0
176
     1
 90
        0
176
     1
 40
0.6
176
     1
 40
30.0
176
     1
 62
     7
420
 16777215
176
     1
 90
        1
176
     1
 90
        0
176
     1
 62
     7
176
     1
 62
   257
176
     1
 90
        1
176
     1
 90
        1
176
     1
 40
1.0
176
     1
 90
        8
176
     1
 62
     8
420
  7895160
176
     1
 40
1.0
176
     1
 90
        1
176
     1
 90
        6
176
     1
 90
        2
176
     1
 62
     7
176
     1
 90
        5
176
     1
 90
        0
176
     1
 90
        0
176
     1
290
     0
176
     1
 90
       13
176
     1
 40
0.0
176
     1
 90
        0
176
     1
290
     0
176
     1
290
     1
176
     1
290
     1
176
     1
290
     0
176
     1
290
     0
176
     1
290
     0
176
     1
290
     0
176
     1
290
     0
176
     1
290
     0
176
     1
 90
       50
176
     1
 40
0.0
176
     1
 40
1.0
176
     1
 90
        0
176
     1
 62
    18
420
        0
176
     1
 90
       50
176
     1
 90
        3
176
     1
 62
     5
420
      255
176
     1
290
     0
176
     1
 90
       50
176
     1
 90
       50
176
     1
 90
       50
176
     1
290
     0
176
     1
 90
       50
176
     1
 62
   256
176
     0
 40
1.0
176
     0
 90
        2
176
     1
  1
strokes_ogs.tif
176
     1
290
     0
176
     1
 40
1.0
176
     1
 40
1.0
176
     1
  0
VISUALSTYLE
  5
809F
102
{ACAD_REACTORS
330
805B
102
}
330
805B
100
AcDbVisualStyle
  2
Shaded
 70
    27
177
     3
291
     0
 70
    58
 90
        2
176
     1
 90
        2
176
     1
 90
        1
176
     1
 90
        2
176
     1
 40
0.6
176
     1
 40
30.0
176
     1
 62
     7
420
 16777215
176
     1
 90
        0
176
     1
 90
        4
176
     1
 62
     7
176
     1
 62
   257
176
     1
 90
        1
176
     1
 90
        1
176
     1
 40
1.0
176
     1
 90
        8
176
     1
 62
   257
176
     1
 40
1.0
176
     1
 90
        1
176
     1
 90
        6
176
     1
 90
        2
176
     1
 62
     8
420
  7895160
176
     1
 90
        3
176
     1
 90
        0
176
     1
 90
        0
176
     1
290
     0
176
     1
 90
        5
176
     1
 40
0.0
176
     1
 90
        0
176
     1
290
     0
176
     1
290
     1
176
     1
290
     1
176
     1
290
     0
176
     1
290
     0
176
     1
290
     0
176
     1
290
     0
176
     1
290
     0
176
     1
290
     0
176
     1
 90
       50
176
     1
 40
0.0
176
     1
 40
1.0
176
     1
 90
        0
176
     1
 62
    18
420
        0
176
     1
 90
       50
176
     1
 90
        3
176
     1
 62
     5
420
      255
176
     1
290
     0
176
     1
 90
       50
176
     1
 90
       50
176
     1
 90
       50
176
     1
290
     0
176
     1
 90
       50
176
     1
 62
   256
176
     0
 40
1.0
176
     0
 90
        2
176
     1
  1
strokes_ogs.tif
176
     1
290
     0
176
     1
 40
1.0
176
     1
 40
1.0
176
     1
  0
VISUALSTYLE
  5
809E
102
{ACAD_REACTORS
330
805B
102
}
330
805B
100
AcDbVisualStyle
  2
Shaded with edges
 70
    26
177
     3
291
     0
 70
    58
 90
        2
176
     1
 90
        2
176
     1
 90
        1
176
     1
 90
        2
176
     1
 40
0.6
176
     1
 40
30.0
176
     1
 62
     7
420
 16777215
176
     1
 90
        1
176
     1
 90
        2
176
     1
 62
     7
176
     1
 62
   257
176
     1
 90
        2
176
     1
 90
        1
176
     1
 40
1.0
176
     1
 90
        8
176
     1
 62
   257
176
     1
 40
1.0
176
     1
 90
        1
176
     1
 90
        6
176
     1
 90
        2
176
     1
 62
     7
176
     1
 90
        3
176
     1
 90
        0
176
     1
 90
        0
176
     1
290
     0
176
     1
 90
        5
176
     1
 40
0.0
176
     1
 90
        0
176
     1
290
     0
176
     1
290
     1
176
     1
290
     1
176
     1
290
     0
176
     1
290
     0
176
     1
290
     0
176
     1
290
     0
176
     1
290
     0
176
     1
290
     0
176
     1
 90
       50
176
     1
 40
0.0
176
     1
 40
1.0
176
     1
 90
        0
176
     1
 62
    18
420
        0
176
     1
 90
       50
176
     1
 90
        3
176
     1
 62
     5
420
      255
176
     1
290
     0
176
     1
 90
       50
176
     1
 90
       50
176
     1
 90
       50
176
     1
290
     0
176
     1
 90
       50
176
     1
 62
   256
176
     0
 40
1.0
176
     0
 90
        2
176
     1
  1
strokes_ogs.tif
176
     1
290
     0
176
     1
 40
1.0
176
     1
 40
1.0
176
     1
  0
VISUALSTYLE
  5
809B
102
{ACAD_REACTORS
330
805B
102
}
330
805B
100
AcDbVisualStyle
  2
Shades of Gray
 70
    23
177
     3
291
     0
 70
    58
 90
        2
176
     1
 90
        2
176
     1
 90
        3
176
     1
 90
        0
176
     1
 40
0.6
176
     1
 40
30.0
176
     1
 62
     7
420
 16777215
176
     1
 90
        2
176
     1
 90
        2
176
     1
 62
     7
176
     1
 62
     7
176
     1
 90
        1
176
     1
 90
        1
176
     1
 40
40.0
176
     1
 90
        8
176
     1
 62
     7
176
     1
 40
1.0
176
     1
 90
        1
176
     1
 90
        6
176
     1
 90
        2
176
     1
 62
     7
176
     1
 90
        3
176
     1
 90
        0
176
     1
 90
        0
176
     1
290
     0
176
     1
 90
        1
176
     1
 40
0.0
176
     1
 90
        0
176
     1
290
     0
176
     1
290
     1
176
     1
290
     1
176
     1
290
     0
176
     1
290
     0
176
     1
290
     0
176
     1
290
     0
176
     1
290
     0
176
     1
290
     0
176
     1
 90
       50
176
     1
 40
0.0
176
     1
 40
1.0
176
     1
 90
        0
176
     1
 62
    18
420
        0
176
     1
 90
       50
176
     1
 90
        3
176
     1
 62
     5
420
      255
176
     1
290
     0
176
     1
 90
       50
176
     1
 90
       50
176
     1
 90
       50
176
     1
290
     0
176
     1
 90
       50
176
     1
 62
   256
176
     0
 40
1.0
176
     0
 90
        2
176
     1
  1
strokes_ogs.tif
176
     1
290
     0
176
     1
 40
1.0
176
     1
 40
1.0
176
     1
  0
VISUALSTYLE
  5
809C
102
{ACAD_REACTORS
330
805B
102
}
330
805B
100
AcDbVisualStyle
  2
Sketchy
 70
    24
177
     3
291
     0
 70
    58
 90
        1
176
     1
 90
        2
176
     1
 90
        2
176
     1
 90
        0
176
     1
 40
0.6
176
     1
 40
30.0
176
     1
 62
     7
420
 16777215
176
     1
 90
        2
176
     1
 90
        2
176
     1
 62
     7
176
     1
 62
     7
176
     1
 90
        1
176
     1
 90
        1
176
     1
 40
40.0
176
     1
 90
       11
176
     1
 62
     7
176
     1
 40
1.0
176
     1
 90
        1
176
     1
 90
        6
176
     1
 90
        2
176
     1
 62
     7
176
     1
 90
        6
176
     1
 90
        0
176
     1
 90
        0
176
     1
290
     0
176
     1
 90
        1
176
     1
 40
0.0
176
     1
 90
        0
176
     1
290
     0
176
     1
290
     1
176
     1
290
     1
176
     1
290
     0
176
     1
290
     0
176
     1
290
     0
176
     1
290
     0
176
     1
290
     0
176
     1
290
     0
176
     1
 90
       50
176
     1
 40
0.0
176
     1
 40
1.0
176
     1
 90
        0
176
     1
 62
    18
420
        0
176
     1
 90
       50
176
     1
 90
        3
176
     1
 62
     5
420
      255
176
     1
290
     0
176
     1
 90
       50
176
     1
 90
       50
176
     1
 90
       50
176
     1
290
     0
176
     1
 90
       50
176
     1
 62
   256
176
     0
 40
1.0
176
     0
 90
        2
176
     1
  1
strokes_ogs.tif
176
     1
290
     0
176
     1
 40
1.0
176
     1
 40
1.0
176
     1
  0
VISUALSTYLE
  5
8068
102
{ACAD_REACTORS
330
805B
102
}
330
805B
100
AcDbVisualStyle
  2
Thicken
 70
    13
177
     3
291
     1
 70
    58
 90
        2
176
     1
 90
        2
176
     1
 90
        0
176
     1
 90
        0
176
     1
 40
0.6
176
     1
 40
30.0
176
     1
 62
     7
420
 16777215
176
     1
 90
        1
176
     1
 90
        4
176
     1
 62
     7
176
     1
 62
   257
176
     1
 90
        1
176
     1
 90
        1
176
     1
 40
1.0
176
     1
 90
       12
176
     1
 62
     7
176
     1
 40
1.0
176
     1
 90
        1
176
     1
 90
        6
176
     1
 90
        2
176
     1
 62
     7
176
     1
 90
        5
176
     1
 90
        0
176
     1
 90
        0
176
     1
290
     0
176
     1
 90
        1
176
     1
 40
0.0
176
     1
 90
        0
176
     1
290
     0
176
     1
290
     1
176
     1
290
     1
176
     1
290
     0
176
     1
290
     0
176
     1
290
     0
176
     1
290
     0
176
     1
290
     0
176
     1
290
     0
176
     1
 90
       50
176
     1
 40
0.0
176
     1
 40
1.0
176
     1
 90
        0
176
     1
 62
    18
420
        0
176
     1
 90
       50
176
     1
 90
        3
176
     1
 62
     5
420
      255
176
     1
290
     0
176
     1
 90
       50
176
     1
 90
       50
176
     1
 90
       50
176
     1
290
     0
176
     1
 90
       50
176
     1
 62
   256
176
     0
 40
1.0
176
     0
 90
        2
176
     1
  1
strokes_ogs.tif
176
     1
290
     0
176
     1
 40
1.0
176
     1
 40
1.0
176
     1
  0
VISUALSTYLE
  5
8099
102
{ACAD_REACTORS
330
805B
102
}
330
805B
100
AcDbVisualStyle
  2
Wireframe
 70
     5
177
     3
291
     0
 70
    58
 90
        0
176
     1
 90
        2
176
     1
 90
        0
176
     1
 90
        0
176
     1
 40
0.6
176
     1
 40
30.0
176
     1
 62
     7
420
 16777215
176
     1
 90
        1
176
     1
 90
        4
176
     1
 62
     7
176
     1
 62
   257
176
     1
 90
        1
176
     1
 90
        1
176
     1
 40
1.0
176
     1
 90
        0
176
     1
 62
   257
176
     1
 40
1.0
176
     1
 90
        1
176
     1
 90
        6
176
     1
 90
        2
176
     1
 62
     7
176
     1
 90
        3
176
     1
 90
        0
176
     1
 90
        0
176
     1
290
     0
176
     1
 90
        1
176
     1
 40
0.0
176
     1
 90
        0
176
     1
290
     0
176
     1
290
     1
176
     1
290
     1
176
     1
290
     0
176
     1
290
     0
176
     1
290
     0
176
     1
290
     0
176
     1
290
     0
176
     1
290
     0
176
     1
 90
       50
176
     1
 40
0.0
176
     1
 40
1.0
176
     1
 90
        0
176
     1
 62
    18
420
        0
176
     1
 90
       50
176
     1
 90
        3
176
     1
 62
     5
420
      255
176
     1
290
     0
176
     1
 90
       50
176
     1
 90
       50
176
     1
 90
       50
176
     1
290
     0
176
     1
 90
       50
176
     1
 62
   256
176
     0
 40
1.0
176
     0
 90
        2
176
     1
  1
strokes_ogs.tif
176
     1
290
     0
176
     1
 40
1.0
176
     1
 40
1.0
176
     1
  0
VISUALSTYLE
  5
809D
102
{ACAD_REACTORS
330
805B
102
}
330
805B
100
AcDbVisualStyle
  2
X-Ray
 70
    25
177
     3
291
     0
 70
    58
 90
        2
176
     1
 90
        2
176
     1
 90
        1
176
     1
 90
        1
176
     1
 40
0.5
176
     1
 40
30.0
176
     1
 62
     7
420
 16777215
176
     1
 90
        1
176
     1
 90
        0
176
     1
 62
     7
176
     1
 62
   257
176
     1
 90
        1
176
     1
 90
        1
176
     1
 40
1.0
176
     1
 90
        8
176
     1
 62
     7
176
     1
 40
1.0
176
     1
 90
        1
176
     1
 90
        6
176
     1
 90
        2
176
     1
 62
     7
176
     1
 90
        3
176
     1
 90
        0
176
     1
 90
        0
176
     1
290
     0
176
     1
 90
       13
176
     1
 40
0.0
176
     1
 90
        0
176
     1
290
     0
176
     1
290
     1
176
     1
290
     1
176
     1
290
     0
176
     1
290
     0
176
     1
290
     0
176
     1
290
     0
176
     1
290
     0
176
     1
290
     0
176
     1
 90
       50
176
     1
 40
0.0
176
     1
 40
1.0
176
     1
 90
        0
176
     1
 62
    18
420
        0
176
     1
 90
       50
176
     1
 90
        3
176
     1
 62
     5
420
      255
176
     1
290
     0
176
     1
 90
       50
176
     1
 90
       50
176
     1
 90
       50
176
     1
290
     0
176
     1
 90
       50
176
     1
 62
   256
176
     0
 40
1.0
176
     0
 90
        2
176
     1
  1
strokes_ogs.tif
176
     1
290
     0
176
     1
 40
1.0
176
     1
 40
1.0
176
     1
  0
DICTIONARYVAR
  5
847E
102
{ACAD_REACTORS
330
5E
102
}
330
5E
100
DictionaryVariables
280
     0
  1
1:1
  0
DICTIONARYVAR
  5
847A
102
{ACAD_REACTORS
330
5E
102
}
330
5E
100
DictionaryVariables
280
     0
  1
STANDARD
  0
DICTIONARYVAR
  5
808F
102
{ACAD_REACTORS
330
5E
102
}
330
5E
100
DictionaryVariables
280
     0
  1
STANDARD
  0
DICTIONARYVAR
  5
847B
102
{ACAD_REACTORS
330
5E
102
}
330
5E
100
DictionaryVariables
280
     0
  1
Metric50
  0
DICTIONARYVAR
  5
847C
102
{ACAD_REACTORS
330
5E
102
}
330
5E
100
DictionaryVariables
280
     0
  1
Metric50
  0
DICTIONARYVAR
  5
5F
102
{ACAD_REACTORS
330
5E
102
}
330
5E
100
DictionaryVariables
280
     0
  1
2
  0
DICTIONARYVAR
  5
63
102
{ACAD_REACTORS
330
5E
102
}
330
5E
100
DictionaryVariables
280
     0
  1
1
  0
DICTIONARYVAR
  5
8480
102
{ACAD_REACTORS
330
5E
102
}
330
5E
100
DictionaryVariables
280
     0
  1
1
  0
DICTIONARYVAR
  5
8481
102
{ACAD_REACTORS
330
5E
102
}
330
5E
100
DictionaryVariables
280
     0
  1
15
  0
DICTIONARYVAR
  5
847F
102
{ACAD_REACTORS
330
5E
102
}
330
5E
100
DictionaryVariables
280
     0
  1
0
  0
DICTIONARYVAR
  5
847D
102
{ACAD_REACTORS
330
5E
102
}
330
5E
100
DictionaryVariables
280
     0
  1
0
  0
DICTIONARYVAR
  5
1CF
102
{ACAD_REACTORS
330
5E
102
}
330
5E
100
DictionaryVariables
280
     0
  1

  0
ACAD_PROXY_OBJECT
  5
8097
102
{ACAD_REACTORS
330
8096
102
}
330
8096
100
AcDbProxyObject
 90
      499
 91
      508
 71
    27
 97
        1
 70
     0
162
                 0
161
               224
310
00013FFFD0C4040800000000000004402826564C4F2D52202E20302900
 94
        0
  0
DICTIONARY
  5
8482
330
806D
100
AcDbDictionary
280
     1
281
     1
  3
ACAD_ROUNDTRIP_2008_TABLESTYLE_CELLSTYLEMAP
360
8483
  0
CELLSTYLEMAP
  5
8483
102
{ACAD_REACTORS
330
8482
102
}
330
8482
100
AcDbCellStyleMap
 90
        3
300
CELLSTYLE
  1
TABLEFORMAT_BEGIN
 90
        5
170
     1
 91
        0
 92
    32768
 62
   257
 93
        1
300
CONTENTFORMAT
  1
CONTENTFORMAT_BEGIN
 90
        0
 91
        0
 92
      512
 93
        0
300

 40
0.0
140
1.0
 94
        5
 62
     0
340
11
144
6.0
309
CONTENTFORMAT_END
171
     1
301
MARGIN
  1
CELLMARGIN_BEGIN
 40
1.5
 40
1.5
 40
1.5
 40
1.5
 40
0.18
 40
0.18
309
CELLMARGIN_END
 94
        6
 95
        1
302
GRIDFORMAT
  1
GRIDFORMAT_BEGIN
 90
        0
 91
        1
 62
     0
 92
       -2
340
0
 93
        0
 40
0.045
309
GRIDFORMAT_END
 95
        2
302
GRIDFORMAT
  1
GRIDFORMAT_BEGIN
 90
        0
 91
        1
 62
     0
 92
       -2
340
0
 93
        0
 40
0.045
309
GRIDFORMAT_END
 95
        4
302
GRIDFORMAT
  1
GRIDFORMAT_BEGIN
 90
        0
 91
        1
 62
     0
 92
       -2
340
0
 93
        0
 40
0.045
309
GRIDFORMAT_END
 95
        8
302
GRIDFORMAT
  1
GRIDFORMAT_BEGIN
 90
        0
 91
        1
 62
     0
 92
       -2
340
0
 93
        0
 40
0.045
309
GRIDFORMAT_END
 95
       16
302
GRIDFORMAT
  1
GRIDFORMAT_BEGIN
 90
        0
 91
        1
 62
     0
 92
       -2
340
0
 93
        0
 40
0.045
309
GRIDFORMAT_END
 95
       32
302
GRIDFORMAT
  1
GRIDFORMAT_BEGIN
 90
        0
 91
        1
 62
     0
 92
       -2
340
0
 93
        0
 40
0.045
309
GRIDFORMAT_END
309
TABLEFORMAT_END
  1
CELLSTYLE_BEGIN
 90
        1
 91
        1
300
_TITLE
309
CELLSTYLE_END
300
CELLSTYLE
  1
TABLEFORMAT_BEGIN
 90
        5
170
     1
 91
        0
 92
        0
 62
   257
 93
        1
300
CONTENTFORMAT
  1
CONTENTFORMAT_BEGIN
 90
        0
 91
        0
 92
      512
 93
        0
300

 40
0.0
140
1.0
 94
        5
 62
     0
340
11
144
4.5
309
CONTENTFORMAT_END
171
     1
301
MARGIN
  1
CELLMARGIN_BEGIN
 40
1.5
 40
1.5
 40
1.5
 40
1.5
 40
0.18
 40
0.18
309
CELLMARGIN_END
 94
        6
 95
        1
302
GRIDFORMAT
  1
GRIDFORMAT_BEGIN
 90
        0
 91
        1
 62
     0
 92
       -2
340
0
 93
        0
 40
0.045
309
GRIDFORMAT_END
 95
        2
302
GRIDFORMAT
  1
GRIDFORMAT_BEGIN
 90
        0
 91
        1
 62
     0
 92
       -2
340
0
 93
        0
 40
0.045
309
GRIDFORMAT_END
 95
        4
302
GRIDFORMAT
  1
GRIDFORMAT_BEGIN
 90
        0
 91
        1
 62
     0
 92
       -2
340
0
 93
        0
 40
0.045
309
GRIDFORMAT_END
 95
        8
302
GRIDFORMAT
  1
GRIDFORMAT_BEGIN
 90
        0
 91
        1
 62
     0
 92
       -2
340
0
 93
        0
 40
0.045
309
GRIDFORMAT_END
 95
       16
302
GRIDFORMAT
  1
GRIDFORMAT_BEGIN
 90
        0
 91
        1
 62
     0
 92
       -2
340
0
 93
        0
 40
0.045
309
GRIDFORMAT_END
 95
       32
302
GRIDFORMAT
  1
GRIDFORMAT_BEGIN
 90
        0
 91
        1
 62
     0
 92
       -2
340
0
 93
        0
 40
0.045
309
GRIDFORMAT_END
309
TABLEFORMAT_END
  1
CELLSTYLE_BEGIN
 90
        2
 91
        1
300
_HEADER
309
CELLSTYLE_END
300
CELLSTYLE
  1
TABLEFORMAT_BEGIN
 90
        5
170
     1
 91
        0
 92
        0
 62
   257
 93
        1
300
CONTENTFORMAT
  1
CONTENTFORMAT_BEGIN
 90
        0
 91
        0
 92
      512
 93
        0
300

 40
0.0
140
1.0
 94
        2
 62
     0
340
11
144
4.5
309
CONTENTFORMAT_END
171
     1
301
MARGIN
  1
CELLMARGIN_BEGIN
 40
1.5
 40
1.5
 40
1.5
 40
1.5
 40
0.18
 40
0.18
309
CELLMARGIN_END
 94
        6
 95
        1
302
GRIDFORMAT
  1
GRIDFORMAT_BEGIN
 90
        0
 91
        1
 62
     0
 92
       -2
340
0
 93
        0
 40
0.045
309
GRIDFORMAT_END
 95
        2
302
GRIDFORMAT
  1
GRIDFORMAT_BEGIN
 90
        0
 91
        1
 62
     0
 92
       -2
340
0
 93
        0
 40
0.045
309
GRIDFORMAT_END
 95
        4
302
GRIDFORMAT
  1
GRIDFORMAT_BEGIN
 90
        0
 91
        1
 62
     0
 92
       -2
340
0
 93
        0
 40
0.045
309
GRIDFORMAT_END
 95
        8
302
GRIDFORMAT
  1
GRIDFORMAT_BEGIN
 90
        0
 91
        1
 62
     0
 92
       -2
340
0
 93
        0
 40
0.045
309
GRIDFORMAT_END
 95
       16
302
GRIDFORMAT
  1
GRIDFORMAT_BEGIN
 90
        0
 91
        1
 62
     0
 92
       -2
340
0
 93
        0
 40
0.045
309
GRIDFORMAT_END
 95
       32
302
GRIDFORMAT
  1
GRIDFORMAT_BEGIN
 90
        0
 91
        1
 62
     0
 92
       -2
340
0
 93
        0
 40
0.045
309
GRIDFORMAT_END
309
TABLEFORMAT_END
  1
CELLSTYLE_BEGIN
 90
        3
 91
        2
300
_DATA
309
CELLSTYLE_END
  0
ENDSEC
  0
SECTION
  2
ACDSDATA
 70
     2
 71
     8
  0
ACDSSCHEMA
 90
        0
  1
AcDb_Thumbnail_Schema
  2
AcDbDs::ID
280
    10
 91
        8
  2
Thumbnail_Data
280
    15
 91
        0
101
ACDSRECORD
 95
        0
 90
        1
  2
AcDbDs::TreatedAsObjectData
280
     1
291
     1
101
ACDSRECORD
 95
        0
 90
        2
  2
AcDbDs::Legacy
280
     1
291
     1
101
ACDSRECORD
  1
AcDbDs::ID
 90
        3
  2
AcDs:Indexable
280
     1
291
     1
101
ACDSRECORD
  1
AcDbDs::ID
 90
        4
  2
AcDbDs::HandleAttribute
280
     7
282
     1
  0
ACDSSCHEMA
 90
        1
  1
AcDbDs::TreatedAsObjectDataSchema
  2
AcDbDs::TreatedAsObjectData
280
     1
 91
        0
  0
ACDSSCHEMA
 90
        2
  1
AcDbDs::LegacySchema
  2
AcDbDs::Legacy
280
     1
 91
        0
  0
ACDSSCHEMA
 90
        3
  1
AcDbDs::IndexedPropertySchema
  2
AcDs:Indexable
280
     1
 91
        0
  0
ACDSSCHEMA
 90
        4
  1
AcDbDs::HandleAttributeSchema
  2
AcDbDs::HandleAttribute
280
     7
 91
        1
284
     1
  0
ACDSRECORD
 90
        0
  2
AcDbDs::ID
280
    10
320
22
  2
Thumbnail_Data
280
    15
 94
     2114
310
89504E470D0A1A0A0000000D494844520000010000000085080300000083A6D68B00000300504C5445212830FFFFFF2128300000000000000000000000000000000000000000000000000000330000660000990000CC0000FF0033000033330033660033990033CC0033FF0066000066330066660066990066CC0066FF0099
310
000099330099660099990099CC0099FF00CC0000CC3300CC6600CC9900CCCC00CCFF00FF0000FF3300FF6600FF9900FFCC00FFFF3300003300333300663300993300CC3300FF3333003333333333663333993333CC3333FF3366003366333366663366993366CC3366FF3399003399333399663399993399CC3399FF33CC00
310
33CC3333CC6633CC9933CCCC33CCFF33FF0033FF3333FF6633FF9933FFCC33FFFF6600006600336600666600996600CC6600FF6633006633336633666633996633CC6633FF6666006666336666666666996666CC6666FF6699006699336699666699996699CC6699FF66CC0066CC3366CC6666CC9966CCCC66CCFF66FF0066
310
FF3366FF6666FF9966FFCC66FFFF9900009900339900669900999900CC9900FF9933009933339933669933999933CC9933FF9966009966339966669966999966CC9966FF9999009999339999669999999999CC9999FF99CC0099CC3399CC6699CC9999CCCC99CCFF99FF0099FF3399FF6699FF9999FFCC99FFFFCC0000CC00
310
33CC0066CC0099CC00CCCC00FFCC3300CC3333CC3366CC3399CC33CCCC33FFCC6600CC6633CC6666CC6699CC66CCCC66FFCC9900CC9933CC9966CC9999CC99CCCC99FFCCCC00CCCC33CCCC66CCCC99CCCCCCCCCCFFCCFF00CCFF33CCFF66CCFF99CCFFCCCCFFFFFF0000FF0033FF0066FF0099FF00CCFF00FFFF3300FF3333
310
FF3366FF3399FF33CCFF33FFFF6600FF6633FF6666FF6699FF66CCFF66FFFF9900FF9933FF9966FF9999FF99CCFF99FFFFCC00FFCC33FFCC66FFCC99FFCCCCFFCCFFFFFF00FFFF33FFFF66FFFF99FFFFCCFFFFFF0000000D0D0D1A1A1A2828283535354343435050505D5D5D6B6B6B787878868686939393A1A1A1AEAEAEBB
310
BBBBC9C9C9D6D6D6E4E4E4F1F1F1FFFFFF0000000000000000000000000000000000000000000000000000000000002E4550F1000004FD4944415478DAED9DDB72DC200C86F5FEEFFBDF7792DA20409C766504B134ED4C926D77CD679D050E5157907F7F0BA9C9CF7BFDBEE1FF3FD75F80AECF011EF8D089ABAB88E667FC2E
310
B800F0FB29D78FC337D6722D5CF55A38D40400DD00E2571B10D00710B41D0D85B3B3810A06289B59D4AE1DE5BE3E5CAAA96C02B4DBFDAD00C8CC52D7071CA2011709D276C897FDEFBBFE471D52F47D748C40F37685B51F0640F5A61D08E0CE08A068652702D04B04DE0BE08AAFF45E0D384BFB9F308173D68D970348CAE177
310
02B83DF68B019C18B55D5C5C5C5C5C5C5C5C8E2E5E5B9FBBF482AC66748D8EC9DAC2C46A4A5B051FA6AA0B6FC57600F0621F80D5DDC4CD0018CCD4AC00880B35E84C3CE771C097536C8A11570A8B6EFA63C8C11709944B86EC02F689C70A565ED78012C03DAC7F4926582C1676978287C8129B1016F3C26CB5A6FBE6F0D4BB
310
B2767BB935305DAFE934158F38A26BC55C03A8AA01B01BA696BE5971FD8DDD38C86998E97F669C5AA918EA060621FAA49FB9980728ECEAD473083D00D92B30ABD1916C191F028F6765713A946D60C7C8FAF561D47CE75A00A3CD01E82B43D60E58E90332DD9B03D0EAEBA1EA0C90FF8B24415A9D1223387E8C3A9F110053F7
310
1D6544C44A27480100919E060C7C51056067022A0052151E72ABC86BC2F51A30B1C117CF06C4C58910925A05D300BA6D3DF4DE2A55F8B50058C382C6374C43EBEEC79A79CA621E080189E3ED6200BF79457294A75368549DC8DE663D00A461704C710B00CDC216F5FAE6666507E03AE1586400ED737D3900D41D406C75098E
310
1D11A09D06C4634394E625DD102F0210CCA77150F2EE185903480BE1F8B34ADF3ABC5C0E32A54A0EC4CEA751612B60FED4A22D7A1D1BE400826A56B29CFBBF0800C4FE12204E05EEBA039600C2ADE70B618DBC7AE08826804683319CA215D7163CA8E1715A506202482DB2A101100094651C6F34A06881216F08AF9F8CF0AB
310
109CF5900FA86700140FCF80A4B6070F13153B5998090A2A3807400800082A56A444BC0DCBFDAEC16CB09FD70E0180A800B5FA3F6B812046440300D1485B0E2D0390FB00A98B9169401EFE65F28679001ACDBF2270A00050CD7545CD101242B35A20642AE300480450EFB6341BCBA6B5C0ADCF684D3064AB299DE03800A25D
310
34401340B7DD55CD45B6AA053E0650EB78D23800D33C80667C40154047DD7B006C7C40F54A67A240A31F30A301C7009035408A26A3000022DB43F78300086943A4DD0E99004080EDA1FBAF01C813AD7113C0191A80A606D0C70000A38D8293012C6E27C932C146076558036C1F31F70D805A2A35A9019BF900D07022D4B8F6
310
290D38C0042400CDA9E2D699A00E80F63363BAA5806926F8290062003AADBC2900C76800EF0774A6EAE81A80653FA075A583A3B19EE73E16404FA9A3067C01800DA67603D0556A1E063F348198FFEC0120E990D30C80BEBE345ED908C0605B5A718BCC8E1A300C80C68EB9CE244264FA28D2CF003CB24D6E6F00C92877A4E9
310
3BD095DAE239569874169AF7FCC40779819406FAC66D90CF23C6BB01D07B0180EDF97A29007A0440DCAD1DB6D46CFB9C43744C80D5487C8F149AC70B904C0842936D5B006D0D4876FEB3B5D40120D9511A7B8CD8D104D228804ED30CFC776E545D0A81EF9CC5489D69190012008F9FA3DC3005D21EE31C1706B51F78715622
310
F4720DC833C19702E869407606AEE7CF4E7DAC33DA453EC07FD31ABD0D80940BFD39007F39DABBB8B8B8B8B8B8B8B8B8B8B8B8B8B8B8B8B8B8B86C2EFF00897DE2182F9F6C370000000049454E44AE426082
  0
ENDSEC
  0
EOF
