  0
SECTION
  2
HEADER
  9
$ACADVER
  1
AC1032
  9
$ACADMAINTVER
 90
        4
  9
$DWGCODEPAGE
  3
ANSI_1252
  9
$LASTSAVEDBY
  1
Siqi
  9
$REQUIREDVERSIONS
160
                 0
  9
$INSBASE
 10
0.0
 20
0.0
 30
0.0
  9
$EXTMIN
 10
462122.806649416
 20
-56254.17717812239
 30
0.0
  9
$EXTMAX
 10
490450.3380135063
 20
-6763.756165441423
 30
0.0
  9
$LIMMIN
 10
0.0
 20
0.0
  9
$LIMMAX
 10
420.0
 20
297.0
  9
$ORTHOMODE
 70
     0
  9
$REGENMODE
 70
     1
  9
$FILLMODE
 70
     1
  9
$QTEXTMODE
 70
     0
  9
$MIRRTEXT
 70
     1
  9
$LTSCALE
 40
0.2
  9
$ATTMODE
 70
     1
  9
$TEXTSIZE
 40
2.5
  9
$TRACEWID
 40
1.0
  9
$TEXTSTYLE
  7
Standard
  9
$CLAYER
  8
标注线
  9
$CELTYPE
  6
ByLayer
  9
$CECOLOR
 62
   256
  9
$CELTSCALE
 40
3.0
  9
$DISPSILH
 70
     0
  9
$DIMSCALE
 40
1.0
  9
$DIMASZ
 40
5.0
  9
$DIMEXO
 40
0.625
  9
$DIMDLI
 40
3.75
  9
$DIMRND
 40
0.0
  9
$DIMDLE
 40
0.0
  9
$DIMEXE
 40
2.0
  9
$DIMTP
 40
0.0
  9
$DIMTM
 40
0.0
  9
$DIMTXT
 40
15.0
  9
$DIMCEN
 40
2.5
  9
$DIMTSZ
 40
0.0
  9
$DIMTOL
 70
     0
  9
$DIMLIM
 70
     0
  9
$DIMTIH
 70
     0
  9
$DIMTOH
 70
     0
  9
$DIMSE1
 70
     0
  9
$DIMSE2
 70
     0
  9
$DIMTAD
 70
     0
  9
$DIMZIN
 70
     8
  9
$DIMBLK
  1

  9
$DIMASO
 70
     1
  9
$DIMSHO
 70
     1
  9
$DIMPOST
  1

  9
$DIMAPOST
  1

  9
$DIMALT
 70
     0
  9
$DIMALTD
 70
     3
  9
$DIMALTF
 40
0.03937007874016
  9
$DIMLFAC
 40
1.0
  9
$DIMTOFL
 70
     0
  9
$DIMTVP
 40
0.0
  9
$DIMTIX
 70
     0
  9
$DIMSOXD
 70
     0
  9
$DIMSAH
 70
     0
  9
$DIMBLK1
  1

  9
$DIMBLK2
  1

  9
$DIMSTYLE
  2
副本ISO-25
  9
$DIMCLRD
 70
     0
  9
$DIMCLRE
 70
     0
  9
$DIMCLRT
 70
     0
  9
$DIMTFAC
 40
1.0
  9
$DIMGAP
 40
5.0
  9
$DIMJUST
 70
     0
  9
$DIMSD1
 70
     0
  9
$DIMSD2
 70
     0
  9
$DIMTOLJ
 70
     0
  9
$DIMTZIN
 70
     8
  9
$DIMALTZ
 70
     0
  9
$DIMALTTZ
 70
     0
  9
$DIMUPT
 70
     0
  9
$DIMDEC
 70
     2
  9
$DIMTDEC
 70
     2
  9
$DIMALTU
 70
     2
  9
$DIMALTTD
 70
     3
  9
$DIMTXSTY
  7
Standard
  9
$DIMAUNIT
 70
     0
  9
$DIMADEC
 70
     1
  9
$DIMALTRND
 40
0.0
  9
$DIMAZIN
 70
     0
  9
$DIMDSEP
 70
    44
  9
$DIMATFIT
 70
     3
  9
$DIMFRAC
 70
     0
  9
$DIMLDRBLK
  1

  9
$DIMLUNIT
 70
     2
  9
$DIMLWD
 70
    -2
  9
$DIMLWE
 70
    -2
  9
$DIMTMOVE
 70
     1
  9
$DIMFXL
 40
1.0
  9
$DIMFXLON
 70
     0
  9
$DIMJOGANG
 40
0.7853981633974483
  9
$DIMTFILL
 70
     0
  9
$DIMTFILLCLR
 70
     0
  9
$DIMARCSYM
 70
     0
  9
$DIMLTYPE
  6

  9
$DIMLTEX1
  6

  9
$DIMLTEX2
  6

  9
$DIMTXTDIRECTION
 70
     0
  9
$LUNITS
 70
     2
  9
$LUPREC
 70
     4
  9
$SKETCHINC
 40
1.0
  9
$FILLETRAD
 40
50.0
  9
$AUNITS
 70
     0
  9
$AUPREC
 70
     0
  9
$MENU
  1
.
  9
$ELEVATION
 40
0.0
  9
$PELEVATION
 40
0.0
  9
$THICKNESS
 40
0.0
  9
$LIMCHECK
 70
     0
  9
$CHAMFERA
 40
3.0
  9
$CHAMFERB
 40
3.0
  9
$CHAMFERC
 40
20.0
  9
$CHAMFERD
 40
0.0
  9
$SKPOLY
 70
     0
  9
$TDCREATE
 40
2452959.953750000
  9
$TDUCREATE
 40
2452960.287092164
  9
$TDUPDATE
 40
2457975.664479167
  9
$TDUUPDATE
 40
2457975.956145833
  9
$TDINDWG
 40
10.8137418866
  9
$TDUSRTIMER
 40
10.8137415972
  9
$USRTIMER
 70
     1
  9
$ANGBASE
 50
0.0
  9
$ANGDIR
 70
     0
  9
$PDMODE
 70
     0
  9
$PDSIZE
 40
0.0
  9
$PLINEWID
 40
0.0
  9
$SPLFRAME
 70
     0
  9
$SPLINETYPE
 70
     6
  9
$SPLINESEGS
 70
     8
  9
$HANDSEED
  5
5AFCB
  9
$SURFTAB1
 70
     6
  9
$SURFTAB2
 70
     6
  9
$SURFTYPE
 70
     6
  9
$SURFU
 70
     6
  9
$SURFV
 70
     6
  9
$UCSBASE
  2

  9
$UCSNAME
  2

  9
$UCSORG
 10
0.0
 20
0.0
 30
0.0
  9
$UCSXDIR
 10
1.0
 20
0.0
 30
0.0
  9
$UCSYDIR
 10
0.0
 20
1.0
 30
0.0
  9
$UCSORTHOREF
  2

  9
$UCSORTHOVIEW
 70
     0
  9
$UCSORGTOP
 10
0.0
 20
0.0
 30
0.0
  9
$UCSORGBOTTOM
 10
0.0
 20
0.0
 30
0.0
  9
$UCSORGLEFT
 10
0.0
 20
0.0
 30
0.0
  9
$UCSORGRIGHT
 10
0.0
 20
0.0
 30
0.0
  9
$UCSORGFRONT
 10
0.0
 20
0.0
 30
0.0
  9
$UCSORGBACK
 10
0.0
 20
0.0
 30
0.0
  9
$PUCSBASE
  2

  9
$PUCSNAME
  2

  9
$PUCSORG
 10
0.0
 20
0.0
 30
0.0
  9
$PUCSXDIR
 10
1.0
 20
0.0
 30
0.0
  9
$PUCSYDIR
 10
0.0
 20
1.0
 30
0.0
  9
$PUCSORTHOREF
  2

  9
$PUCSORTHOVIEW
 70
     0
  9
$PUCSORGTOP
 10
0.0
 20
0.0
 30
0.0
  9
$PUCSORGBOTTOM
 10
0.0
 20
0.0
 30
0.0
  9
$PUCSORGLEFT
 10
0.0
 20
0.0
 30
0.0
  9
$PUCSORGRIGHT
 10
0.0
 20
0.0
 30
0.0
  9
$PUCSORGFRONT
 10
0.0
 20
0.0
 30
0.0
  9
$PUCSORGBACK
 10
0.0
 20
0.0
 30
0.0
  9
$USERI1
 70
     0
  9
$USERI2
 70
     0
  9
$USERI3
 70
     0
  9
$USERI4
 70
     0
  9
$USERI5
 70
     0
  9
$USERR1
 40
0.0
  9
$USERR2
 40
0.0
  9
$USERR3
 40
0.0
  9
$USERR4
 40
0.0
  9
$USERR5
 40
2.5
  9
$WORLDVIEW
 70
     1
  9
$SHADEDGE
 70
     3
  9
$SHADEDIF
 70
    70
  9
$TILEMODE
 70
     1
  9
$MAXACTVP
 70
    64
  9
$PINSBASE
 10
0.0
 20
0.0
 30
0.0
  9
$PLIMCHECK
 70
     0
  9
$PEXTMIN
 10
0.0
 20
0.0
 30
0.0
  9
$PEXTMAX
 10
0.0
 20
0.0
 30
0.0
  9
$PLIMMIN
 10
0.0
 20
0.0
  9
$PLIMMAX
 10
12.0
 20
9.0
  9
$UNITMODE
 70
     0
  9
$VISRETAIN
 70
     1
  9
$PLINEGEN
 70
     0
  9
$PSLTSCALE
 70
     1
  9
$TREEDEPTH
 70
  3020
  9
$CMLSTYLE
  2
Standard
  9
$CMLJUST
 70
     0
  9
$CMLSCALE
 40
20.0
  9
$PROXYGRAPHICS
 70
     1
  9
$MEASUREMENT
 70
     1
  9
$CELWEIGHT
370
    -1
  9
$ENDCAPS
280
     0
  9
$JOINSTYLE
280
     0
  9
$LWDISPLAY
290
     0
  9
$INSUNITS
 70
     4
  9
$HYPERLINKBASE
  1

  9
$STYLESHEET
  1
acad.ctb
  9
$XEDIT
290
     1
  9
$CEPSNTYPE
380
     0
  9
$PSTYLEMODE
290
     1
  9
$FINGERPRINTGUID
  2
{FDEAD578-A652-11D2-9A35-0060089B3A3F}
  9
$VERSIONGUID
  2
{168214D5-81AE-7440-AA80-567F7451F4D4}
  9
$EXTNAMES
290
     1
  9
$PSVPSCALE
 40
0.0
  9
$OLESTARTUP
290
     0
  9
$SORTENTS
280
     1
  9
$INDEXCTL
280
     0
  9
$HIDETEXT
280
     1
  9
$XCLIPFRAME
280
     0
  9
$HALOGAP
280
     0
  9
$OBSCOLOR
 70
   257
  9
$OBSLTYPE
280
     0
  9
$INTERSECTIONDISPLAY
280
     0
  9
$INTERSECTIONCOLOR
 70
   257
  9
$DIMASSOC
280
     2
  9
$PROJECTNAME
  1

  9
$CAMERADISPLAY
290
     0
  9
$LENSLENGTH
 40
50.0
  9
$CAMERAHEIGHT
 40
0.0
  9
$STEPSPERSEC
 40
2.0
  9
$STEPSIZE
 40
6.0
  9
$3DDWFPREC
 40
2.0
  9
$PSOLWIDTH
 40
0.25
  9
$PSOLHEIGHT
 40
4.0
  9
$LOFTANG1
 40
1.570796326794896
  9
$LOFTANG2
 40
1.570796326794896
  9
$LOFTMAG1
 40
0.0
  9
$LOFTMAG2
 40
0.0
  9
$LOFTPARAM
 70
     7
  9
$LOFTNORMALS
280
     1
  9
$LATITUDE
 40
37.795
  9
$LONGITUDE
 40
-122.394
  9
$NORTHDIRECTION
 40
0.0
  9
$TIMEZONE
 70
 -8000
  9
$LIGHTGLYPHDISPLAY
280
     1
  9
$TILEMODELIGHTSYNCH
280
     1
  9
$CMATERIAL
347
5ACD0
  9
$SOLIDHIST
280
     1
  9
$SHOWHIST
280
     1
  9
$DWFFRAME
280
     2
  9
$DGNFRAME
280
     0
  9
$REALWORLDSCALE
290
     1
  9
$INTERFERECOLOR
 62
     1
  9
$INTERFEREOBJVS
345
5ACDD
  9
$INTERFEREVPVS
346
5AD7B
  9
$CSHADOW
280
     0
  9
$SHADOWPLANELOCATION
 40
0.0
  0
ENDSEC
  0
SECTION
  2
CLASSES
  0
CLASS
  1
ACDBDICTIONARYWDFLT
  2
AcDbDictionaryWithDefault
  3
ObjectDBX Classes
 90
        0
 91
        1
280
     0
281
     0
  0
CLASS
  1
ACDBPLACEHOLDER
  2
AcDbPlaceHolder
  3
ObjectDBX Classes
 90
        0
 91
        1
280
     0
281
     0
  0
CLASS
  1
LAYOUT
  2
AcDbLayout
  3
ObjectDBX Classes
 90
        0
 91
        3
280
     0
281
     0
  0
CLASS
  1
DICTIONARYVAR
  2
AcDbDictionaryVar
  3
ObjectDBX Classes
 90
        0
 91
       21
280
     0
281
     0
  0
CLASS
  1
DIMASSOC
  2
AcDbDimAssoc
  3
"AcDbDimAssoc|Product Desc:     AcDim ARX App For Dimension|Company:          Autodesk, Inc.|WEB Address:      www.autodesk.com"
 90
        0
 91
       24
280
     0
281
     0
  0
CLASS
  1
MATERIAL
  2
AcDbMaterial
  3
ObjectDBX Classes
 90
     1153
 91
        3
280
     0
281
     0
  0
CLASS
  1
VISUALSTYLE
  2
AcDbVisualStyle
  3
ObjectDBX Classes
 90
     4095
 91
       26
280
     0
281
     0
  0
CLASS
  1
TABLESTYLE
  2
AcDbTableStyle
  3
ObjectDBX Classes
 90
     4095
 91
        1
280
     0
281
     0
  0
CLASS
  1
VLO-VL
  2
vlo_VL
  3
VL|AutoLISP based application
 90
      129
 91
        2
280
     0
281
     0
  0
CLASS
  1
SORTENTSTABLE
  2
AcDbSortentsTable
  3
ObjectDBX Classes
 90
        0
 91
        1
280
     0
281
     0
  0
CLASS
  1
SCALE
  2
AcDbScale
  3
ObjectDBX Classes
 90
     1153
 91
       17
280
     0
281
     0
  0
CLASS
  1
MLEADERSTYLE
  2
AcDbMLeaderStyle
  3
ACDB_MLEADERSTYLE_CLASS
 90
     4095
 91
        1
280
     0
281
     0
  0
CLASS
  1
ACDBSECTIONVIEWSTYLE
  2
AcDbSectionViewStyle
  3
ObjectDBX Classes
 90
     1025
 91
        1
280
     0
281
     0
  0
CLASS
  1
ACDBDETAILVIEWSTYLE
  2
AcDbDetailViewStyle
  3
ObjectDBX Classes
 90
     1025
 91
        1
280
     0
281
     0
  0
CLASS
  1
CELLSTYLEMAP
  2
AcDbCellStyleMap
  3
ObjectDBX Classes
 90
     1152
 91
        1
280
     0
281
     0
  0
ENDSEC
  0
SECTION
  2
TABLES
  0
TABLE
  2
VPORT
  5
8
330
0
100
AcDbSymbolTable
 70
     1
  0
VPORT
  5
5ACCE
330
8
100
AcDbSymbolTableRecord
100
AcDbViewportTableRecord
  2
*Active
 70
     0
 10
0.0
 20
0.0
 11
1.0
 21
1.0
 12
490168.5516581061
 22
-55612.44274465933
 13
0.0
 23
0.0
 14
10.0
 24
10.0
 15
10.0
 25
10.0
 16
0.0
 26
0.0
 36
1.0
 17
0.0
 27
0.0
 37
0.0
 40
506.4555903677815
 41
1.913595933926302
 42
50.0
 43
0.0
 44
0.0
 50
0.0
 51
0.0
 71
     0
 72
   100
 73
     1
 74
     3
 75
     0
 76
     0
 77
     0
 78
     1
281
     0
 65
     1
110
0.0
120
0.0
130
0.0
111
1.0
121
0.0
131
0.0
112
0.0
122
1.0
132
0.0
 79
     0
146
0.0
348
5ACD9
 60
     3
 61
     5
292
     1
282
     1
141
0.0
142
0.0
 63
   250
421
  3355443
1001
ACAD_NAV_VCDISPLAY
1070
     3
  0
ENDTAB
  0
TABLE
  2
LTYPE
  5
5
330
0
100
AcDbSymbolTable
 70
     4
  0
LTYPE
  5
14
330
5
100
AcDbSymbolTableRecord
100
AcDbLinetypeTableRecord
  2
ByBlock
 70
     0
  3

 72
    65
 73
     0
 40
0.0
  0
LTYPE
  5
15
330
5
100
AcDbSymbolTableRecord
100
AcDbLinetypeTableRecord
  2
ByLayer
 70
     0
  3

 72
    65
 73
     0
 40
0.0
  0
LTYPE
  5
16
330
5
100
AcDbSymbolTableRecord
100
AcDbLinetypeTableRecord
  2
Continuous
 70
     0
  3
Solid line
 72
    65
 73
     0
 40
0.0
  0
LTYPE
  5
51A62
330
5
100
AcDbSymbolTableRecord
100
AcDbLinetypeTableRecord
  2
ACAD_ISO02W100
 70
     0
  3
ISO dash __ __ __ __ __ __ __ __ __ __ __ __ __
 72
    65
 73
     2
 40
15.0
 49
12.0
 74
     0
 49
-3.0
 74
     0
  0
LTYPE
  5
51C43
330
5
100
AcDbSymbolTableRecord
100
AcDbLinetypeTableRecord
  2
CENTER
 70
     0
  3
Center ____ _ ____ _ ____ _ ____ _ ____ _ ____
 72
    65
 73
     4
 40
50.8
 49
31.75
 74
     0
 49
-6.349999999999999
 74
     0
 49
6.349999999999999
 74
     0
 49
-6.349999999999999
 74
     0
  0
ENDTAB
  0
TABLE
  2
LAYER
  5
2
330
0
100
AcDbSymbolTable
 70
    19
  0
LAYER
  5
10
102
{ACAD_XDICTIONARY
360
5AEB3
102
}
330
2
100
AcDbSymbolTableRecord
100
AcDbLayerTableRecord
  2
0
 70
     0
 62
     7
  6
Continuous
370
    -3
390
F
347
5ACD2
348
0
  0
LAYER
  5
75
102
{ACAD_XDICTIONARY
360
5AEB5
102
}
330
2
100
AcDbSymbolTableRecord
100
AcDbLayerTableRecord
  2
3二拉板
 70
     0
 62
     3
  6
Continuous
370
    -3
390
F
347
5ACD2
348
0
1001
AcadStringInfo
1000
MIFCodePage
1070
     5
  0
LAYER
  5
119
102
{ACAD_XDICTIONARY
360
5AEB7
102
}
330
2
100
AcDbSymbolTableRecord
100
AcDbLayerTableRecord
  2
6压边垫板
 70
     0
 62
     6
  6
Continuous
370
    -3
390
F
347
5ACD2
348
0
1001
AcadStringInfo
1000
MIFCodePage
1070
     5
  0
LAYER
  5
11A
102
{ACAD_XDICTIONARY
360
5AEB9
102
}
330
2
100
AcDbSymbolTableRecord
100
AcDbLayerTableRecord
  2
2二拉模头
 70
     0
 62
     2
  6
Continuous
370
    -3
390
F
347
5ACD2
348
0
1001
AcadStringInfo
1000
MIFCodePage
1070
     5
  0
LAYER
  5
517F1
102
{ACAD_XDICTIONARY
360
5AEBB
102
}
330
2
100
AcDbSymbolTableRecord
100
AcDbLayerTableRecord
  2
4二拉压边板
 70
     0
 62
     4
  6
Continuous
370
    -3
390
F
347
5ACD2
348
0
1001
AcadStringInfo
1000
MIFCodePage
1070
     5
  0
LAYER
  5
517F2
102
{ACAD_XDICTIONARY
360
5AEBD
102
}
330
2
100
AcDbSymbolTableRecord
100
AcDbLayerTableRecord
  2
1一拉模头
 70
     0
 62
     1
  6
Continuous
370
    -3
390
F
347
5ACD2
348
0
1001
AcadStringInfo
1000
MIFCodePage
1070
     5
  0
LAYER
  5
517F3
102
{ACAD_XDICTIONARY
360
5AEBF
102
}
330
2
100
AcDbSymbolTableRecord
100
AcDbLayerTableRecord
  2
5上模座
 70
     0
 62
     5
  6
Continuous
370
    -3
390
F
347
5ACD2
348
0
1001
AcadStringInfo
1000
MIFCodePage
1070
     5
  0
LAYER
  5
517F4
102
{ACAD_XDICTIONARY
360
5AEC1
102
}
330
2
100
AcDbSymbolTableRecord
100
AcDbLayerTableRecord
  2
1-d
 70
     0
 62
     7
  6
Continuous
370
    -3
390
F
347
5ACD2
348
0
  0
LAYER
  5
517F5
102
{ACAD_XDICTIONARY
360
5AEC3
102
}
330
2
100
AcDbSymbolTableRecord
100
AcDbLayerTableRecord
  2
2-d
 70
     0
 62
     7
  6
Continuous
370
    -3
390
F
347
5ACD2
348
0
  0
LAYER
  5
517F6
102
{ACAD_XDICTIONARY
360
5AEC5
102
}
330
2
100
AcDbSymbolTableRecord
100
AcDbLayerTableRecord
  2
3-d
 70
     0
 62
     7
  6
Continuous
370
    -3
390
F
347
5ACD2
348
0
  0
LAYER
  5
517F7
102
{ACAD_XDICTIONARY
360
5AEC7
102
}
330
2
100
AcDbSymbolTableRecord
100
AcDbLayerTableRecord
  2
4-d
 70
     0
 62
     7
  6
Continuous
370
    -3
390
F
347
5ACD2
348
0
  0
LAYER
  5
517F8
102
{ACAD_XDICTIONARY
360
5AEC9
102
}
330
2
100
AcDbSymbolTableRecord
100
AcDbLayerTableRecord
  2
5-d
 70
     0
 62
     7
  6
Continuous
370
    -3
390
F
347
5ACD2
348
0
  0
LAYER
  5
517F9
102
{ACAD_XDICTIONARY
360
5AECB
102
}
330
2
100
AcDbSymbolTableRecord
100
AcDbLayerTableRecord
  2
6-d
 70
     0
 62
     7
  6
Continuous
370
    -3
390
F
347
5ACD2
348
0
  0
LAYER
  5
517FC
330
2
100
AcDbSymbolTableRecord
100
AcDbLayerTableRecord
  2
Defpoints
 70
     0
 62
     7
  6
Continuous
290
     0
370
    -3
390
F
347
5ACD2
348
0
  0
LAYER
  5
52697
102
{ACAD_XDICTIONARY
360
5AECD
102
}
330
2
100
AcDbSymbolTableRecord
100
AcDbLayerTableRecord
  2
辅助线
 70
     0
 62
   151
  6
Continuous
370
    -3
390
F
347
5ACD2
348
0
1001
AcadStringInfo
1000
MIFCodePage
1070
     5
  0
LAYER
  5
53B64
102
{ACAD_XDICTIONARY
360
5AECF
102
}
330
2
100
AcDbSymbolTableRecord
100
AcDbLayerTableRecord
  2
细实线
 70
     0
 62
     1
  6
Continuous
370
    30
390
F
347
5ACD2
348
0
1001
AcadStringInfo
1000
MIFCodePage
1070
     5
  0
LAYER
  5
53C1D
102
{ACAD_XDICTIONARY
360
5AED1
102
}
330
2
100
AcDbSymbolTableRecord
100
AcDbLayerTableRecord
  2
标注线
 70
     0
 62
     7
  6
Continuous
370
    13
390
F
347
5ACD2
348
0
1001
AcadStringInfo
1000
MIFCodePage
1070
     5
  0
LAYER
  5
59E20
102
{ACAD_XDICTIONARY
360
5AED3
102
}
330
2
100
AcDbSymbolTableRecord
100
AcDbLayerTableRecord
  2
DIM
 70
     0
 62
     7
  6
Continuous
370
     9
390
F
347
5ACD2
348
0
  0
LAYER
  5
5ABB5
102
{ACAD_XDICTIONARY
360
5AED5
102
}
330
2
100
AcDbSymbolTableRecord
100
AcDbLayerTableRecord
  2
下模DIM
 70
     0
 62
     7
  6
Continuous
370
    15
390
F
347
5ACD2
348
0
1001
AcadStringInfo
1000
MIFCodePage
1070
     5
  0
ENDTAB
  0
TABLE
  2
STYLE
  5
3
330
0
100
AcDbSymbolTable
 70
     2
  0
STYLE
  5
11
330
3
100
AcDbSymbolTableRecord
100
AcDbTextStyleTableRecord
  2
Standard
 70
     0
 40
0.0
 41
1.0
 50
5.0
 71
     0
 42
2.5
  3

  4

1001
ACAD
1000
SimSun
1071
    34306
  0
STYLE
  5
51A61
330
3
100
AcDbSymbolTableRecord
100
AcDbTextStyleTableRecord
  2

 70
     1
 40
0.0
 41
1.0
 50
0.0
 71
     0
 42
2.5
  3
ltypeshp.shx
  4

  0
ENDTAB
  0
TABLE
  2
VIEW
  5
6
330
0
100
AcDbSymbolTable
 70
     0
  0
ENDTAB
  0
TABLE
  2
UCS
  5
7
330
0
100
AcDbSymbolTable
 70
     0
  0
ENDTAB
  0
TABLE
  2
APPID
  5
9
330
0
100
AcDbSymbolTable
 70
     5
  0
APPID
  5
12
330
9
100
AcDbSymbolTableRecord
100
AcDbRegAppTableRecord
  2
ACAD
 70
     0
  0
APPID
  5
5AD85
330
9
100
AcDbSymbolTableRecord
100
AcDbRegAppTableRecord
  2
AcadStringInfo
 70
     0
  0
APPID
  5
5ADA6
330
9
100
AcDbSymbolTableRecord
100
AcDbRegAppTableRecord
  2
AcadAnnoMonitorAlertIconDisabled
 70
     0
  0
APPID
  5
5ADA7
330
9
100
AcDbSymbolTableRecord
100
AcDbRegAppTableRecord
  2
ACAD_EXEMPT_FROM_CAD_STANDARDS
 70
     0
  0
APPID
  5
5AED7
330
9
100
AcDbSymbolTableRecord
100
AcDbRegAppTableRecord
  2
ACAD_NAV_VCDISPLAY
 70
     0
  0
ENDTAB
  0
TABLE
  2
DIMSTYLE
  5
A
330
0
100
AcDbSymbolTable
 70
     3
100
AcDbDimStyleTable
 71
     1
340
38D4F
  0
DIMSTYLE
105
38D4F
102
{ACAD_REACTORS
330
59A73
330
59A57
330
59A3B
330
59AE4
330
59B18
330
59B6A
330
59B7A
330
59B98
330
59BA8
330
59BC2
330
59BDC
330
59BF6
330
59C10
330
59C2A
330
59C4C
330
59C66
330
59C80
330
59C9A
330
59CE0
330
59D11
330
59D56
330
5A03A
330
5A058
330
5A0DA
330
5A110
330
5A15F
102
}
330
A
100
AcDbSymbolTableRecord
100
AcDbDimStyleTableRecord
  2
副本ISO-25
 70
     0
 41
15.0
 42
0.625
 43
3.75
 44
2.0
 73
     0
 74
     0
 78
     8
140
22.0
141
2.5
143
0.03937007874016
147
10.0
171
     3
179
     1
271
     2
272
     2
274
     3
278
    44
279
     1
283
     0
284
     8
340
11
1001
AcadStringInfo
1000
MIFCodePage
1070
     5
  0
DIMSTYLE
105
52E33
330
A
100
AcDbSymbolTableRecord
100
AcDbDimStyleTableRecord
  2
ISO-25
 70
     0
 41
20.0
 42
0.625
 43
3.75
 44
1.25
 73
     0
 74
     0
 77
     1
 78
     8
140
20.0
141
2.5
143
0.03937007874016
147
10.0
171
     3
172
     1
271
     2
272
     2
274
     3
283
     0
284
     8
340
11
  0
DIMSTYLE
105
52E34
330
A
100
AcDbSymbolTableRecord
100
AcDbDimStyleTableRecord
  2
副本 (2)ISO-25
 70
     0
 41
10.0
 42
0.625
 43
3.75
 44
10.0
 73
     0
 74
     0
 77
     1
 78
     8
140
10.0
141
2.5
143
0.03937007874016
147
10.0
171
     3
172
     1
271
     2
272
     2
274
     3
278
    44
283
     0
284
     8
340
11
1001
AcadStringInfo
1000
MIFCodePage
1070
     5
  0
ENDTAB
  0
TABLE
  2
BLOCK_RECORD
  5
1
330
0
100
AcDbSymbolTable
 70
    30
  0
BLOCK_RECORD
  5
1F
102
{ACAD_XDICTIONARY
360
5AD52
102
}
330
1
100
AcDbSymbolTableRecord
100
AcDbBlockTableRecord
  2
*Model_Space
340
22
 70
     0
280
     1
281
     0
  0
BLOCK_RECORD
  5
50
330
1
100
AcDbSymbolTableRecord
100
AcDbBlockTableRecord
  2
*Paper_Space
340
51
 70
     0
280
     1
281
     0
  0
BLOCK_RECORD
  5
55
330
1
100
AcDbSymbolTableRecord
100
AcDbBlockTableRecord
  2
*Paper_Space0
340
56
 70
     0
280
     1
281
     0
  0
BLOCK_RECORD
  5
52E35
330
1
100
AcDbSymbolTableRecord
100
AcDbBlockTableRecord
  2
粗糙度正
340
0
 70
     4
280
     1
281
     0
1001
AcadStringInfo
1000
MIFCodePage
1070
     5
  0
BLOCK_RECORD
  5
53B5F
330
1
100
AcDbSymbolTableRecord
100
AcDbBlockTableRecord
  2
_Dot
340
0
 70
     0
280
     1
281
     0
  0
BLOCK_RECORD
  5
59A3C
330
1
100
AcDbSymbolTableRecord
100
AcDbBlockTableRecord
  2
*D3
340
0
 70
     0
280
     1
281
     0
  0
BLOCK_RECORD
  5
59A58
330
1
100
AcDbSymbolTableRecord
100
AcDbBlockTableRecord
  2
*D4
340
0
 70
     0
280
     1
281
     0
  0
BLOCK_RECORD
  5
59A74
330
1
100
AcDbSymbolTableRecord
100
AcDbBlockTableRecord
  2
*D5
340
0
 70
     0
280
     1
281
     0
  0
BLOCK_RECORD
  5
59AE5
330
1
100
AcDbSymbolTableRecord
100
AcDbBlockTableRecord
  2
*D6
340
0
 70
     0
280
     1
281
     0
  0
BLOCK_RECORD
  5
59B19
330
1
100
AcDbSymbolTableRecord
100
AcDbBlockTableRecord
  2
*D7
340
0
 70
     0
280
     1
281
     0
  0
BLOCK_RECORD
  5
59B6B
330
1
100
AcDbSymbolTableRecord
100
AcDbBlockTableRecord
  2
*D8
340
0
 70
     0
280
     1
281
     0
  0
BLOCK_RECORD
  5
59B7B
330
1
100
AcDbSymbolTableRecord
100
AcDbBlockTableRecord
  2
*D9
340
0
 70
     0
280
     1
281
     0
  0
BLOCK_RECORD
  5
59B99
330
1
100
AcDbSymbolTableRecord
100
AcDbBlockTableRecord
  2
*D10
340
0
 70
     0
280
     1
281
     0
  0
BLOCK_RECORD
  5
59BA9
330
1
100
AcDbSymbolTableRecord
100
AcDbBlockTableRecord
  2
*D11
340
0
 70
     0
280
     1
281
     0
  0
BLOCK_RECORD
  5
59BC3
330
1
100
AcDbSymbolTableRecord
100
AcDbBlockTableRecord
  2
*D12
340
0
 70
     0
280
     1
281
     0
  0
BLOCK_RECORD
  5
59BDD
330
1
100
AcDbSymbolTableRecord
100
AcDbBlockTableRecord
  2
*D13
340
0
 70
     0
280
     1
281
     0
  0
BLOCK_RECORD
  5
59BF7
330
1
100
AcDbSymbolTableRecord
100
AcDbBlockTableRecord
  2
*D14
340
0
 70
     0
280
     1
281
     0
  0
BLOCK_RECORD
  5
59C11
330
1
100
AcDbSymbolTableRecord
100
AcDbBlockTableRecord
  2
*D15
340
0
 70
     0
280
     1
281
     0
  0
BLOCK_RECORD
  5
59C2B
330
1
100
AcDbSymbolTableRecord
100
AcDbBlockTableRecord
  2
*D16
340
0
 70
     0
280
     1
281
     0
  0
BLOCK_RECORD
  5
59C4D
330
1
100
AcDbSymbolTableRecord
100
AcDbBlockTableRecord
  2
*D17
340
0
 70
     0
280
     1
281
     0
  0
BLOCK_RECORD
  5
59C67
330
1
100
AcDbSymbolTableRecord
100
AcDbBlockTableRecord
  2
*D18
340
0
 70
     0
280
     1
281
     0
  0
BLOCK_RECORD
  5
59C81
330
1
100
AcDbSymbolTableRecord
100
AcDbBlockTableRecord
  2
*D19
340
0
 70
     0
280
     1
281
     0
  0
BLOCK_RECORD
  5
59C9B
330
1
100
AcDbSymbolTableRecord
100
AcDbBlockTableRecord
  2
*D20
340
0
 70
     0
280
     1
281
     0
  0
BLOCK_RECORD
  5
59CE1
330
1
100
AcDbSymbolTableRecord
100
AcDbBlockTableRecord
  2
*D21
340
0
 70
     0
280
     1
281
     0
  0
BLOCK_RECORD
  5
59D12
330
1
100
AcDbSymbolTableRecord
100
AcDbBlockTableRecord
  2
*D22
340
0
 70
     0
280
     1
281
     0
  0
BLOCK_RECORD
  5
59D57
330
1
100
AcDbSymbolTableRecord
100
AcDbBlockTableRecord
  2
*D23
340
0
 70
     0
280
     1
281
     0
  0
BLOCK_RECORD
  5
59E21
330
1
100
AcDbSymbolTableRecord
100
AcDbBlockTableRecord
  2
A$C584E553B
340
0
 70
     0
280
     1
281
     0
  0
BLOCK_RECORD
  5
5A03B
330
1
100
AcDbSymbolTableRecord
100
AcDbBlockTableRecord
  2
*D25
340
0
 70
     0
280
     1
281
     0
  0
BLOCK_RECORD
  5
5A059
330
1
100
AcDbSymbolTableRecord
100
AcDbBlockTableRecord
  2
*D26
340
0
 70
     0
280
     1
281
     0
  0
BLOCK_RECORD
  5
5A0DB
330
1
100
AcDbSymbolTableRecord
100
AcDbBlockTableRecord
  2
*D27
340
0
 70
     0
280
     1
281
     0
  0
BLOCK_RECORD
  5
5A111
330
1
100
AcDbSymbolTableRecord
100
AcDbBlockTableRecord
  2
*D28
340
0
 70
     0
280
     1
281
     0
  0
BLOCK_RECORD
  5
5A160
330
1
100
AcDbSymbolTableRecord
100
AcDbBlockTableRecord
  2
*D29
340
0
 70
     0
280
     1
281
     0
  0
ENDTAB
  0
ENDSEC
  0
SECTION
  2
BLOCKS
  0
BLOCK
  5
20
330
1F
100
AcDbEntity
  8
0
100
AcDbBlockBegin
  2
*Model_Space
 70
     0
 10
0.0
 20
0.0
 30
0.0
  3
*Model_Space
  1

  0
ENDBLK
  5
21
330
1F
100
AcDbEntity
  8
0
100
AcDbBlockEnd
  0
BLOCK
  5
52
330
50
100
AcDbEntity
 67
     1
  8
0
100
AcDbBlockBegin
  2
*Paper_Space
 70
     0
 10
0.0
 20
0.0
 30
0.0
  3
*Paper_Space
  1

  0
ENDBLK
  5
53
330
50
100
AcDbEntity
 67
     1
  8
0
100
AcDbBlockEnd
  0
BLOCK
  5
57
330
55
100
AcDbEntity
 67
     1
  8
0
100
AcDbBlockBegin
  2
*Paper_Space0
 70
     0
 10
0.0
 20
0.0
 30
0.0
  3
*Paper_Space0
  1

  0
ENDBLK
  5
58
330
55
100
AcDbEntity
 67
     1
  8
0
100
AcDbBlockEnd
  0
BLOCK
  5
52E3A
330
52E35
100
AcDbEntity
  8
0
 48
3.0
100
AcDbBlockBegin
  2
粗糙度正
 70
     2
 10
0.0
 20
0.0
 30
0.0
  3
粗糙度正
  1

1001
AcadStringInfo
1000
MIFCodePage
1070
     5
  0
LINE
  5
52E36
330
52E35
100
AcDbEntity
  8
0
370
    30
100
AcDbLine
 10
-16.76694786488224
 20
28.9415275158135
 30
0.0
 11
19.12598742030241
 21
28.9415275158135
 31
0.0
  0
LINE
  5
52E37
330
52E35
100
AcDbEntity
  8
0
370
    30
100
AcDbLine
 10
0.0
 20
0.0
 30
0.0
 11
45.40283234236994
 21
69.54298457952609
 31
0.0
  0
LINE
  5
52E38
330
52E35
100
AcDbEntity
  8
0
370
    30
100
AcDbLine
 10
-16.76694786488224
 20
28.9415275158135
 30
0.0
 11
0.0
 21
0.0
 31
0.0
  0
ATTDEF
  5
52E39
330
52E35
100
AcDbEntity
  8
0
100
AcDbText
 10
-25.22261359540607
 20
43.15424499115851
 30
0.0
 40
20.0
  1
25
100
AcDbAttributeDefinition
280
     0
  3
L
  2
ROU
 70
     0
280
     0
  0
ENDBLK
  5
52E3B
330
52E35
100
AcDbEntity
  8
0
 48
3.0
100
AcDbBlockEnd
  0
BLOCK
  5
53B60
330
53B5F
100
AcDbEntity
  8
0
100
AcDbBlockBegin
  2
_Dot
 70
     0
 10
0.0
 20
0.0
 30
0.0
  3
_Dot
  1

  0
LWPOLYLINE
  5
53B61
330
53B5F
100
AcDbEntity
  8
细实线
 62
     0
100
AcDbPolyline
 90
        2
 70
     1
 43
0.5
 10
-0.25
 20
0.0
 42
1.0
 10
0.25
 20
0.0
 42
1.0
  0
LINE
  5
53B62
330
53B5F
100
AcDbEntity
  8
细实线
 62
     0
370
    -2
100
AcDbLine
 10
-0.5
 20
0.0
 30
0.0
 11
-1.0
 21
0.0
 31
0.0
  0
ENDBLK
  5
53B63
330
53B5F
100
AcDbEntity
  8
0
100
AcDbBlockEnd
  0
BLOCK
  5
59A48
330
59A3C
100
AcDbEntity
  8
0
 48
3.0
100
AcDbBlockBegin
  2
*D3
 70
     1
 10
0.0
 20
0.0
 30
0.0
  3
*D3
  1

  0
LINE
  5
5ADBD
330
59A3C
100
AcDbEntity
  8
标注线
 62
     0
440
 16777216
 48
3.0
370
    -2
100
AcDbLine
 10
490035.2220914118
 20
-55179.92730093362
 30
0.0
 11
490035.2220914118
 21
-55214.93254125284
 31
0.0
  0
LINE
  5
5ADBE
330
59A3C
100
AcDbEntity
  8
标注线
 62
     0
440
 16777216
 48
3.0
370
    -2
100
AcDbLine
 10
490086.2220914119
 20
-55179.92730093363
 30
0.0
 11
490086.2220914119
 21
-55214.93254125284
 31
0.0
  0
LINE
  5
5ADBF
330
59A3C
100
AcDbEntity
  8
标注线
 62
     0
440
 16777216
 48
3.0
370
    -2
100
AcDbLine
 10
490030.2220914118
 20
-55212.93254125284
 30
0.0
 11
490025.2220914119
 21
-55212.93254125284
 31
0.0
  0
LINE
  5
5ADC0
330
59A3C
100
AcDbEntity
  8
标注线
 62
     0
440
 16777216
 48
3.0
370
    -2
100
AcDbLine
 10
490091.2220914118
 20
-55212.93254125284
 30
0.0
 11
490096.2220914118
 21
-55212.93254125284
 31
0.0
  0
SOLID
  5
5ADC1
330
59A3C
100
AcDbEntity
  8
标注线
 62
     0
440
 16777216
 48
3.0
100
AcDbTrace
 10
490030.2220914118
 20
-55212.0992079195
 30
0.0
 11
490030.2220914118
 21
-55213.76587458617
 31
0.0
 12
490035.2220914118
 22
-55212.93254125284
 32
0.0
 13
490035.2220914118
 23
-55212.93254125284
 33
0.0
  0
SOLID
  5
5ADC2
330
59A3C
100
AcDbEntity
  8
标注线
 62
     0
440
 16777216
 48
3.0
100
AcDbTrace
 10
490091.2220914118
 20
-55212.0992079195
 30
0.0
 11
490091.2220914118
 21
-55213.76587458617
 31
0.0
 12
490086.2220914119
 22
-55212.93254125284
 32
0.0
 13
490086.2220914119
 23
-55212.93254125284
 33
0.0
  0
MTEXT
  5
5ADC3
330
59A3C
100
AcDbEntity
  8
标注线
 62
     0
440
 16777216
 48
3.0
100
AcDbMText
 10
490060.7220914118
 20
-55212.93254125284
 30
0.0
 40
15.0
 41
7.17101981997257
 46
0.0
 71
     5
 72
     1
  1
{\Ftxt|c0;%%C}51{\fSimSun|b0|i0|c134|p54; [2"]}
 73
     1
 44
1.0
  0
POINT
  5
5ADC4
330
59A3C
100
AcDbEntity
  8
Defpoints
 62
     0
440
 16777216
 48
3.0
100
AcDbPoint
 10
490035.2220914118
 20
-55179.30230093361
 30
0.0
  0
POINT
  5
5ADC5
330
59A3C
100
AcDbEntity
  8
Defpoints
 62
     0
440
 16777216
 48
3.0
100
AcDbPoint
 10
490086.2220914119
 20
-55179.30230093362
 30
0.0
  0
POINT
  5
5ADC6
330
59A3C
100
AcDbEntity
  8
Defpoints
 62
     0
440
 16777216
 48
3.0
100
AcDbPoint
 10
490086.2220914119
 20
-55212.93254125284
 30
0.0
  0
ENDBLK
  5
59A49
330
59A3C
100
AcDbEntity
  8
0
 48
3.0
100
AcDbBlockEnd
  0
BLOCK
  5
59A64
330
59A58
100
AcDbEntity
  8
0
 48
3.0
100
AcDbBlockBegin
  2
*D4
 70
     1
 10
0.0
 20
0.0
 30
0.0
  3
*D4
  1

  0
LINE
  5
5ADD1
330
59A58
100
AcDbEntity
  8
标注线
 62
     0
440
 16777216
 48
3.0
370
    -2
100
AcDbLine
 10
490024.7220914118
 20
-55176.67730093361
 30
0.0
 11
490024.7220914118
 21
-55133.22690403266
 31
0.0
  0
LINE
  5
5ADD2
330
59A58
100
AcDbEntity
  8
标注线
 62
     0
440
 16777216
 48
3.0
370
    -2
100
AcDbLine
 10
490096.7220914118
 20
-55176.67730093362
 30
0.0
 11
490096.7220914118
 21
-55133.22690403266
 31
0.0
  0
LINE
  5
5ADD3
330
59A58
100
AcDbEntity
  8
标注线
 62
     0
440
 16777216
 48
3.0
370
    -2
100
AcDbLine
 10
490019.7220914118
 20
-55135.22690403267
 30
0.0
 11
490014.7220914117
 21
-55135.22690403267
 31
0.0
  0
LINE
  5
5ADD4
330
59A58
100
AcDbEntity
  8
标注线
 62
     0
440
 16777216
 48
3.0
370
    -2
100
AcDbLine
 10
490101.7220914118
 20
-55135.22690403267
 30
0.0
 11
490106.7220914118
 21
-55135.22690403267
 31
0.0
  0
SOLID
  5
5ADD5
330
59A58
100
AcDbEntity
  8
标注线
 62
     0
440
 16777216
 48
3.0
100
AcDbTrace
 10
490019.7220914118
 20
-55134.39357069932
 30
0.0
 11
490019.7220914118
 21
-55136.060237366
 31
0.0
 12
490024.7220914118
 22
-55135.22690403267
 32
0.0
 13
490024.7220914118
 23
-55135.22690403267
 33
0.0
  0
SOLID
  5
5ADD6
330
59A58
100
AcDbEntity
  8
标注线
 62
     0
440
 16777216
 48
3.0
100
AcDbTrace
 10
490101.7220914118
 20
-55134.39357069932
 30
0.0
 11
490101.7220914118
 21
-55136.060237366
 31
0.0
 12
490096.7220914118
 22
-55135.22690403267
 32
0.0
 13
490096.7220914118
 23
-55135.22690403267
 33
0.0
  0
MTEXT
  5
5ADD7
330
59A58
100
AcDbEntity
  8
标注线
 62
     0
440
 16777216
 48
3.0
100
AcDbMText
 10
490060.7220914118
 20
-55135.22690403267
 30
0.0
 40
15.0
 41
5.122149163507856
 46
0.0
 71
     5
 72
     1
  1
{\Ftxt|c0;%%C}72{\fSimSun|b0|i0|c134|p54; [2.8"]}
 73
     1
 44
1.0
  0
POINT
  5
5ADD8
330
59A58
100
AcDbEntity
  8
Defpoints
 62
     0
440
 16777216
 48
3.0
100
AcDbPoint
 10
490024.7220914118
 20
-55177.30230093361
 30
0.0
  0
POINT
  5
5ADD9
330
59A58
100
AcDbEntity
  8
Defpoints
 62
     0
440
 16777216
 48
3.0
100
AcDbPoint
 10
490096.7220914118
 20
-55177.30230093362
 30
0.0
  0
POINT
  5
5ADDA
330
59A58
100
AcDbEntity
  8
Defpoints
 62
     0
440
 16777216
 48
3.0
100
AcDbPoint
 10
490096.7220914118
 20
-55135.22690403267
 30
0.0
  0
ENDBLK
  5
59A65
330
59A58
100
AcDbEntity
  8
0
 48
3.0
100
AcDbBlockEnd
  0
BLOCK
  5
59A80
330
59A74
100
AcDbEntity
  8
0
 48
3.0
100
AcDbBlockBegin
  2
*D5
 70
     1
 10
0.0
 20
0.0
 30
0.0
  3
*D5
  1

  0
LINE
  5
5AE35
330
59A74
100
AcDbEntity
  8
标注线
 62
     0
440
 16777216
 48
3.0
370
    -2
100
AcDbLine
 10
490022.7220914118
 20
-55174.67730093361
 30
0.0
 11
490022.7220914118
 21
-55100.03305305656
 31
0.0
  0
LINE
  5
5AE36
330
59A74
100
AcDbEntity
  8
标注线
 62
     0
440
 16777216
 48
3.0
370
    -2
100
AcDbLine
 10
490098.7220914119
 20
-55174.67730093362
 30
0.0
 11
490098.7220914119
 21
-55100.03305305656
 31
0.0
  0
LINE
  5
5AE37
330
59A74
100
AcDbEntity
  8
标注线
 62
     0
440
 16777216
 48
3.0
370
    -2
100
AcDbLine
 10
490027.7220914118
 20
-55102.03305305656
 30
0.0
 11
490037.2896642647
 21
-55102.03305305656
 31
0.0
  0
LINE
  5
5AE38
330
59A74
100
AcDbEntity
  8
标注线
 62
     0
440
 16777216
 48
3.0
370
    -2
100
AcDbLine
 10
490093.7220914119
 20
-55102.03305305656
 30
0.0
 11
490084.1545185591
 21
-55102.03305305656
 31
0.0
  0
MTEXT
  5
5AE39
330
59A74
100
AcDbEntity
  8
标注线
 62
     0
440
 16777216
 48
3.0
100
AcDbMText
 10
490060.7220914118
 20
-55080.2313770789
 30
0.0
 40
15.0
 41
3.073287666251417
 46
0.0
 71
     5
 72
     1
  1
{\Ftxt|c0;%%C}76{\fSimSun|b0|i0|c134|p54; [3"]}
 73
     1
 44
1.0
  0
SOLID
  5
5AE3A
330
59A74
100
AcDbEntity
  8
标注线
 62
     0
440
 16777216
 48
3.0
100
AcDbTrace
 10
490027.7220914118
 20
-55101.19971972322
 30
0.0
 11
490027.7220914118
 21
-55102.8663863899
 31
0.0
 12
490022.7220914118
 22
-55102.03305305656
 32
0.0
 13
490022.7220914118
 23
-55102.03305305656
 33
0.0
  0
SOLID
  5
5AE3B
330
59A74
100
AcDbEntity
  8
标注线
 62
     0
440
 16777216
 48
3.0
100
AcDbTrace
 10
490093.7220914119
 20
-55101.19971972322
 30
0.0
 11
490093.7220914119
 21
-55102.8663863899
 31
0.0
 12
490098.7220914119
 22
-55102.03305305656
 32
0.0
 13
490098.7220914119
 23
-55102.03305305656
 33
0.0
  0
POINT
  5
5AE3C
330
59A74
100
AcDbEntity
  8
Defpoints
 62
     0
440
 16777216
 48
3.0
100
AcDbPoint
 10
490022.7220914118
 20
-55175.30230093361
 30
0.0
  0
POINT
  5
5AE3D
330
59A74
100
AcDbEntity
  8
Defpoints
 62
     0
440
 16777216
 48
3.0
100
AcDbPoint
 10
490098.7220914119
 20
-55175.30230093362
 30
0.0
  0
POINT
  5
5AE3E
330
59A74
100
AcDbEntity
  8
Defpoints
 62
     0
440
 16777216
 48
3.0
100
AcDbPoint
 10
490098.7220914119
 20
-55102.03305305656
 30
0.0
  0
ENDBLK
  5
59A81
330
59A74
100
AcDbEntity
  8
0
 48
3.0
100
AcDbBlockEnd
  0
BLOCK
  5
59AF3
330
59AE5
100
AcDbEntity
  8
0
 48
3.0
100
AcDbBlockBegin
  2
*D6
 70
     1
 10
0.0
 20
0.0
 30
0.0
  3
*D6
  1

  0
LINE
  5
5AD1B
330
59AE5
100
AcDbEntity
  8
标注线
 62
     0
440
 16777216
 48
3.0
370
    -2
100
AcDbLine
 10
490022.0970914118
 20
-55175.30230093364
 30
0.0
 11
489995.2486610122
 21
-55175.30230093364
 31
0.0
  0
LINE
  5
5AD1C
330
59AE5
100
AcDbEntity
  8
标注线
 62
     0
440
 16777216
 48
3.0
370
    -2
100
AcDbLine
 10
490024.0970914118
 20
-55177.30230093363
 30
0.0
 11
489995.2486610122
 21
-55177.30230093363
 31
0.0
  0
LINE
  5
5AD1D
330
59AE5
100
AcDbEntity
  8
标注线
 62
     0
440
 16777216
 48
3.0
370
    -2
100
AcDbLine
 10
489997.2486610122
 20
-55170.30230093364
 30
0.0
 11
489997.2486610122
 21
-55165.30230093364
 31
0.0
  0
LINE
  5
5AD1E
330
59AE5
100
AcDbEntity
  8
标注线
 62
     0
440
 16777216
 48
3.0
370
    -2
100
AcDbLine
 10
489997.2486610122
 20
-55182.30230093363
 30
0.0
 11
489997.2486610122
 21
-55187.30230093363
 31
0.0
  0
MTEXT
  5
5AD1F
330
59AE5
100
AcDbEntity
  8
标注线
 62
     0
440
 16777216
 48
3.0
100
AcDbMText
 10
489997.2486610122
 20
-55163.58329472567
 30
0.0
 40
15.0
 41
0.0
 46
0.0
 71
     5
 72
     1
  1
2
 11
0.0000000000000001
 21
1.0
 31
0.0
 73
     1
 44
1.0
  0
SOLID
  5
5AD20
330
59AE5
100
AcDbEntity
  8
标注线
 62
     0
440
 16777216
 48
3.0
100
AcDbTrace
 10
489996.4153276789
 20
-55170.30230093364
 30
0.0
 11
489998.0819943455
 21
-55170.30230093364
 31
0.0
 12
489997.2486610122
 22
-55175.30230093364
 32
0.0
 13
489997.2486610122
 23
-55175.30230093364
 33
0.0
  0
SOLID
  5
5AD21
330
59AE5
100
AcDbEntity
  8
标注线
 62
     0
440
 16777216
 48
3.0
100
AcDbTrace
 10
489996.4153276789
 20
-55182.30230093363
 30
0.0
 11
489998.0819943455
 21
-55182.30230093363
 31
0.0
 12
489997.2486610122
 22
-55177.30230093363
 32
0.0
 13
489997.2486610122
 23
-55177.30230093363
 33
0.0
  0
POINT
  5
5AD22
330
59AE5
100
AcDbEntity
  8
Defpoints
 62
     0
440
 16777216
 48
3.0
100
AcDbPoint
 10
490022.7220914118
 20
-55175.30230093364
 30
0.0
  0
POINT
  5
5AD23
330
59AE5
100
AcDbEntity
  8
Defpoints
 62
     0
440
 16777216
 48
3.0
100
AcDbPoint
 10
490024.7220914118
 20
-55177.30230093363
 30
0.0
  0
POINT
  5
5AD24
330
59AE5
100
AcDbEntity
  8
Defpoints
 62
     0
440
 16777216
 48
3.0
100
AcDbPoint
 10
489997.2486610122
 20
-55177.30230093363
 30
0.0
  0
ENDBLK
  5
59AF4
330
59AE5
100
AcDbEntity
  8
0
 48
3.0
100
AcDbBlockEnd
  0
BLOCK
  5
59B27
330
59B19
100
AcDbEntity
  8
0
 48
3.0
100
AcDbBlockBegin
  2
*D7
 70
     1
 10
0.0
 20
0.0
 30
0.0
  3
*D7
  1

  0
LINE
  5
5AD25
330
59B19
100
AcDbEntity
  8
标注线
 62
     0
440
 16777216
 48
3.0
370
    -2
100
AcDbLine
 10
490022.0970914118
 20
-55175.30230093364
 30
0.0
 11
489973.9138768419
 21
-55175.30230093364
 31
0.0
  0
LINE
  5
5AD26
330
59B19
100
AcDbEntity
  8
标注线
 62
     0
440
 16777216
 48
3.0
370
    -2
100
AcDbLine
 10
490034.5970914118
 20
-55179.30230093364
 30
0.0
 11
489973.9138768419
 21
-55179.30230093364
 31
0.0
  0
LINE
  5
5AD27
330
59B19
100
AcDbEntity
  8
标注线
 62
     0
440
 16777216
 48
3.0
370
    -2
100
AcDbLine
 10
489975.9138768419
 20
-55170.30230093364
 30
0.0
 11
489975.9138768419
 21
-55165.30230093364
 31
0.0
  0
LINE
  5
5AD28
330
59B19
100
AcDbEntity
  8
标注线
 62
     0
440
 16777216
 48
3.0
370
    -2
100
AcDbLine
 10
489975.9138768419
 20
-55184.30230093364
 30
0.0
 11
489975.9138768419
 21
-55189.30230093364
 31
0.0
  0
MTEXT
  5
5AD29
330
59B19
100
AcDbEntity
  8
标注线
 62
     0
440
 16777216
 48
3.0
100
AcDbMText
 10
489975.9138768419
 20
-55189.30230093362
 30
0.0
 40
15.0
 41
0.0
 46
0.0
 71
     5
 72
     1
  1
4
 11
0.0000000000000001
 21
1.0
 31
0.0
 73
     1
 44
1.0
  0
SOLID
  5
5AD2A
330
59B19
100
AcDbEntity
  8
标注线
 62
     0
440
 16777216
 48
3.0
100
AcDbTrace
 10
489975.0805435085
 20
-55170.30230093364
 30
0.0
 11
489976.7472101752
 21
-55170.30230093364
 31
0.0
 12
489975.9138768419
 22
-55175.30230093364
 32
0.0
 13
489975.9138768419
 23
-55175.30230093364
 33
0.0
  0
SOLID
  5
5AD2B
330
59B19
100
AcDbEntity
  8
标注线
 62
     0
440
 16777216
 48
3.0
100
AcDbTrace
 10
489975.0805435085
 20
-55184.30230093364
 30
0.0
 11
489976.7472101752
 21
-55184.30230093364
 31
0.0
 12
489975.9138768419
 22
-55179.30230093364
 32
0.0
 13
489975.9138768419
 23
-55179.30230093364
 33
0.0
  0
POINT
  5
5AD2C
330
59B19
100
AcDbEntity
  8
Defpoints
 62
     0
440
 16777216
 48
3.0
100
AcDbPoint
 10
490022.7220914118
 20
-55175.30230093364
 30
0.0
  0
POINT
  5
5AD2D
330
59B19
100
AcDbEntity
  8
Defpoints
 62
     0
440
 16777216
 48
3.0
100
AcDbPoint
 10
490035.2220914118
 20
-55179.30230093364
 30
0.0
  0
POINT
  5
5AD2E
330
59B19
100
AcDbEntity
  8
Defpoints
 62
     0
440
 16777216
 48
3.0
100
AcDbPoint
 10
489975.9138768419
 20
-55179.30230093364
 30
0.0
  0
ENDBLK
  5
59B28
330
59B19
100
AcDbEntity
  8
0
 48
3.0
100
AcDbBlockEnd
  0
BLOCK
  5
59B71
330
59B6B
100
AcDbEntity
  8
0
 48
3.0
100
AcDbBlockBegin
  2
*D8
 70
     1
 10
0.0
 20
0.0
 30
0.0
  3
*D8
  1

  0
LINE
  5
5AD73
330
59B6B
100
AcDbEntity
  8
标注线
 62
     0
440
 16777216
 48
3.0
370
    -2
100
AcDbLine
 10
489878.3306537918
 20
-55061.76858027346
 30
0.0
 11
489891.9079406441
 21
-55052.91207910147
 31
0.0
  0
MTEXT
  5
5AD74
330
59B6B
100
AcDbEntity
  8
标注线
 62
     0
440
 16777216
 48
3.0
100
AcDbMText
 10
489865.4074149945
 20
-55070.19844411876
 30
0.0
 40
15.0
 41
0.0
 46
0.0
 71
     5
 72
     1
  1
R6
 11
0.8375612293924227
 21
0.5463434698233826
 31
0.0
 73
     1
 44
1.0
  0
SOLID
  5
5AD75
330
59B6B
100
AcDbEntity
  8
标注线
 62
     0
440
 16777216
 48
3.0
100
AcDbTrace
 10
489891.4526544193
 20
-55052.21411141032
 30
0.0
 11
489892.363226869
 21
-55053.61004679262
 31
0.0
 12
489896.095746791
 22
-55050.18036175235
 32
0.0
 13
489896.095746791
 23
-55050.18036175235
 33
0.0
  0
LINE
  5
5AD76
330
59B6B
100
AcDbEntity
  8
标注线
 62
     0
440
 16777216
 48
3.0
370
    -2
100
AcDbLine
 10
489898.6211141671
 20
-55046.90230093366
 30
0.0
 11
489903.6211141671
 21
-55046.90230093363
 31
0.0
  0
LINE
  5
5AD77
330
59B6B
100
AcDbEntity
  8
标注线
 62
     0
440
 16777216
 48
3.0
370
    -2
100
AcDbLine
 10
489901.1211141672
 20
-55049.40230093365
 30
0.0
 11
489901.1211141672
 21
-55044.40230093361
 31
0.0
  0
POINT
  5
5AD78
330
59B6B
100
AcDbEntity
  8
Defpoints
 62
     0
440
 16777216
 48
3.0
100
AcDbPoint
 10
489896.095746791
 20
-55050.18036175235
 30
0.0
  0
POINT
  5
5AD79
330
59B6B
100
AcDbEntity
  8
Defpoints
 62
     0
440
 16777216
 48
3.0
100
AcDbPoint
 10
489901.1211141671
 20
-55046.90230093364
 30
0.0
  0
ENDBLK
  5
59B72
330
59B6B
100
AcDbEntity
  8
0
 48
3.0
100
AcDbBlockEnd
  0
BLOCK
  5
59B86
330
59B7B
100
AcDbEntity
  8
0
 48
3.0
100
AcDbBlockBegin
  2
*D9
 70
     1
 10
0.0
 20
0.0
 30
0.0
  3
*D9
  1

  0
LINE
  5
5AEA9
330
59B7B
100
AcDbEntity
  8
标注线
 62
     0
440
 16777216
 48
3.0
370
    -2
100
AcDbLine
 10
490246.847091412
 20
-55035.30230093365
 30
0.0
 11
490273.1878287612
 21
-55035.30230093365
 31
0.0
  0
LINE
  5
5AEAA
330
59B7B
100
AcDbEntity
  8
标注线
 62
     0
440
 16777216
 48
3.0
370
    -2
100
AcDbLine
 10
490089.5728421987
 20
-55175.30230093365
 30
0.0
 11
490273.1878287612
 21
-55175.30230093365
 31
0.0
  0
LINE
  5
5AEAB
330
59B7B
100
AcDbEntity
  8
标注线
 62
     0
440
 16777216
 48
3.0
370
    -2
100
AcDbLine
 10
490271.1878287612
 20
-55040.30230093365
 30
0.0
 11
490271.1878287612
 21
-55071.54158235952
 31
0.0
  0
LINE
  5
5AEAC
330
59B7B
100
AcDbEntity
  8
标注线
 62
     0
440
 16777216
 48
3.0
370
    -2
100
AcDbLine
 10
490271.1878287612
 20
-55170.30230093365
 30
0.0
 11
490271.1878287612
 21
-55139.06301950779
 31
0.0
  0
SOLID
  5
5AEAD
330
59B7B
100
AcDbEntity
  8
标注线
 62
     0
440
 16777216
 48
3.0
100
AcDbTrace
 10
490270.3544954279
 20
-55040.30230093365
 30
0.0
 11
490272.0211620946
 21
-55040.30230093365
 31
0.0
 12
490271.1878287612
 22
-55035.30230093365
 32
0.0
 13
490271.1878287612
 23
-55035.30230093365
 33
0.0
  0
SOLID
  5
5AEAE
330
59B7B
100
AcDbEntity
  8
标注线
 62
     0
440
 16777216
 48
3.0
100
AcDbTrace
 10
490270.3544954279
 20
-55170.30230093365
 30
0.0
 11
490272.0211620946
 21
-55170.30230093365
 31
0.0
 12
490271.1878287612
 22
-55175.30230093365
 32
0.0
 13
490271.1878287612
 23
-55175.30230093365
 33
0.0
  0
MTEXT
  5
5AEAF
330
59B7B
100
AcDbEntity
  8
标注线
 62
     0
440
 16777216
 48
3.0
100
AcDbMText
 10
490271.1878287611
 20
-55105.30230093378
 30
0.0
 40
15.0
 41
9.219881317287217
 46
0.0
 71
     5
 72
     1
  1
140{\fSimSun|b0|i0|c134|p54; [5.5"]}
 11
0.0000000000000001
 21
1.0
 31
0.0
 73
     1
 44
1.0
  0
POINT
  5
5AEB0
330
59B7B
100
AcDbEntity
  8
Defpoints
 62
     0
440
 16777216
 48
3.0
100
AcDbPoint
 10
490246.222091412
 20
-55035.30230093365
 30
0.0
  0
POINT
  5
5AEB1
330
59B7B
100
AcDbEntity
  8
Defpoints
 62
     0
440
 16777216
 48
3.0
100
AcDbPoint
 10
490088.9478421987
 20
-55175.30230093365
 30
0.0
  0
POINT
  5
5AEB2
330
59B7B
100
AcDbEntity
  8
Defpoints
 62
     0
440
 16777216
 48
3.0
100
AcDbPoint
 10
490271.1878287612
 20
-55175.30230093365
 30
0.0
  0
ENDBLK
  5
59B87
330
59B7B
100
AcDbEntity
  8
0
 48
3.0
100
AcDbBlockEnd
  0
BLOCK
  5
59B9F
330
59B99
100
AcDbEntity
  8
0
 48
3.0
100
AcDbBlockBegin
  2
*D10
 70
     1
 10
0.0
 20
0.0
 30
0.0
  3
*D10
  1

  0
LINE
  5
5ADAE
330
59B99
100
AcDbEntity
  8
标注线
 62
     0
440
 16777216
 48
3.0
370
    -2
100
AcDbLine
 10
489931.6682699165
 20
-55144.6578478587
 30
0.0
 11
489927.5310132435
 21
-55147.46553502479
 31
0.0
  0
MTEXT
  5
5ADAF
330
59B99
100
AcDbEntity
  8
标注线
 62
     0
440
 16777216
 48
3.0
100
AcDbMText
 10
489969.8775756673
 20
-55118.72767580021
 30
0.0
 40
15.0
 41
0.0
 46
0.0
 71
     5
 72
     1
  1
R50{\fSimSun|b0|i0|c134|p54; [2"]}
 11
0.8274513345850953
 21
0.5615374332075686
 31
0.0
 73
     1
 44
1.0
  0
SOLID
  5
5ADB0
330
59B99
100
AcDbEntity
  8
标注线
 62
     0
440
 16777216
 48
3.0
100
AcDbTrace
 10
489927.0630653825
 20
-55146.77599224596
 30
0.0
 11
489927.9989611045
 21
-55148.15507780362
 31
0.0
 12
489923.3937565706
 22
-55150.27322219082
 32
0.0
 13
489923.3937565706
 23
-55150.27322219082
 33
0.0
  0
POINT
  5
5ADB1
330
59B99
100
AcDbEntity
  8
Defpoints
 62
     0
440
 16777216
 48
3.0
100
AcDbPoint
 10
489923.3937565706
 20
-55150.27322219082
 30
0.0
  0
POINT
  5
5ADB2
330
59B99
100
AcDbEntity
  8
Defpoints
 62
     0
440
 16777216
 48
3.0
100
AcDbPoint
 10
489964.7663232999
 20
-55122.1963505304
 30
0.0
  0
ENDBLK
  5
59BA0
330
59B99
100
AcDbEntity
  8
0
 48
3.0
100
AcDbBlockEnd
  0
BLOCK
  5
59BB4
330
59BA9
100
AcDbEntity
  8
0
 48
3.0
100
AcDbBlockBegin
  2
*D11
 70
     1
 10
0.0
 20
0.0
 30
0.0
  3
*D11
  1

  0
LINE
  5
5AF47
330
59BA9
100
AcDbEntity
  8
标注线
 62
     0
440
 16777216
 48
3.0
370
    -2
100
AcDbLine
 10
489956.5970914121
 20
-55431.90084891511
 30
0.0
 11
489818.7062961287
 21
-55431.90084891511
 31
0.0
  0
LINE
  5
5AF48
330
59BA9
100
AcDbEntity
  8
标注线
 62
     0
440
 16777216
 48
3.0
370
    -2
100
AcDbLine
 10
489956.5970914121
 20
-55689.90084891511
 30
0.0
 11
489818.7062961287
 21
-55689.90084891511
 31
0.0
  0
LINE
  5
5AF49
330
59BA9
100
AcDbEntity
  8
标注线
 62
     0
440
 16777216
 48
3.0
370
    -2
100
AcDbLine
 10
489820.7062961287
 20
-55436.90084891512
 30
0.0
 11
489820.7062961287
 21
-55532.5032588326
 31
0.0
  0
LINE
  5
5AF4A
330
59BA9
100
AcDbEntity
  8
标注线
 62
     0
440
 16777216
 48
3.0
370
    -2
100
AcDbLine
 10
489820.7062961287
 20
-55684.90084891512
 30
0.0
 11
489820.7062961287
 21
-55589.29843899763
 31
0.0
  0
SOLID
  5
5AF4B
330
59BA9
100
AcDbEntity
  8
标注线
 62
     0
440
 16777216
 48
3.0
100
AcDbTrace
 10
489819.8729627954
 20
-55436.90084891512
 30
0.0
 11
489821.539629462
 21
-55436.90084891512
 31
0.0
 12
489820.7062961287
 22
-55431.90084891511
 32
0.0
 13
489820.7062961287
 23
-55431.90084891511
 33
0.0
  0
SOLID
  5
5AF4C
330
59BA9
100
AcDbEntity
  8
标注线
 62
     0
440
 16777216
 48
3.0
100
AcDbTrace
 10
489819.8729627954
 20
-55684.90084891512
 30
0.0
 11
489821.539629462
 21
-55684.90084891512
 31
0.0
 12
489820.7062961287
 22
-55689.90084891511
 32
0.0
 13
489820.7062961287
 23
-55689.90084891511
 33
0.0
  0
MTEXT
  5
5AF4D
330
59BA9
100
AcDbEntity
  8
标注线
 62
     0
440
 16777216
 48
3.0
100
AcDbMText
 10
489820.7062961286
 20
-55560.90084891524
 30
0.0
 40
15.0
 41
2.048870656522922
 46
0.0
 71
     5
 72
     1
  1
258{\fSimSun|b0|i0|c134|p54; [10"]}
 11
0.0000000000000001
 21
1.0
 31
0.0
 73
     1
 44
1.0
  0
POINT
  5
5AF4E
330
59BA9
100
AcDbEntity
  8
Defpoints
 62
     0
440
 16777216
 48
3.0
100
AcDbPoint
 10
489957.222091412
 20
-55431.90084891511
 30
0.0
  0
POINT
  5
5AF4F
330
59BA9
100
AcDbEntity
  8
Defpoints
 62
     0
440
 16777216
 48
3.0
100
AcDbPoint
 10
489957.222091412
 20
-55689.90084891511
 30
0.0
  0
POINT
  5
5AF50
330
59BA9
100
AcDbEntity
  8
Defpoints
 62
     0
440
 16777216
 48
3.0
100
AcDbPoint
 10
489820.7062961287
 20
-55689.90084891511
 30
0.0
  0
ENDBLK
  5
59BB5
330
59BA9
100
AcDbEntity
  8
0
 48
3.0
100
AcDbBlockEnd
  0
BLOCK
  5
59BCE
330
59BC3
100
AcDbEntity
  8
0
 48
3.0
100
AcDbBlockBegin
  2
*D12
 70
     1
 10
0.0
 20
0.0
 30
0.0
  3
*D12
  1

  0
LINE
  5
5AF7F
330
59BC3
100
AcDbEntity
  8
标注线
 62
     0
440
 16777216
 48
3.0
370
    -2
100
AcDbLine
 10
489956.5970914121
 20
-55689.90084891511
 30
0.0
 11
489818.7062961287
 21
-55689.90084891511
 31
0.0
  0
LINE
  5
5AF80
330
59BC3
100
AcDbEntity
  8
标注线
 62
     0
440
 16777216
 48
3.0
370
    -2
100
AcDbLine
 10
489907.5970914121
 20
-55726.90084891512
 30
0.0
 11
489818.7062961287
 21
-55726.90084891512
 31
0.0
  0
LINE
  5
5AF81
330
59BC3
100
AcDbEntity
  8
标注线
 62
     0
440
 16777216
 48
3.0
370
    -2
100
AcDbLine
 10
489820.7062961287
 20
-55694.90084891511
 30
0.0
 11
489820.7062961287
 21
-55721.90084891511
 31
0.0
  0
LINE
  5
5AF82
330
59BC3
100
AcDbEntity
  8
标注线
 62
     0
440
 16777216
 48
3.0
370
    -2
100
AcDbLine
 10
489820.7062961287
 20
-55708.40084891512
 30
0.0
 11
489789.4046201511
 21
-55699.01034612182
 31
0.0
  0
LINE
  5
5AF83
330
59BC3
100
AcDbEntity
  8
标注线
 62
     0
440
 16777216
 48
3.0
370
    -2
100
AcDbLine
 10
489789.4046201511
 20
-55699.01034612182
 30
0.0
 11
489789.4046201511
 21
-55689.01034612181
 31
0.0
  0
MTEXT
  5
5AF84
330
59BC3
100
AcDbEntity
  8
标注线
 62
     0
440
 16777216
 48
3.0
100
AcDbMText
 10
489789.404620151
 20
-55681.4379461199
 30
0.0
 40
15.0
 41
5.144800004083663
 46
0.0
 71
     5
 72
     1
  1
37{\fSimSun|b0|i0|c134|p54; [1.5"]}
 11
0.0000000000000001
 21
1.0
 31
0.0
 73
     1
 44
1.0
  0
SOLID
  5
5AF85
330
59BC3
100
AcDbEntity
  8
标注线
 62
     0
440
 16777216
 48
3.0
100
AcDbTrace
 10
489819.8729627954
 20
-55694.90084891511
 30
0.0
 11
489821.539629462
 21
-55694.90084891511
 31
0.0
 12
489820.7062961287
 22
-55689.90084891511
 32
0.0
 13
489820.7062961287
 23
-55689.90084891511
 33
0.0
  0
SOLID
  5
5AF86
330
59BC3
100
AcDbEntity
  8
标注线
 62
     0
440
 16777216
 48
3.0
100
AcDbTrace
 10
489819.8729627954
 20
-55721.90084891511
 30
0.0
 11
489821.539629462
 21
-55721.90084891511
 31
0.0
 12
489820.7062961287
 22
-55726.90084891512
 32
0.0
 13
489820.7062961287
 23
-55726.90084891512
 33
0.0
  0
POINT
  5
5AF87
330
59BC3
100
AcDbEntity
  8
Defpoints
 62
     0
440
 16777216
 48
3.0
100
AcDbPoint
 10
489957.222091412
 20
-55689.90084891511
 30
0.0
  0
POINT
  5
5AF88
330
59BC3
100
AcDbEntity
  8
Defpoints
 62
     0
440
 16777216
 48
3.0
100
AcDbPoint
 10
489908.222091412
 20
-55726.90084891512
 30
0.0
  0
POINT
  5
5AF89
330
59BC3
100
AcDbEntity
  8
Defpoints
 62
     0
440
 16777216
 48
3.0
100
AcDbPoint
 10
489820.7062961287
 20
-55726.90084891512
 30
0.0
  0
ENDBLK
  5
59BCF
330
59BC3
100
AcDbEntity
  8
0
 48
3.0
100
AcDbBlockEnd
  0
BLOCK
  5
59BE8
330
59BDD
100
AcDbEntity
  8
0
 48
3.0
100
AcDbBlockBegin
  2
*D13
 70
     1
 10
0.0
 20
0.0
 30
0.0
  3
*D13
  1

  0
LINE
  5
5AF5B
330
59BDD
100
AcDbEntity
  8
标注线
 62
     0
440
 16777216
 48
3.0
370
    -2
100
AcDbLine
 10
489862.5266937703
 20
-55726.90084891512
 30
0.0
 11
489766.7515247967
 21
-55726.90084891512
 31
0.0
  0
LINE
  5
5AF5C
330
59BDD
100
AcDbEntity
  8
标注线
 62
     0
440
 16777216
 48
3.0
370
    -2
100
AcDbLine
 10
489907.5970914121
 20
-55345.90084891516
 30
0.0
 11
489766.7515247967
 21
-55345.90084891516
 31
0.0
  0
LINE
  5
5AF5D
330
59BDD
100
AcDbEntity
  8
标注线
 62
     0
440
 16777216
 48
3.0
370
    -2
100
AcDbLine
 10
489768.7515247967
 20
-55721.90084891511
 30
0.0
 11
489768.7515247967
 21
-55587.64778461468
 31
0.0
  0
LINE
  5
5AF5E
330
59BDD
100
AcDbEntity
  8
标注线
 62
     0
440
 16777216
 48
3.0
370
    -2
100
AcDbLine
 10
489768.7515247967
 20
-55350.90084891517
 30
0.0
 11
489768.7515247967
 21
-55485.1539132156
 31
0.0
  0
SOLID
  5
5AF5F
330
59BDD
100
AcDbEntity
  8
标注线
 62
     0
440
 16777216
 48
3.0
100
AcDbTrace
 10
489767.9181914634
 20
-55721.90084891511
 30
0.0
 11
489769.58485813
 21
-55721.90084891511
 31
0.0
 12
489768.7515247967
 22
-55726.90084891512
 32
0.0
 13
489768.7515247967
 23
-55726.90084891512
 33
0.0
  0
SOLID
  5
5AF60
330
59BDD
100
AcDbEntity
  8
标注线
 62
     0
440
 16777216
 48
3.0
100
AcDbTrace
 10
489767.9181914634
 20
-55350.90084891517
 30
0.0
 11
489769.58485813
 21
-55350.90084891517
 31
0.0
 12
489768.7515247967
 22
-55345.90084891516
 32
0.0
 13
489768.7515247967
 23
-55345.90084891516
 33
0.0
  0
MTEXT
  5
5AF61
330
59BDD
100
AcDbEntity
  8
标注线
 62
     0
440
 16777216
 48
3.0
100
AcDbMText
 10
489768.7515247966
 20
-55536.40084891526
 30
0.0
 40
15.0
 41
0.0
 46
0.0
 71
     5
 72
     1
  1
381{\fSimSun|b0|i0|c134|p54; [15"]}
 11
0.0000000000000001
 21
1.0
 31
0.0
 73
     1
 44
1.0
  0
POINT
  5
5AF62
330
59BDD
100
AcDbEntity
  8
Defpoints
 62
     0
440
 16777216
 48
3.0
100
AcDbPoint
 10
489863.1516937703
 20
-55726.90084891512
 30
0.0
  0
POINT
  5
5AF63
330
59BDD
100
AcDbEntity
  8
Defpoints
 62
     0
440
 16777216
 48
3.0
100
AcDbPoint
 10
489908.222091412
 20
-55345.90084891516
 30
0.0
  0
POINT
  5
5AF64
330
59BDD
100
AcDbEntity
  8
Defpoints
 62
     0
440
 16777216
 48
3.0
100
AcDbPoint
 10
489768.7515247967
 20
-55345.90084891516
 30
0.0
  0
ENDBLK
  5
59BE9
330
59BDD
100
AcDbEntity
  8
0
 48
3.0
100
AcDbBlockEnd
  0
BLOCK
  5
59C02
330
59BF7
100
AcDbEntity
  8
0
 48
3.0
100
AcDbBlockBegin
  2
*D14
 70
     1
 10
0.0
 20
0.0
 30
0.0
  3
*D14
  1

  0
LINE
  5
5AFA2
330
59BF7
100
AcDbEntity
  8
标注线
 62
     0
440
 16777216
 48
3.0
370
    -2
100
AcDbLine
 10
489907.2220914118
 20
-55640.52584891507
 30
0.0
 11
489907.2220914118
 21
-55783.10409911868
 31
0.0
  0
LINE
  5
5AFA3
330
59BF7
100
AcDbEntity
  8
标注线
 62
     0
440
 16777216
 48
3.0
370
    -2
100
AcDbLine
 10
490214.2220914118
 20
-55640.52584891508
 30
0.0
 11
490214.2220914118
 21
-55783.10409911868
 31
0.0
  0
LINE
  5
5AFA4
330
59BF7
100
AcDbEntity
  8
标注线
 62
     0
440
 16777216
 48
3.0
370
    -2
100
AcDbLine
 10
489912.2220914119
 20
-55781.10409911867
 30
0.0
 11
489993.3857702374
 21
-55781.10409911867
 31
0.0
  0
LINE
  5
5AFA5
330
59BF7
100
AcDbEntity
  8
标注线
 62
     0
440
 16777216
 48
3.0
370
    -2
100
AcDbLine
 10
490209.2220914118
 20
-55781.10409911867
 30
0.0
 11
490128.0584125863
 21
-55781.10409911867
 31
0.0
  0
SOLID
  5
5AFA6
330
59BF7
100
AcDbEntity
  8
标注线
 62
     0
440
 16777216
 48
3.0
100
AcDbTrace
 10
489912.2220914119
 20
-55780.27076578534
 30
0.0
 11
489912.2220914119
 21
-55781.93743245201
 31
0.0
 12
489907.2220914118
 22
-55781.10409911867
 32
0.0
 13
489907.2220914118
 23
-55781.10409911867
 33
0.0
  0
SOLID
  5
5AFA7
330
59BF7
100
AcDbEntity
  8
标注线
 62
     0
440
 16777216
 48
3.0
100
AcDbTrace
 10
490209.2220914118
 20
-55780.27076578534
 30
0.0
 11
490209.2220914118
 21
-55781.93743245201
 31
0.0
 12
490214.2220914118
 22
-55781.10409911867
 32
0.0
 13
490214.2220914118
 23
-55781.10409911867
 33
0.0
  0
MTEXT
  5
5AFA8
330
59BF7
100
AcDbEntity
  8
标注线
 62
     0
440
 16777216
 48
3.0
100
AcDbMText
 10
490060.7220914118
 20
-55781.10409911867
 30
0.0
 40
15.0
 41
0.0
 46
0.0
 71
     5
 72
     1
  1
307{\fSimSun|b0|i0|c134|p54; [12.09"]}
 73
     1
 44
1.0
  0
POINT
  5
5AFA9
330
59BF7
100
AcDbEntity
  8
Defpoints
 62
     0
440
 16777216
 48
3.0
100
AcDbPoint
 10
489907.2220914118
 20
-55639.90084891507
 30
0.0
  0
POINT
  5
5AFAA
330
59BF7
100
AcDbEntity
  8
Defpoints
 62
     0
440
 16777216
 48
3.0
100
AcDbPoint
 10
490214.2220914118
 20
-55639.90084891509
 30
0.0
  0
POINT
  5
5AFAB
330
59BF7
100
AcDbEntity
  8
Defpoints
 62
     0
440
 16777216
 48
3.0
100
AcDbPoint
 10
490214.2220914118
 20
-55781.10409911867
 30
0.0
  0
ENDBLK
  5
59C03
330
59BF7
100
AcDbEntity
  8
0
 48
3.0
100
AcDbBlockEnd
  0
BLOCK
  5
59C1C
330
59C11
100
AcDbEntity
  8
0
 48
3.0
100
AcDbBlockBegin
  2
*D15
 70
     1
 10
0.0
 20
0.0
 30
0.0
  3
*D15
  1

  0
LINE
  5
5AFB6
330
59C11
100
AcDbEntity
  8
标注线
 62
     0
440
 16777216
 48
3.0
370
    -2
100
AcDbLine
 10
490251.2220914118
 20
-55689.52584891514
 30
0.0
 11
490251.2220914118
 21
-55815.61789249066
 31
0.0
  0
LINE
  5
5AFB7
330
59C11
100
AcDbEntity
  8
标注线
 62
     0
440
 16777216
 48
3.0
370
    -2
100
AcDbLine
 10
489870.2220914119
 20
-55689.52584891514
 30
0.0
 11
489870.2220914119
 21
-55815.61789249066
 31
0.0
  0
LINE
  5
5AFB8
330
59C11
100
AcDbEntity
  8
标注线
 62
     0
440
 16777216
 48
3.0
370
    -2
100
AcDbLine
 10
490246.2220914118
 20
-55813.61789249066
 30
0.0
 11
490111.9690271114
 21
-55813.61789249066
 31
0.0
  0
LINE
  5
5AFB9
330
59C11
100
AcDbEntity
  8
标注线
 62
     0
440
 16777216
 48
3.0
370
    -2
100
AcDbLine
 10
489875.2220914118
 20
-55813.61789249066
 30
0.0
 11
490009.4751557123
 21
-55813.61789249066
 31
0.0
  0
SOLID
  5
5AFBA
330
59C11
100
AcDbEntity
  8
标注线
 62
     0
440
 16777216
 48
3.0
100
AcDbTrace
 10
490246.2220914118
 20
-55812.78455915732
 30
0.0
 11
490246.2220914118
 21
-55814.45122582399
 31
0.0
 12
490251.2220914118
 22
-55813.61789249066
 32
0.0
 13
490251.2220914118
 23
-55813.61789249066
 33
0.0
  0
SOLID
  5
5AFBB
330
59C11
100
AcDbEntity
  8
标注线
 62
     0
440
 16777216
 48
3.0
100
AcDbTrace
 10
489875.2220914118
 20
-55812.78455915732
 30
0.0
 11
489875.2220914118
 21
-55814.45122582399
 31
0.0
 12
489870.2220914119
 22
-55813.61789249066
 32
0.0
 13
489870.2220914119
 23
-55813.61789249066
 33
0.0
  0
MTEXT
  5
5AFBC
330
59C11
100
AcDbEntity
  8
标注线
 62
     0
440
 16777216
 48
3.0
100
AcDbMText
 10
490060.7220914118
 20
-55813.61789249066
 30
0.0
 40
15.0
 41
0.0
 46
0.0
 71
     5
 72
     1
  1
381{\fSimSun|b0|i0|c134|p54; [15"]}
 73
     1
 44
1.0
  0
POINT
  5
5AFBD
330
59C11
100
AcDbEntity
  8
Defpoints
 62
     0
440
 16777216
 48
3.0
100
AcDbPoint
 10
490251.2220914118
 20
-55688.90084891513
 30
0.0
  0
POINT
  5
5AFBE
330
59C11
100
AcDbEntity
  8
Defpoints
 62
     0
440
 16777216
 48
3.0
100
AcDbPoint
 10
489870.2220914119
 20
-55688.90084891513
 30
0.0
  0
POINT
  5
5AFBF
330
59C11
100
AcDbEntity
  8
Defpoints
 62
     0
440
 16777216
 48
3.0
100
AcDbPoint
 10
489870.2220914119
 20
-55813.61789249066
 30
0.0
  0
ENDBLK
  5
59C1D
330
59C11
100
AcDbEntity
  8
0
 48
3.0
100
AcDbBlockEnd
  0
BLOCK
  5
59C33
330
59C2B
100
AcDbEntity
  8
0
 48
3.0
100
AcDbBlockBegin
  2
*D16
 70
     1
 10
0.0
 20
0.0
 30
0.0
  3
*D16
  1

  0
LINE
  5
5AF91
330
59C2B
100
AcDbEntity
  8
标注线
 62
     0
440
 16777216
 48
3.0
370
    -2
100
AcDbLine
 10
490250.2395101922
 20
-55719.45752914777
 30
0.0
 11
490246.3835290692
 21
-55716.27454162351
 31
0.0
  0
MTEXT
  5
5AF92
330
59C2B
100
AcDbEntity
  8
标注线
 62
     0
440
 16777216
 48
3.0
100
AcDbMText
 10
490302.3629030055
 20
-55762.48370167179
 30
0.0
 40
15.0
 41
0.0
 46
0.0
 71
     5
 72
     1
  1
{\fSimSun|b0|i0|c134|p54;4-}R38{\fSimSun|b0|i0|c134|p54; [1.5"]}
 11
0.7711962245905878
 21
-0.636597504846841
 31
0.0
 73
     1
 44
1.0
  0
SOLID
  5
5AF93
330
59C2B
100
AcDbEntity
  8
标注线
 62
     0
440
 16777216
 48
3.0
100
AcDbTrace
 10
490246.9140269898
 20
-55715.63187810304
 30
0.0
 11
490245.8530311484
 21
-55716.91720514398
 31
0.0
 12
490242.5275479462
 22
-55713.09155409926
 32
0.0
 13
490242.5275479462
 23
-55713.09155409926
 33
0.0
  0
LINE
  5
5AF94
330
59C2B
100
AcDbEntity
  8
标注线
 62
     0
440
 16777216
 48
3.0
370
    -2
100
AcDbLine
 10
490210.7220914118
 20
-55688.90084891516
 30
0.0
 11
490215.7220914118
 21
-55688.90084891513
 31
0.0
  0
LINE
  5
5AF95
330
59C2B
100
AcDbEntity
  8
标注线
 62
     0
440
 16777216
 48
3.0
370
    -2
100
AcDbLine
 10
490213.2220914118
 20
-55691.40084891516
 30
0.0
 11
490213.2220914118
 21
-55686.4008489151
 31
0.0
  0
POINT
  5
5AF96
330
59C2B
100
AcDbEntity
  8
Defpoints
 62
     0
440
 16777216
 48
3.0
100
AcDbPoint
 10
490242.5275479462
 20
-55713.09155409926
 30
0.0
  0
POINT
  5
5AF97
330
59C2B
100
AcDbEntity
  8
Defpoints
 62
     0
440
 16777216
 48
3.0
100
AcDbPoint
 10
490213.2220914118
 20
-55688.90084891513
 30
0.0
  0
ENDBLK
  5
59C34
330
59C2B
100
AcDbEntity
  8
0
 48
3.0
100
AcDbBlockEnd
  0
BLOCK
  5
59C53
330
59C4D
100
AcDbEntity
  8
0
 48
3.0
100
AcDbBlockBegin
  2
*D17
 70
     1
 10
0.0
 20
0.0
 30
0.0
  3
*D17
  1

  0
LINE
  5
5AF6F
330
59C4D
100
AcDbEntity
  8
标注线
 62
     0
440
 16777216
 48
3.0
370
    -2
100
AcDbLine
 10
489931.7053679808
 20
-55670.7050178755
 30
0.0
 11
489928.5157775518
 21
-55674.55553899554
 31
0.0
  0
MTEXT
  5
5AF70
330
59C4D
100
AcDbEntity
  8
标注线
 62
     0
440
 16777216
 48
3.0
100
AcDbMText
 10
489967.978322234
 20
-55626.91576669997
 30
0.0
 40
15.0
 41
0.0
 46
0.0
 71
     5
 72
     1
  1
{\fSimSun|b0|i0|c134|p54;4-}R50{\fSimSun|b0|i0|c134|p54; [2"]}
 11
0.6379180857815407
 21
0.7701042240066048
 31
0.0
 73
     1
 44
1.0
  0
SOLID
  5
5AF71
330
59C4D
100
AcDbEntity
  8
标注线
 62
     0
440
 16777216
 48
3.0
100
AcDbTrace
 10
489927.8740240318
 20
-55674.02394059073
 30
0.0
 11
489929.1575310718
 21
-55675.08713740035
 31
0.0
 12
489925.3261871229
 22
-55678.40606011558
 32
0.0
 13
489925.3261871229
 23
-55678.40606011558
 33
0.0
  0
POINT
  5
5AF72
330
59C4D
100
AcDbEntity
  8
Defpoints
 62
     0
440
 16777216
 48
3.0
100
AcDbPoint
 10
489925.3261871229
 20
-55678.40606011558
 30
0.0
  0
POINT
  5
5AF73
330
59C4D
100
AcDbEntity
  8
Defpoints
 62
     0
440
 16777216
 48
3.0
100
AcDbPoint
 10
489957.222091412
 20
-55639.90084891516
 30
0.0
  0
ENDBLK
  5
59C54
330
59C4D
100
AcDbEntity
  8
0
 48
3.0
100
AcDbBlockEnd
  0
BLOCK
  5
59C72
330
59C67
100
AcDbEntity
  8
0
 48
3.0
100
AcDbBlockBegin
  2
*D18
 70
     1
 10
0.0
 20
0.0
 30
0.0
  3
*D18
  1

  0
LINE
  5
5AEFF
330
59C67
100
AcDbEntity
  8
标注线
 62
     0
440
 16777216
 48
3.0
370
    -2
100
AcDbLine
 10
490009.9220914118
 20
-55382.77584891513
 30
0.0
 11
490009.9220914118
 21
-55316.16077497591
 31
0.0
  0
LINE
  5
5AF00
330
59C67
100
AcDbEntity
  8
标注线
 62
     0
440
 16777216
 48
3.0
370
    -2
100
AcDbLine
 10
490111.5220914117
 20
-55382.77584891513
 30
0.0
 11
490111.5220914117
 21
-55316.16077497591
 31
0.0
  0
LINE
  5
5AF01
330
59C67
100
AcDbEntity
  8
标注线
 62
     0
440
 16777216
 48
3.0
370
    -2
100
AcDbLine
 10
490014.9220914118
 20
-55318.1607749759
 30
0.0
 11
490030.0247234181
 21
-55318.1607749759
 31
0.0
  0
LINE
  5
5AF02
330
59C67
100
AcDbEntity
  8
标注线
 62
     0
440
 16777216
 48
3.0
370
    -2
100
AcDbLine
 10
490106.5220914119
 20
-55318.1607749759
 30
0.0
 11
490091.4194594055
 21
-55318.1607749759
 31
0.0
  0
SOLID
  5
5AF03
330
59C67
100
AcDbEntity
  8
标注线
 62
     0
440
 16777216
 48
3.0
100
AcDbTrace
 10
490014.9220914118
 20
-55317.32744164257
 30
0.0
 11
490014.9220914118
 21
-55318.99410830924
 31
0.0
 12
490009.9220914118
 22
-55318.1607749759
 32
0.0
 13
490009.9220914118
 23
-55318.1607749759
 33
0.0
  0
SOLID
  5
5AF04
330
59C67
100
AcDbEntity
  8
标注线
 62
     0
440
 16777216
 48
3.0
100
AcDbTrace
 10
490106.5220914119
 20
-55317.32744164257
 30
0.0
 11
490106.5220914119
 21
-55318.99410830924
 31
0.0
 12
490111.5220914117
 22
-55318.1607749759
 32
0.0
 13
490111.5220914117
 23
-55318.1607749759
 33
0.0
  0
MTEXT
  5
5AF05
330
59C67
100
AcDbEntity
  8
标注线
 62
     0
440
 16777216
 48
3.0
100
AcDbMText
 10
490060.7220914118
 20
-55318.1607749759
 30
0.0
 40
15.0
 41
4.097732153779361
 46
0.0
 71
     5
 72
     1
  1
101,6{\fSimSun|b0|i0|c134|p54; [4"]}
 73
     1
 44
1.0
  0
POINT
  5
5AF06
330
59C67
100
AcDbEntity
  8
Defpoints
 62
     0
440
 16777216
 48
3.0
100
AcDbPoint
 10
490009.9220914118
 20
-55383.40084891514
 30
0.0
  0
POINT
  5
5AF07
330
59C67
100
AcDbEntity
  8
Defpoints
 62
     0
440
 16777216
 48
3.0
100
AcDbPoint
 10
490111.5220914117
 20
-55383.40084891514
 30
0.0
  0
POINT
  5
5AF08
330
59C67
100
AcDbEntity
  8
Defpoints
 62
     0
440
 16777216
 48
3.0
100
AcDbPoint
 10
490111.5220914117
 20
-55318.1607749759
 30
0.0
  0
ENDBLK
  5
59C73
330
59C67
100
AcDbEntity
  8
0
 48
3.0
100
AcDbBlockEnd
  0
BLOCK
  5
59C8C
330
59C81
100
AcDbEntity
  8
0
 48
3.0
100
AcDbBlockBegin
  2
*D19
 70
     1
 10
0.0
 20
0.0
 30
0.0
  3
*D19
  1

  0
LINE
  5
5AF34
330
59C81
100
AcDbEntity
  8
标注线
 62
     0
440
 16777216
 48
3.0
370
    -2
100
AcDbLine
 10
489907.5970914121
 20
-55345.90084891516
 30
0.0
 11
489818.7508791486
 21
-55345.90084891516
 31
0.0
  0
LINE
  5
5AF35
330
59C81
100
AcDbEntity
  8
标注线
 62
     0
440
 16777216
 48
3.0
370
    -2
100
AcDbLine
 10
489991.797091412
 20
-55400.90084891517
 30
0.0
 11
489818.7508791486
 21
-55400.90084891517
 31
0.0
  0
LINE
  5
5AF36
330
59C81
100
AcDbEntity
  8
标注线
 62
     0
440
 16777216
 48
3.0
370
    -2
100
AcDbLine
 10
489820.7508791486
 20
-55350.90084891517
 30
0.0
 11
489820.7508791486
 21
-55395.90084891517
 31
0.0
  0
MTEXT
  5
5AF37
330
59C81
100
AcDbEntity
  8
标注线
 62
     0
440
 16777216
 48
3.0
100
AcDbMText
 10
489814.5318061036
 20
-55371.25601392173
 30
0.0
 40
15.0
 41
3.0732968255179
 46
0.0
 71
     5
 72
     1
  1
55{\fSimSun|b0|i0|c134|p54; [5.2"]}
 11
0.0000000000000001
 21
1.0
 31
0.0
 73
     1
 44
1.0
  0
SOLID
  5
5AF38
330
59C81
100
AcDbEntity
  8
标注线
 62
     0
440
 16777216
 48
3.0
100
AcDbTrace
 10
489819.9175458152
 20
-55350.90084891517
 30
0.0
 11
489821.5842124819
 21
-55350.90084891517
 31
0.0
 12
489820.7508791486
 22
-55345.90084891516
 32
0.0
 13
489820.7508791486
 23
-55345.90084891516
 33
0.0
  0
SOLID
  5
5AF39
330
59C81
100
AcDbEntity
  8
标注线
 62
     0
440
 16777216
 48
3.0
100
AcDbTrace
 10
489819.9175458152
 20
-55395.90084891517
 30
0.0
 11
489821.5842124819
 21
-55395.90084891517
 31
0.0
 12
489820.7508791486
 22
-55400.90084891517
 32
0.0
 13
489820.7508791486
 23
-55400.90084891517
 33
0.0
  0
POINT
  5
5AF3A
330
59C81
100
AcDbEntity
  8
Defpoints
 62
     0
440
 16777216
 48
3.0
100
AcDbPoint
 10
489908.222091412
 20
-55345.90084891516
 30
0.0
  0
POINT
  5
5AF3B
330
59C81
100
AcDbEntity
  8
Defpoints
 62
     0
440
 16777216
 48
3.0
100
AcDbPoint
 10
489992.4220914121
 20
-55400.90084891517
 30
0.0
  0
POINT
  5
5AF3C
330
59C81
100
AcDbEntity
  8
Defpoints
 62
     0
440
 16777216
 48
3.0
100
AcDbPoint
 10
489820.7508791486
 20
-55400.90084891517
 30
0.0
  0
ENDBLK
  5
59C8D
330
59C81
100
AcDbEntity
  8
0
 48
3.0
100
AcDbBlockEnd
  0
BLOCK
  5
59CA9
330
59C9B
100
AcDbEntity
  8
0
 48
3.0
100
AcDbBlockBegin
  2
*D20
 70
     1
 10
0.0
 20
0.0
 30
0.0
  3
*D20
  1

  0
LINE
  5
5A6D8
330
59C9B
100
AcDbEntity
  8
标注线
 62
     0
440
 16777216
 48
3.0
370
    -2
100
AcDbLine
 10
489875.2220914118
 20
-55034.67730093362
 30
0.0
 11
489875.2220914118
 21
-55021.55084407507
 31
0.0
  0
LINE
  5
5A6D9
330
59C9B
100
AcDbEntity
  8
标注线
 62
     0
440
 16777216
 48
3.0
370
    -2
100
AcDbLine
 10
489870.2220914119
 20
-55039.67730093362
 30
0.0
 11
489870.2220914119
 21
-55021.55084407507
 31
0.0
  0
LINE
  5
5A6DA
330
59C9B
100
AcDbEntity
  8
标注线
 62
     0
440
 16777216
 48
3.0
370
    -2
100
AcDbLine
 10
489880.2220914119
 20
-55023.55084407508
 30
0.0
 11
489885.2220914118
 21
-55023.55084407508
 31
0.0
  0
LINE
  5
5A6DB
330
59C9B
100
AcDbEntity
  8
标注线
 62
     0
440
 16777216
 48
3.0
370
    -2
100
AcDbLine
 10
489865.2220914119
 20
-55023.55084407508
 30
0.0
 11
489860.2220914119
 21
-55023.55084407508
 31
0.0
  0
LINE
  5
5A6DC
330
59C9B
100
AcDbEntity
  8
标注线
 62
     0
440
 16777216
 48
3.0
370
    -2
100
AcDbLine
 10
489851.5966623648
 20
-55023.55084407508
 30
0.0
 11
489870.2220914119
 21
-55023.55084407508
 31
0.0
  0
MTEXT
  5
5A6DD
330
59C9B
100
AcDbEntity
  8
标注线
 62
     0
440
 16777216
 48
3.0
100
AcDbMText
 10
489841.9243482485
 20
-55023.55084407508
 30
0.0
 40
15.0
 41
0.0
 46
0.0
 71
     5
 72
     1
  1
5
 73
     1
 44
1.0
  0
LINE
  5
5A6DE
330
59C9B
100
AcDbEntity
  8
标注线
 62
     0
440
 16777216
 48
3.0
370
    -2
100
AcDbLine
 10
489875.2220914118
 20
-55023.55084407508
 30
0.0
 11
489870.2220914119
 21
-55023.55084407508
 31
0.0
  0
SOLID
  5
5A6DF
330
59C9B
100
AcDbEntity
  8
标注线
 62
     0
440
 16777216
 48
3.0
100
AcDbTrace
 10
489880.2220914119
 20
-55022.71751074174
 30
0.0
 11
489880.2220914119
 21
-55024.38417740841
 31
0.0
 12
489875.2220914118
 22
-55023.55084407508
 32
0.0
 13
489875.2220914118
 23
-55023.55084407508
 33
0.0
  0
SOLID
  5
5A6E0
330
59C9B
100
AcDbEntity
  8
标注线
 62
     0
440
 16777216
 48
3.0
100
AcDbTrace
 10
489865.2220914119
 20
-55022.71751074174
 30
0.0
 11
489865.2220914119
 21
-55024.38417740841
 31
0.0
 12
489870.2220914119
 22
-55023.55084407508
 32
0.0
 13
489870.2220914119
 23
-55023.55084407508
 33
0.0
  0
POINT
  5
5A6E1
330
59C9B
100
AcDbEntity
  8
Defpoints
 62
     0
440
 16777216
 48
3.0
100
AcDbPoint
 10
489875.2220914118
 20
-55035.30230093361
 30
0.0
  0
POINT
  5
5A6E2
330
59C9B
100
AcDbEntity
  8
Defpoints
 62
     0
440
 16777216
 48
3.0
100
AcDbPoint
 10
489870.2220914119
 20
-55040.30230093362
 30
0.0
  0
POINT
  5
5A6E3
330
59C9B
100
AcDbEntity
  8
Defpoints
 62
     0
440
 16777216
 48
3.0
100
AcDbPoint
 10
489870.2220914119
 20
-55023.55084407508
 30
0.0
  0
ENDBLK
  5
59CAA
330
59C9B
100
AcDbEntity
  8
0
 48
3.0
100
AcDbBlockEnd
  0
BLOCK
  5
59CED
330
59CE1
100
AcDbEntity
  8
0
 48
3.0
100
AcDbBlockBegin
  2
*D21
 70
     1
 10
0.0
 20
0.0
 30
0.0
  3
*D21
  1

  0
LINE
  5
5AE5A
330
59CE1
100
AcDbEntity
  8
标注线
 62
     0
440
 16777216
 48
3.0
370
    -2
100
AcDbLine
 10
489870.2220914119
 20
-55029.98907250434
 30
0.0
 11
489870.2220914119
 21
-54997.4873926683
 31
0.0
  0
LINE
  5
5AE5B
330
59CE1
100
AcDbEntity
  8
标注线
 62
     0
440
 16777216
 48
3.0
370
    -2
100
AcDbLine
 10
489890.2220914119
 20
-55034.67730093362
 30
0.0
 11
489890.2220914119
 21
-54997.4873926683
 31
0.0
  0
LINE
  5
5AE5C
330
59CE1
100
AcDbEntity
  8
标注线
 62
     0
440
 16777216
 48
3.0
370
    -2
100
AcDbLine
 10
489875.2220914118
 20
-54999.48739266829
 30
0.0
 11
489885.2220914118
 21
-54999.48739266829
 31
0.0
  0
MTEXT
  5
5AE5D
330
59CE1
100
AcDbEntity
  8
标注线
 62
     0
440
 16777216
 48
3.0
100
AcDbMText
 10
489847.825553785
 20
-55003.10288171903
 30
0.0
 40
15.0
 41
0.0
 46
0.0
 71
     5
 72
     1
  1
20{\fSimSun|b0|i0|c134|p54; [.8"]}
 73
     1
 44
1.0
  0
SOLID
  5
5AE5E
330
59CE1
100
AcDbEntity
  8
标注线
 62
     0
440
 16777216
 48
3.0
100
AcDbTrace
 10
489875.2220914118
 20
-54998.65405933496
 30
0.0
 11
489875.2220914118
 21
-55000.32072600164
 31
0.0
 12
489870.2220914119
 22
-54999.48739266829
 32
0.0
 13
489870.2220914119
 23
-54999.48739266829
 33
0.0
  0
SOLID
  5
5AE5F
330
59CE1
100
AcDbEntity
  8
标注线
 62
     0
440
 16777216
 48
3.0
100
AcDbTrace
 10
489885.2220914118
 20
-54998.65405933496
 30
0.0
 11
489885.2220914118
 21
-55000.32072600164
 31
0.0
 12
489890.2220914119
 22
-54999.48739266829
 32
0.0
 13
489890.2220914119
 23
-54999.48739266829
 33
0.0
  0
POINT
  5
5AE60
330
59CE1
100
AcDbEntity
  8
Defpoints
 62
     0
440
 16777216
 48
3.0
100
AcDbPoint
 10
489870.2220914119
 20
-55030.61407250434
 30
0.0
  0
POINT
  5
5AE61
330
59CE1
100
AcDbEntity
  8
Defpoints
 62
     0
440
 16777216
 48
3.0
100
AcDbPoint
 10
489890.2220914119
 20
-55035.30230093361
 30
0.0
  0
POINT
  5
5AE62
330
59CE1
100
AcDbEntity
  8
Defpoints
 62
     0
440
 16777216
 48
3.0
100
AcDbPoint
 10
489890.2220914119
 20
-54999.48739266829
 30
0.0
  0
ENDBLK
  5
59CEE
330
59CE1
100
AcDbEntity
  8
0
 48
3.0
100
AcDbBlockEnd
  0
BLOCK
  5
59D1E
330
59D12
100
AcDbEntity
  8
0
 48
3.0
100
AcDbBlockBegin
  2
*D22
 70
     1
 10
0.0
 20
0.0
 30
0.0
  3
*D22
  1

  0
LINE
  5
5AE48
330
59D12
100
AcDbEntity
  8
标注线
 62
     0
440
 16777216
 48
3.0
370
    -2
100
AcDbLine
 10
489895.2220914119
 20
-55039.67730093362
 30
0.0
 11
489895.2220914119
 21
-54976.64292404381
 31
0.0
  0
LINE
  5
5AE49
330
59D12
100
AcDbEntity
  8
标注线
 62
     0
440
 16777216
 48
3.0
370
    -2
100
AcDbLine
 10
489870.2220914119
 20
-55039.05230093361
 30
0.0
 11
489870.2220914119
 21
-54976.64292404381
 31
0.0
  0
LINE
  5
5AE4A
330
59D12
100
AcDbEntity
  8
标注线
 62
     0
440
 16777216
 48
3.0
370
    -2
100
AcDbLine
 10
489890.2220914119
 20
-54978.64292404381
 30
0.0
 11
489875.2220914118
 21
-54978.64292404381
 31
0.0
  0
MTEXT
  5
5AE4B
330
59D12
100
AcDbEntity
  8
标注线
 62
     0
440
 16777216
 48
3.0
100
AcDbMText
 10
489840.4527236159
 20
-54983.06339159087
 30
0.0
 40
15.0
 41
0.0
 46
0.0
 71
     5
 72
     1
  1
25{\fSimSun|b0|i0|c134|p54; [1"]}
 73
     1
 44
1.0
  0
SOLID
  5
5AE4C
330
59D12
100
AcDbEntity
  8
标注线
 62
     0
440
 16777216
 48
3.0
100
AcDbTrace
 10
489890.2220914119
 20
-54977.80959071048
 30
0.0
 11
489890.2220914119
 21
-54979.47625737715
 31
0.0
 12
489895.2220914119
 22
-54978.64292404381
 32
0.0
 13
489895.2220914119
 23
-54978.64292404381
 33
0.0
  0
SOLID
  5
5AE4D
330
59D12
100
AcDbEntity
  8
标注线
 62
     0
440
 16777216
 48
3.0
100
AcDbTrace
 10
489875.2220914118
 20
-54977.80959071048
 30
0.0
 11
489875.2220914118
 21
-54979.47625737715
 31
0.0
 12
489870.2220914119
 22
-54978.64292404381
 32
0.0
 13
489870.2220914119
 23
-54978.64292404381
 33
0.0
  0
POINT
  5
5AE4E
330
59D12
100
AcDbEntity
  8
Defpoints
 62
     0
440
 16777216
 48
3.0
100
AcDbPoint
 10
489895.2220914119
 20
-55040.30230093362
 30
0.0
  0
POINT
  5
5AE4F
330
59D12
100
AcDbEntity
  8
Defpoints
 62
     0
440
 16777216
 48
3.0
100
AcDbPoint
 10
489870.2220914119
 20
-55039.67730093362
 30
0.0
  0
POINT
  5
5AE50
330
59D12
100
AcDbEntity
  8
Defpoints
 62
     0
440
 16777216
 48
3.0
100
AcDbPoint
 10
489870.2220914119
 20
-54978.64292404381
 30
0.0
  0
ENDBLK
  5
59D1F
330
59D12
100
AcDbEntity
  8
0
 48
3.0
100
AcDbBlockEnd
  0
BLOCK
  5
59D65
330
59D57
100
AcDbEntity
  8
0
 48
3.0
100
AcDbBlockBegin
  2
*D23
 70
     1
 10
0.0
 20
0.0
 30
0.0
  3
*D23
  1

  0
LINE
  5
5AE6D
330
59D57
100
AcDbEntity
  8
标注线
 62
     0
440
 16777216
 48
3.0
370
    -2
100
AcDbLine
 10
489874.5970914121
 20
-55035.30230093365
 30
0.0
 11
489816.4103861418
 21
-55035.30230093365
 31
0.0
  0
LINE
  5
5AE6E
330
59D57
100
AcDbEntity
  8
标注线
 62
     0
440
 16777216
 48
3.0
370
    -2
100
AcDbLine
 10
489869.5970914121
 20
-55040.30230093365
 30
0.0
 11
489816.4103861418
 21
-55040.30230093365
 31
0.0
  0
LINE
  5
5AE6F
330
59D57
100
AcDbEntity
  8
标注线
 62
     0
440
 16777216
 48
3.0
370
    -2
100
AcDbLine
 10
489818.4103861418
 20
-55030.30230093364
 30
0.0
 11
489818.4103861418
 21
-55025.30230093364
 31
0.0
  0
LINE
  5
5AE70
330
59D57
100
AcDbEntity
  8
标注线
 62
     0
440
 16777216
 48
3.0
370
    -2
100
AcDbLine
 10
489818.4103861418
 20
-55045.30230093364
 30
0.0
 11
489818.4103861418
 21
-55050.30230093365
 31
0.0
  0
MTEXT
  5
5AE71
330
59D57
100
AcDbEntity
  8
标注线
 62
     0
440
 16777216
 48
3.0
100
AcDbMText
 10
489819.0604974208
 20
-55072.01642544624
 30
0.0
 40
15.0
 41
0.0
 46
0.0
 71
     5
 72
     1
  1
5{\fSimSun|b0|i0|c134|p54; [.2"]}
 11
0.0000000000000001
 21
1.0
 31
0.0
 73
     1
 44
1.0
  0
SOLID
  5
5AE72
330
59D57
100
AcDbEntity
  8
标注线
 62
     0
440
 16777216
 48
3.0
100
AcDbTrace
 10
489817.5770528085
 20
-55030.30230093364
 30
0.0
 11
489819.2437194751
 21
-55030.30230093364
 31
0.0
 12
489818.4103861418
 22
-55035.30230093365
 32
0.0
 13
489818.4103861418
 23
-55035.30230093365
 33
0.0
  0
SOLID
  5
5AE73
330
59D57
100
AcDbEntity
  8
标注线
 62
     0
440
 16777216
 48
3.0
100
AcDbTrace
 10
489817.5770528085
 20
-55045.30230093364
 30
0.0
 11
489819.2437194751
 21
-55045.30230093364
 31
0.0
 12
489818.4103861418
 22
-55040.30230093365
 32
0.0
 13
489818.4103861418
 23
-55040.30230093365
 33
0.0
  0
POINT
  5
5AE74
330
59D57
100
AcDbEntity
  8
Defpoints
 62
     0
440
 16777216
 48
3.0
100
AcDbPoint
 10
489875.2220914121
 20
-55035.30230093365
 30
0.0
  0
POINT
  5
5AE75
330
59D57
100
AcDbEntity
  8
Defpoints
 62
     0
440
 16777216
 48
3.0
100
AcDbPoint
 10
489870.2220914121
 20
-55040.30230093365
 30
0.0
  0
POINT
  5
5AE76
330
59D57
100
AcDbEntity
  8
Defpoints
 62
     0
440
 16777216
 48
3.0
100
AcDbPoint
 10
489818.4103861418
 20
-55040.30230093365
 30
0.0
  0
ENDBLK
  5
59D66
330
59D57
100
AcDbEntity
  8
0
 48
3.0
100
AcDbBlockEnd
  0
BLOCK
  5
59E56
330
59E21
100
AcDbEntity
  8
0
 48
3.0
100
AcDbBlockBegin
  2
A$C584E553B
 70
     0
 10
0.0
 20
0.0
 30
0.0
  3
A$C584E553B
  1

  0
MTEXT
  5
59E22
330
59E21
100
AcDbEntity
  8
0
100
AcDbMText
 10
-19397.33245578251
 20
-3202.297918221593
 30
0.0
 40
15.6
 41
94.46591511999111
 46
0.0
 71
     1
 72
     5
  1
M08-2
 73
     1
 44
1.0
  0
MTEXT
  5
59E23
330
59E21
100
AcDbEntity
  8
0
100
AcDbMText
 10
-19702.6350170197
 20
-3289.31945117538
 30
0.0
 40
15.6
 41
174.9128642469298
 46
0.0
 71
     1
 72
     5
  1
{\fSimSun|b0|i0|c134|p54;斜边单圆盘}
 73
     1
 44
1.0
  0
MTEXT
  5
59E24
330
59E21
100
AcDbEntity
  8
0
100
AcDbMText
 10
-19731.7385048775
 20
-3378.499715146921
 30
0.0
 40
15.6
 41
195.2087523126613
 46
0.0
 71
     1
 72
     5
  1
SUS304J1/T=1.0
 73
     1
 44
1.0
  0
LINE
  5
59E25
330
59E21
100
AcDbEntity
  8
0
370
     5
100
AcDbLine
 10
-20135.9227318602
 20
-3420.432724810956
 30
0.0
 11
-20135.9227318602
 21
-2010.492244809818
 31
0.0
  0
LINE
  5
59E26
330
59E21
100
AcDbEntity
  8
0
370
     5
100
AcDbLine
 10
-19231.17265185944
 20
-2010.492244809818
 30
0.0
 11
-19231.17265185944
 21
-3420.432724810956
 31
0.0
  0
LINE
  5
59E27
330
59E21
100
AcDbEntity
  8
0
370
     5
100
AcDbLine
 10
-19231.17265185944
 20
-3420.432724810956
 30
0.0
 11
-20135.9227318602
 21
-3420.432724810956
 31
0.0
  0
LINE
  5
59E28
330
59E21
100
AcDbEntity
  8
0
370
     5
100
AcDbLine
 10
-19964.83690786003
 20
-3308.611533438067
 30
0.0
 11
-19964.83690786003
 21
-3420.432724810956
 31
0.0
  0
LINE
  5
59E29
330
59E21
100
AcDbEntity
  8
0
370
     5
100
AcDbLine
 10
-19899.42173985996
 20
-3308.611533438067
 30
0.0
 11
-19899.42173985996
 21
-3420.432724810956
 31
0.0
  0
LINE
  5
59E2A
330
59E21
100
AcDbEntity
  8
0
370
     5
100
AcDbLine
 10
-19743.43172385986
 20
-3336.566705482886
 30
0.0
 11
-19743.43172385986
 21
-3420.432724810956
 31
0.0
  0
MTEXT
  5
59E2B
330
59E21
100
AcDbEntity
  8
0
370
     5
100
AcDbMText
 10
-19376.10039585955
 20
-3378.466378570919
 30
0.0
 40
18.61816320001499
 41
311.4509412811141
 46
0.0
 71
     5
 72
     5
  1
{\fￋￎￌ￥|b0|i0|c134|p54;江门市蓬江区\P新荷不锈钢制品有限公司}
 73
     1
 44
1.0
  0
LINE
  5
59E2C
330
59E21
100
AcDbEntity
  8
0
370
     5
100
AcDbLine
 10
-19783.68721185992
 20
-3168.83592481075
 30
0.0
 11
-19783.68721185992
 21
-3420.432724810956
 31
0.0
  0
LINE
  5
59E2D
330
59E21
100
AcDbEntity
  8
0
370
     5
100
AcDbLine
 10
-19522.02653985967
 20
-3168.83592481075
 30
0.0
 11
-19522.02653985967
 21
-3420.432724810956
 31
0.0
  0
LINE
  5
59E2E
330
59E21
100
AcDbEntity
  8
0
370
     5
100
AcDbLine
 10
-20085.60337186012
 20
-3168.83592481075
 30
0.0
 11
-20085.60337186012
 21
-3420.432724810956
 31
0.0
  0
MTEXT
  5
59E2F
330
59E21
100
AcDbEntity
  8
0
370
     5
100
AcDbMText
 10
-20110.76305186016
 20
-3406.454887191745
 30
0.0
 40
12.57984000001012
 41
100.638720000081
 46
0.0
 71
     5
 72
     5
  1
{\fￋￎￌ￥|b0|i0|c134|p2;工艺}
 73
     1
 44
1.0
  0
MTEXT
  5
59E30
330
59E21
100
AcDbEntity
  8
0
370
     5
100
AcDbMText
 10
-19763.55946785989
 20
-3378.499715146919
 30
0.0
 40
12.57984000001012
 41
100.638720000081
 46
0.0
 71
     5
 72
     5
  1
{\fￋￎￌ￥|b0|i0|c134|p54;材\P料}
 73
     1
 44
1.0
  0
MTEXT
  5
59E31
330
59E21
100
AcDbEntity
  8
0
370
     5
100
AcDbMText
 10
-19932.12932386001
 20
-3378.599571047696
 30
0.0
 40
12.57984000001012
 41
100.638720000081
 46
0.0
 71
     5
 72
     5
  1
{\fￋￎￌ￥|b0|i0|c134|p54;批准}
 73
     1
 44
1.0
  0
MTEXT
  5
59E32
330
59E21
100
AcDbEntity
  8
0
370
     5
100
AcDbMText
 10
-20110.76305186016
 20
-3378.499463550119
 30
0.0
 40
12.57984000001012
 41
50.3193600000405
 46
0.0
 71
     5
 72
     5
  1
{\fￋￎￌ￥|b0|i0|c134|p54;审核}
 73
     1
 44
1.0
  0
LINE
  5
59E33
330
59E21
100
AcDbEntity
  8
0
370
     5
100
AcDbLine
 10
-20135.9227318602
 20
-3392.477049572531
 30
0.0
 11
-19783.68721185992
 21
-3392.477049572531
 31
0.0
  0
LINE
  5
59E34
330
59E21
100
AcDbEntity
  8
0
370
     5
100
AcDbLine
 10
-19783.68721185992
 20
-3252.667978570816
 30
0.0
 11
-19231.17265185944
 21
-3252.667978570816
 31
0.0
  0
MTEXT
  5
59E35
330
59E21
100
AcDbEntity
  8
0
370
     5
100
AcDbMText
 10
-19881.80996385996
 20
-3294.633947415654
 30
0.0
 40
12.57984000001012
 41
100.638720000081
 46
0.0
 71
     5
 72
     5
  1
{\fￋￎￌ￥|b0|i0|c134|p54;签 名}
 73
     1
 44
1.0
  0
MTEXT
  5
59E36
330
59E21
100
AcDbEntity
  8
0
370
     5
100
AcDbMText
 10
-19813.87882785993
 20
-3294.633947415654
 30
0.0
 40
12.57984000001012
 41
60.3832320000486
 46
0.0
 71
     5
 72
     5
  1
{\fￋￎￌ￥|b0|i0|c134|p54;日期}
 73
     1
 44
1.0
  0
MTEXT
  5
59E37
330
59E21
100
AcDbEntity
  8
0
370
     5
100
AcDbMText
 10
-19932.05842478804
 20
-3349.70711639532
 30
0.0
 40
12.57984000001012
 41
100.638720000081
 46
0.0
 71
     5
 72
     5
  1
{\fￋￎￌ￥|b0|i0|c134|p54;校对}
 73
     1
 44
1.0
  0
MTEXT
  5
59E38
330
59E21
100
AcDbEntity
  8
0
370
     5
100
AcDbMText
 10
-19932.12932386001
 20
-3322.589119460474
 30
0.0
 40
12.57984000001012
 41
100.638720000081
 46
0.0
 71
     5
 72
     5
  1
{\fￋￎￌ￥|b0|i0|c134|p54;标准化}
 73
     1
 44
1.0
  0
MTEXT
  5
59E39
330
59E21
100
AcDbEntity
  8
0
370
     5
100
AcDbMText
 10
-19471.70717985964
 20
-3273.651151690837
 30
0.0
 40
12.57984000001012
 41
100.638720000081
 46
0.0
 71
     5
 72
     5
  1
{\fￋￎￌ￥|b0|i0|c134|p54;共  张}
 73
     1
 44
1.0
  0
MTEXT
  5
59E3A
330
59E21
100
AcDbEntity
  8
0
370
     5
100
AcDbMText
 10
-19471.70717985964
 20
-3315.567178570869
 30
0.0
 40
12.57984000001012
 41
100.638720000081
 46
0.0
 71
     5
 72
     5
  1
{\fￋￎￌ￥|b0|i0|c134|p54;第  张}
 73
     1
 44
1.0
  0
LINE
  5
59E3B
330
59E21
100
AcDbEntity
  8
0
370
     5
100
AcDbLine
 10
-19783.68721185992
 20
-3336.500032330889
 30
0.0
 11
-19231.17265185944
 21
-3336.500032330889
 31
0.0
  0
LINE
  5
59E3C
330
59E21
100
AcDbEntity
  8
0
370
     5
100
AcDbLine
 10
-19522.02653985967
 20
-3294.634324810853
 30
0.0
 11
-19231.17265185944
 21
-3294.634324810853
 31
0.0
  0
MTEXT
  5
59E3D
330
59E21
100
AcDbEntity
  8
0
370
     5
100
AcDbMText
 10
-19381.13233185956
 20
-3273.625992010837
 30
0.0
 40
12.57984000001012
 41
100.638720000081
 46
0.0
 71
     5
 72
     5
  1
{\fￋￎￌ￥|b0|i0|c134|p54;重量kg}
 73
     1
 44
1.0
  0
MTEXT
  5
59E3E
330
59E21
100
AcDbEntity
  8
0
370
     5
100
AcDbMText
 10
-19314.5143434563
 20
-3273.651151690837
 30
0.0
 40
12.57984000001012
 41
100.638720000081
 46
0.0
 71
     5
 72
     5
  1
{\fￋￎￌ￥|b0|i0|c134|p54;数量}
 73
     1
 44
1.0
  0
MTEXT
  5
59E3F
330
59E21
100
AcDbEntity
  8
0
370
     5
100
AcDbMText
 10
-19259.16313977847
 20
-3273.651151690837
 30
0.0
 40
12.57984000001012
 41
55.98079119364506
 46
0.0
 71
     5
 72
     5
  1
{\fￋￎￌ￥|b0|i0|c134|p54;比例}
 73
     1
 44
1.0
  0
LINE
  5
59E40
330
59E21
100
AcDbEntity
  8
0
370
     5
100
AcDbLine
 10
-19844.07044385994
 20
-3168.83592481075
 30
0.0
 11
-19844.07044385994
 21
-3308.611533438067
 31
0.0
  0
LINE
  5
59E41
330
59E21
100
AcDbEntity
  8
0
370
     5
100
AcDbLine
 10
-19919.54948385999
 20
-3168.83592481075
 30
0.0
 11
-19919.54948385999
 21
-3308.611533438067
 31
0.0
  0
LINE
  5
59E42
330
59E21
100
AcDbEntity
  8
0
370
     5
100
AcDbLine
 10
-19421.38781985962
 20
-3252.667978570816
 30
0.0
 11
-19421.38781985962
 21
-3336.500032330889
 31
0.0
  0
LINE
  5
59E43
330
59E21
100
AcDbEntity
  8
0
370
     5
100
AcDbLine
 10
-19287.15353537525
 20
-3252.667978570816
 30
0.0
 11
-19287.15353537525
 21
-3336.500032330889
 31
0.0
  0
LINE
  5
59E44
330
59E21
100
AcDbEntity
  8
0
370
     5
100
AcDbLine
 10
-19341.87524385954
 20
-3252.667978570816
 30
0.0
 11
-19341.87524385954
 21
-3336.500032330889
 31
0.0
  0
MTEXT
  5
59E45
330
59E21
100
AcDbEntity
  8
0
370
     5
100
AcDbMText
 10
-20110.76305186016
 20
-3350.544291505299
 30
0.0
 40
12.57984000001012
 41
100.638720000081
 46
0.0
 71
     5
 72
     5
  1
{\fￋￎￌ￥|b0|i0|c134|p54;设计}
 73
     1
 44
1.0
  0
MTEXT
  5
59E46
330
59E21
100
AcDbEntity
  8
0
370
     5
100
AcDbMText
 10
-20110.76305186016
 20
-3322.589119460474
 30
0.0
 40
12.57984000001012
 41
100.638720000081
 46
0.0
 71
     5
 72
     5
  1
{\fￋￎￌ￥|b0|i0|c134|p54;绘图}
 73
     1
 44
1.0
  0
MTEXT
  5
59E47
330
59E21
100
AcDbEntity
  8
0
370
     5
100
AcDbMText
 10
-20110.76305186016
 20
-3294.633947415654
 30
0.0
 40
12.57984000001012
 41
50.3193600000405
 46
0.0
 71
     5
 72
     5
  1
{\fￋￎￌ￥|b0|i0|c134|p54;标记}
 73
     1
 44
1.0
  0
MTEXT
  5
59E48
330
59E21
100
AcDbEntity
  8
0
370
     5
100
AcDbMText
 10
-20060.44369186011
 20
-3294.633947415654
 30
0.0
 40
12.57984000001012
 41
100.638720000081
 46
0.0
 71
     5
 72
     5
  1
{\fￋￎￌ￥|b0|i0|c134|p54;处数}
 73
     1
 44
1.0
  0
LINE
  5
59E49
330
59E21
100
AcDbEntity
  8
0
370
     5
100
AcDbLine
 10
-20035.28401186011
 20
-3168.83592481075
 30
0.0
 11
-20035.28401186011
 21
-3308.611533438067
 31
0.0
  0
LINE
  5
59E4A
330
59E21
100
AcDbEntity
  8
0
370
     5
100
AcDbLine
 10
-20135.9227318602
 20
-3364.521877527707
 30
0.0
 11
-19783.68721185992
 21
-3364.521877527707
 31
0.0
  0
LINE
  5
59E4B
330
59E21
100
AcDbEntity
  8
0
370
     5
100
AcDbLine
 10
-20135.9227318602
 20
-3308.611533438067
 30
0.0
 11
-19783.68721185992
 21
-3308.611533438067
 31
0.0
  0
LINE
  5
59E4C
330
59E21
100
AcDbEntity
  8
0
370
     5
100
AcDbLine
 10
-20135.9227318602
 20
-3336.566705482886
 30
0.0
 11
-19783.68721185992
 21
-3336.566705482886
 31
0.0
  0
LINE
  5
59E4D
330
59E21
100
AcDbEntity
  8
0
370
     5
100
AcDbLine
 10
-20135.9227318602
 20
-3280.656361393241
 30
0.0
 11
-19783.68721185992
 21
-3280.656361393241
 31
0.0
  0
LINE
  5
59E4E
330
59E21
100
AcDbEntity
  8
0
370
     5
100
AcDbLine
 10
-20135.9227318602
 20
-3252.70118934842
 30
0.0
 11
-19783.68721185992
 21
-3252.70118934842
 31
0.0
  0
LINE
  5
59E4F
330
59E21
100
AcDbEntity
  8
0
370
     5
100
AcDbLine
 10
-20135.9227318602
 20
-3224.746017303596
 30
0.0
 11
-19783.68721185992
 21
-3224.746017303596
 31
0.0
  0
LINE
  5
59E50
330
59E21
100
AcDbEntity
  8
0
370
     5
100
AcDbLine
 10
-20135.9227318602
 20
-3196.790845258774
 30
0.0
 11
-19783.68721185992
 21
-3196.790845258774
 31
0.0
  0
MTEXT
  5
59E51
330
59E21
100
AcDbEntity
  8
0
370
     5
100
AcDbMText
 10
-19977.41674786006
 20
-3294.633947415654
 30
0.0
 40
12.57984000001012
 41
100.638720000081
 46
0.0
 71
     5
 72
     5
  1
{\fￋￎￌ￥|b0|i0|c134|p54;更改文件号}
 73
     1
 44
1.0
  0
LINE
  5
59E52
330
59E21
100
AcDbEntity
  8
0
370
     5
100
AcDbLine
 10
-20135.9227318602
 20
-3168.83592481075
 30
0.0
 11
-19231.17265185944
 21
-3168.83592481075
 31
0.0
  0
LINE
  5
59E53
330
59E21
100
AcDbEntity
  8
0
370
     5
100
AcDbLine
 10
-19826.78809072738
 20
-2089.185116794014
 30
0.0
 11
-19826.78809072738
 21
-2010.492244809818
 31
0.0
  0
LINE
  5
59E54
330
59E21
100
AcDbEntity
  8
0
370
     5
100
AcDbLine
 10
-20135.9227318602
 20
-2089.185116794014
 30
0.0
 11
-19826.78809072738
 21
-2089.185116794014
 31
0.0
  0
LINE
  5
59E55
330
59E21
100
AcDbEntity
  8
0
370
     5
100
AcDbLine
 10
-20135.9227318602
 20
-2010.492244809818
 30
0.0
 11
-19231.17265185944
 21
-2010.492244809818
 31
0.0
  0
ENDBLK
  5
59E57
330
59E21
100
AcDbEntity
  8
0
 48
3.0
100
AcDbBlockEnd
  0
BLOCK
  5
5A048
330
5A03B
100
AcDbEntity
  8
0
 48
3.0
100
AcDbBlockBegin
  2
*D25
 70
     1
 10
0.0
 20
0.0
 30
0.0
  3
*D25
  1

  0
LINE
  5
5A6AC
330
5A03B
100
AcDbEntity
  8
标注线
 62
     0
440
 16777216
 48
3.0
370
    -2
100
AcDbLine
 10
489907.1026181694
 20
-55104.31602651342
 30
0.0
 11
489907.1026181694
 21
-55229.82374236815
 31
0.0
  0
LINE
  5
5A6AD
330
5A03B
100
AcDbEntity
  8
标注线
 62
     0
440
 16777216
 48
3.0
370
    -2
100
AcDbLine
 10
489914.9694935482
 20
-55138.74237865039
 30
0.0
 11
489922.091404032
 21
-55229.23483136768
 31
0.0
  0
LINE
  5
5A6AE
330
5A03B
100
AcDbEntity
  8
标注线
 62
     0
440
 16777216
 48
3.0
370
    -2
100
AcDbLine
 10
489914.5242738325
 20
-55227.67799977003
 30
0.0
 11
489914.9168719901
 21
-55237.67029013243
 31
0.0
  0
ARC
  5
5A6AF
330
5A03B
100
AcDbEntity
  8
标注线
 62
     0
440
 16777216
 48
3.0
370
    -2
100
AcDbCircle
 10
489907.1026181694
 20
-55038.78424945582
 30
0.0
 40
189.0394929123143
100
AcDbArc
 50
271.515488876872
 51
272.9845111232754
  0
SOLID
  5
5A6B0
330
5A03B
100
AcDbEntity
  8
标注线
 62
     0
440
 16777216
 48
3.0
100
AcDbTrace
 10
489912.1132015401
 20
-55228.59087907669
 30
0.0
 11
489912.0911602904
 21
-55226.92435816141
 31
0.0
 12
489907.1026181694
 22
-55227.82374236815
 32
0.0
 13
489907.1026181694
 23
-55227.82374236815
 33
0.0
  0
SOLID
  5
5A6B1
330
5A03B
100
AcDbEntity
  8
标注线
 62
     0
440
 16777216
 48
3.0
100
AcDbTrace
 10
489916.8907568585
 20
-55226.73578149864
 30
0.0
 11
489916.9995372786
 21
-55228.39889442265
 31
0.0
 12
489921.9344858405
 22
-55227.2409967002
 32
0.0
 13
489921.9344858405
 23
-55227.2409967002
 33
0.0
  0
MTEXT
  5
5A6B2
330
5A03B
100
AcDbEntity
  8
标注线
 62
     0
440
 16777216
 48
3.0
100
AcDbMText
 10
489915.4566944568
 20
-55251.40968938075
 30
0.0
 40
15.0
 41
0.0
 46
0.0
 71
     5
 72
     1
  1
4,5°
 11
0.9992290362406851
 21
0.0392598157600309
 31
0.0
 73
     1
 44
1.0
  0
POINT
  5
5A6B3
330
5A03B
100
AcDbEntity
  8
Defpoints
 62
     0
440
 16777216
 48
3.0
100
AcDbPoint
 10
489912.0510952037
 20
-55227.75896325528
 30
0.0
  0
POINT
  5
5A6B4
330
5A03B
100
AcDbEntity
  8
Defpoints
 62
     0
440
 16777216
 48
3.0
100
AcDbPoint
 10
489907.7007642283
 20
-55046.38441574308
 30
0.0
  0
POINT
  5
5A6B5
330
5A03B
100
AcDbEntity
  8
Defpoints
 62
     0
440
 16777216
 48
3.0
100
AcDbPoint
 10
489907.1026181694
 20
-55046.43154635924
 30
0.0
  0
POINT
  5
5A6B6
330
5A03B
100
AcDbEntity
  8
Defpoints
 62
     0
440
 16777216
 48
3.0
100
AcDbPoint
 10
489907.1026181694
 20
-55103.69102651341
 30
0.0
  0
POINT
  5
5A6B7
330
5A03B
100
AcDbEntity
  8
Defpoints
 62
     0
440
 16777216
 48
3.0
100
AcDbPoint
 10
489914.9204566133
 20
-55138.11930531682
 30
0.0
  0
ENDBLK
  5
5A049
330
5A03B
100
AcDbEntity
  8
0
 48
3.0
100
AcDbBlockEnd
  0
BLOCK
  5
5A068
330
5A059
100
AcDbEntity
  8
0
 48
3.0
100
AcDbBlockBegin
  2
*D26
 70
     1
 10
0.0
 20
0.0
 30
0.0
  3
*D26
  1

  0
LINE
  5
5AD34
330
5A059
100
AcDbEntity
  8
标注线
 62
     0
440
 16777216
 48
3.0
370
    -2
100
AcDbLine
 10
489961.5253820286
 20
-55172.0951172954
 30
0.0
 11
489858.9600223395
 21
-55166.71989456273
 31
0.0
  0
LINE
  5
5AD35
330
5A059
100
AcDbEntity
  8
标注线
 62
     0
440
 16777216
 48
3.0
370
    -2
100
AcDbLine
 10
490022.0970914118
 20
-55175.30230093361
 30
0.0
 11
489858.7352841194
 21
-55175.30230093359
 31
0.0
  0
LINE
  5
5AD36
330
5A059
100
AcDbEntity
  8
标注线
 62
     0
440
 16777216
 48
3.0
370
    -2
100
AcDbLine
 10
489860.7907929526
 20
-55171.06198065254
 30
0.0
 11
489850.7942197028
 21
-55170.80021116947
 31
0.0
  0
ARC
  5
5AD37
330
5A059
100
AcDbEntity
  8
标注线
 62
     0
440
 16777216
 48
3.0
370
    -2
100
AcDbCircle
 10
490022.7220914118
 20
-55175.30230093361
 30
0.0
 40
161.9868072923672
100
AcDbArc
 50
173.4627950110875
 51
175.2313975055423
  0
ARC
  5
5AD38
330
5A059
100
AcDbEntity
  8
标注线
 62
     0
440
 16777216
 48
3.0
370
    -2
100
AcDbCircle
 10
490022.7220914118
 20
-55175.30230093361
 30
0.0
 40
161.9868072923672
100
AcDbArc
 50
181.7686024944474
 51
183.5372049889022
  0
ARC
  5
5AD39
330
5A059
100
AcDbEntity
  8
标注线
 62
     0
440
 16777216
 48
3.0
370
    -2
100
AcDbCircle
 10
490022.7220914118
 20
-55175.30230093361
 30
0.0
 40
161.9868072923672
100
AcDbArc
 50
176.999999999997
 51
179.9999999999926
  0
SOLID
  5
5AD3A
330
5A059
100
AcDbEntity
  8
标注线
 62
     0
440
 16777216
 48
3.0
100
AcDbTrace
 10
489862.1274101119
 20
-55161.89250369547
 30
0.0
 11
489860.4645719832
 21
-55161.77960048265
 31
0.0
 12
489860.9572814091
 22
-55166.8245664752
 32
0.0
 13
489860.9572814091
 23
-55166.8245664752
 33
0.0
  0
SOLID
  5
5AD3B
330
5A059
100
AcDbEntity
  8
标注线
 62
     0
440
 16777216
 48
3.0
100
AcDbTrace
 10
489859.9792168153
 20
-55180.31456655663
 30
0.0
 11
489861.6456849797
 21
-55180.28884429729
 31
0.0
 12
489860.7352841194
 22
-55175.30230093359
 32
0.0
 13
489860.7352841194
 23
-55175.30230093359
 33
0.0
  0
MTEXT
  5
5AD3C
330
5A059
100
AcDbEntity
  8
标注线
 62
     0
440
 16777216
 48
3.0
100
AcDbMText
 10
489837.0489314844
 20
-55170.44027813023
 30
0.0
 40
15.0
 41
0.0
 46
0.0
 71
     5
 72
     1
  1
3,0\U+00B0
 11
0.0261769483079721
 21
0.9996573249755547
 31
0.0
 73
     1
 44
1.0
  0
POINT
  5
5AD3D
330
5A059
100
AcDbEntity
  8
Defpoints
 62
     0
440
 16777216
 48
3.0
100
AcDbPoint
 10
489860.8339621057
 20
-55169.64904288665
 30
0.0
  0
POINT
  5
5AD3E
330
5A059
100
AcDbEntity
  8
Defpoints
 62
     0
440
 16777216
 48
3.0
100
AcDbPoint
 10
490022.7220914118
 20
-55175.30230093361
 30
0.0
  0
POINT
  5
5AD3F
330
5A059
100
AcDbEntity
  8
Defpoints
 62
     0
440
 16777216
 48
3.0
100
AcDbPoint
 10
489962.1495254878
 20
-55172.12782726804
 30
0.0
  0
POINT
  5
5AD40
330
5A059
100
AcDbEntity
  8
Defpoints
 62
     0
440
 16777216
 48
3.0
100
AcDbPoint
 10
490022.7220914118
 20
-55175.30230093361
 30
0.0
  0
POINT
  5
5AD41
330
5A059
100
AcDbEntity
  8
Defpoints
 62
     0
440
 16777216
 48
3.0
100
AcDbPoint
 10
490098.7220914119
 20
-55175.30230093361
 30
0.0
  0
ENDBLK
  5
5A069
330
5A059
100
AcDbEntity
  8
0
 48
3.0
100
AcDbBlockEnd
  0
BLOCK
  5
5A0E9
330
5A0DB
100
AcDbEntity
  8
0
 48
3.0
100
AcDbBlockBegin
  2
*D27
 70
     1
 10
0.0
 20
0.0
 30
0.0
  3
*D27
  1

  0
LINE
  5
5AE95
330
5A0DB
100
AcDbEntity
  8
标注线
 62
     0
440
 16777216
 48
3.0
370
    -2
100
AcDbLine
 10
490233.2220914118
 20
-55053.92730093362
 30
0.0
 11
490233.2220914118
 21
-55081.73066795682
 31
0.0
  0
LINE
  5
5AE96
330
5A0DB
100
AcDbEntity
  8
标注线
 62
     0
440
 16777216
 48
3.0
370
    -2
100
AcDbLine
 10
490251.2220914118
 20
-55040.92730093361
 30
0.0
 11
490251.2220914118
 21
-55081.73066795682
 31
0.0
  0
LINE
  5
5AE97
330
5A0DB
100
AcDbEntity
  8
标注线
 62
     0
440
 16777216
 48
3.0
370
    -2
100
AcDbLine
 10
490228.2220914118
 20
-55079.73066795683
 30
0.0
 11
490223.2220914118
 21
-55079.73066795683
 31
0.0
  0
LINE
  5
5AE98
330
5A0DB
100
AcDbEntity
  8
标注线
 62
     0
440
 16777216
 48
3.0
370
    -2
100
AcDbLine
 10
490256.2220914117
 20
-55079.73066795683
 30
0.0
 11
490261.2220914118
 21
-55079.73066795683
 31
0.0
  0
MTEXT
  5
5AE99
330
5A0DB
100
AcDbEntity
  8
标注线
 62
     0
440
 16777216
 48
3.0
100
AcDbMText
 10
490301.3716138323
 20
-55079.73066795683
 30
0.0
 40
15.0
 41
0.0
 46
0.0
 71
     5
 72
     1
  1
18{\fSimSun|b0|i0|c134|p54; [.7"]}
 73
     1
 44
1.0
  0
SOLID
  5
5AE9A
330
5A0DB
100
AcDbEntity
  8
标注线
 62
     0
440
 16777216
 48
3.0
100
AcDbTrace
 10
490228.2220914118
 20
-55078.89733462349
 30
0.0
 11
490228.2220914118
 21
-55080.56400129016
 31
0.0
 12
490233.2220914118
 22
-55079.73066795683
 32
0.0
 13
490233.2220914118
 23
-55079.73066795683
 33
0.0
  0
SOLID
  5
5AE9B
330
5A0DB
100
AcDbEntity
  8
标注线
 62
     0
440
 16777216
 48
3.0
100
AcDbTrace
 10
490256.2220914117
 20
-55078.89733462349
 30
0.0
 11
490256.2220914117
 21
-55080.56400129016
 31
0.0
 12
490251.2220914118
 22
-55079.73066795683
 32
0.0
 13
490251.2220914118
 23
-55079.73066795683
 33
0.0
  0
POINT
  5
5AE9C
330
5A0DB
100
AcDbEntity
  8
Defpoints
 62
     0
440
 16777216
 48
3.0
100
AcDbPoint
 10
490233.2220914118
 20
-55053.30230093361
 30
0.0
  0
POINT
  5
5AE9D
330
5A0DB
100
AcDbEntity
  8
Defpoints
 62
     0
440
 16777216
 48
3.0
100
AcDbPoint
 10
490251.2220914118
 20
-55040.30230093362
 30
0.0
  0
POINT
  5
5AE9E
330
5A0DB
100
AcDbEntity
  8
Defpoints
 62
     0
440
 16777216
 48
3.0
100
AcDbPoint
 10
490251.2220914118
 20
-55079.73066795683
 30
0.0
  0
ENDBLK
  5
5A0EA
330
5A0DB
100
AcDbEntity
  8
0
 48
3.0
100
AcDbBlockEnd
  0
BLOCK
  5
5A11F
330
5A111
100
AcDbEntity
  8
0
 48
3.0
100
AcDbBlockBegin
  2
*D28
 70
     1
 10
0.0
 20
0.0
 30
0.0
  3
*D28
  1

  0
LINE
  5
5A686
330
5A111
100
AcDbEntity
  8
标注线
 62
     0
440
 16777216
 48
3.0
370
    -2
100
AcDbLine
 10
490233.2220914118
 20
-55035.27730093362
 30
0.0
 11
490233.2220914118
 21
-55016.38300616226
 31
0.0
  0
LINE
  5
5A687
330
5A111
100
AcDbEntity
  8
标注线
 62
     0
440
 16777216
 48
3.0
370
    -2
100
AcDbLine
 10
490241.2220914118
 20
-55035.27730093362
 30
0.0
 11
490241.2220914118
 21
-55016.38300616226
 31
0.0
  0
LINE
  5
5A688
330
5A111
100
AcDbEntity
  8
标注线
 62
     0
440
 16777216
 48
3.0
370
    -2
100
AcDbLine
 10
490228.2220914118
 20
-55018.38300616226
 30
0.0
 11
490223.2220914118
 21
-55018.38300616226
 31
0.0
  0
LINE
  5
5A689
330
5A111
100
AcDbEntity
  8
标注线
 62
     0
440
 16777216
 48
3.0
370
    -2
100
AcDbLine
 10
490246.2220914117
 20
-55018.38300616226
 30
0.0
 11
490251.2220914118
 21
-55018.38300616226
 31
0.0
  0
LINE
  5
5A68A
330
5A111
100
AcDbEntity
  8
标注线
 62
     0
440
 16777216
 48
3.0
370
    -2
100
AcDbLine
 10
490273.7684540622
 20
-55018.38300616226
 30
0.0
 11
490241.2220914118
 21
-55018.38300616226
 31
0.0
  0
MTEXT
  5
5A68B
330
5A111
100
AcDbEntity
  8
标注线
 62
     0
440
 16777216
 48
3.0
100
AcDbMText
 10
490283.6563922338
 20
-55018.38300616226
 30
0.0
 40
15.0
 41
0.0
 46
0.0
 71
     5
 72
     1
  1
8
 73
     1
 44
1.0
  0
LINE
  5
5A68C
330
5A111
100
AcDbEntity
  8
标注线
 62
     0
440
 16777216
 48
3.0
370
    -2
100
AcDbLine
 10
490233.2220914118
 20
-55018.38300616226
 30
0.0
 11
490241.2220914118
 21
-55018.38300616226
 31
0.0
  0
SOLID
  5
5A68D
330
5A111
100
AcDbEntity
  8
标注线
 62
     0
440
 16777216
 48
3.0
100
AcDbTrace
 10
490228.2220914118
 20
-55017.54967282892
 30
0.0
 11
490228.2220914118
 21
-55019.2163394956
 31
0.0
 12
490233.2220914118
 22
-55018.38300616226
 32
0.0
 13
490233.2220914118
 23
-55018.38300616226
 33
0.0
  0
SOLID
  5
5A68E
330
5A111
100
AcDbEntity
  8
标注线
 62
     0
440
 16777216
 48
3.0
100
AcDbTrace
 10
490246.2220914117
 20
-55017.54967282892
 30
0.0
 11
490246.2220914117
 21
-55019.2163394956
 31
0.0
 12
490241.2220914118
 22
-55018.38300616226
 32
0.0
 13
490241.2220914118
 23
-55018.38300616226
 33
0.0
  0
POINT
  5
5A68F
330
5A111
100
AcDbEntity
  8
Defpoints
 62
     0
440
 16777216
 48
3.0
100
AcDbPoint
 10
490233.2220914118
 20
-55035.90230093363
 30
0.0
  0
POINT
  5
5A690
330
5A111
100
AcDbEntity
  8
Defpoints
 62
     0
440
 16777216
 48
3.0
100
AcDbPoint
 10
490241.2220914118
 20
-55035.90230093363
 30
0.0
  0
POINT
  5
5A691
330
5A111
100
AcDbEntity
  8
Defpoints
 62
     0
440
 16777216
 48
3.0
100
AcDbPoint
 10
490241.2220914118
 20
-55018.38300616226
 30
0.0
  0
ENDBLK
  5
5A120
330
5A111
100
AcDbEntity
  8
0
 48
3.0
100
AcDbBlockEnd
  0
BLOCK
  5
5A16E
330
5A160
100
AcDbEntity
  8
0
 48
3.0
100
AcDbBlockBegin
  2
*D29
 70
     1
 10
0.0
 20
0.0
 30
0.0
  3
*D29
  1

  0
LINE
  5
5AE81
330
5A160
100
AcDbEntity
  8
标注线
 62
     0
440
 16777216
 48
3.0
370
    -2
100
AcDbLine
 10
490234.847091412
 20
-55053.30230093364
 30
0.0
 11
490320.3127542274
 21
-55053.30230093364
 31
0.0
  0
LINE
  5
5AE82
330
5A160
100
AcDbEntity
  8
标注线
 62
     0
440
 16777216
 48
3.0
370
    -2
100
AcDbLine
 10
490246.847091412
 20
-55035.30230093365
 30
0.0
 11
490320.3127542274
 21
-55035.30230093365
 31
0.0
  0
LINE
  5
5AE83
330
5A160
100
AcDbEntity
  8
标注线
 62
     0
440
 16777216
 48
3.0
370
    -2
100
AcDbLine
 10
490318.3127542274
 20
-55058.30230093365
 30
0.0
 11
490318.3127542274
 21
-55063.30230093364
 31
0.0
  0
LINE
  5
5AE84
330
5A160
100
AcDbEntity
  8
标注线
 62
     0
440
 16777216
 48
3.0
370
    -2
100
AcDbLine
 10
490318.3127542274
 20
-55030.30230093364
 30
0.0
 11
490318.3127542274
 21
-55025.30230093364
 31
0.0
  0
MTEXT
  5
5AE85
330
5A160
100
AcDbEntity
  8
标注线
 62
     0
440
 16777216
 48
3.0
100
AcDbMText
 10
490318.312754227
 20
-55003.62772734491
 30
0.0
 40
15.0
 41
0.0
 46
0.0
 71
     5
 72
     1
  1
18{\fSimSun|b0|i0|c134|p54; [.7"]}
 11
0.0000000000000001
 21
1.0
 31
0.0
 73
     1
 44
1.0
  0
SOLID
  5
5AE86
330
5A160
100
AcDbEntity
  8
标注线
 62
     0
440
 16777216
 48
3.0
100
AcDbTrace
 10
490317.4794208942
 20
-55058.30230093365
 30
0.0
 11
490319.1460875607
 21
-55058.30230093365
 31
0.0
 12
490318.3127542274
 22
-55053.30230093364
 32
0.0
 13
490318.3127542274
 23
-55053.30230093364
 33
0.0
  0
SOLID
  5
5AE87
330
5A160
100
AcDbEntity
  8
标注线
 62
     0
440
 16777216
 48
3.0
100
AcDbTrace
 10
490317.4794208942
 20
-55030.30230093364
 30
0.0
 11
490319.1460875607
 21
-55030.30230093364
 31
0.0
 12
490318.3127542274
 22
-55035.30230093365
 32
0.0
 13
490318.3127542274
 23
-55035.30230093365
 33
0.0
  0
POINT
  5
5AE88
330
5A160
100
AcDbEntity
  8
Defpoints
 62
     0
440
 16777216
 48
3.0
100
AcDbPoint
 10
490234.222091412
 20
-55053.30230093364
 30
0.0
  0
POINT
  5
5AE89
330
5A160
100
AcDbEntity
  8
Defpoints
 62
     0
440
 16777216
 48
3.0
100
AcDbPoint
 10
490246.222091412
 20
-55035.30230093365
 30
0.0
  0
POINT
  5
5AE8A
330
5A160
100
AcDbEntity
  8
Defpoints
 62
     0
440
 16777216
 48
3.0
100
AcDbPoint
 10
490318.3127542274
 20
-55035.30230093365
 30
0.0
  0
ENDBLK
  5
5A16F
330
5A160
100
AcDbEntity
  8
0
 48
3.0
100
AcDbBlockEnd
  0
ENDSEC
  0
SECTION
  2
ENTITIES
  0
MTEXT
  5
16C70
330
1F
100
AcDbEntity
  8
2二拉模头
100
AcDbMText
 10
376439.4137173591
 20
-5663.794322128147
 30
0.0
 40
2.5
 41
200.0
 46
0.0
 71
     5
 72
     5
  1

 73
     1
 44
1.0
  0
MTEXT
  5
2E4CC
330
1F
100
AcDbEntity
  8
2二拉模头
100
AcDbMText
 10
461961.638586417
 20
-7847.964857028387
 30
0.0
 40
20.0
 41
200.0
 46
0.0
 71
     5
 72
     5
  1

 73
     1
 44
1.0
  0
HATCH
  5
31026
330
1F
100
AcDbEntity
  8
3二拉板
 48
3.0
100
AcDbHatch
 10
0.0
 20
0.0
 30
0.0
210
0.0
220
0.0
230
1.0
  2
SOLID
 70
     1
 71
     0
 91
        6
 92
        0
 93
        2
 72
     1
 10
462122.806649416
 20
-6763.756165441423
 11
462212.8066494161
 21
-6763.756165441423
 72
     1
 10
462212.8066494161
 20
-6763.756165441423
 11
462122.806649416
 21
-6763.756165441423
 97
        0
 92
      272
 93
        2
 72
     1
 10
462122.806649416
 20
-6763.756165441423
 11
462212.8066494161
 21
-6763.756165441423
 72
     1
 10
462212.8066494161
 20
-6763.756165441423
 11
462122.806649416
 21
-6763.756165441423
 97
        0
 92
      272
 93
        2
 72
     1
 10
462122.806649416
 20
-6763.756165441423
 11
462212.8066494161
 21
-6763.756165441423
 72
     1
 10
462212.8066494161
 20
-6763.756165441423
 11
462122.806649416
 21
-6763.756165441423
 97
        0
 92
      256
 93
        2
 72
     1
 10
462122.806649416
 20
-6763.756165441423
 11
462212.8066494161
 21
-6763.756165441423
 72
     1
 10
462212.8066494161
 20
-6763.756165441423
 11
462122.806649416
 21
-6763.756165441423
 97
        0
 92
      256
 93
        2
 72
     1
 10
462122.806649416
 20
-6763.756165441423
 11
462212.8066494161
 21
-6763.756165441423
 72
     1
 10
462212.8066494161
 20
-6763.756165441423
 11
462122.806649416
 21
-6763.756165441423
 97
        0
 92
       33
 93
        9
 72
     1
 10
462320.8066494163
 20
-6790.756165441425
 11
462320.8066494163
 21
-6793.756165441422
 72
     1
 10
462244.0492901032
 20
-6790.756165441425
 11
462724.8982726404
 21
-6790.756165441425
 72
     1
 10
462242.8066494161
 20
-6793.756165441422
 11
462724.8982726404
 21
-6793.756165441422
 72
     1
 10
462214.0492901031
 20
-6760.756165441422
 11
462244.0492901032
 21
-6790.756165441425
 72
     1
 10
462212.8066494161
 20
-6763.756165441423
 11
462242.8066494161
 21
-6793.756165441422
 72
     1
 10
462121.4015245779
 20
-6760.756165441422
 11
462214.0492901031
 21
-6760.756165441422
 72
     1
 10
462092.8066494161
 20
-6799.756165441422
 11
462122.806649416
 21
-6763.756165441423
 72
     1
 10
462090.5019855771
 20
-6797.835612242429
 11
462121.4015245779
 21
-6760.756165441422
 72
     1
 10
462090.5019855771
 20
-6797.835612242429
 11
462092.8066494161
 21
-6799.756165441422
 97
        0
 75
     0
 76
     1
 98
        1
 10
0.0
 20
0.0
450
        0
451
        0
460
0.0
461
0.0
452
        0
462
0.0
453
        0
470

  0
TEXT
  5
35F40
330
1F
100
AcDbEntity
  8
3二拉板
100
AcDbText
 10
497484.6452878883
 20
-1727.009858163769
 30
0.0
 40
15.4
  1

 50
90.0
100
AcDbText
  0
TEXT
  5
35F67
330
1F
100
AcDbEntity
  8
3二拉板
100
AcDbText
 10
497474.8732337439
 20
-1727.266524830436
 30
0.0
 40
15.4
  1

 50
90.0
100
AcDbText
  0
TEXT
  5
3601E
330
1F
100
AcDbEntity
  8
3二拉板
100
AcDbText
 10
497484.4161070958
 20
-1715.716524830436
 30
0.0
 40
22.0
  1

 50
90.0
100
AcDbText
  0
MTEXT
  5
4DA67
330
1F
100
AcDbEntity
  8
2二拉模头
 48
3.0
100
AcDbMText
 10
455805.2175008454
 20
-49065.55891099491
 30
0.0
 40
29.75
 41
445.5359999999999
 46
0.0
 71
     5
 72
     5
  1

 73
     1
 44
1.0
  0
MTEXT
  5
4DA68
330
1F
100
AcDbEntity
  8
2二拉模头
 48
3.0
100
AcDbMText
 10
455404.4565267072
 20
-49065.55891099491
 30
0.0
 40
29.75
 41
445.5359999999999
 46
0.0
 71
     5
 72
     5
  1

 73
     1
 44
1.0
  0
MTEXT
  5
4F680
330
1F
100
AcDbEntity
  8
2二拉模头
 48
3.0
100
AcDbMText
 10
479405.098295476
 20
-47230.96277263411
 30
0.0
 40
22.0
 41
191.6734
 46
0.0
 71
     1
 72
     1
  1

 73
     1
 44
1.0
  0
LWPOLYLINE
  5
599E7
102
{ACAD_REACTORS
330
59BDB
330
59BF5
330
59C29
330
59C3D
330
59C99
102
}
330
1F
100
AcDbEntity
  8
细实线
 62
     0
 48
3.0
100
AcDbPolyline
 90
        8
 70
     1
 43
0.0
 10
489908.2220914118
 20
-55726.90084891508
 42
-0.4142135623722541
 10
489870.2220914119
 20
-55688.90084891513
 10
489870.2220914119
 20
-55383.90084891513
 42
-0.4142135623722539
 10
489908.2220914118
 20
-55345.90084891513
 10
490213.2220914118
 20
-55345.90084891513
 42
-0.4142135623724222
 10
490251.2220914118
 20
-55383.90084891513
 10
490251.2220914118
 20
-55688.90084891513
 42
-0.414213562373151
 10
490213.2220914118
 20
-55726.90084891508
  0
LWPOLYLINE
  5
599E8
330
1F
100
AcDbEntity
  8
细实线
 62
     0
 48
3.0
100
AcDbPolyline
 90
        8
 70
     1
 43
0.0
 10
489908.2220914118
 20
-55721.90084891508
 42
-0.4142135623721915
 10
489875.2220914118
 20
-55688.90084891513
 10
489875.2220914118
 20
-55383.90084891514
 42
-0.4142135623726431
 10
489908.2220914118
 20
-55350.90084891513
 10
490213.2220914118
 20
-55350.90084891513
 42
-0.4142135623728369
 10
490246.2220914118
 20
-55383.90084891513
 10
490246.2220914118
 20
-55688.90084891513
 42
-0.4142135623732242
 10
490213.2220914118
 20
-55721.90084891508
  0
LWPOLYLINE
  5
599E9
330
1F
100
AcDbEntity
  8
细实线
 62
     0
 48
3.0
100
AcDbPolyline
 90
        8
 70
     1
 43
0.0
 10
489908.2220914118
 20
-55706.90084891508
 42
-0.4142135623719122
 10
489890.2220914118
 20
-55688.9008489151
 10
489890.2220914119
 20
-55383.90084891513
 42
-0.4142135623730951
 10
489908.2220914119
 20
-55365.90084891513
 10
490213.2220914118
 20
-55365.90084891513
 42
-0.4142135623726215
 10
490231.2220914119
 20
-55383.90084891513
 10
490231.2220914119
 20
-55688.90084891513
 42
-0.4142135623733318
 10
490213.2220914118
 20
-55706.90084891508
  0
LWPOLYLINE
  5
599EA
330
1F
100
AcDbEntity
  8
细实线
 62
     0
 48
3.0
100
AcDbPolyline
 90
        8
 70
     1
 43
0.0
 10
489908.2220914118
 20
-55701.90084891509
 42
-0.4142135623717849
 10
489895.2220914118
 20
-55688.90084891508
 10
489895.2220914119
 20
-55383.90084891513
 42
-0.4142135623730951
 10
489908.2220914119
 20
-55370.90084891514
 10
490213.2220914118
 20
-55370.90084891514
 42
-0.4142135623714559
 10
490226.2220914117
 20
-55383.90084891515
 10
490226.2220914118
 20
-55688.90084891513
 42
-0.4142135623735869
 10
490213.2220914118
 20
-55701.9008489151
  0
LINE
  5
599EB
102
{ACAD_REACTORS
330
59BC1
102
}
330
1F
100
AcDbEntity
  8
细实线
 62
     0
 48
3.0
100
AcDbLine
 10
490164.2220914118
 20
-55689.90084891509
 30
0.0
 11
489957.2220914119
 21
-55689.90084891509
 31
0.0
  0
LINE
  5
599EC
330
1F
100
AcDbEntity
  8
标注线
  6
CENTER
 62
     0
 48
3.0
100
AcDbLine
 10
490060.7220914118
 20
-55345.90084891513
 30
0.0
 11
490060.7220914118
 21
-55726.90084891508
 31
0.0
  0
LINE
  5
599ED
102
{ACAD_REACTORS
330
59BC1
102
}
330
1F
100
AcDbEntity
  8
细实线
 62
     0
 48
3.0
100
AcDbLine
 10
489957.2220914119
 20
-55431.90084891508
 30
0.0
 11
490164.2220914118
 21
-55431.90084891508
 31
0.0
  0
LINE
  5
599EE
102
{ACAD_REACTORS
330
59C0F
102
}
330
1F
100
AcDbEntity
  8
细实线
 62
     0
 48
3.0
100
AcDbLine
 10
489907.2220914118
 20
-55481.90084891508
 30
0.0
 11
489907.2220914118
 21
-55639.90084891509
 31
0.0
  0
LINE
  5
599EF
330
1F
100
AcDbEntity
  8
细实线
 62
     0
 48
3.0
100
AcDbLine
 10
490214.2220914118
 20
-55481.90084891508
 30
0.0
 11
490214.2220914118
 21
-55639.90084891509
 31
0.0
  0
ARC
  5
599F0
330
1F
100
AcDbEntity
  8
细实线
 62
     0
 48
3.0
100
AcDbCircle
 10
489957.2220914119
 20
-55481.90084891508
 30
0.0
 40
50.0
100
AcDbArc
 50
90.0
 51
180.0000000000083
  0
ARC
  5
599F1
330
1F
100
AcDbEntity
  8
细实线
 62
     0
 48
3.0
100
AcDbCircle
 10
490164.2220914118
 20
-55481.90084891511
 30
0.0
 40
50.0
100
AcDbArc
 50
0.0000000000250129
 51
90.0
  0
ARC
  5
599F2
102
{ACAD_REACTORS
330
59C0F
102
}
330
1F
100
AcDbEntity
  8
细实线
 62
     0
 48
3.0
100
AcDbCircle
 10
490164.2220914118
 20
-55639.90084891504
 30
0.0
 40
50.0
100
AcDbArc
 50
270.0
 51
359.99999999995
  0
ARC
  5
599F3
102
{ACAD_REACTORS
330
59C0F
102
}
330
1F
100
AcDbEntity
  8
细实线
 62
     0
 48
3.0
100
AcDbCircle
 10
489957.2220914119
 20
-55639.90084891507
 30
0.0
 40
50.0
100
AcDbArc
 50
180.0000000000166
 51
270.0
  0
LINE
  5
599F4
102
{ACAD_REACTORS
330
59C99
102
}
330
1F
100
AcDbEntity
  8
标注线
  6
CENTER
 62
     0
 48
3.0
100
AcDbLine
 10
489992.4220914119
 20
-55400.90084891514
 30
0.0
 11
490027.4220914119
 21
-55400.90084891514
 31
0.0
  0
LINE
  5
599F5
102
{ACAD_REACTORS
330
59C7F
102
}
330
1F
100
AcDbEntity
  8
标注线
  6
CENTER
 62
     0
 48
3.0
100
AcDbLine
 10
490009.9220914118
 20
-55383.40084891514
 30
0.0
 11
490009.9220914118
 21
-55418.40084891513
 31
0.0
  0
LINE
  5
599F6
102
{ACAD_REACTORS
330
59C7F
102
}
330
1F
100
AcDbEntity
  8
标注线
  6
CENTER
 62
     0
 48
3.0
100
AcDbLine
 10
490111.5220914117
 20
-55418.40084891513
 30
0.0
 11
490111.5220914117
 21
-55383.40084891514
 31
0.0
  0
CIRCLE
  5
599F7
330
1F
100
AcDbEntity
  8
细实线
 62
     0
 48
3.0
100
AcDbCircle
 10
490009.9220914118
 20
-55400.90084891514
 30
0.0
 40
17.5
  0
CIRCLE
  5
599F8
330
1F
100
AcDbEntity
  8
细实线
 62
     0
 48
3.0
100
AcDbCircle
 10
490111.5220914117
 20
-55400.90084891514
 30
0.0
 40
17.5
  0
LINE
  5
599F9
330
1F
100
AcDbEntity
  8
标注线
  6
CENTER
 62
     0
 48
3.0
100
AcDbLine
 10
490094.0220914119
 20
-55400.90084891514
 30
0.0
 11
490129.0220914118
 21
-55400.90084891514
 31
0.0
  0
LINE
  5
599FA
330
1F
100
AcDbEntity
  8
标注线
  6
CENTER
 62
     0
 48
3.0
100
AcDbLine
 10
489907.2220914118
 20
-55560.90084891509
 30
0.0
 11
490214.2220914118
 21
-55560.90084891509
 31
0.0
  0
CIRCLE
  5
599FB
330
1F
100
AcDbEntity
  8
细实线
 62
     0
 48
3.0
100
AcDbCircle
 10
490060.7220914118
 20
-55560.90084891509
 30
0.0
 40
25.5
  0
CIRCLE
  5
599FC
330
1F
100
AcDbEntity
  8
细实线
 62
     0
 48
3.0
100
AcDbCircle
 10
490060.7220914118
 20
-55560.90084891509
 30
0.0
 40
36.0
  0
CIRCLE
  5
599FD
330
1F
100
AcDbEntity
  8
细实线
 62
     0
 48
3.0
100
AcDbCircle
 10
490060.7220914118
 20
-55560.90084891509
 30
0.0
 40
38.0
  0
LINE
  5
59A04
330
1F
100
AcDbEntity
  8
细实线
 62
     0
 48
3.0
100
AcDbLine
 10
489895.2220914119
 20
-55040.30230093362
 30
0.0
 11
490226.2220914117
 21
-55040.30230093362
 31
0.0
  0
LINE
  5
59A05
102
{ACAD_REACTORS
330
59CB9
102
}
330
1F
100
AcDbEntity
  8
细实线
 62
     0
 48
3.0
100
AcDbLine
 10
489870.2220914119
 20
-55040.30230093362
 30
0.0
 11
489875.2220914118
 21
-55035.30230093361
 31
0.0
  0
LINE
  5
59A06
102
{ACAD_REACTORS
330
59CB9
330
59D75
102
}
330
1F
100
AcDbEntity
  8
细实线
 62
     0
 48
3.0
100
AcDbLine
 10
489875.2220914118
 20
-55035.30230093361
 30
0.0
 11
489890.2220914119
 21
-55035.30230093361
 31
0.0
  0
LINE
  5
59A07
102
{ACAD_REACTORS
330
59D2C
102
}
330
1F
100
AcDbEntity
  8
细实线
 62
     0
 48
3.0
100
AcDbLine
 10
489890.2220914119
 20
-55035.30230093361
 30
0.0
 11
489895.2220914119
 21
-55040.30230093362
 31
0.0
  0
LINE
  5
59A0B
102
{ACAD_REACTORS
330
5A079
102
}
330
1F
100
AcDbEntity
  8
细实线
 62
     0
 48
3.0
100
AcDbLine
 10
489962.1495254878
 20
-55172.12782726805
 30
0.0
 11
490022.7220914118
 21
-55175.30230093361
 31
0.0
  0
LINE
  5
59A0D
330
1F
100
AcDbEntity
  8
细实线
 62
     0
 48
3.0
100
AcDbLine
 10
489870.6463554805
 20
-55040.72656500233
 30
0.0
 11
489875.4706195495
 21
-55035.90230093363
 31
0.0
  0
LINE
  5
59A0E
330
1F
100
AcDbEntity
  8
细实线
 62
     0
 48
3.0
100
AcDbLine
 10
489875.4706195495
 20
-55035.90230093363
 30
0.0
 11
489889.9735632745
 21
-55035.90230093363
 31
0.0
  0
LINE
  5
59A0F
330
1F
100
AcDbEntity
  8
细实线
 62
     0
 48
3.0
100
AcDbLine
 10
489889.9735632745
 20
-55035.90230093363
 30
0.0
 11
489894.9735632744
 21
-55040.9023009336
 31
0.0
  0
LINE
  5
59A10
330
1F
100
AcDbEntity
  8
细实线
 62
     0
 48
3.0
100
AcDbLine
 10
489894.9735632744
 20
-55040.90230093361
 30
0.0
 11
489901.1211141669
 21
-55040.90230093361
 31
0.0
  0
LINE
  5
59A13
330
1F
100
AcDbEntity
  8
细实线
 62
     0
 48
3.0
100
AcDbLine
 10
489962.118123914
 20
-55172.72700498891
 30
0.0
 11
490022.4606870605
 21
-55175.88942471967
 31
0.0
  0
LINE
  5
59A14
330
1F
100
AcDbEntity
  8
细实线
 62
     0
 48
3.0
100
AcDbLine
 10
489870.2220914119
 20
-55040.30230093362
 30
0.0
 11
489870.6463554805
 21
-55040.72656500233
 31
0.0
  0
ARC
  5
59A15
330
1F
100
AcDbEntity
  8
细实线
 62
     0
 48
3.0
100
AcDbCircle
 10
489901.121114167
 20
-55046.90230093358
 30
0.0
 40
6.0
100
AcDbArc
 50
4.499999999745536
 51
90.00000000055583
  0
ARC
  5
59A16
330
1F
100
AcDbEntity
  8
细实线
 62
     0
 48
3.0
100
AcDbCircle
 10
489901.121114167
 20
-55046.90230093358
 30
0.0
 40
6.599999999999999
100
AcDbArc
 50
4.499999999745536
 51
90.00000000055583
  0
ARC
  5
59A17
330
1F
100
AcDbEntity
  8
细实线
 62
     0
 48
3.0
100
AcDbCircle
 10
490220.3230686566
 20
-55046.90230093358
 30
0.0
 40
6.599999999999999
100
AcDbArc
 50
89.99999999944419
 51
175.5000000002544
  0
ARC
  5
59A18
330
1F
100
AcDbEntity
  8
细实线
 62
     0
 48
3.0
100
AcDbCircle
 10
490220.3230686566
 20
-55046.90230093358
 30
0.0
 40
6.0
100
AcDbArc
 50
89.99999999944419
 51
175.5000000002544
  0
LINE
  5
59A19
330
1F
100
AcDbEntity
  8
细实线
 62
     0
 48
3.0
100
AcDbLine
 10
490251.2220914118
 20
-55040.30230093362
 30
0.0
 11
490250.7978273431
 21
-55040.72656500233
 31
0.0
  0
LINE
  5
59A1A
330
1F
100
AcDbEntity
  8
细实线
 62
     0
 48
3.0
100
AcDbLine
 10
490160.2743908641
 20
-55172.67730501715
 30
0.0
 11
490098.9834957631
 21
-55175.88942471968
 31
0.0
  0
LINE
  5
59A1C
330
1F
100
AcDbEntity
  8
细实线
 62
     0
 48
3.0
100
AcDbLine
 10
490214.3415646543
 20
-55046.43154635925
 30
0.0
 11
490208.0702085651
 21
-55126.11668080236
 31
0.0
  0
LINE
  5
59A1D
330
1F
100
AcDbEntity
  8
细实线
 62
     0
 48
3.0
100
AcDbLine
 10
490226.4706195492
 20
-55040.90230093361
 30
0.0
 11
490220.3230686567
 21
-55040.90230093361
 31
0.0
  0
LINE
  5
59A1E
330
1F
100
AcDbEntity
  8
细实线
 62
     0
 48
3.0
100
AcDbLine
 10
490231.4706195492
 20
-55035.90230093363
 30
0.0
 11
490226.4706195492
 21
-55040.9023009336
 31
0.0
  0
LINE
  5
59A1F
330
1F
100
AcDbEntity
  8
细实线
 62
     0
 48
3.0
100
AcDbLine
 10
490245.9735632742
 20
-55035.90230093363
 30
0.0
 11
490231.4706195492
 21
-55035.90230093363
 31
0.0
  0
LINE
  5
59A20
330
1F
100
AcDbEntity
  8
细实线
 62
     0
 48
3.0
100
AcDbLine
 10
490250.7978273431
 20
-55040.72656500233
 30
0.0
 11
490245.9735632742
 21
-55035.90230093363
 31
0.0
  0
LINE
  5
59A22
330
1F
100
AcDbEntity
  8
细实线
 62
     0
 48
3.0
100
AcDbLine
 10
490160.2429892903
 20
-55172.07812729628
 30
0.0
 11
490098.7220914118
 21
-55175.30230093361
 31
0.0
  0
LINE
  5
59A23
330
1F
100
AcDbEntity
  8
细实线
 62
     0
 48
3.0
100
AcDbLine
 10
490213.7434185953
 20
-55046.38441574307
 30
0.0
 11
490207.4720581649
 21
-55126.06960534504
 31
0.0
  0
LINE
  5
59A24
330
1F
100
AcDbEntity
  8
细实线
 62
     0
 48
3.0
100
AcDbLine
 10
490231.2220914118
 20
-55035.30230093361
 30
0.0
 11
490226.2220914117
 21
-55040.30230093362
 31
0.0
  0
LINE
  5
59A25
330
1F
100
AcDbEntity
  8
细实线
 62
     0
 48
3.0
100
AcDbLine
 10
490246.2220914117
 20
-55035.30230093361
 30
0.0
 11
490231.2220914118
 21
-55035.30230093361
 31
0.0
  0
LINE
  5
59A26
102
{ACAD_REACTORS
330
59B93
330
5A0F9
102
}
330
1F
100
AcDbEntity
  8
细实线
 62
     0
 48
3.0
100
AcDbLine
 10
490251.2220914118
 20
-55040.30230093362
 30
0.0
 11
490246.2220914117
 21
-55035.30230093361
 31
0.0
  0
LINE
  5
59A27
330
1F
100
AcDbEntity
  8
细实线
 62
     0
 48
3.0
100
AcDbLine
 10
490250.7978273431
 20
-55040.72656500233
 30
0.0
 11
490226.6463554805
 21
-55040.72656500232
 31
0.0
  0
LINE
  5
59A28
330
1F
100
AcDbEntity
  8
细实线
 62
     0
 48
3.0
100
AcDbLine
 10
489870.6463554805
 20
-55040.72656500233
 30
0.0
 11
489894.7978273433
 21
-55040.72656500234
 31
0.0
  0
LINE
  5
59A29
102
{ACAD_REACTORS
330
59CFB
102
}
330
1F
100
AcDbEntity
  8
细实线
 62
     0
 48
3.0
100
AcDbLine
 10
489890.2220914119
 20
-55035.30230093361
 30
0.0
 11
490231.2220914118
 21
-55035.30230093361
 31
0.0
  0
LINE
  5
59A2A
102
{ACAD_REACTORS
330
59A8E
330
59B03
330
59B37
330
5A079
102
}
330
1F
100
AcDbEntity
  8
细实线
 62
     0
 48
3.0
100
AcDbLine
 10
490022.7220914118
 20
-55175.30230093361
 30
0.0
 11
490098.7220914119
 21
-55175.30230093362
 31
0.0
  0
LINE
  5
59A2D
102
{ACAD_REACTORS
330
59A72
330
59B03
102
}
330
1F
100
AcDbEntity
  8
细实线
 62
     0
 48
3.0
100
AcDbLine
 10
490024.7220914118
 20
-55177.30230093361
 30
0.0
 11
490096.7220914118
 21
-55177.30230093362
 31
0.0
  0
LINE
  5
59A2E
102
{ACAD_REACTORS
330
59A56
330
59B37
102
}
330
1F
100
AcDbEntity
  8
细实线
 62
     0
 48
3.0
100
AcDbLine
 10
490035.2220914118
 20
-55179.30230093361
 30
0.0
 11
490086.2220914119
 21
-55179.30230093362
 31
0.0
  0
LINE
  5
59A2F
330
1F
100
AcDbEntity
  8
细实线
 62
     0
 48
3.0
100
AcDbLine
 10
490035.1654576629
 20
-55179.90230093362
 30
0.0
 11
490086.2787251607
 21
-55179.90230093362
 31
0.0
  0
LINE
  5
59A32
102
{ACAD_REACTORS
330
59A8E
102
}
330
1F
100
AcDbEntity
  8
细实线
 62
     0
 48
3.0
100
AcDbLine
 10
490022.7220914118
 20
-55175.30230093361
 30
0.0
 11
490024.7220914118
 21
-55177.30230093362
 31
0.0
  0
LINE
  5
59A33
330
1F
100
AcDbEntity
  8
细实线
 62
     0
 48
3.0
100
AcDbLine
 10
490024.7220914118
 20
-55177.30230093361
 30
0.0
 11
490035.2220914118
 21
-55179.30230093361
 31
0.0
  0
LINE
  5
59A34
330
1F
100
AcDbEntity
  8
细实线
 62
     0
 48
3.0
100
AcDbLine
 10
490022.4606870605
 20
-55175.88942471967
 30
0.0
 11
490024.4284116536
 21
-55177.8571493128
 31
0.0
  0
LINE
  5
59A35
330
1F
100
AcDbEntity
  8
细实线
 62
     0
 48
3.0
100
AcDbLine
 10
490024.4284116536
 20
-55177.8571493128
 30
0.0
 11
490035.1654576629
 21
-55179.90230093362
 31
0.0
  0
LINE
  5
59A36
330
1F
100
AcDbEntity
  8
细实线
 62
     0
 48
3.0
100
AcDbLine
 10
490097.01577117
 20
-55177.8571493128
 30
0.0
 11
490086.2787251607
 21
-55179.90230093362
 31
0.0
  0
LINE
  5
59A37
330
1F
100
AcDbEntity
  8
细实线
 62
     0
 48
3.0
100
AcDbLine
 10
490098.9834957631
 20
-55175.88942471968
 30
0.0
 11
490097.01577117
 21
-55177.8571493128
 31
0.0
  0
LINE
  5
59A38
330
1F
100
AcDbEntity
  8
细实线
 62
     0
 48
3.0
100
AcDbLine
 10
490096.7220914118
 20
-55177.30230093362
 30
0.0
 11
490086.2220914119
 21
-55179.30230093362
 31
0.0
  0
LINE
  5
59A39
330
1F
100
AcDbEntity
  8
细实线
 62
     0
 48
3.0
100
AcDbLine
 10
490098.7220914118
 20
-55175.30230093361
 30
0.0
 11
490096.7220914118
 21
-55177.30230093362
 31
0.0
  0
LINE
  5
59A3A
330
1F
100
AcDbEntity
  8
标注线
  6
CENTER
 62
     0
 48
3.0
100
AcDbLine
 10
490060.7220914118
 20
-55154.74845901167
 30
0.0
 11
490060.7220914118
 21
-55196.28387289531
 31
0.0
  0
DIMENSION
  5
59A3B
102
{ACAD_XDICTIONARY
360
59A4A
102
}
102
{ACAD_REACTORS
330
59A56
102
}
330
1F
100
AcDbEntity
  8
标注线
 62
     0
 48
3.0
100
AcDbDimension
280
     0
  2
*D3
 10
490086.2220914119
 20
-55212.93254125284
 30
0.0
 11
490060.7220914118
 21
-55212.93254125284
 31
0.0
 70
    32
  1
{\Ftxt|c0;%%C}<>{\fSimSun|b0|i0|c134|p54; [2"]}
 71
     5
 42
51.0
 73
     0
 74
     0
 75
     0
  3
副本ISO-25
100
AcDbAlignedDimension
 13
490035.2220914118
 23
-55179.30230093361
 33
0.0
 14
490086.2220914119
 24
-55179.30230093362
 34
0.0
100
AcDbRotatedDimension
1001
ACAD
1000
DSTYLE
1002
{
1070
    41
1040
5.0
1070
   140
1040
15.0
1070
   147
1040
5.0
1002
}
  0
DIMENSION
  5
59A57
102
{ACAD_XDICTIONARY
360
59A66
102
}
102
{ACAD_REACTORS
330
59A72
102
}
330
1F
100
AcDbEntity
  8
标注线
 62
     0
 48
3.0
100
AcDbDimension
280
     0
  2
*D4
 10
490096.7220914118
 20
-55135.22690403267
 30
0.0
 11
490060.7220914118
 21
-55135.22690403267
 31
0.0
 70
    32
  1
{\Ftxt|c0;%%C}<>{\fSimSun|b0|i0|c134|p54; [2.8"]}
 71
     5
 42
72.00000000005821
 73
     0
 74
     0
 75
     0
  3
副本ISO-25
100
AcDbAlignedDimension
 13
490024.7220914118
 23
-55177.30230093361
 33
0.0
 14
490096.7220914118
 24
-55177.30230093362
 34
0.0
100
AcDbRotatedDimension
1001
ACAD
1000
DSTYLE
1002
{
1070
    41
1040
5.0
1070
   140
1040
15.0
1070
   147
1040
5.0
1002
}
  0
DIMENSION
  5
59A73
102
{ACAD_XDICTIONARY
360
59A82
102
}
102
{ACAD_REACTORS
330
59A8E
102
}
330
1F
100
AcDbEntity
  8
标注线
 62
     0
 48
3.0
100
AcDbDimension
280
     0
  2
*D5
 10
490098.7220914119
 20
-55102.03305305656
 30
0.0
 11
490060.7220914118
 21
-55080.2313770789
 31
0.0
 70
   160
  1
{\Ftxt|c0;%%C}<>{\fSimSun|b0|i0|c134|p54; [3"]}
 71
     5
 42
76.00000000011641
 73
     0
 74
     0
 75
     0
  3
副本ISO-25
100
AcDbAlignedDimension
 13
490022.7220914118
 23
-55175.30230093361
 33
0.0
 14
490098.7220914119
 24
-55175.30230093362
 34
0.0
100
AcDbRotatedDimension
1001
ACAD
1000
DSTYLE
1002
{
1070
    41
1040
5.0
1070
   140
1040
15.0
1070
   147
1040
5.0
1070
   279
1070
     2
1002
}
  0
DIMENSION
  5
59AE4
102
{ACAD_XDICTIONARY
360
59AF5
102
}
102
{ACAD_REACTORS
330
59B03
102
}
330
1F
100
AcDbEntity
  8
标注线
 62
     0
 48
3.0
100
AcDbDimension
280
     0
  2
*D6
 10
489997.2486610122
 20
-55177.30230093363
 30
0.0
 11
489997.2486610122
 21
-55163.58329472567
 31
0.0
 70
   160
 71
     5
 42
1.999999999992724
 73
     0
 74
     0
 75
     0
  3
副本ISO-25
100
AcDbAlignedDimension
 13
490022.7220914118
 23
-55175.30230093361
 33
0.0
 14
490024.7220914118
 24
-55177.30230093361
 34
0.0
 50
90.0
100
AcDbRotatedDimension
1001
ACAD
1000
DSTYLE
1002
{
1070
    41
1040
5.0
1070
   140
1040
15.0
1070
   147
1040
5.0
1002
}
  0
DIMENSION
  5
59B18
102
{ACAD_XDICTIONARY
360
59B29
102
}
102
{ACAD_REACTORS
330
59B37
102
}
330
1F
100
AcDbEntity
  8
标注线
 62
     0
 48
3.0
100
AcDbDimension
280
     0
  2
*D7
 10
489975.9138768419
 20
-55179.30230093364
 30
0.0
 11
489975.9138768419
 21
-55189.30230093362
 31
0.0
 70
   160
 71
     5
 42
4.0
 73
     0
 74
     0
 75
     0
  3
副本ISO-25
100
AcDbAlignedDimension
 13
490022.7220914118
 23
-55175.30230093361
 33
0.0
 14
490035.2220914118
 24
-55179.30230093361
 34
0.0
 50
90.0
100
AcDbRotatedDimension
1001
ACAD
1000
DSTYLE
1002
{
1070
    41
1040
5.0
1070
   140
1040
15.0
1070
   147
1040
5.0
1002
}
  0
DIMENSION
  5
59B6A
330
1F
100
AcDbEntity
  8
标注线
 62
     0
 48
3.0
100
AcDbDimension
280
     0
  2
*D8
 10
489901.1211141671
 20
-55046.90230093364
 30
0.0
 11
489865.4074149945
 21
-55070.19844411876
 31
0.0
 70
   164
 71
     5
 42
5.999999999592546
 73
     0
 74
     0
 75
     0
  3
副本ISO-25
100
AcDbRadialDimension
 15
489896.095746791
 25
-55050.18036175235
 35
0.0
 40
0.0
1001
ACAD
1000
DSTYLE
1002
{
1070
    41
1040
5.0
1070
   140
1040
15.0
1070
   147
1040
5.0
1070
   288
1070
     1
1002
}
  0
DIMENSION
  5
59B7A
102
{ACAD_XDICTIONARY
360
59B88
102
}
102
{ACAD_REACTORS
330
59B93
102
}
330
1F
100
AcDbEntity
  8
标注线
 62
     0
 48
3.0
100
AcDbDimension
280
     0
  2
*D9
 10
490271.1878287612
 20
-55175.30230093365
 30
0.0
 11
490271.1878287611
 21
-55105.30230093378
 31
0.0
 70
    32
  1
<>{\fSimSun|b0|i0|c134|p54; [5.5"]}
 71
     5
 42
140.0000000000073
 73
     0
 74
     0
 75
     0
  3
副本ISO-25
100
AcDbAlignedDimension
 13
490246.2220914117
 23
-55035.30230093361
 33
0.0
 14
490088.9478421984
 24
-55175.30230093362
 34
0.0
 50
90.0
100
AcDbRotatedDimension
1001
ACAD
1000
DSTYLE
1002
{
1070
    41
1040
5.0
1070
   140
1040
15.0
1070
   147
1040
5.0
1002
}
  0
DIMENSION
  5
59B98
330
1F
100
AcDbEntity
  8
标注线
 62
     0
 48
3.0
100
AcDbDimension
280
     0
  2
*D10
 10
489964.7663232999
 20
-55122.1963505304
 30
0.0
 11
489969.8775756673
 21
-55118.72767580021
 31
0.0
 70
   164
  1
<>{\fSimSun|b0|i0|c134|p54; [2"]}
 71
     5
 42
50.00000000011642
 73
     0
 74
     0
 75
     0
  3
副本ISO-25
100
AcDbRadialDimension
 15
489923.3937565706
 25
-55150.27322219082
 35
0.0
 40
0.0
1001
ACAD
1000
DSTYLE
1002
{
1070
    41
1040
5.0
1070
   140
1040
15.0
1070
   147
1040
5.0
1070
   288
1070
     1
1002
}
  0
DIMENSION
  5
59BA8
102
{ACAD_XDICTIONARY
360
59BB6
102
}
102
{ACAD_REACTORS
330
59BC1
102
}
330
1F
100
AcDbEntity
  8
标注线
 62
     0
 48
3.0
100
AcDbDimension
280
     0
  2
*D11
 10
489820.7062961287
 20
-55689.90084891511
 30
0.0
 11
489820.7062961286
 21
-55560.90084891524
 31
0.0
 70
    32
  1
<>{\fSimSun|b0|i0|c134|p54; [10"]}
 71
     5
 42
258.0
 73
     0
 74
     0
 75
     0
  3
副本ISO-25
100
AcDbAlignedDimension
 13
489957.2220914119
 23
-55431.90084891508
 33
0.0
 14
489957.2220914119
 24
-55689.90084891509
 34
0.0
 50
90.0
100
AcDbRotatedDimension
1001
ACAD
1000
DSTYLE
1002
{
1070
    41
1040
5.0
1070
   140
1040
15.0
1070
   147
1040
5.0
1002
}
  0
DIMENSION
  5
59BC2
102
{ACAD_XDICTIONARY
360
59BD0
102
}
102
{ACAD_REACTORS
330
59BDB
102
}
330
1F
100
AcDbEntity
  8
标注线
 62
     0
 48
3.0
100
AcDbDimension
280
     0
  2
*D12
 10
489820.7062961287
 20
-55726.90084891512
 30
0.0
 11
489789.404620151
 21
-55684.01034612194
 31
0.0
 70
    32
  1
<>{\fSimSun|b0|i0|c134|p54; [1.5"]}
 71
     5
 42
37.0
 73
     0
 74
     0
 75
     0
  3
副本ISO-25
100
AcDbAlignedDimension
 13
489957.2220914119
 23
-55689.90084891509
 33
0.0
 14
489908.2220914118
 24
-55726.90084891508
 34
0.0
 50
90.0
100
AcDbRotatedDimension
1001
ACAD
1000
DSTYLE
1002
{
1070
    41
1040
5.0
1070
   140
1040
15.0
1070
   147
1040
5.0
1002
}
  0
DIMENSION
  5
59BDC
102
{ACAD_XDICTIONARY
360
59BEA
102
}
102
{ACAD_REACTORS
330
59BF5
102
}
330
1F
100
AcDbEntity
  8
标注线
 62
     0
 48
3.0
100
AcDbDimension
280
     0
  2
*D13
 10
489768.7515247967
 20
-55345.90084891516
 30
0.0
 11
489768.7515247966
 21
-55536.40084891526
 31
0.0
 70
    32
  1
<>{\fSimSun|b0|i0|c134|p54; [15"]}
 71
     5
 42
380.9999999999491
 73
     0
 74
     0
 75
     0
  3
副本ISO-25
100
AcDbAlignedDimension
 13
489863.1516937701
 23
-55726.90084891508
 33
0.0
 14
489908.2220914118
 24
-55345.90084891513
 34
0.0
 50
90.0
100
AcDbRotatedDimension
1001
ACAD
1000
DSTYLE
1002
{
1070
    41
1040
5.0
1070
   140
1040
15.0
1070
   147
1040
5.0
1002
}
  0
DIMENSION
  5
59BF6
102
{ACAD_XDICTIONARY
360
59C04
102
}
102
{ACAD_REACTORS
330
59C0F
102
}
330
1F
100
AcDbEntity
  8
标注线
 62
     0
 48
3.0
100
AcDbDimension
280
     0
  2
*D14
 10
490214.2220914118
 20
-55781.10409911867
 30
0.0
 11
490060.7220914118
 21
-55781.10409911867
 31
0.0
 70
    32
  1
<>{\fSimSun|b0|i0|c134|p54; [12.09"]}
 71
     5
 42
307.0
 73
     0
 74
     0
 75
     0
  3
副本ISO-25
100
AcDbAlignedDimension
 13
489907.2220914118
 23
-55639.90084891507
 33
0.0
 14
490214.2220914118
 24
-55639.90084891509
 34
0.0
100
AcDbRotatedDimension
1001
ACAD
1000
DSTYLE
1002
{
1070
    41
1040
5.0
1070
   140
1040
15.0
1070
   147
1040
5.0
1002
}
  0
DIMENSION
  5
59C10
102
{ACAD_XDICTIONARY
360
59C1E
102
}
102
{ACAD_REACTORS
330
59C29
102
}
330
1F
100
AcDbEntity
  8
标注线
 62
     0
 48
3.0
100
AcDbDimension
280
     0
  2
*D15
 10
489870.2220914119
 20
-55813.61789249066
 30
0.0
 11
490060.7220914118
 21
-55813.61789249066
 31
0.0
 70
    32
  1
<>{\fSimSun|b0|i0|c134|p54; [15"]}
 71
     5
 42
381.0
 73
     0
 74
     0
 75
     0
  3
副本ISO-25
100
AcDbAlignedDimension
 13
490251.2220914118
 23
-55688.90084891513
 33
0.0
 14
489870.2220914119
 24
-55688.90084891513
 34
0.0
100
AcDbRotatedDimension
1001
ACAD
1000
DSTYLE
1002
{
1070
    41
1040
5.0
1070
   140
1040
15.0
1070
   147
1040
5.0
1002
}
  0
DIMENSION
  5
59C2A
102
{ACAD_XDICTIONARY
360
59C35
102
}
102
{ACAD_REACTORS
330
59C3D
102
}
330
1F
100
AcDbEntity
  8
标注线
 62
     0
 48
3.0
100
AcDbDimension
280
     0
  2
*D16
 10
490213.2220914118
 20
-55688.90084891513
 30
0.0
 11
490302.3629030055
 21
-55762.48370167179
 31
0.0
 70
    36
  1
{\fSimSun|b0|i0|c134|p54;4-}<>{\fSimSun|b0|i0|c134|p54; [1.5"]}
 71
     5
 42
37.9999999999418
 73
     0
 74
     0
 75
     0
  3
副本ISO-25
100
AcDbRadialDimension
 15
490242.5275479462
 25
-55713.09155409926
 35
0.0
 40
0.0
1001
ACAD
1000
DSTYLE
1002
{
1070
    41
1040
5.0
1070
   140
1040
15.0
1070
   147
1040
5.0
1070
   288
1070
     1
1002
}
  0
DIMENSION
  5
59C4C
330
1F
100
AcDbEntity
  8
标注线
 62
     0
 48
3.0
100
AcDbDimension
280
     0
  2
*D17
 10
489957.222091412
 20
-55639.90084891516
 30
0.0
 11
489967.978322234
 21
-55626.91576669997
 31
0.0
 70
   164
  1
{\fSimSun|b0|i0|c134|p54;4-}<>{\fSimSun|b0|i0|c134|p54; [2"]}
 71
     5
 42
50.00000000011642
 73
     0
 74
     0
 75
     0
  3
副本ISO-25
100
AcDbRadialDimension
 15
489925.3261871229
 25
-55678.40606011558
 35
0.0
 40
0.0
1001
ACAD
1000
DSTYLE
1002
{
1070
    41
1040
5.0
1070
   140
1040
15.0
1070
   147
1040
5.0
1070
   288
1070
     1
1002
}
  0
DIMENSION
  5
59C66
102
{ACAD_XDICTIONARY
360
59C74
102
}
102
{ACAD_REACTORS
330
59C7F
102
}
330
1F
100
AcDbEntity
  8
标注线
 62
     0
 48
3.0
100
AcDbDimension
280
     0
  2
*D18
 10
490111.5220914117
 20
-55318.1607749759
 30
0.0
 11
490060.7220914118
 21
-55318.1607749759
 31
0.0
 70
    32
  1
<>{\fSimSun|b0|i0|c134|p54; [4"]}
 71
     5
 42
101.5999999999767
 73
     0
 74
     0
 75
     0
  3
副本ISO-25
100
AcDbAlignedDimension
 13
490009.9220914118
 23
-55383.40084891514
 33
0.0
 14
490111.5220914117
 24
-55383.40084891514
 34
0.0
100
AcDbRotatedDimension
1001
ACAD
1000
DSTYLE
1002
{
1070
    41
1040
5.0
1070
   140
1040
15.0
1070
   147
1040
5.0
1002
}
  0
DIMENSION
  5
59C80
102
{ACAD_XDICTIONARY
360
59C8E
102
}
102
{ACAD_REACTORS
330
59C99
102
}
330
1F
100
AcDbEntity
  8
标注线
 62
     0
 48
3.0
100
AcDbDimension
280
     0
  2
*D19
 10
489820.7508791486
 20
-55400.90084891517
 30
0.0
 11
489814.5318061036
 21
-55371.25601392173
 31
0.0
 70
   160
  1
<>{\fSimSun|b0|i0|c134|p54; [5.2"]}
 71
     5
 42
55.0
 73
     0
 74
     0
 75
     0
  3
副本ISO-25
100
AcDbAlignedDimension
 13
489908.2220914118
 23
-55345.90084891513
 33
0.0
 14
489992.4220914119
 24
-55400.90084891514
 34
0.0
 50
90.0
100
AcDbRotatedDimension
1001
ACAD
1000
DSTYLE
1002
{
1070
    41
1040
5.0
1070
   140
1040
15.0
1070
   147
1040
5.0
1002
}
  0
DIMENSION
  5
59C9A
102
{ACAD_XDICTIONARY
360
59CAB
102
}
102
{ACAD_REACTORS
330
59CB9
102
}
330
1F
100
AcDbEntity
  8
标注线
 62
     0
 48
3.0
100
AcDbDimension
280
     0
  2
*D20
 10
489870.2220914119
 20
-55023.55084407508
 30
0.0
 11
489841.9243482485
 21
-55032.68012620072
 31
0.0
 70
   160
 71
     5
 42
5.0
 73
     0
 74
     0
 75
     0
  3
副本ISO-25
100
AcDbAlignedDimension
 13
489875.2220914118
 23
-55035.30230093361
 33
0.0
 14
489870.2220914119
 24
-55040.30230093362
 34
0.0
100
AcDbRotatedDimension
1001
ACAD
1000
DSTYLE
1002
{
1070
    41
1040
5.0
1070
   140
1040
15.0
1070
   147
1040
5.0
1002
}
  0
DIMENSION
  5
59CE0
102
{ACAD_XDICTIONARY
360
59CEF
102
}
102
{ACAD_REACTORS
330
59CFB
102
}
330
1F
100
AcDbEntity
  8
标注线
 62
     0
 48
3.0
100
AcDbDimension
280
     0
  2
*D21
 10
489890.2220914119
 20
-54999.48739266829
 30
0.0
 11
489847.825553785
 21
-55003.10288171903
 31
0.0
 70
   160
  1
<>{\fSimSun|b0|i0|c134|p54; [.8"]}
 71
     5
 42
20.0
 73
     0
 74
     0
 75
     0
  3
副本ISO-25
100
AcDbAlignedDimension
 13
489870.2220914119
 23
-55030.61407250434
 33
0.0
 14
489890.2220914119
 24
-55035.30230093361
 34
0.0
100
AcDbRotatedDimension
1001
ACAD
1000
DSTYLE
1002
{
1070
    41
1040
5.0
1070
   140
1040
15.0
1070
   147
1040
5.0
1002
}
  0
DIMENSION
  5
59D11
102
{ACAD_XDICTIONARY
360
59D20
102
}
102
{ACAD_REACTORS
330
59D2C
102
}
330
1F
100
AcDbEntity
  8
标注线
 62
     0
 48
3.0
100
AcDbDimension
280
     0
  2
*D22
 10
489870.2220914119
 20
-54978.64292404381
 30
0.0
 11
489840.4527236159
 21
-54983.06339159087
 31
0.0
 70
   160
  1
<>{\fSimSun|b0|i0|c134|p54; [1"]}
 71
     5
 42
25.0
 73
     0
 74
     0
 75
     0
  3
副本ISO-25
100
AcDbAlignedDimension
 13
489895.2220914119
 23
-55040.30230093362
 33
0.0
 14
489870.2220914119
 24
-55039.67730093362
 34
0.0
100
AcDbRotatedDimension
1001
ACAD
1000
DSTYLE
1002
{
1070
    41
1040
5.0
1070
   140
1040
15.0
1070
   147
1040
5.0
1002
}
  0
DIMENSION
  5
59D56
102
{ACAD_XDICTIONARY
360
59D67
102
}
102
{ACAD_REACTORS
330
59D75
102
}
330
1F
100
AcDbEntity
  8
标注线
 62
     0
 48
3.0
100
AcDbDimension
280
     0
  2
*D23
 10
489818.4103861418
 20
-55040.30230093365
 30
0.0
 11
489819.0604974208
 21
-55072.01642544624
 31
0.0
 70
   160
  1
<>{\fSimSun|b0|i0|c134|p54; [.2"]}
 71
     5
 42
5.0
 73
     0
 74
     0
 75
     0
  3
副本ISO-25
100
AcDbAlignedDimension
 13
489875.2220914118
 23
-55035.30230093361
 33
0.0
 14
489870.2220914119
 24
-55040.30230093362
 34
0.0
 50
90.0
100
AcDbRotatedDimension
1001
ACAD
1000
DSTYLE
1002
{
1070
    41
1040
5.0
1070
   140
1040
15.0
1070
   147
1040
5.0
1002
}
  0
LINE
  5
5A039
102
{ACAD_REACTORS
330
5A057
102
}
330
1F
100
AcDbEntity
  8
标注线
 62
     0
 48
3.0
100
AcDbLine
 10
489907.1026181694
 20
-55046.43154635925
 30
0.0
 11
489907.1026181694
 21
-55103.69102651342
 31
0.0
  0
DIMENSION
  5
5A03A
102
{ACAD_XDICTIONARY
360
5A04A
102
}
102
{ACAD_REACTORS
330
5A057
102
}
330
1F
100
AcDbEntity
  8
标注线
 62
     0
 48
3.0
100
AcDbDimension
280
     0
  2
*D25
 10
489914.9204566133
 20
-55138.11930531681
 30
0.0
 11
489915.4566944569
 21
-55251.40968938075
 31
0.0
 70
    34
 71
     5
 42
0.0785398163420048
 73
     0
 74
     0
 75
     0
  3
副本ISO-25
100
AcDb2LineAngularDimension
 13
489907.1026181694
 23
-55046.43154635925
 33
0.0
 14
489907.1026181694
 24
-55103.69102651342
 34
0.0
 15
489907.7007642283
 25
-55046.38441574307
 35
0.0
 16
489912.0510952037
 26
-55227.75896325528
 36
0.0
1001
ACAD
1000
DSTYLE
1002
{
1070
    41
1040
5.0
1070
   140
1040
15.0
1070
   147
1040
5.0
1002
}
  0
DIMENSION
  5
5A058
102
{ACAD_XDICTIONARY
360
5A06A
102
}
102
{ACAD_REACTORS
330
5A079
102
}
330
1F
100
AcDbEntity
  8
标注线
 62
     0
 48
3.0
100
AcDbDimension
280
     0
  2
*D26
 10
490098.7220914119
 20
-55175.30230093362
 30
0.0
 11
489837.0489314844
 21
-55170.44027813023
 31
0.0
 70
    34
 71
     5
 42
0.0523598775597529
 73
     0
 74
     0
 75
     0
  3
副本ISO-25
100
AcDb2LineAngularDimension
 13
489962.1495254878
 23
-55172.12782726805
 33
0.0
 14
490022.7220914118
 24
-55175.30230093361
 34
0.0
 15
490022.7220914118
 25
-55175.30230093361
 35
0.0
 16
489860.8339621057
 26
-55169.64904288665
 36
0.0
1001
ACAD
1000
DSTYLE
1002
{
1070
    41
1040
5.0
1070
   140
1040
15.0
1070
   147
1040
5.0
1002
}
  0
LINE
  5
5A0D0
102
{ACAD_REACTORS
330
5A0F9
330
5A12F
102
}
330
1F
100
AcDbEntity
  8
细实线
 62
     0
 48
3.0
100
AcDbLine
 10
490233.2220914118
 20
-55053.30230093361
 30
0.0
 11
490233.2220914118
 21
-55035.90230093363
 31
0.0
  0
LINE
  5
5A0D1
330
1F
100
AcDbEntity
  8
细实线
 62
     0
 48
3.0
100
AcDbLine
 10
490234.2220914118
 20
-55053.30230093361
 30
0.0
 11
490233.2220914118
 21
-55053.30230093361
 31
0.0
  0
LINE
  5
5A0D2
102
{ACAD_REACTORS
330
5A17E
102
}
330
1F
100
AcDbEntity
  8
细实线
 62
     0
 48
3.0
100
AcDbLine
 10
490234.2220914118
 20
-55053.30230093361
 30
0.0
 11
490234.2220914118
 21
-55036.90230093362
 31
0.0
  0
LINE
  5
5A0D3
330
1F
100
AcDbEntity
  8
细实线
 62
     0
 48
3.0
100
AcDbLine
 10
490241.2220914118
 20
-55036.90230093362
 30
0.0
 11
490234.2220914118
 21
-55036.90230093362
 31
0.0
  0
LINE
  5
5A0D4
102
{ACAD_REACTORS
330
5A12F
102
}
330
1F
100
AcDbEntity
  8
细实线
 62
     0
 48
3.0
100
AcDbLine
 10
490241.2220914118
 20
-55036.90230093362
 30
0.0
 11
490241.2220914118
 21
-55035.90230093363
 31
0.0
  0
LINE
  5
5A0D5
330
1F
100
AcDbEntity
  8
细实线
 62
     0
 48
3.0
100
AcDbLine
 10
489887.2220914118
 20
-55053.30230093361
 30
0.0
 11
489887.2220914118
 21
-55036.90230093362
 31
0.0
  0
LINE
  5
5A0D6
330
1F
100
AcDbEntity
  8
细实线
 62
     0
 48
3.0
100
AcDbLine
 10
489888.2220914119
 20
-55053.30230093361
 30
0.0
 11
489888.2220914119
 21
-55035.90230093363
 31
0.0
  0
LINE
  5
5A0D7
330
1F
100
AcDbEntity
  8
细实线
 62
     0
 48
3.0
100
AcDbLine
 10
489887.2220914118
 20
-55053.30230093361
 30
0.0
 11
489888.2220914119
 21
-55053.30230093361
 31
0.0
  0
LINE
  5
5A0D8
330
1F
100
AcDbEntity
  8
细实线
 62
     0
 48
3.0
100
AcDbLine
 10
489880.2220914119
 20
-55036.90230093362
 30
0.0
 11
489880.2220914119
 21
-55035.90230093363
 31
0.0
  0
LINE
  5
5A0D9
330
1F
100
AcDbEntity
  8
细实线
 62
     0
 48
3.0
100
AcDbLine
 10
489880.2220914119
 20
-55036.90230093362
 30
0.0
 11
489887.2220914118
 21
-55036.90230093362
 31
0.0
  0
DIMENSION
  5
5A0DA
102
{ACAD_XDICTIONARY
360
5A0EB
102
}
102
{ACAD_REACTORS
330
5A0F9
102
}
330
1F
100
AcDbEntity
  8
标注线
 62
     0
 48
3.0
100
AcDbDimension
280
     0
  2
*D27
 10
490251.2220914118
 20
-55079.73066795683
 30
0.0
 11
490301.3716138323
 21
-55079.73066795683
 31
0.0
 70
   160
  1
<>{\fSimSun|b0|i0|c134|p54; [.7"]}
 71
     5
 42
18.0
 73
     0
 74
     0
 75
     0
  3
副本ISO-25
100
AcDbAlignedDimension
 13
490233.2220914118
 23
-55053.30230093361
 33
0.0
 14
490251.2220914118
 24
-55040.30230093362
 34
0.0
100
AcDbRotatedDimension
1001
ACAD
1000
DSTYLE
1002
{
1070
    41
1040
5.0
1070
   140
1040
15.0
1070
   147
1040
5.0
1002
}
  0
DIMENSION
  5
5A110
102
{ACAD_XDICTIONARY
360
5A121
102
}
102
{ACAD_REACTORS
330
5A12F
102
}
330
1F
100
AcDbEntity
  8
标注线
 62
     0
 48
3.0
100
AcDbDimension
280
     0
  2
*D28
 10
490241.2220914118
 20
-55018.38300616226
 30
0.0
 11
490283.6563922338
 21
-55018.38300616226
 31
0.0
 70
   160
 71
     5
 42
8.0
 73
     0
 74
     0
 75
     0
  3
副本ISO-25
100
AcDbAlignedDimension
 13
490233.2220914118
 23
-55035.90230093363
 33
0.0
 14
490241.2220914118
 24
-55035.90230093363
 34
0.0
100
AcDbRotatedDimension
1001
ACAD
1000
DSTYLE
1002
{
1070
    41
1040
5.0
1070
   140
1040
15.0
1070
   147
1040
5.0
1002
}
  0
DIMENSION
  5
5A15F
102
{ACAD_XDICTIONARY
360
5A170
102
}
102
{ACAD_REACTORS
330
5A17E
102
}
330
1F
100
AcDbEntity
  8
标注线
 62
     0
 48
3.0
100
AcDbDimension
280
     0
  2
*D29
 10
490318.3127542274
 20
-55035.30230093365
 30
0.0
 11
490318.312754227
 21
-55003.62772734491
 31
0.0
 70
   160
  1
<>{\fSimSun|b0|i0|c134|p54; [.7"]}
 71
     5
 42
18.0
 73
     0
 74
     0
 75
     0
  3
副本ISO-25
100
AcDbAlignedDimension
 13
490234.2220914118
 23
-55053.30230093361
 33
0.0
 14
490246.2220914117
 24
-55035.30230093361
 34
0.0
 50
90.0
100
AcDbRotatedDimension
1001
ACAD
1000
DSTYLE
1002
{
1070
    41
1040
5.0
1070
   140
1040
15.0
1070
   147
1040
5.0
1002
}
  0
ARC
  5
5AD51
330
1F
100
AcDbEntity
  8
细实线
 62
     0
 48
3.0
100
AcDbCircle
 10
490157.6261914782
 20
-55122.14665055855
 30
0.0
 40
50.0
100
AcDbArc
 50
273.0000000000195
 51
355.4999999998897
  0
ARC
  5
5AD54
330
1F
100
AcDbEntity
  8
细实线
 62
     0
 48
3.0
100
AcDbCircle
 10
490157.6261914782
 20
-55122.14665055855
 30
0.0
 40
50.6
100
AcDbArc
 50
273.0000000000195
 51
355.4999999998897
  0
LINE
  5
5AD5A
330
1F
100
AcDbEntity
  8
细实线
 62
     0
 48
3.0
100
AcDbLine
 10
489907.1026181694
 20
-55046.43154635925
 30
0.0
 11
489913.3739742586
 21
-55126.11668080236
 31
0.0
  0
ARC
  5
5AD5B
330
1F
100
AcDbEntity
  8
细实线
 62
     0
 48
3.0
100
AcDbCircle
 10
489963.8179913456
 20
-55122.14665055855
 30
0.0
 40
50.0
100
AcDbArc
 50
184.5000000003182
 51
266.9999999995781
  0
ARC
  5
5AD5C
330
1F
100
AcDbEntity
  8
细实线
 62
     0
 48
3.0
100
AcDbCircle
 10
489963.8179913456
 20
-55122.14665055855
 30
0.0
 40
50.59999999999999
100
AcDbArc
 50
184.5000000003182
 51
266.9999999995781
  0
LINE
  5
5AD5D
330
1F
100
AcDbEntity
  8
细实线
 62
     0
 48
3.0
100
AcDbLine
 10
489907.7007642284
 20
-55046.38441574307
 30
0.0
 11
489913.9721246588
 21
-55126.06960534504
 31
0.0
  0
ENDSEC
  0
SECTION
  2
OBJECTS
  0
DICTIONARY
  5
C
330
0
100
AcDbDictionary
281
     1
  3
ACAD_CIP_PREVIOUS_PRODUCT_INFO
350
5ADA5
  3
ACAD_COLOR
350
53B4F
  3
ACAD_DETAILVIEWSTYLE
350
5AD9C
  3
ACAD_GROUP
350
D
  3
ACAD_LAYOUT
350
1A
  3
ACAD_MATERIAL
350
53B4E
  3
ACAD_MLEADERSTYLE
350
5AD98
  3
ACAD_MLINESTYLE
350
17
  3
ACAD_PLOTSETTINGS
350
19
  3
ACAD_PLOTSTYLENAME
350
E
  3
ACAD_SCALELIST
350
5AD86
  3
ACAD_SECTIONVIEWSTYLE
350
5AD9A
  3
ACAD_TABLESTYLE
350
5ACE4
  3
ACAD_VISUALSTYLE
350
5ACD3
  3
AcadDim
350
5383D
  3
ACDB_RECOMPOSE_DATA
350
5AFCA
  3
AcDbVariableDictionary
350
5E
  3
lxx_dict
350
5ACF1
  0
DICTIONARY
  5
5AEB3
330
10
100
AcDbDictionary
280
     1
281
     1
  3
ADSK_XREC_LAYER_RECONCILED
360
5AEB4
  0
DICTIONARY
  5
5AEB5
330
75
100
AcDbDictionary
280
     1
281
     1
  3
ADSK_XREC_LAYER_RECONCILED
360
5AEB6
  0
DICTIONARY
  5
5AEB7
330
119
100
AcDbDictionary
280
     1
281
     1
  3
ADSK_XREC_LAYER_RECONCILED
360
5AEB8
  0
DICTIONARY
  5
5AEB9
330
11A
100
AcDbDictionary
280
     1
281
     1
  3
ADSK_XREC_LAYER_RECONCILED
360
5AEBA
  0
DICTIONARY
  5
5AEBB
330
517F1
100
AcDbDictionary
280
     1
281
     1
  3
ADSK_XREC_LAYER_RECONCILED
360
5AEBC
  0
DICTIONARY
  5
5AEBD
330
517F2
100
AcDbDictionary
280
     1
281
     1
  3
ADSK_XREC_LAYER_RECONCILED
360
5AEBE
  0
DICTIONARY
  5
5AEBF
330
517F3
100
AcDbDictionary
280
     1
281
     1
  3
ADSK_XREC_LAYER_RECONCILED
360
5AEC0
  0
DICTIONARY
  5
5AEC1
330
517F4
100
AcDbDictionary
280
     1
281
     1
  3
ADSK_XREC_LAYER_RECONCILED
360
5AEC2
  0
DICTIONARY
  5
5AEC3
330
517F5
100
AcDbDictionary
280
     1
281
     1
  3
ADSK_XREC_LAYER_RECONCILED
360
5AEC4
  0
DICTIONARY
  5
5AEC5
330
517F6
100
AcDbDictionary
280
     1
281
     1
  3
ADSK_XREC_LAYER_RECONCILED
360
5AEC6
  0
DICTIONARY
  5
5AEC7
330
517F7
100
AcDbDictionary
280
     1
281
     1
  3
ADSK_XREC_LAYER_RECONCILED
360
5AEC8
  0
DICTIONARY
  5
5AEC9
330
517F8
100
AcDbDictionary
280
     1
281
     1
  3
ADSK_XREC_LAYER_RECONCILED
360
5AECA
  0
DICTIONARY
  5
5AECB
330
517F9
100
AcDbDictionary
280
     1
281
     1
  3
ADSK_XREC_LAYER_RECONCILED
360
5AECC
  0
DICTIONARY
  5
5AECD
330
52697
100
AcDbDictionary
280
     1
281
     1
  3
ADSK_XREC_LAYER_RECONCILED
360
5AECE
  0
DICTIONARY
  5
5AECF
330
53B64
100
AcDbDictionary
280
     1
281
     1
  3
ADSK_XREC_LAYER_RECONCILED
360
5AED0
  0
DICTIONARY
  5
5AED1
330
53C1D
100
AcDbDictionary
280
     1
281
     1
  3
ADSK_XREC_LAYER_RECONCILED
360
5AED2
  0
DICTIONARY
  5
5AED3
330
59E20
100
AcDbDictionary
280
     1
281
     1
  3
ADSK_XREC_LAYER_RECONCILED
360
5AED4
  0
DICTIONARY
  5
5AED5
330
5ABB5
100
AcDbDictionary
280
     1
281
     1
  3
ADSK_XREC_LAYER_RECONCILED
360
5AED6
  0
DICTIONARY
  5
5AD52
330
1F
100
AcDbDictionary
280
     1
281
     1
  3
ACAD_SORTENTS
360
5AD53
  0
DICTIONARY
  5
59A4A
330
59A3B
100
AcDbDictionary
280
     1
281
     1
  3
ACAD_DIMASSOC
360
59A56
  0
DICTIONARY
  5
59A66
330
59A57
100
AcDbDictionary
280
     1
281
     1
  3
ACAD_DIMASSOC
360
59A72
  0
DICTIONARY
  5
59A82
330
59A73
100
AcDbDictionary
280
     1
281
     1
  3
ACAD_DIMASSOC
360
59A8E
  0
DICTIONARY
  5
59AF5
330
59AE4
100
AcDbDictionary
280
     1
281
     1
  3
ACAD_DIMASSOC
360
59B03
  0
DICTIONARY
  5
59B29
330
59B18
100
AcDbDictionary
280
     1
281
     1
  3
ACAD_DIMASSOC
360
59B37
  0
DICTIONARY
  5
59B88
330
59B7A
100
AcDbDictionary
280
     1
281
     1
  3
ACAD_DIMASSOC
360
59B93
  0
DICTIONARY
  5
59BB6
330
59BA8
100
AcDbDictionary
280
     1
281
     1
  3
ACAD_DIMASSOC
360
59BC1
  0
DICTIONARY
  5
59BD0
330
59BC2
100
AcDbDictionary
280
     1
281
     1
  3
ACAD_DIMASSOC
360
59BDB
  0
DICTIONARY
  5
59BEA
330
59BDC
100
AcDbDictionary
280
     1
281
     1
  3
ACAD_DIMASSOC
360
59BF5
  0
DICTIONARY
  5
59C04
330
59BF6
100
AcDbDictionary
280
     1
281
     1
  3
ACAD_DIMASSOC
360
59C0F
  0
DICTIONARY
  5
59C1E
330
59C10
100
AcDbDictionary
280
     1
281
     1
  3
ACAD_DIMASSOC
360
59C29
  0
DICTIONARY
  5
59C35
330
59C2A
100
AcDbDictionary
280
     1
281
     1
  3
ACAD_DIMASSOC
360
59C3D
  0
DICTIONARY
  5
59C74
330
59C66
100
AcDbDictionary
280
     1
281
     1
  3
ACAD_DIMASSOC
360
59C7F
  0
DICTIONARY
  5
59C8E
330
59C80
100
AcDbDictionary
280
     1
281
     1
  3
ACAD_DIMASSOC
360
59C99
  0
DICTIONARY
  5
59CAB
330
59C9A
100
AcDbDictionary
280
     1
281
     1
  3
ACAD_DIMASSOC
360
59CB9
  0
DICTIONARY
  5
59CEF
330
59CE0
100
AcDbDictionary
280
     1
281
     1
  3
ACAD_DIMASSOC
360
59CFB
  0
DICTIONARY
  5
59D20
330
59D11
100
AcDbDictionary
280
     1
281
     1
  3
ACAD_DIMASSOC
360
59D2C
  0
DICTIONARY
  5
59D67
330
59D56
100
AcDbDictionary
280
     1
281
     1
  3
ACAD_DIMASSOC
360
59D75
  0
DICTIONARY
  5
5A04A
330
5A03A
100
AcDbDictionary
280
     1
281
     1
  3
ACAD_DIMASSOC
360
5A057
  0
DICTIONARY
  5
5A06A
330
5A058
100
AcDbDictionary
280
     1
281
     1
  3
ACAD_DIMASSOC
360
5A079
  0
DICTIONARY
  5
5A0EB
330
5A0DA
100
AcDbDictionary
280
     1
281
     1
  3
ACAD_DIMASSOC
360
5A0F9
  0
DICTIONARY
  5
5A121
330
5A110
100
AcDbDictionary
280
     1
281
     1
  3
ACAD_DIMASSOC
360
5A12F
  0
DICTIONARY
  5
5A170
330
5A15F
100
AcDbDictionary
280
     1
281
     1
  3
ACAD_DIMASSOC
360
5A17E
  0
XRECORD
  5
5ADA5
102
{ACAD_REACTORS
330
C
102
}
330
C
100
AcDbXrecord
280
     1
300
ACDLT
300
2018
300

  0
DICTIONARY
  5
53B4F
102
{ACAD_REACTORS
330
C
102
}
330
C
100
AcDbDictionary
281
     1
  0
DICTIONARY
  5
5AD9C
102
{ACAD_REACTORS
330
C
102
}
330
C
100
AcDbDictionary
281
     1
  3
Metric50
350
5AD9D
  0
DICTIONARY
  5
D
102
{ACAD_REACTORS
330
C
102
}
330
C
100
AcDbDictionary
281
     1
  0
DICTIONARY
  5
1A
102
{ACAD_REACTORS
330
C
102
}
330
C
100
AcDbDictionary
281
     1
  3
Model
350
22
  3
布局1
350
51
  3
布局2
350
56
1001
AcadStringInfo
1000
MIFCodePage
1070
     5
  0
DICTIONARY
  5
53B4E
102
{ACAD_REACTORS
330
C
102
}
330
C
100
AcDbDictionary
281
     1
  3
ByBlock
350
5ACD1
  3
ByLayer
350
5ACD0
  3
Global
350
5ACD2
  0
DICTIONARY
  5
5AD98
102
{ACAD_REACTORS
330
C
102
}
330
C
100
AcDbDictionary
281
     1
  3
Standard
350
5AD99
  0
DICTIONARY
  5
17
102
{ACAD_REACTORS
330
C
102
}
330
C
100
AcDbDictionary
281
     1
  3
Standard
350
18
  0
DICTIONARY
  5
19
102
{ACAD_REACTORS
330
C
102
}
330
C
100
AcDbDictionary
281
     1
  0
ACDBDICTIONARYWDFLT
  5
E
102
{ACAD_REACTORS
330
C
102
}
330
C
100
AcDbDictionary
281
     1
  3
Normal
350
F
100
AcDbDictionaryWithDefault
340
F
  0
DICTIONARY
  5
5AD86
102
{ACAD_REACTORS
330
C
102
}
330
C
100
AcDbDictionary
281
     1
  3
A0
350
5AD87
  3
A1
350
5AD88
  3
A2
350
5AD89
  3
A3
350
5AD8A
  3
A4
350
5AD8B
  3
A5
350
5AD8C
  3
A6
350
5AD8D
  3
A7
350
5AD8E
  3
A8
350
5AD8F
  3
A9
350
5AD90
  3
B0
350
5AD91
  3
B1
350
5AD92
  3
B2
350
5AD93
  3
B3
350
5AD94
  3
B4
350
5AD95
  3
B5
350
5AD96
  3
B6
350
5AD97
  0
DICTIONARY
  5
5AD9A
102
{ACAD_REACTORS
330
C
102
}
330
C
100
AcDbDictionary
281
     1
  3
Metric50
350
5AD9B
  0
DICTIONARY
  5
5ACE4
102
{ACAD_REACTORS
330
C
102
}
330
C
100
AcDbDictionary
281
     1
  3
Standard
350
5ACE5
  0
DICTIONARY
  5
5ACD3
102
{ACAD_REACTORS
330
C
102
}
330
C
100
AcDbDictionary
281
     1
  3
2dWireframe
350
5ACD9
  3
3D Hidden
350
5ACDB
  3
3dWireframe
350
5ACDA
  3
Basic
350
5ACD8
  3
Brighten
350
5ACDF
  3
ColorChange
350
5ACE3
  3
Conceptual
350
5ACDC
  3
Dim
350
5ACDE
  3
EdgeColorOff
350
5AD84
  3
Facepattern
350
5ACE2
  3
Flat
350
5ACD4
  3
FlatWithEdges
350
5ACD5
  3
Gouraud
350
5ACD6
  3
GouraudWithEdges
350
5ACD7
  3
Hidden
350
5AD7C
  3
JitterOff
350
5AD82
  3
Linepattern
350
5ACE1
  3
OverhangOff
350
5AD83
  3
Realistic
350
5ACDD
  3
Shaded
350
5AD81
  3
Shaded with edges
350
5AD80
  3
Shades of Gray
350
5AD7D
  3
Sketchy
350
5AD7E
  3
Thicken
350
5ACE0
  3
Wireframe
350
5AD7B
  3
X-Ray
350
5AD7F
  0
XRECORD
  5
5383D
102
{ACAD_REACTORS
330
C
102
}
330
C
100
AcDbXrecord
280
     1
 90
   990106
  3

 60
     0
 61
     0
 62
     1
 63
     3
 64
     0
 65
     0
 66
     0
 67
     3
 68
     1
 69
     0
 70
     0
 71
     0
 72
     0
 40
191.6734048433113
170
     0
340
0
  0
XRECORD
  5
5AFCA
102
{ACAD_REACTORS
330
C
102
}
330
C
100
AcDbXrecord
280
     1
 90
        1
330
59A73
330
5ACE5
  0
DICTIONARY
  5
5E
102
{ACAD_REACTORS
330
C
102
}
330
C
100
AcDbDictionary
281
     1
  3
CANNOSCALE
350
5AFC4
  3
CMLEADERSTYLE
350
5AFC0
  3
CTABLESTYLE
350
5ACF3
  3
CVIEWDETAILSTYLE
350
5AFC1
  3
CVIEWSECTIONSTYLE
350
5AFC2
  3
DIMASSOC
350
5F
  3
HIDETEXT
350
63
  3
LAYEREVAL
350
5AFC6
  3
LAYERNOTIFY
350
5AFC7
  3
LIGHTINGUNITS
350
5AFC5
  3
MSLTSCALE
350
5AFC3
  3
PROJECTNAME
350
53CA1
  3
SORTENTS
350
52D0B
  0
DICTIONARY
  5
5ACF1
102
{ACAD_REACTORS
330
C
102
}
330
C
100
AcDbDictionary
281
     1
  3
lxx_dimth
350
5ACF2
  0
XRECORD
  5
5AEB4
102
{ACAD_REACTORS
330
5AEB3
102
}
330
5AEB3
100
AcDbXrecord
280
     1
290
     1
  0
XRECORD
  5
5AEB6
102
{ACAD_REACTORS
330
5AEB5
102
}
330
5AEB5
100
AcDbXrecord
280
     1
290
     1
  0
XRECORD
  5
5AEB8
102
{ACAD_REACTORS
330
5AEB7
102
}
330
5AEB7
100
AcDbXrecord
280
     1
290
     1
  0
XRECORD
  5
5AEBA
102
{ACAD_REACTORS
330
5AEB9
102
}
330
5AEB9
100
AcDbXrecord
280
     1
290
     1
  0
XRECORD
  5
5AEBC
102
{ACAD_REACTORS
330
5AEBB
102
}
330
5AEBB
100
AcDbXrecord
280
     1
290
     1
  0
XRECORD
  5
5AEBE
102
{ACAD_REACTORS
330
5AEBD
102
}
330
5AEBD
100
AcDbXrecord
280
     1
290
     1
  0
XRECORD
  5
5AEC0
102
{ACAD_REACTORS
330
5AEBF
102
}
330
5AEBF
100
AcDbXrecord
280
     1
290
     1
  0
XRECORD
  5
5AEC2
102
{ACAD_REACTORS
330
5AEC1
102
}
330
5AEC1
100
AcDbXrecord
280
     1
290
     1
  0
XRECORD
  5
5AEC4
102
{ACAD_REACTORS
330
5AEC3
102
}
330
5AEC3
100
AcDbXrecord
280
     1
290
     1
  0
XRECORD
  5
5AEC6
102
{ACAD_REACTORS
330
5AEC5
102
}
330
5AEC5
100
AcDbXrecord
280
     1
290
     1
  0
XRECORD
  5
5AEC8
102
{ACAD_REACTORS
330
5AEC7
102
}
330
5AEC7
100
AcDbXrecord
280
     1
290
     1
  0
XRECORD
  5
5AECA
102
{ACAD_REACTORS
330
5AEC9
102
}
330
5AEC9
100
AcDbXrecord
280
     1
290
     1
  0
XRECORD
  5
5AECC
102
{ACAD_REACTORS
330
5AECB
102
}
330
5AECB
100
AcDbXrecord
280
     1
290
     1
  0
XRECORD
  5
5AECE
102
{ACAD_REACTORS
330
5AECD
102
}
330
5AECD
100
AcDbXrecord
280
     1
290
     1
  0
XRECORD
  5
5AED0
102
{ACAD_REACTORS
330
5AECF
102
}
330
5AECF
100
AcDbXrecord
280
     1
290
     1
  0
XRECORD
  5
5AED2
102
{ACAD_REACTORS
330
5AED1
102
}
330
5AED1
100
AcDbXrecord
280
     1
290
     1
  0
XRECORD
  5
5AED4
102
{ACAD_REACTORS
330
5AED3
102
}
330
5AED3
100
AcDbXrecord
280
     1
290
     1
  0
XRECORD
  5
5AED6
102
{ACAD_REACTORS
330
5AED5
102
}
330
5AED5
100
AcDbXrecord
280
     1
290
     1
  0
SORTENTSTABLE
  5
5AD53
102
{ACAD_REACTORS
330
5AD52
102
}
330
5AD52
100
AcDbSortentsTable
330
1F
331
59A1C
  5
59A1C
331
59A18
  5
59A18
331
59A14
  5
59A14
331
59A10
  5
59A10
331
59B7A
  5
59B97
331
4F680
  5
4F680
331
59D56
  5
59E5A
331
59C10
  5
59C4C
331
59A04
  5
59A04
331
2E4CC
  5
2E4CC
331
4DA67
  5
4DA67
331
59B6A
  5
59B96
331
16C70
  5
16C70
331
59A3A
  5
59A57
331
599FB
  5
599FB
331
599F7
  5
599F7
331
59A34
  5
59A36
331
599F3
  5
599F3
331
59D11
  5
59E59
331
599EF
  5
599EF
331
599EB
  5
599EB
331
59A28
  5
59A2A
331
599E7
  5
599E7
331
59A24
  5
59A26
331
59A20
  5
59A20
331
5A03A
  5
5A0D0
331
5A0D9
  5
5A110
331
5A0D5
  5
5A0D7
331
5A0D1
  5
5A0D3
331
59A1F
  5
59A1F
331
59A17
  5
59A17
331
59A13
  5
59A13
331
59BC2
  5
59BF6
331
35F40
  5
35F40
331
59A0F
  5
59A0F
331
59A0B
  5
59A0B
331
59A07
  5
59A07
331
59A39
  5
59A3B
331
5A058
  5
5A0D1
331
59C4C
  5
59C80
331
599FA
  5
599FA
331
599F6
  5
599F6
331
59A37
  5
59A39
331
59A33
  5
59A35
331
599F2
  5
599F2
331
3601E
  5
3601E
331
59C80
  5
59CE0
331
59A2F
  5
59A33
331
599EE
  5
599EE
331
599EA
  5
599EA
331
59A27
  5
59A29
331
59A23
  5
59A25
331
35F67
  5
35F67
331
5A039
  5
5A058
331
59CE0
  5
59D56
331
5A0D8
  5
5A0DA
331
5A0D4
  5
5A0D6
331
5A0D0
  5
5A0D2
331
59A1E
  5
59A1E
331
59A1A
  5
59A1A
331
59A16
  5
59A16
331
59A0E
  5
59A0E
331
59A06
  5
59A06
331
59A38
  5
59A3A
331
59BF6
  5
59C2A
331
5A110
  5
5AD51
331
599FD
  5
599FD
331
599F9
  5
599F9
331
599F5
  5
599F5
331
599F1
  5
599F1
331
59A36
  5
59A38
331
59A32
  5
59A34
331
59B98
  5
59BC2
331
599ED
  5
599ED
331
599E9
  5
599E9
331
59A2E
  5
59A32
331
59A2A
  5
59A2E
331
59A26
  5
59A28
331
59A22
  5
59A22
331
5AD51
  5
59A23
331
59C2A
  5
59C66
331
5A0D7
  5
5A0D9
331
5A0D3
  5
5A0D5
331
59A1D
  5
59A1D
331
59A19
  5
59A19
331
59A15
  5
59A15
331
59B18
  5
59B7A
331
59A57
  5
59AE4
331
31026
  5
31026
331
59C66
  5
59C9A
331
59A0D
  5
59A0D
331
59A05
  5
59A05
331
4DA68
  5
4DA68
331
59BA8
  5
59BDC
331
59AE4
  5
59B6A
331
59A3B
  5
59A73
331
59C9A
  5
59D11
331
599FC
  5
599FC
331
599F8
  5
599F8
331
599F4
  5
599F4
331
59A35
  5
59A37
331
599F0
  5
599F0
331
59A2D
  5
59A2F
331
599EC
  5
599EC
331
59A29
  5
59A2D
331
599E8
  5
599E8
331
59A25
  5
59A27
331
59BDC
  5
59C10
331
59A73
  5
59B18
331
5AD54
  5
59A24
331
5A0DA
  5
5A15F
331
5A0D6
  5
5A0D8
331
5A15F
  5
5AD54
331
5A0D2
  5
5A0D4
  0
DIMASSOC
  5
59A56
102
{ACAD_REACTORS
330
59A4A
102
}
330
59A4A
100
AcDbDimAssoc
330
59A3B
 90
        3
 70
     0
 71
     0
  1
AcDbOsnapPointRef
 72
    13
331
59A2E
 73
     2
 91
        0
 40
0.0
 10
0.0
 20
0.0
 30
2.000000000000000E+50
 75
     0
  1
AcDbOsnapPointRef
 72
     1
331
59A2E
 73
     2
 91
        0
 40
1.0
 10
0.0
 20
0.0
 30
2.000000000000000E+50
 75
     0
  0
DIMASSOC
  5
59A72
102
{ACAD_REACTORS
330
59A66
102
}
330
59A66
100
AcDbDimAssoc
330
59A57
 90
        3
 70
     0
 71
     0
  1
AcDbOsnapPointRef
 72
    13
331
59A2D
 73
     2
 91
        0
 40
0.0
 10
0.0
 20
0.0
 30
2.000000000000000E+50
 75
     0
  1
AcDbOsnapPointRef
 72
     1
331
59A2D
 73
     2
 91
        0
 40
1.0
 10
0.0
 20
0.0
 30
2.000000000000000E+50
 75
     0
  0
DIMASSOC
  5
59A8E
102
{ACAD_REACTORS
330
59A82
102
}
330
59A82
100
AcDbDimAssoc
330
59A73
 90
        3
 70
     0
 71
     0
  1
AcDbOsnapPointRef
 72
    13
331
59A32
 73
     2
 91
        0
 40
0.0
 10
0.0
 20
0.0
 30
2.000000000000000E+50
 75
     0
  1
AcDbOsnapPointRef
 72
     1
331
59A2A
 73
     2
 91
        0
 40
1.0
 10
0.0
 20
0.0
 30
2.000000000000000E+50
 75
     0
  0
DIMASSOC
  5
59B03
102
{ACAD_REACTORS
330
59AF5
102
}
330
59AF5
100
AcDbDimAssoc
330
59AE4
 90
        3
 70
     0
 71
     0
  1
AcDbOsnapPointRef
 72
    13
331
59A2A
 73
     2
 91
        0
 40
0.0
 10
0.0
 20
0.0
 30
2.000000000000000E+50
 75
     0
  1
AcDbOsnapPointRef
 72
    13
331
59A2D
 73
     2
 91
        0
 40
0.0
 10
0.0
 20
0.0
 30
2.000000000000000E+50
 75
     0
  0
DIMASSOC
  5
59B37
102
{ACAD_REACTORS
330
59B29
102
}
330
59B29
100
AcDbDimAssoc
330
59B18
 90
        3
 70
     0
 71
     0
  1
AcDbOsnapPointRef
 72
    13
331
59A2A
 73
     2
 91
        0
 40
0.0
 10
0.0
 20
0.0
 30
2.000000000000000E+50
 75
     0
  1
AcDbOsnapPointRef
 72
    13
331
59A2E
 73
     2
 91
        0
 40
0.0
 10
0.0
 20
0.0
 30
2.000000000000000E+50
 75
     0
  0
DIMASSOC
  5
59B93
102
{ACAD_REACTORS
330
59B88
102
}
330
59B88
100
AcDbDimAssoc
330
59B7A
 90
        1
 70
     0
 71
     0
  1
AcDbOsnapPointRef
 72
     1
331
59A26
 73
     2
 91
        0
 40
1.0
 10
0.0
 20
0.0
 30
2.000000000000000E+50
 75
     0
  0
DIMASSOC
  5
59BC1
102
{ACAD_REACTORS
330
59BB6
102
}
330
59BB6
100
AcDbDimAssoc
330
59BA8
 90
        3
 70
     0
 71
     0
  1
AcDbOsnapPointRef
 72
    13
331
599ED
 73
     2
 91
        0
 40
0.0
 10
0.0
 20
0.0
 30
2.000000000000000E+50
 75
     0
  1
AcDbOsnapPointRef
 72
     1
331
599EB
 73
     2
 91
        0
 40
1.0
 10
0.0
 20
0.0
 30
2.000000000000000E+50
 75
     0
  0
DIMASSOC
  5
59BDB
102
{ACAD_REACTORS
330
59BD0
102
}
330
59BD0
100
AcDbDimAssoc
330
59BC2
 90
        2
 70
     0
 71
     0
  1
AcDbOsnapPointRef
 72
     1
331
599E7
 73
     2
 91
        8
 40
1.0
 10
0.0
 20
0.0
 30
2.000000000000000E+50
 75
     0
  0
DIMASSOC
  5
59BF5
102
{ACAD_REACTORS
330
59BEA
102
}
330
59BEA
100
AcDbDimAssoc
330
59BDC
 90
        2
 70
     0
 71
     0
  1
AcDbOsnapPointRef
 72
    13
331
599E7
 73
     2
 91
        4
 40
0.0
 10
0.0
 20
0.0
 30
2.000000000000000E+50
 75
     0
  0
DIMASSOC
  5
59C0F
102
{ACAD_REACTORS
330
59C04
102
}
330
59C04
100
AcDbDimAssoc
330
59BF6
 90
        3
 70
     0
 71
     0
  1
AcDbOsnapPointRef
 72
     6
331
599EE
 73
     2
 91
        0
 40
0.9999999999999078
 10
0.0
 20
0.0
 30
0.0
332
599F3
 74
     2
 92
        0
 75
     0
  1
AcDbOsnapPointRef
 72
     1
331
599F2
 73
     2
 91
        0
 40
6.283185307178713
 10
0.0
 20
0.0
 30
2.000000000000000E+50
 75
     0
  0
DIMASSOC
  5
59C29
102
{ACAD_REACTORS
330
59C1E
102
}
330
59C1E
100
AcDbDimAssoc
330
59C10
 90
        3
 70
     0
 71
     0
  1
AcDbOsnapPointRef
 72
     1
331
599E7
 73
     2
 91
        6
 40
1.0
 10
0.0
 20
0.0
 30
2.000000000000000E+50
 75
     0
  1
AcDbOsnapPointRef
 72
    13
331
599E7
 73
     2
 91
        2
 40
0.0
 10
0.0
 20
0.0
 30
2.000000000000000E+50
 75
     0
  0
DIMASSOC
  5
59C3D
102
{ACAD_REACTORS
330
59C35
102
}
330
59C35
100
AcDbDimAssoc
330
59C2A
 90
        2
 70
     0
 71
     0
  1
AcDbOsnapPointRef
 72
     3
331
599E7
 73
     2
 91
        7
 40
0.0
 10
0.0
 20
0.0
 30
0.0
 75
     0
  0
DIMASSOC
  5
59C7F
102
{ACAD_REACTORS
330
59C74
102
}
330
59C74
100
AcDbDimAssoc
330
59C66
 90
        3
 70
     0
 71
     0
  1
AcDbOsnapPointRef
 72
    13
331
599F5
 73
     2
 91
        0
 40
0.0
 10
0.0
 20
0.0
 30
2.000000000000000E+50
 75
     0
  1
AcDbOsnapPointRef
 72
     1
331
599F6
 73
     2
 91
        0
 40
1.0
 10
0.0
 20
0.0
 30
2.000000000000000E+50
 75
     0
  0
DIMASSOC
  5
59C99
102
{ACAD_REACTORS
330
59C8E
102
}
330
59C8E
100
AcDbDimAssoc
330
59C80
 90
        3
 70
     0
 71
     0
  1
AcDbOsnapPointRef
 72
    13
331
599E7
 73
     2
 91
        4
 40
0.0
 10
0.0
 20
0.0
 30
2.000000000000000E+50
 75
     0
  1
AcDbOsnapPointRef
 72
    13
331
599F4
 73
     2
 91
        0
 40
0.0
 10
0.0
 20
0.0
 30
2.000000000000000E+50
 75
     0
  0
DIMASSOC
  5
59CB9
102
{ACAD_REACTORS
330
59CAB
102
}
330
59CAB
100
AcDbDimAssoc
330
59C9A
 90
        3
 70
     0
 71
     0
  1
AcDbOsnapPointRef
 72
    13
331
59A06
 73
     2
 91
        0
 40
0.0
 10
0.0
 20
0.0
 30
2.000000000000000E+50
 75
     0
  1
AcDbOsnapPointRef
 72
    13
331
59A05
 73
     2
 91
        0
 40
0.0
 10
0.0
 20
0.0
 30
2.000000000000000E+50
 75
     0
  0
DIMASSOC
  5
59CFB
102
{ACAD_REACTORS
330
59CEF
102
}
330
59CEF
100
AcDbDimAssoc
330
59CE0
 90
        2
 70
     0
 71
     0
  1
AcDbOsnapPointRef
 72
    13
331
59A29
 73
     2
 91
        0
 40
0.0
 10
0.0
 20
0.0
 30
2.000000000000000E+50
 75
     0
  0
DIMASSOC
  5
59D2C
102
{ACAD_REACTORS
330
59D20
102
}
330
59D20
100
AcDbDimAssoc
330
59D11
 90
        1
 70
     0
 71
     0
  1
AcDbOsnapPointRef
 72
     1
331
59A07
 73
     2
 91
        0
 40
1.0
 10
0.0
 20
0.0
 30
2.000000000000000E+50
 75
     0
  0
DIMASSOC
  5
59D75
102
{ACAD_REACTORS
330
59D67
102
}
330
59D67
100
AcDbDimAssoc
330
59D56
 90
        1
 70
     0
 71
     0
  1
AcDbOsnapPointRef
 72
    13
331
59A06
 73
     2
 91
        0
 40
0.0
 10
0.0
 20
0.0
 30
2.000000000000000E+50
 75
     0
  0
DIMASSOC
  5
5A057
102
{ACAD_REACTORS
330
5A04A
102
}
330
5A04A
100
AcDbDimAssoc
330
5A03A
 90
        3
 70
     0
 71
     0
  1
AcDbOsnapPointRef
 72
    13
331
5A039
 73
     2
 91
        0
 40
0.0
 10
0.0
 20
0.0
 30
2.000000000000000E+50
 75
     0
  1
AcDbOsnapPointRef
 72
     1
331
5A039
 73
     2
 91
        0
 40
1.0
 10
0.0
 20
0.0
 30
2.000000000000000E+50
 75
     0
  0
DIMASSOC
  5
5A079
102
{ACAD_REACTORS
330
5A06A
102
}
330
5A06A
100
AcDbDimAssoc
330
5A058
 90
       15
 70
     0
 71
     0
  1
AcDbOsnapPointRef
 72
    13
331
59A0B
 73
     2
 91
        0
 40
0.0
 10
0.0
 20
0.0
 30
2.000000000000000E+50
 75
     0
  1
AcDbOsnapPointRef
 72
     1
331
59A0B
 73
     2
 91
        0
 40
1.0
 10
0.0
 20
0.0
 30
2.000000000000000E+50
 75
     0
  1
AcDbOsnapPointRef
 72
    13
331
59A2A
 73
     2
 91
        0
 40
0.0
 10
0.0
 20
0.0
 30
2.000000000000000E+50
 75
     0
  1
AcDbOsnapPointRef
 72
     1
331
59A2A
 73
     2
 91
        0
 40
1.0
 10
0.0
 20
0.0
 30
2.000000000000000E+50
 75
     0
  0
DIMASSOC
  5
5A0F9
102
{ACAD_REACTORS
330
5A0EB
102
}
330
5A0EB
100
AcDbDimAssoc
330
5A0DA
 90
        3
 70
     0
 71
     0
  1
AcDbOsnapPointRef
 72
    13
331
5A0D0
 73
     2
 91
        0
 40
0.0
 10
0.0
 20
0.0
 30
2.000000000000000E+50
 75
     0
  1
AcDbOsnapPointRef
 72
    13
331
59A26
 73
     2
 91
        0
 40
0.0
 10
0.0
 20
0.0
 30
2.000000000000000E+50
 75
     0
  0
DIMASSOC
  5
5A12F
102
{ACAD_REACTORS
330
5A121
102
}
330
5A121
100
AcDbDimAssoc
330
5A110
 90
        3
 70
     0
 71
     0
  1
AcDbOsnapPointRef
 72
     1
331
5A0D0
 73
     2
 91
        0
 40
1.0
 10
0.0
 20
0.0
 30
2.000000000000000E+50
 75
     0
  1
AcDbOsnapPointRef
 72
     1
331
5A0D4
 73
     2
 91
        0
 40
1.0
 10
0.0
 20
0.0
 30
2.000000000000000E+50
 75
     0
  0
DIMASSOC
  5
5A17E
102
{ACAD_REACTORS
330
5A170
102
}
330
5A170
100
AcDbDimAssoc
330
5A15F
 90
        1
 70
     0
 71
     0
  1
AcDbOsnapPointRef
 72
    13
331
5A0D2
 73
     2
 91
        0
 40
0.0
 10
0.0
 20
0.0
 30
2.000000000000000E+50
 75
     0
  0
ACDBDETAILVIEWSTYLE
  5
5AD9D
102
{ACAD_REACTORS
330
5AD9C
102
}
330
5AD9C
100
AcDbModelDocViewStyle
 70
     0
  3
Metric50
290
     1
300
Metric50
 90
        0
100
AcDbDetailViewStyle
 70
     0
 71
     0
 90
        3
 71
     1
340
11
 62
   256
 40
5.0
340
0
 62
   256
 40
5.0
300

 40
0.0
280
     1
 71
     2
340
16
 90
       25
 62
   256
 71
     3
340
11
 62
   256
 40
5.0
 90
        0
 40
15.0
 90
        1
300
%<\AcVar ViewDetailId>% (%<\AcVar ViewScale \f "%sn">%)
 71
     4
340
16
 90
       25
 62
   256
340
16
 90
       25
 62
   256
280
     0
  0
LAYOUT
  5
22
102
{ACAD_REACTORS
330
1A
102
}
330
1A
100
AcDbPlotSettings
  1

  2
EPSON ME 1
  4
A4
  6

 40
3.757083177566528
 41
13.28207111358642
 42
3.757080078125
 43
3.757080078125
 44
209.9733276367187
 45
296.9683227539062
 46
0.0
 47
22.65
 48
489696.066126986
 49
-57349.16945259801
140
490512.7186826303
141
-56402.75605572785
142
1.0
143
4.03366554505481
 70
 11956
 72
     1
 73
     0
 74
     4
  7
acad.ctb
 75
     0
147
0.247913464522605
 76
     0
 77
     2
 78
   180
148
-489696.066126986
149
57349.16945259801
100
AcDbLayout
  1
Model
 70
     1
 71
     0
 10
0.0
 20
0.0
 11
12.0
 21
9.0
 12
0.0
 22
0.0
 32
0.0
 14
0.0
 24
0.0
 34
0.0
 15
0.0
 25
0.0
 35
0.0
146
0.0
 13
0.0
 23
0.0
 33
0.0
 16
1.0
 26
0.0
 36
0.0
 17
0.0
 27
1.0
 37
0.0
 76
     0
330
1F
331
5ACCE
  0
LAYOUT
  5
51
102
{ACAD_REACTORS
330
1A
102
}
330
1A
100
AcDbPlotSettings
  1

  2
None
  4

  6

 40
0.0
 41
0.0
 42
0.0
 43
0.0
 44
0.0
 45
0.0
 46
0.0
 47
0.0
 48
0.0
 49
0.0
140
0.0
141
0.0
142
1.0
143
1.0
 70
   688
 72
     0
 73
     0
 74
     5
  7

 75
    16
147
1.0
 76
     0
 77
     2
 78
   300
148
0.0
149
0.0
100
AcDbLayout
  1
布局1
 70
     1
 71
     1
 10
0.0
 20
0.0
 11
12.0
 21
9.0
 12
0.0
 22
0.0
 32
0.0
 14
0.0
 24
0.0
 34
0.0
 15
0.0
 25
0.0
 35
0.0
146
0.0
 13
0.0
 23
0.0
 33
0.0
 16
1.0
 26
0.0
 36
0.0
 17
0.0
 27
1.0
 37
0.0
 76
     0
330
50
1001
AcadStringInfo
1000
MIFCodePage
1070
     5
  0
LAYOUT
  5
56
102
{ACAD_REACTORS
330
1A
102
}
330
1A
100
AcDbPlotSettings
  1

  2
None
  4

  6

 40
0.0
 41
0.0
 42
0.0
 43
0.0
 44
0.0
 45
0.0
 46
0.0
 47
0.0
 48
0.0
 49
0.0
140
0.0
141
0.0
142
1.0
143
1.0
 70
   688
 72
     0
 73
     0
 74
     5
  7

 75
    16
147
1.0
 76
     0
 77
     2
 78
   300
148
0.0
149
0.0
100
AcDbLayout
  1
布局2
 70
     1
 71
     2
 10
0.0
 20
0.0
 11
12.0
 21
9.0
 12
0.0
 22
0.0
 32
0.0
 14
0.0
 24
0.0
 34
0.0
 15
0.0
 25
0.0
 35
0.0
146
0.0
 13
0.0
 23
0.0
 33
0.0
 16
1.0
 26
0.0
 36
0.0
 17
0.0
 27
1.0
 37
0.0
 76
     0
330
55
1001
AcadStringInfo
1000
MIFCodePage
1070
     5
  0
MATERIAL
  5
5ACD1
102
{ACAD_REACTORS
330
53B4E
102
}
330
53B4E
100
AcDbMaterial
  1
ByBlock
 73
     1
 78
     1
172
     1
176
     1
270
     1
274
     1
 94
       63
  0
MATERIAL
  5
5ACD0
102
{ACAD_REACTORS
330
53B4E
102
}
330
53B4E
100
AcDbMaterial
  1
ByLayer
 73
     1
 78
     1
172
     1
176
     1
270
     1
274
     1
 94
       63
  0
MATERIAL
  5
5ACD2
102
{ACAD_REACTORS
330
53B4E
102
}
330
53B4E
100
AcDbMaterial
  1
Global
 73
     1
 78
     1
172
     1
176
     1
270
     1
274
     1
 94
       63
  0
MLEADERSTYLE
  5
5AD99
102
{ACAD_REACTORS
330
5AD98
102
}
330
5AD98
100
AcDbMLeaderStyle
179
     2
170
     2
171
     1
172
     0
 90
        2
 40
0.0
 41
0.0
173
     1
 91
-1056964608
340
14
 92
       -2
290
     1
 42
2.0
291
     1
 43
0.36
  3
Standard
 44
4.0
300

342
11
174
     1
178
     6
175
     1
176
     0
 93
-1056964608
 45
4.0
292
     0
297
     0
 46
4.0
 94
-1056964608
 47
1.0
 49
1.0
140
1.0
293
     1
141
0.0
294
     1
177
     0
142
1.0
295
     1
296
     0
143
0.125
271
     0
272
     9
273
     9
298
     1
  0
MLINESTYLE
  5
18
102
{ACAD_REACTORS
330
17
102
}
330
17
100
AcDbMlineStyle
  2
STANDARD
 70
     0
  3

 62
   256
 51
90.0
 52
90.0
 71
     2
 49
0.5
 62
   256
  6
BYLAYER
 49
-0.5
 62
   256
  6
BYLAYER
  0
ACDBPLACEHOLDER
  5
F
102
{ACAD_REACTORS
330
E
102
}
330
E
  0
SCALE
  5
5AD87
102
{ACAD_REACTORS
330
5AD86
102
}
330
5AD86
100
AcDbScale
 70
     0
300
1:1
140
1.0
141
1.0
290
     1
  0
SCALE
  5
5AD88
102
{ACAD_REACTORS
330
5AD86
102
}
330
5AD86
100
AcDbScale
 70
     0
300
1:2
140
1.0
141
2.0
290
     0
  0
SCALE
  5
5AD89
102
{ACAD_REACTORS
330
5AD86
102
}
330
5AD86
100
AcDbScale
 70
     0
300
1:4
140
1.0
141
4.0
290
     0
  0
SCALE
  5
5AD8A
102
{ACAD_REACTORS
330
5AD86
102
}
330
5AD86
100
AcDbScale
 70
     0
300
1:5
140
1.0
141
5.0
290
     0
  0
SCALE
  5
5AD8B
102
{ACAD_REACTORS
330
5AD86
102
}
330
5AD86
100
AcDbScale
 70
     0
300
1:8
140
1.0
141
8.0
290
     0
  0
SCALE
  5
5AD8C
102
{ACAD_REACTORS
330
5AD86
102
}
330
5AD86
100
AcDbScale
 70
     0
300
1:10
140
1.0
141
10.0
290
     0
  0
SCALE
  5
5AD8D
102
{ACAD_REACTORS
330
5AD86
102
}
330
5AD86
100
AcDbScale
 70
     0
300
1:16
140
1.0
141
16.0
290
     0
  0
SCALE
  5
5AD8E
102
{ACAD_REACTORS
330
5AD86
102
}
330
5AD86
100
AcDbScale
 70
     0
300
1:20
140
1.0
141
20.0
290
     0
  0
SCALE
  5
5AD8F
102
{ACAD_REACTORS
330
5AD86
102
}
330
5AD86
100
AcDbScale
 70
     0
300
1:30
140
1.0
141
30.0
290
     0
  0
SCALE
  5
5AD90
102
{ACAD_REACTORS
330
5AD86
102
}
330
5AD86
100
AcDbScale
 70
     0
300
1:40
140
1.0
141
40.0
290
     0
  0
SCALE
  5
5AD91
102
{ACAD_REACTORS
330
5AD86
102
}
330
5AD86
100
AcDbScale
 70
     0
300
1:50
140
1.0
141
50.0
290
     0
  0
SCALE
  5
5AD92
102
{ACAD_REACTORS
330
5AD86
102
}
330
5AD86
100
AcDbScale
 70
     0
300
1:100
140
1.0
141
100.0
290
     0
  0
SCALE
  5
5AD93
102
{ACAD_REACTORS
330
5AD86
102
}
330
5AD86
100
AcDbScale
 70
     0
300
2:1
140
2.0
141
1.0
290
     0
  0
SCALE
  5
5AD94
102
{ACAD_REACTORS
330
5AD86
102
}
330
5AD86
100
AcDbScale
 70
     0
300
4:1
140
4.0
141
1.0
290
     0
  0
SCALE
  5
5AD95
102
{ACAD_REACTORS
330
5AD86
102
}
330
5AD86
100
AcDbScale
 70
     0
300
8:1
140
8.0
141
1.0
290
     0
  0
SCALE
  5
5AD96
102
{ACAD_REACTORS
330
5AD86
102
}
330
5AD86
100
AcDbScale
 70
     0
300
10:1
140
10.0
141
1.0
290
     0
  0
SCALE
  5
5AD97
102
{ACAD_REACTORS
330
5AD86
102
}
330
5AD86
100
AcDbScale
 70
     0
300
100:1
140
100.0
141
1.0
290
     0
  0
ACDBSECTIONVIEWSTYLE
  5
5AD9B
102
{ACAD_REACTORS
330
5AD9A
102
}
330
5AD9A
100
AcDbModelDocViewStyle
 70
     0
  3
Metric50
290
     1
300
Metric50
 90
        0
100
AcDbSectionViewStyle
 70
     0
 71
     0
 90
      102
 71
     1
340
11
 62
   256
 40
5.0
340
0
340
0
 62
   256
 40
5.0
300
I, O, Q, S, X, Z
 40
10.0
 90
        0
 40
2.5
 90
        0
 71
     2
340
16
 90
       25
 62
   256
340
16
 90
       50
 62
   256
 40
5.0
 40
2.5
 40
5.0
 71
     3
340
11
 62
   256
 40
5.0
 90
        0
 40
15.0
 90
        1
300
%<\AcVar ViewSectionStartId>%-%<\AcVar ViewSectionEndId>% (%<\AcVar ViewScale \f "%sn">%)
 71
     4
 62
   256
 62
   257
300
ANSI31
 40
1.0
 90
        0
290
     0
290
     0
 90
        6
 40
0.0
 40
1.570796326794896
 40
0.2617993877991494
 40
1.308996938995747
 40
-0.2617993877991494
 40
1.832595714594046
  0
TABLESTYLE
  5
5ACE5
102
{ACAD_XDICTIONARY
360
5AFC8
102
}
102
{ACAD_REACTORS
330
5ACE4
102
}
330
5ACE4
100
AcDbTableStyle
280
     0
  3
Standard
 70
     0
 71
     0
 40
1.5
 41
1.5
280
     0
281
     0
  7
Standard
140
4.5
170
     2
 62
     0
 63
     7
283
     0
 90
      512
 91
        0
  1

274
    -2
284
     1
 64
     0
275
    -2
285
     1
 65
     0
276
    -2
286
     1
 66
     0
277
    -2
287
     1
 67
     0
278
    -2
288
     1
 68
     0
279
    -2
289
     1
 69
     0
  7
Standard
140
6.0
170
     5
 62
     0
 63
     7
283
     0
 90
      512
 91
        0
  1

274
    -2
284
     1
 64
     0
275
    -2
285
     1
 65
     0
276
    -2
286
     1
 66
     0
277
    -2
287
     1
 67
     0
278
    -2
288
     1
 68
     0
279
    -2
289
     1
 69
     0
  7
Standard
140
4.5
170
     5
 62
     0
 63
     7
283
     0
 90
      512
 91
        0
  1

274
    -2
284
     1
 64
     0
275
    -2
285
     1
 65
     0
276
    -2
286
     1
 66
     0
277
    -2
287
     1
 67
     0
278
    -2
288
     1
 68
     0
279
    -2
289
     1
 69
     0
  0
VISUALSTYLE
  5
5ACD9
102
{ACAD_REACTORS
330
5ACD3
102
}
330
5ACD3
100
AcDbVisualStyle
  2
2dWireframe
 70
     4
177
     3
291
     0
 70
    58
 90
        0
176
     1
 90
        2
176
     1
 90
        0
176
     1
 90
        0
176
     1
 40
0.6
176
     1
 40
30.0
176
     1
 62
     7
420
 16777215
176
     1
 90
        1
176
     1
 90
        4
176
     1
 62
     7
176
     1
 62
   257
176
     1
 90
        1
176
     1
 90
        1
176
     1
 40
1.0
176
     1
 90
        0
176
     1
 62
   257
176
     1
 40
1.0
176
     1
 90
        1
176
     1
 90
        6
176
     1
 90
        2
176
     1
 62
     7
176
     1
 90
        5
176
     1
 90
        0
176
     1
 90
        0
176
     1
290
     0
176
     1
 90
        1
176
     1
 40
0.0
176
     1
 90
        0
176
     1
290
     1
176
     1
290
     1
176
     1
290
     0
176
     1
290
     0
176
     1
290
     0
176
     1
290
     0
176
     1
290
     0
176
     1
290
     0
176
     1
290
     0
176
     1
 90
       50
176
     1
 40
0.0
176
     1
 40
1.0
176
     1
 90
        0
176
     1
 62
    18
420
        0
176
     1
 90
       50
176
     1
 90
        3
176
     1
 62
     5
420
      255
176
     1
290
     0
176
     1
 90
       50
176
     1
 90
       50
176
     1
 90
       50
176
     1
290
     0
176
     1
 90
       50
176
     1
 62
   256
176
     0
 40
1.0
176
     0
 90
        2
176
     1
  1
strokes_ogs.tif
176
     1
290
     0
176
     1
 40
1.0
176
     1
 40
1.0
176
     1
  0
VISUALSTYLE
  5
5ACDB
102
{ACAD_REACTORS
330
5ACD3
102
}
330
5ACD3
100
AcDbVisualStyle
  2
3D Hidden
 70
     6
177
     3
291
     0
 70
    58
 90
        1
176
     1
 90
        2
176
     1
 90
        2
176
     1
 90
        0
176
     1
 40
0.6
176
     1
 40
30.0
176
     1
 62
     7
420
 16777215
176
     1
 90
        2
176
     1
 90
        2
176
     1
 62
     7
176
     1
 62
   257
176
     1
 90
        2
176
     1
 90
        1
176
     1
 40
40.0
176
     1
 90
        0
176
     1
 62
   257
176
     1
 40
1.0
176
     1
 90
        1
176
     1
 90
        6
176
     1
 90
        2
176
     1
 62
     7
176
     1
 90
        3
176
     1
 90
        0
176
     1
 90
        0
176
     1
290
     0
176
     1
 90
        1
176
     1
 40
0.0
176
     1
 90
        0
176
     1
290
     0
176
     1
290
     1
176
     1
290
     1
176
     1
290
     0
176
     1
290
     0
176
     1
290
     0
176
     1
290
     0
176
     1
290
     0
176
     1
290
     0
176
     1
 90
       50
176
     1
 40
0.0
176
     1
 40
1.0
176
     1
 90
        0
176
     1
 62
    18
420
        0
176
     1
 90
       50
176
     1
 90
        3
176
     1
 62
     5
420
      255
176
     1
290
     0
176
     1
 90
       50
176
     1
 90
       50
176
     1
 90
       50
176
     1
290
     0
176
     1
 90
       50
176
     1
 62
   256
176
     0
 40
1.0
176
     0
 90
        2
176
     1
  1
strokes_ogs.tif
176
     1
290
     0
176
     1
 40
1.0
176
     1
 40
1.0
176
     1
  0
VISUALSTYLE
  5
5ACDA
102
{ACAD_REACTORS
330
5ACD3
102
}
330
5ACD3
100
AcDbVisualStyle
  2
3dWireframe
 70
     5
177
     3
291
     0
 70
    58
 90
        0
176
     1
 90
        2
176
     1
 90
        0
176
     1
 90
        0
176
     1
 40
0.6
176
     1
 40
30.0
176
     1
 62
     7
420
 16777215
176
     1
 90
        1
176
     1
 90
        4
176
     1
 62
     7
176
     1
 62
   257
176
     1
 90
        1
176
     1
 90
        1
176
     1
 40
1.0
176
     1
 90
        0
176
     1
 62
   257
176
     1
 40
1.0
176
     1
 90
        1
176
     1
 90
        6
176
     1
 90
        2
176
     1
 62
     7
176
     1
 90
        5
176
     1
 90
        0
176
     1
 90
        0
176
     1
290
     0
176
     1
 90
        1
176
     1
 40
0.0
176
     1
 90
        0
176
     1
290
     0
176
     1
290
     1
176
     1
290
     1
176
     1
290
     0
176
     1
290
     0
176
     1
290
     0
176
     1
290
     0
176
     1
290
     0
176
     1
290
     0
176
     1
 90
       50
176
     1
 40
0.0
176
     1
 40
1.0
176
     1
 90
        0
176
     1
 62
    18
420
        0
176
     1
 90
       50
176
     1
 90
        3
176
     1
 62
     5
420
      255
176
     1
290
     0
176
     1
 90
       50
176
     1
 90
       50
176
     1
 90
       50
176
     1
290
     0
176
     1
 90
       50
176
     1
 62
   256
176
     0
 40
1.0
176
     0
 90
        2
176
     1
  1
strokes_ogs.tif
176
     1
290
     0
176
     1
 40
1.0
176
     1
 40
1.0
176
     1
  0
VISUALSTYLE
  5
5ACD8
102
{ACAD_REACTORS
330
5ACD3
102
}
330
5ACD3
100
AcDbVisualStyle
  2
Basic
 70
     7
177
     3
291
     1
 70
    58
 90
        1
176
     1
 90
        0
176
     1
 90
        1
176
     1
 90
        0
176
     1
 40
0.6
176
     1
 40
30.0
176
     1
 62
     7
420
 16777215
176
     1
 90
        0
176
     1
 90
        4
176
     1
 62
     7
176
     1
 62
   257
176
     1
 90
        1
176
     1
 90
        1
176
     1
 40
1.0
176
     1
 90
        8
176
     1
 62
     7
176
     1
 40
1.0
176
     1
 90
        1
176
     1
 90
        6
176
     1
 90
        2
176
     1
 62
     7
176
     1
 90
        5
176
     1
 90
        0
176
     1
 90
        0
176
     1
290
     0
176
     1
 90
        1
176
     1
 40
0.0
176
     1
 90
        0
176
     1
290
     0
176
     1
290
     1
176
     1
290
     1
176
     1
290
     0
176
     1
290
     0
176
     1
290
     0
176
     1
290
     0
176
     1
290
     0
176
     1
290
     0
176
     1
 90
       50
176
     1
 40
0.0
176
     1
 40
1.0
176
     1
 90
        0
176
     1
 62
    18
420
        0
176
     1
 90
       50
176
     1
 90
        3
176
     1
 62
     5
420
      255
176
     1
290
     0
176
     1
 90
       50
176
     1
 90
       50
176
     1
 90
       50
176
     1
290
     0
176
     1
 90
       50
176
     1
 62
   256
176
     0
 40
1.0
176
     0
 90
        2
176
     1
  1
strokes_ogs.tif
176
     1
290
     0
176
     1
 40
1.0
176
     1
 40
1.0
176
     1
  0
VISUALSTYLE
  5
5ACDF
102
{ACAD_REACTORS
330
5ACD3
102
}
330
5ACD3
100
AcDbVisualStyle
  2
Brighten
 70
    12
177
     3
291
     1
 70
    58
 90
        2
176
     1
 90
        2
176
     1
 90
        0
176
     1
 90
        0
176
     1
 40
0.6
176
     1
 40
30.0
176
     1
 62
     7
420
 16777215
176
     1
 90
        1
176
     1
 90
        4
176
     1
 62
     7
176
     1
 62
   257
176
     1
 90
        1
176
     1
 90
        1
176
     1
 40
1.0
176
     1
 90
        8
176
     1
 62
     7
176
     1
 40
1.0
176
     1
 90
        1
176
     1
 90
        6
176
     1
 90
        2
176
     1
 62
     7
176
     1
 90
        5
176
     1
 90
        0
176
     1
 90
        0
176
     1
290
     0
176
     1
 90
        1
176
     1
 40
50.0
176
     1
 90
        0
176
     1
290
     0
176
     1
290
     1
176
     1
290
     1
176
     1
290
     0
176
     1
290
     0
176
     1
290
     0
176
     1
290
     0
176
     1
290
     0
176
     1
290
     0
176
     1
 90
       50
176
     1
 40
0.0
176
     1
 40
1.0
176
     1
 90
        0
176
     1
 62
    18
420
        0
176
     1
 90
       50
176
     1
 90
        3
176
     1
 62
     5
420
      255
176
     1
290
     0
176
     1
 90
       50
176
     1
 90
       50
176
     1
 90
       50
176
     1
290
     0
176
     1
 90
       50
176
     1
 62
   256
176
     0
 40
1.0
176
     0
 90
        2
176
     1
  1
strokes_ogs.tif
176
     1
290
     0
176
     1
 40
1.0
176
     1
 40
1.0
176
     1
  0
VISUALSTYLE
  5
5ACE3
102
{ACAD_REACTORS
330
5ACD3
102
}
330
5ACD3
100
AcDbVisualStyle
  2
ColorChange
 70
    16
177
     3
291
     1
 70
    58
 90
        2
176
     1
 90
        2
176
     1
 90
        3
176
     1
 90
        0
176
     1
 40
0.6
176
     1
 40
30.0
176
     1
 62
     8
420
  8421504
176
     1
 90
        1
176
     1
 90
        4
176
     1
 62
     7
176
     1
 62
   257
176
     1
 90
        1
176
     1
 90
        1
176
     1
 40
1.0
176
     1
 90
        8
176
     1
 62
     8
420
  8421504
176
     1
 40
1.0
176
     1
 90
        1
176
     1
 90
        6
176
     1
 90
        2
176
     1
 62
     7
176
     1
 90
        5
176
     1
 90
        0
176
     1
 90
        0
176
     1
290
     0
176
     1
 90
        1
176
     1
 40
0.0
176
     1
 90
        0
176
     1
290
     0
176
     1
290
     1
176
     1
290
     1
176
     1
290
     0
176
     1
290
     0
176
     1
290
     0
176
     1
290
     0
176
     1
290
     0
176
     1
290
     0
176
     1
 90
       50
176
     1
 40
0.0
176
     1
 40
1.0
176
     1
 90
        0
176
     1
 62
    18
420
        0
176
     1
 90
       50
176
     1
 90
        3
176
     1
 62
     5
420
      255
176
     1
290
     0
176
     1
 90
       50
176
     1
 90
       50
176
     1
 90
       50
176
     1
290
     0
176
     1
 90
       50
176
     1
 62
   256
176
     0
 40
1.0
176
     0
 90
        2
176
     1
  1
strokes_ogs.tif
176
     1
290
     0
176
     1
 40
1.0
176
     1
 40
1.0
176
     1
  0
VISUALSTYLE
  5
5ACDC
102
{ACAD_REACTORS
330
5ACD3
102
}
330
5ACD3
100
AcDbVisualStyle
  2
Conceptual
 70
     9
177
     3
291
     0
 70
    58
 90
        3
176
     1
 90
        2
176
     1
 90
        0
176
     1
 90
        0
176
     1
 40
0.6
176
     1
 40
30.0
176
     1
 62
     7
420
 16777215
176
     1
 90
        2
176
     1
 90
        2
176
     1
 62
     7
176
     1
 62
   257
176
     1
 90
        1
176
     1
 90
        1
176
     1
 40
40.0
176
     1
 90
        8
176
     1
 62
     7
176
     1
 40
1.0
176
     1
 90
        1
176
     1
 90
        6
176
     1
 90
        2
176
     1
 62
     7
176
     1
 90
        3
176
     1
 90
        0
176
     1
 90
        0
176
     1
290
     0
176
     1
 90
        1
176
     1
 40
0.0
176
     1
 90
        0
176
     1
290
     0
176
     1
290
     1
176
     1
290
     1
176
     1
290
     0
176
     1
290
     0
176
     1
290
     0
176
     1
290
     0
176
     1
290
     0
176
     1
290
     0
176
     1
 90
       50
176
     1
 40
0.0
176
     1
 40
1.0
176
     1
 90
        0
176
     1
 62
    18
420
        0
176
     1
 90
       50
176
     1
 90
        3
176
     1
 62
     5
420
      255
176
     1
290
     0
176
     1
 90
       50
176
     1
 90
       50
176
     1
 90
       50
176
     1
290
     0
176
     1
 90
       50
176
     1
 62
   256
176
     0
 40
1.0
176
     0
 90
        2
176
     1
  1
strokes_ogs.tif
176
     1
290
     0
176
     1
 40
1.0
176
     1
 40
1.0
176
     1
  0
VISUALSTYLE
  5
5ACDE
102
{ACAD_REACTORS
330
5ACD3
102
}
330
5ACD3
100
AcDbVisualStyle
  2
Dim
 70
    11
177
     3
291
     1
 70
    58
 90
        2
176
     1
 90
        2
176
     1
 90
        0
176
     1
 90
        0
176
     1
 40
0.6
176
     1
 40
30.0
176
     1
 62
     7
420
 16777215
176
     1
 90
        1
176
     1
 90
        4
176
     1
 62
     7
176
     1
 62
   257
176
     1
 90
        1
176
     1
 90
        1
176
     1
 40
1.0
176
     1
 90
        8
176
     1
 62
     7
176
     1
 40
1.0
176
     1
 90
        1
176
     1
 90
        6
176
     1
 90
        2
176
     1
 62
     7
176
     1
 90
        5
176
     1
 90
        0
176
     1
 90
        0
176
     1
290
     0
176
     1
 90
        1
176
     1
 40
-50.0
176
     1
 90
        0
176
     1
290
     0
176
     1
290
     1
176
     1
290
     1
176
     1
290
     0
176
     1
290
     0
176
     1
290
     0
176
     1
290
     0
176
     1
290
     0
176
     1
290
     0
176
     1
 90
       50
176
     1
 40
0.0
176
     1
 40
1.0
176
     1
 90
        0
176
     1
 62
    18
420
        0
176
     1
 90
       50
176
     1
 90
        3
176
     1
 62
     5
420
      255
176
     1
290
     0
176
     1
 90
       50
176
     1
 90
       50
176
     1
 90
       50
176
     1
290
     0
176
     1
 90
       50
176
     1
 62
   256
176
     0
 40
1.0
176
     0
 90
        2
176
     1
  1
strokes_ogs.tif
176
     1
290
     0
176
     1
 40
1.0
176
     1
 40
1.0
176
     1
  0
VISUALSTYLE
  5
5AD84
102
{ACAD_REACTORS
330
5ACD3
102
}
330
5ACD3
100
AcDbVisualStyle
  2
EdgeColorOff
 70
    22
177
     3
291
     1
 70
    58
 90
        2
176
     0
 90
        2
176
     0
 90
        0
176
     0
 90
        0
176
     0
 40
0.6
176
     0
 40
30.0
176
     0
 62
     7
420
 16777215
176
     0
 90
        1
176
     0
 90
        4
176
     0
 62
     7
176
     0
 62
   257
176
     0
 90
        1
176
     0
 90
        1
176
     0
 40
1.0
176
     0
 90
        8
176
     2
 62
     7
176
     0
 40
1.0
176
     0
 90
        1
176
     0
 90
        6
176
     0
 90
        2
176
     0
 62
     7
176
     0
 90
        5
176
     0
 90
        0
176
     0
 90
        0
176
     0
290
     0
176
     0
 90
        1
176
     0
 40
0.0
176
     0
 90
        0
176
     0
290
     0
176
     0
290
     1
176
     0
290
     1
176
     0
290
     0
176
     0
290
     0
176
     0
290
     0
176
     0
290
     0
176
     0
290
     0
176
     0
290
     0
176
     0
 90
       50
176
     0
 40
0.0
176
     0
 40
1.0
176
     0
 90
        0
176
     0
 62
    18
420
        0
176
     0
 90
       50
176
     0
 90
        3
176
     0
 62
     5
420
      255
176
     0
290
     0
176
     0
 90
       50
176
     0
 90
       50
176
     0
 90
       50
176
     0
290
     0
176
     0
 90
       50
176
     0
 62
   256
176
     0
 40
1.0
176
     0
 90
        2
176
     0
  1
strokes_ogs.tif
176
     0
290
     0
176
     0
 40
1.0
176
     0
 40
1.0
176
     0
  0
VISUALSTYLE
  5
5ACE2
102
{ACAD_REACTORS
330
5ACD3
102
}
330
5ACD3
100
AcDbVisualStyle
  2
Facepattern
 70
    15
177
     3
291
     1
 70
    58
 90
        2
176
     1
 90
        2
176
     1
 90
        0
176
     1
 90
        0
176
     1
 40
0.6
176
     1
 40
30.0
176
     1
 62
     7
420
 16777215
176
     1
 90
        1
176
     1
 90
        4
176
     1
 62
     7
176
     1
 62
   257
176
     1
 90
        1
176
     1
 90
        1
176
     1
 40
1.0
176
     1
 90
        8
176
     1
 62
     7
176
     1
 40
1.0
176
     1
 90
        1
176
     1
 90
        6
176
     1
 90
        2
176
     1
 62
     7
176
     1
 90
        5
176
     1
 90
        0
176
     1
 90
        0
176
     1
290
     0
176
     1
 90
        1
176
     1
 40
0.0
176
     1
 90
        0
176
     1
290
     0
176
     1
290
     1
176
     1
290
     1
176
     1
290
     0
176
     1
290
     0
176
     1
290
     0
176
     1
290
     0
176
     1
290
     0
176
     1
290
     0
176
     1
 90
       50
176
     1
 40
0.0
176
     1
 40
1.0
176
     1
 90
        0
176
     1
 62
    18
420
        0
176
     1
 90
       50
176
     1
 90
        3
176
     1
 62
     5
420
      255
176
     1
290
     0
176
     1
 90
       50
176
     1
 90
       50
176
     1
 90
       50
176
     1
290
     0
176
     1
 90
       50
176
     1
 62
   256
176
     0
 40
1.0
176
     0
 90
        2
176
     1
  1
strokes_ogs.tif
176
     1
290
     0
176
     1
 40
1.0
176
     1
 40
1.0
176
     1
  0
VISUALSTYLE
  5
5ACD4
102
{ACAD_REACTORS
330
5ACD3
102
}
330
5ACD3
100
AcDbVisualStyle
  2
Flat
 70
     0
177
     3
291
     1
 70
    58
 90
        2
176
     1
 90
        1
176
     1
 90
        1
176
     1
 90
        2
176
     1
 40
0.6
176
     1
 40
30.0
176
     1
 62
     7
420
 16777215
176
     1
 90
        0
176
     1
 90
        4
176
     1
 62
     7
176
     1
 62
   257
176
     1
 90
        1
176
     1
 90
        1
176
     1
 40
1.0
176
     1
 90
        8
176
     1
 62
     7
176
     1
 40
1.0
176
     1
 90
        1
176
     1
 90
        6
176
     1
 90
        2
176
     1
 62
     7
176
     1
 90
        5
176
     1
 90
        0
176
     1
 90
        0
176
     1
290
     0
176
     1
 90
       13
176
     1
 40
0.0
176
     1
 90
        0
176
     1
290
     0
176
     1
290
     1
176
     1
290
     1
176
     1
290
     0
176
     1
290
     0
176
     1
290
     0
176
     1
290
     0
176
     1
290
     0
176
     1
290
     0
176
     1
 90
       50
176
     1
 40
0.0
176
     1
 40
1.0
176
     1
 90
        0
176
     1
 62
    18
420
        0
176
     1
 90
       50
176
     1
 90
        3
176
     1
 62
     5
420
      255
176
     1
290
     0
176
     1
 90
       50
176
     1
 90
       50
176
     1
 90
       50
176
     1
290
     0
176
     1
 90
       50
176
     1
 62
   256
176
     0
 40
1.0
176
     0
 90
        2
176
     1
  1
strokes_ogs.tif
176
     1
290
     0
176
     1
 40
1.0
176
     1
 40
1.0
176
     1
  0
VISUALSTYLE
  5
5ACD5
102
{ACAD_REACTORS
330
5ACD3
102
}
330
5ACD3
100
AcDbVisualStyle
  2
FlatWithEdges
 70
     1
177
     3
291
     1
 70
    58
 90
        2
176
     1
 90
        1
176
     1
 90
        1
176
     1
 90
        2
176
     1
 40
0.6
176
     1
 40
30.0
176
     1
 62
     7
420
 16777215
176
     1
 90
        1
176
     1
 90
        4
176
     1
 62
     7
176
     1
 62
   257
176
     1
 90
        1
176
     1
 90
        1
176
     1
 40
1.0
176
     1
 90
        0
176
     1
 62
   257
176
     1
 40
1.0
176
     1
 90
        1
176
     1
 90
        6
176
     1
 90
        2
176
     1
 62
     7
176
     1
 90
        5
176
     1
 90
        0
176
     1
 90
        0
176
     1
290
     0
176
     1
 90
       13
176
     1
 40
0.0
176
     1
 90
        0
176
     1
290
     0
176
     1
290
     1
176
     1
290
     1
176
     1
290
     0
176
     1
290
     0
176
     1
290
     0
176
     1
290
     0
176
     1
290
     0
176
     1
290
     0
176
     1
 90
       50
176
     1
 40
0.0
176
     1
 40
1.0
176
     1
 90
        0
176
     1
 62
    18
420
        0
176
     1
 90
       50
176
     1
 90
        3
176
     1
 62
     5
420
      255
176
     1
290
     0
176
     1
 90
       50
176
     1
 90
       50
176
     1
 90
       50
176
     1
290
     0
176
     1
 90
       50
176
     1
 62
   256
176
     0
 40
1.0
176
     0
 90
        2
176
     1
  1
strokes_ogs.tif
176
     1
290
     0
176
     1
 40
1.0
176
     1
 40
1.0
176
     1
  0
VISUALSTYLE
  5
5ACD6
102
{ACAD_REACTORS
330
5ACD3
102
}
330
5ACD3
100
AcDbVisualStyle
  2
Gouraud
 70
     2
177
     3
291
     1
 70
    58
 90
        2
176
     1
 90
        2
176
     1
 90
        1
176
     1
 90
        2
176
     1
 40
0.6
176
     1
 40
30.0
176
     1
 62
     7
420
 16777215
176
     1
 90
        0
176
     1
 90
        4
176
     1
 62
     7
176
     1
 62
   257
176
     1
 90
        1
176
     1
 90
        1
176
     1
 40
1.0
176
     1
 90
        0
176
     1
 62
     7
176
     1
 40
1.0
176
     1
 90
        1
176
     1
 90
        6
176
     1
 90
        2
176
     1
 62
     7
176
     1
 90
        5
176
     1
 90
        0
176
     1
 90
        0
176
     1
290
     0
176
     1
 90
       13
176
     1
 40
0.0
176
     1
 90
        0
176
     1
290
     0
176
     1
290
     1
176
     1
290
     1
176
     1
290
     0
176
     1
290
     0
176
     1
290
     0
176
     1
290
     0
176
     1
290
     0
176
     1
290
     0
176
     1
 90
       50
176
     1
 40
0.0
176
     1
 40
1.0
176
     1
 90
        0
176
     1
 62
    18
420
        0
176
     1
 90
       50
176
     1
 90
        3
176
     1
 62
     5
420
      255
176
     1
290
     0
176
     1
 90
       50
176
     1
 90
       50
176
     1
 90
       50
176
     1
290
     0
176
     1
 90
       50
176
     1
 62
   256
176
     0
 40
1.0
176
     0
 90
        2
176
     1
  1
strokes_ogs.tif
176
     1
290
     0
176
     1
 40
1.0
176
     1
 40
1.0
176
     1
  0
VISUALSTYLE
  5
5ACD7
102
{ACAD_REACTORS
330
5ACD3
102
}
330
5ACD3
100
AcDbVisualStyle
  2
GouraudWithEdges
 70
     3
177
     3
291
     1
 70
    58
 90
        2
176
     1
 90
        2
176
     1
 90
        1
176
     1
 90
        2
176
     1
 40
0.6
176
     1
 40
30.0
176
     1
 62
     7
420
 16777215
176
     1
 90
        1
176
     1
 90
        4
176
     1
 62
     7
176
     1
 62
   257
176
     1
 90
        1
176
     1
 90
        1
176
     1
 40
1.0
176
     1
 90
        0
176
     1
 62
   257
176
     1
 40
1.0
176
     1
 90
        1
176
     1
 90
        6
176
     1
 90
        2
176
     1
 62
     7
176
     1
 90
        5
176
     1
 90
        0
176
     1
 90
        0
176
     1
290
     0
176
     1
 90
       13
176
     1
 40
0.0
176
     1
 90
        0
176
     1
290
     0
176
     1
290
     1
176
     1
290
     1
176
     1
290
     0
176
     1
290
     0
176
     1
290
     0
176
     1
290
     0
176
     1
290
     0
176
     1
290
     0
176
     1
 90
       50
176
     1
 40
0.0
176
     1
 40
1.0
176
     1
 90
        0
176
     1
 62
    18
420
        0
176
     1
 90
       50
176
     1
 90
        3
176
     1
 62
     5
420
      255
176
     1
290
     0
176
     1
 90
       50
176
     1
 90
       50
176
     1
 90
       50
176
     1
290
     0
176
     1
 90
       50
176
     1
 62
   256
176
     0
 40
1.0
176
     0
 90
        2
176
     1
  1
strokes_ogs.tif
176
     1
290
     0
176
     1
 40
1.0
176
     1
 40
1.0
176
     1
  0
VISUALSTYLE
  5
5AD7C
102
{ACAD_REACTORS
330
5ACD3
102
}
330
5ACD3
100
AcDbVisualStyle
  2
Hidden
 70
     6
177
     3
291
     0
 70
    58
 90
        1
176
     1
 90
        2
176
     1
 90
        2
176
     1
 90
        0
176
     1
 40
0.6
176
     1
 40
30.0
176
     1
 62
     7
420
 16777215
176
     1
 90
        2
176
     1
 90
        2
176
     1
 62
     7
176
     1
 62
   257
176
     1
 90
        2
176
     1
 90
        1
176
     1
 40
40.0
176
     1
 90
        0
176
     1
 62
   257
176
     1
 40
1.0
176
     1
 90
        1
176
     1
 90
        6
176
     1
 90
        2
176
     1
 62
     7
176
     1
 90
        3
176
     1
 90
        0
176
     1
 90
        0
176
     1
290
     0
176
     1
 90
        1
176
     1
 40
0.0
176
     1
 90
        0
176
     1
290
     0
176
     1
290
     1
176
     1
290
     1
176
     1
290
     0
176
     1
290
     0
176
     1
290
     0
176
     1
290
     0
176
     1
290
     0
176
     1
290
     0
176
     1
 90
       50
176
     1
 40
0.0
176
     1
 40
1.0
176
     1
 90
        0
176
     1
 62
    18
420
        0
176
     1
 90
       50
176
     1
 90
        3
176
     1
 62
     5
420
      255
176
     1
290
     0
176
     1
 90
       50
176
     1
 90
       50
176
     1
 90
       50
176
     1
290
     0
176
     1
 90
       50
176
     1
 62
   256
176
     0
 40
1.0
176
     0
 90
        2
176
     1
  1
strokes_ogs.tif
176
     1
290
     0
176
     1
 40
1.0
176
     1
 40
1.0
176
     1
  0
VISUALSTYLE
  5
5AD82
102
{ACAD_REACTORS
330
5ACD3
102
}
330
5ACD3
100
AcDbVisualStyle
  2
JitterOff
 70
    20
177
     3
291
     1
 70
    58
 90
        2
176
     0
 90
        2
176
     0
 90
        0
176
     0
 90
        0
176
     0
 40
0.6
176
     0
 40
30.0
176
     0
 62
     7
420
 16777215
176
     0
 90
        1
176
     0
 90
        4
176
     0
 62
     7
176
     0
 62
   257
176
     0
 90
        1
176
     0
 90
        1
176
     0
 40
1.0
176
     0
 90
       10
176
     2
 62
     7
176
     0
 40
1.0
176
     0
 90
        1
176
     0
 90
        6
176
     0
 90
        2
176
     0
 62
     7
176
     0
 90
        5
176
     0
 90
        0
176
     0
 90
        0
176
     0
290
     0
176
     0
 90
        1
176
     0
 40
0.0
176
     0
 90
        0
176
     0
290
     0
176
     0
290
     1
176
     0
290
     1
176
     0
290
     0
176
     0
290
     0
176
     0
290
     0
176
     0
290
     0
176
     0
290
     0
176
     0
290
     0
176
     0
 90
       50
176
     0
 40
0.0
176
     0
 40
1.0
176
     0
 90
        0
176
     0
 62
    18
420
        0
176
     0
 90
       50
176
     0
 90
        3
176
     0
 62
     5
420
      255
176
     0
290
     0
176
     0
 90
       50
176
     0
 90
       50
176
     0
 90
       50
176
     0
290
     0
176
     0
 90
       50
176
     0
 62
   256
176
     0
 40
1.0
176
     0
 90
        2
176
     0
  1
strokes_ogs.tif
176
     0
290
     0
176
     0
 40
1.0
176
     0
 40
1.0
176
     0
  0
VISUALSTYLE
  5
5ACE1
102
{ACAD_REACTORS
330
5ACD3
102
}
330
5ACD3
100
AcDbVisualStyle
  2
Linepattern
 70
    14
177
     3
291
     1
 70
    58
 90
        2
176
     1
 90
        2
176
     1
 90
        0
176
     1
 90
        0
176
     1
 40
0.6
176
     1
 40
30.0
176
     1
 62
     7
420
 16777215
176
     1
 90
        1
176
     1
 90
        4
176
     1
 62
     7
176
     1
 62
   257
176
     1
 90
        7
176
     1
 90
        7
176
     1
 40
1.0
176
     1
 90
        8
176
     1
 62
     7
176
     1
 40
1.0
176
     1
 90
        1
176
     1
 90
        6
176
     1
 90
        2
176
     1
 62
     7
176
     1
 90
        5
176
     1
 90
        0
176
     1
 90
        0
176
     1
290
     0
176
     1
 90
        1
176
     1
 40
0.0
176
     1
 90
        0
176
     1
290
     0
176
     1
290
     1
176
     1
290
     1
176
     1
290
     0
176
     1
290
     0
176
     1
290
     0
176
     1
290
     0
176
     1
290
     0
176
     1
290
     0
176
     1
 90
       50
176
     1
 40
0.0
176
     1
 40
1.0
176
     1
 90
        0
176
     1
 62
    18
420
        0
176
     1
 90
       50
176
     1
 90
        3
176
     1
 62
     5
420
      255
176
     1
290
     0
176
     1
 90
       50
176
     1
 90
       50
176
     1
 90
       50
176
     1
290
     0
176
     1
 90
       50
176
     1
 62
   256
176
     0
 40
1.0
176
     0
 90
        2
176
     1
  1
strokes_ogs.tif
176
     1
290
     0
176
     1
 40
1.0
176
     1
 40
1.0
176
     1
  0
VISUALSTYLE
  5
5AD83
102
{ACAD_REACTORS
330
5ACD3
102
}
330
5ACD3
100
AcDbVisualStyle
  2
OverhangOff
 70
    21
177
     3
291
     1
 70
    58
 90
        2
176
     0
 90
        2
176
     0
 90
        0
176
     0
 90
        0
176
     0
 40
0.6
176
     0
 40
30.0
176
     0
 62
     7
420
 16777215
176
     0
 90
        1
176
     0
 90
        4
176
     0
 62
     7
176
     0
 62
   257
176
     0
 90
        1
176
     0
 90
        1
176
     0
 40
1.0
176
     0
 90
        9
176
     2
 62
     7
176
     0
 40
1.0
176
     0
 90
        1
176
     0
 90
        6
176
     0
 90
        2
176
     0
 62
     7
176
     0
 90
        5
176
     0
 90
        0
176
     0
 90
        0
176
     0
290
     0
176
     0
 90
        1
176
     0
 40
0.0
176
     0
 90
        0
176
     0
290
     0
176
     0
290
     1
176
     0
290
     1
176
     0
290
     0
176
     0
290
     0
176
     0
290
     0
176
     0
290
     0
176
     0
290
     0
176
     0
290
     0
176
     0
 90
       50
176
     0
 40
0.0
176
     0
 40
1.0
176
     0
 90
        0
176
     0
 62
    18
420
        0
176
     0
 90
       50
176
     0
 90
        3
176
     0
 62
     5
420
      255
176
     0
290
     0
176
     0
 90
       50
176
     0
 90
       50
176
     0
 90
       50
176
     0
290
     0
176
     0
 90
       50
176
     0
 62
   256
176
     0
 40
1.0
176
     0
 90
        2
176
     0
  1
strokes_ogs.tif
176
     0
290
     0
176
     0
 40
1.0
176
     0
 40
1.0
176
     0
  0
VISUALSTYLE
  5
5ACDD
102
{ACAD_REACTORS
330
5ACD3
102
}
330
5ACD3
100
AcDbVisualStyle
  2
Realistic
 70
     8
177
     3
291
     0
 70
    58
 90
        2
176
     1
 90
        2
176
     1
 90
        0
176
     1
 90
        0
176
     1
 40
0.6
176
     1
 40
30.0
176
     1
 62
     7
420
 16777215
176
     1
 90
        1
176
     1
 90
        0
176
     1
 62
     7
176
     1
 62
   257
176
     1
 90
        1
176
     1
 90
        1
176
     1
 40
1.0
176
     1
 90
        8
176
     1
 62
     8
420
  7895160
176
     1
 40
1.0
176
     1
 90
        1
176
     1
 90
        6
176
     1
 90
        2
176
     1
 62
     7
176
     1
 90
        5
176
     1
 90
        0
176
     1
 90
        0
176
     1
290
     0
176
     1
 90
       13
176
     1
 40
0.0
176
     1
 90
        0
176
     1
290
     0
176
     1
290
     1
176
     1
290
     1
176
     1
290
     0
176
     1
290
     0
176
     1
290
     0
176
     1
290
     0
176
     1
290
     0
176
     1
290
     0
176
     1
 90
       50
176
     1
 40
0.0
176
     1
 40
1.0
176
     1
 90
        0
176
     1
 62
    18
420
        0
176
     1
 90
       50
176
     1
 90
        3
176
     1
 62
     5
420
      255
176
     1
290
     0
176
     1
 90
       50
176
     1
 90
       50
176
     1
 90
       50
176
     1
290
     0
176
     1
 90
       50
176
     1
 62
   256
176
     0
 40
1.0
176
     0
 90
        2
176
     1
  1
strokes_ogs.tif
176
     1
290
     0
176
     1
 40
1.0
176
     1
 40
1.0
176
     1
  0
VISUALSTYLE
  5
5AD81
102
{ACAD_REACTORS
330
5ACD3
102
}
330
5ACD3
100
AcDbVisualStyle
  2
Shaded
 70
    27
177
     3
291
     0
 70
    58
 90
        2
176
     1
 90
        2
176
     1
 90
        1
176
     1
 90
        2
176
     1
 40
0.6
176
     1
 40
30.0
176
     1
 62
     7
420
 16777215
176
     1
 90
        0
176
     1
 90
        4
176
     1
 62
     7
176
     1
 62
   257
176
     1
 90
        1
176
     1
 90
        1
176
     1
 40
1.0
176
     1
 90
        8
176
     1
 62
   257
176
     1
 40
1.0
176
     1
 90
        1
176
     1
 90
        6
176
     1
 90
        2
176
     1
 62
     8
420
  7895160
176
     1
 90
        3
176
     1
 90
        0
176
     1
 90
        0
176
     1
290
     0
176
     1
 90
        5
176
     1
 40
0.0
176
     1
 90
        0
176
     1
290
     0
176
     1
290
     1
176
     1
290
     1
176
     1
290
     0
176
     1
290
     0
176
     1
290
     0
176
     1
290
     0
176
     1
290
     0
176
     1
290
     0
176
     1
 90
       50
176
     1
 40
0.0
176
     1
 40
1.0
176
     1
 90
        0
176
     1
 62
    18
420
        0
176
     1
 90
       50
176
     1
 90
        3
176
     1
 62
     5
420
      255
176
     1
290
     0
176
     1
 90
       50
176
     1
 90
       50
176
     1
 90
       50
176
     1
290
     0
176
     1
 90
       50
176
     1
 62
   256
176
     0
 40
1.0
176
     0
 90
        2
176
     1
  1
strokes_ogs.tif
176
     1
290
     0
176
     1
 40
1.0
176
     1
 40
1.0
176
     1
  0
VISUALSTYLE
  5
5AD80
102
{ACAD_REACTORS
330
5ACD3
102
}
330
5ACD3
100
AcDbVisualStyle
  2
Shaded with edges
 70
    26
177
     3
291
     0
 70
    58
 90
        2
176
     1
 90
        2
176
     1
 90
        1
176
     1
 90
        2
176
     1
 40
0.6
176
     1
 40
30.0
176
     1
 62
     7
420
 16777215
176
     1
 90
        1
176
     1
 90
        2
176
     1
 62
     7
176
     1
 62
   257
176
     1
 90
        2
176
     1
 90
        1
176
     1
 40
1.0
176
     1
 90
        8
176
     1
 62
   257
176
     1
 40
1.0
176
     1
 90
        1
176
     1
 90
        6
176
     1
 90
        2
176
     1
 62
     7
176
     1
 90
        3
176
     1
 90
        0
176
     1
 90
        0
176
     1
290
     0
176
     1
 90
        5
176
     1
 40
0.0
176
     1
 90
        0
176
     1
290
     0
176
     1
290
     1
176
     1
290
     1
176
     1
290
     0
176
     1
290
     0
176
     1
290
     0
176
     1
290
     0
176
     1
290
     0
176
     1
290
     0
176
     1
 90
       50
176
     1
 40
0.0
176
     1
 40
1.0
176
     1
 90
        0
176
     1
 62
    18
420
        0
176
     1
 90
       50
176
     1
 90
        3
176
     1
 62
     5
420
      255
176
     1
290
     0
176
     1
 90
       50
176
     1
 90
       50
176
     1
 90
       50
176
     1
290
     0
176
     1
 90
       50
176
     1
 62
   256
176
     0
 40
1.0
176
     0
 90
        2
176
     1
  1
strokes_ogs.tif
176
     1
290
     0
176
     1
 40
1.0
176
     1
 40
1.0
176
     1
  0
VISUALSTYLE
  5
5AD7D
102
{ACAD_REACTORS
330
5ACD3
102
}
330
5ACD3
100
AcDbVisualStyle
  2
Shades of Gray
 70
    23
177
     3
291
     0
 70
    58
 90
        2
176
     1
 90
        2
176
     1
 90
        3
176
     1
 90
        0
176
     1
 40
0.6
176
     1
 40
30.0
176
     1
 62
     7
420
 16777215
176
     1
 90
        2
176
     1
 90
        2
176
     1
 62
     7
176
     1
 62
     7
176
     1
 90
        1
176
     1
 90
        1
176
     1
 40
40.0
176
     1
 90
        8
176
     1
 62
     7
176
     1
 40
1.0
176
     1
 90
        1
176
     1
 90
        6
176
     1
 90
        2
176
     1
 62
     7
176
     1
 90
        3
176
     1
 90
        0
176
     1
 90
        0
176
     1
290
     0
176
     1
 90
        1
176
     1
 40
0.0
176
     1
 90
        0
176
     1
290
     0
176
     1
290
     1
176
     1
290
     1
176
     1
290
     0
176
     1
290
     0
176
     1
290
     0
176
     1
290
     0
176
     1
290
     0
176
     1
290
     0
176
     1
 90
       50
176
     1
 40
0.0
176
     1
 40
1.0
176
     1
 90
        0
176
     1
 62
    18
420
        0
176
     1
 90
       50
176
     1
 90
        3
176
     1
 62
     5
420
      255
176
     1
290
     0
176
     1
 90
       50
176
     1
 90
       50
176
     1
 90
       50
176
     1
290
     0
176
     1
 90
       50
176
     1
 62
   256
176
     0
 40
1.0
176
     0
 90
        2
176
     1
  1
strokes_ogs.tif
176
     1
290
     0
176
     1
 40
1.0
176
     1
 40
1.0
176
     1
  0
VISUALSTYLE
  5
5AD7E
102
{ACAD_REACTORS
330
5ACD3
102
}
330
5ACD3
100
AcDbVisualStyle
  2
Sketchy
 70
    24
177
     3
291
     0
 70
    58
 90
        1
176
     1
 90
        2
176
     1
 90
        2
176
     1
 90
        0
176
     1
 40
0.6
176
     1
 40
30.0
176
     1
 62
     7
420
 16777215
176
     1
 90
        2
176
     1
 90
        2
176
     1
 62
     7
176
     1
 62
     7
176
     1
 90
        1
176
     1
 90
        1
176
     1
 40
40.0
176
     1
 90
       11
176
     1
 62
     7
176
     1
 40
1.0
176
     1
 90
        1
176
     1
 90
        6
176
     1
 90
        2
176
     1
 62
     7
176
     1
 90
        6
176
     1
 90
        0
176
     1
 90
        0
176
     1
290
     0
176
     1
 90
        1
176
     1
 40
0.0
176
     1
 90
        0
176
     1
290
     0
176
     1
290
     1
176
     1
290
     1
176
     1
290
     0
176
     1
290
     0
176
     1
290
     0
176
     1
290
     0
176
     1
290
     0
176
     1
290
     0
176
     1
 90
       50
176
     1
 40
0.0
176
     1
 40
1.0
176
     1
 90
        0
176
     1
 62
    18
420
        0
176
     1
 90
       50
176
     1
 90
        3
176
     1
 62
     5
420
      255
176
     1
290
     0
176
     1
 90
       50
176
     1
 90
       50
176
     1
 90
       50
176
     1
290
     0
176
     1
 90
       50
176
     1
 62
   256
176
     0
 40
1.0
176
     0
 90
        2
176
     1
  1
strokes_ogs.tif
176
     1
290
     0
176
     1
 40
1.0
176
     1
 40
1.0
176
     1
  0
VISUALSTYLE
  5
5ACE0
102
{ACAD_REACTORS
330
5ACD3
102
}
330
5ACD3
100
AcDbVisualStyle
  2
Thicken
 70
    13
177
     3
291
     1
 70
    58
 90
        2
176
     1
 90
        2
176
     1
 90
        0
176
     1
 90
        0
176
     1
 40
0.6
176
     1
 40
30.0
176
     1
 62
     7
420
 16777215
176
     1
 90
        1
176
     1
 90
        4
176
     1
 62
     7
176
     1
 62
   257
176
     1
 90
        1
176
     1
 90
        1
176
     1
 40
1.0
176
     1
 90
       12
176
     1
 62
     7
176
     1
 40
1.0
176
     1
 90
        1
176
     1
 90
        6
176
     1
 90
        2
176
     1
 62
     7
176
     1
 90
        5
176
     1
 90
        0
176
     1
 90
        0
176
     1
290
     0
176
     1
 90
        1
176
     1
 40
0.0
176
     1
 90
        0
176
     1
290
     0
176
     1
290
     1
176
     1
290
     1
176
     1
290
     0
176
     1
290
     0
176
     1
290
     0
176
     1
290
     0
176
     1
290
     0
176
     1
290
     0
176
     1
 90
       50
176
     1
 40
0.0
176
     1
 40
1.0
176
     1
 90
        0
176
     1
 62
    18
420
        0
176
     1
 90
       50
176
     1
 90
        3
176
     1
 62
     5
420
      255
176
     1
290
     0
176
     1
 90
       50
176
     1
 90
       50
176
     1
 90
       50
176
     1
290
     0
176
     1
 90
       50
176
     1
 62
   256
176
     0
 40
1.0
176
     0
 90
        2
176
     1
  1
strokes_ogs.tif
176
     1
290
     0
176
     1
 40
1.0
176
     1
 40
1.0
176
     1
  0
VISUALSTYLE
  5
5AD7B
102
{ACAD_REACTORS
330
5ACD3
102
}
330
5ACD3
100
AcDbVisualStyle
  2
Wireframe
 70
     5
177
     3
291
     0
 70
    58
 90
        0
176
     1
 90
        2
176
     1
 90
        0
176
     1
 90
        0
176
     1
 40
0.6
176
     1
 40
30.0
176
     1
 62
     7
420
 16777215
176
     1
 90
        1
176
     1
 90
        4
176
     1
 62
     7
176
     1
 62
   257
176
     1
 90
        1
176
     1
 90
        1
176
     1
 40
1.0
176
     1
 90
        0
176
     1
 62
   257
176
     1
 40
1.0
176
     1
 90
        1
176
     1
 90
        6
176
     1
 90
        2
176
     1
 62
     7
176
     1
 90
        3
176
     1
 90
        0
176
     1
 90
        0
176
     1
290
     0
176
     1
 90
        1
176
     1
 40
0.0
176
     1
 90
        0
176
     1
290
     0
176
     1
290
     1
176
     1
290
     1
176
     1
290
     0
176
     1
290
     0
176
     1
290
     0
176
     1
290
     0
176
     1
290
     0
176
     1
290
     0
176
     1
 90
       50
176
     1
 40
0.0
176
     1
 40
1.0
176
     1
 90
        0
176
     1
 62
    18
420
        0
176
     1
 90
       50
176
     1
 90
        3
176
     1
 62
     5
420
      255
176
     1
290
     0
176
     1
 90
       50
176
     1
 90
       50
176
     1
 90
       50
176
     1
290
     0
176
     1
 90
       50
176
     1
 62
   256
176
     0
 40
1.0
176
     0
 90
        2
176
     1
  1
strokes_ogs.tif
176
     1
290
     0
176
     1
 40
1.0
176
     1
 40
1.0
176
     1
  0
VISUALSTYLE
  5
5AD7F
102
{ACAD_REACTORS
330
5ACD3
102
}
330
5ACD3
100
AcDbVisualStyle
  2
X-Ray
 70
    25
177
     3
291
     0
 70
    58
 90
        2
176
     1
 90
        2
176
     1
 90
        1
176
     1
 90
        1
176
     1
 40
0.5
176
     1
 40
30.0
176
     1
 62
     7
420
 16777215
176
     1
 90
        1
176
     1
 90
        0
176
     1
 62
     7
176
     1
 62
   257
176
     1
 90
        1
176
     1
 90
        1
176
     1
 40
1.0
176
     1
 90
        8
176
     1
 62
     7
176
     1
 40
1.0
176
     1
 90
        1
176
     1
 90
        6
176
     1
 90
        2
176
     1
 62
     7
176
     1
 90
        3
176
     1
 90
        0
176
     1
 90
        0
176
     1
290
     0
176
     1
 90
       13
176
     1
 40
0.0
176
     1
 90
        0
176
     1
290
     0
176
     1
290
     1
176
     1
290
     1
176
     1
290
     0
176
     1
290
     0
176
     1
290
     0
176
     1
290
     0
176
     1
290
     0
176
     1
290
     0
176
     1
 90
       50
176
     1
 40
0.0
176
     1
 40
1.0
176
     1
 90
        0
176
     1
 62
    18
420
        0
176
     1
 90
       50
176
     1
 90
        3
176
     1
 62
     5
420
      255
176
     1
290
     0
176
     1
 90
       50
176
     1
 90
       50
176
     1
 90
       50
176
     1
290
     0
176
     1
 90
       50
176
     1
 62
   256
176
     0
 40
1.0
176
     0
 90
        2
176
     1
  1
strokes_ogs.tif
176
     1
290
     0
176
     1
 40
1.0
176
     1
 40
1.0
176
     1
  0
DICTIONARYVAR
  5
5AFC4
102
{ACAD_REACTORS
330
5E
102
}
330
5E
100
DictionaryVariables
280
     0
  1
1:1
  0
DICTIONARYVAR
  5
5AFC0
102
{ACAD_REACTORS
330
5E
102
}
330
5E
100
DictionaryVariables
280
     0
  1
STANDARD
  0
DICTIONARYVAR
  5
5ACF3
102
{ACAD_REACTORS
330
5E
102
}
330
5E
100
DictionaryVariables
280
     0
  1
STANDARD
  0
DICTIONARYVAR
  5
5AFC1
102
{ACAD_REACTORS
330
5E
102
}
330
5E
100
DictionaryVariables
280
     0
  1
Metric50
  0
DICTIONARYVAR
  5
5AFC2
102
{ACAD_REACTORS
330
5E
102
}
330
5E
100
DictionaryVariables
280
     0
  1
Metric50
  0
DICTIONARYVAR
  5
5F
102
{ACAD_REACTORS
330
5E
102
}
330
5E
100
DictionaryVariables
280
     0
  1
2
  0
DICTIONARYVAR
  5
63
102
{ACAD_REACTORS
330
5E
102
}
330
5E
100
DictionaryVariables
280
     0
  1
1
  0
DICTIONARYVAR
  5
5AFC6
102
{ACAD_REACTORS
330
5E
102
}
330
5E
100
DictionaryVariables
280
     0
  1
1
  0
DICTIONARYVAR
  5
5AFC7
102
{ACAD_REACTORS
330
5E
102
}
330
5E
100
DictionaryVariables
280
     0
  1
15
  0
DICTIONARYVAR
  5
5AFC5
102
{ACAD_REACTORS
330
5E
102
}
330
5E
100
DictionaryVariables
280
     0
  1
0
  0
DICTIONARYVAR
  5
5AFC3
102
{ACAD_REACTORS
330
5E
102
}
330
5E
100
DictionaryVariables
280
     0
  1
0
  0
DICTIONARYVAR
  5
53CA1
102
{ACAD_REACTORS
330
5E
102
}
330
5E
100
DictionaryVariables
280
     0
  1

  0
DICTIONARYVAR
  5
52D0B
102
{ACAD_REACTORS
330
5E
102
}
330
5E
100
DictionaryVariables
280
     0
  1
1
  0
ACAD_PROXY_OBJECT
  5
5ACF2
102
{ACAD_REACTORS
330
5ACF1
102
}
330
5ACF1
100
AcDbProxyObject
 90
      499
 91
      508
 71
    27
 97
        1
 70
     0
162
                 0
161
               224
310
00013FFFD0C4040800000000000004402826564C4F2D52202E20302900
 94
        0
  0
DICTIONARY
  5
5AFC8
330
5ACE5
100
AcDbDictionary
280
     1
281
     1
  3
ACAD_ROUNDTRIP_2008_TABLESTYLE_CELLSTYLEMAP
360
5AFC9
  0
CELLSTYLEMAP
  5
5AFC9
102
{ACAD_REACTORS
330
5AFC8
102
}
330
5AFC8
100
AcDbCellStyleMap
 90
        3
300
CELLSTYLE
  1
TABLEFORMAT_BEGIN
 90
        5
170
     1
 91
        0
 92
    32768
 62
   257
 93
        1
300
CONTENTFORMAT
  1
CONTENTFORMAT_BEGIN
 90
        0
 91
        0
 92
      512
 93
        0
300

 40
0.0
140
1.0
 94
        5
 62
     0
340
11
144
6.0
309
CONTENTFORMAT_END
171
     1
301
MARGIN
  1
CELLMARGIN_BEGIN
 40
1.5
 40
1.5
 40
1.5
 40
1.5
 40
0.18
 40
0.18
309
CELLMARGIN_END
 94
        6
 95
        1
302
GRIDFORMAT
  1
GRIDFORMAT_BEGIN
 90
        0
 91
        1
 62
     0
 92
       -2
340
0
 93
        0
 40
0.045
309
GRIDFORMAT_END
 95
        2
302
GRIDFORMAT
  1
GRIDFORMAT_BEGIN
 90
        0
 91
        1
 62
     0
 92
       -2
340
0
 93
        0
 40
0.045
309
GRIDFORMAT_END
 95
        4
302
GRIDFORMAT
  1
GRIDFORMAT_BEGIN
 90
        0
 91
        1
 62
     0
 92
       -2
340
0
 93
        0
 40
0.045
309
GRIDFORMAT_END
 95
        8
302
GRIDFORMAT
  1
GRIDFORMAT_BEGIN
 90
        0
 91
        1
 62
     0
 92
       -2
340
0
 93
        0
 40
0.045
309
GRIDFORMAT_END
 95
       16
302
GRIDFORMAT
  1
GRIDFORMAT_BEGIN
 90
        0
 91
        1
 62
     0
 92
       -2
340
0
 93
        0
 40
0.045
309
GRIDFORMAT_END
 95
       32
302
GRIDFORMAT
  1
GRIDFORMAT_BEGIN
 90
        0
 91
        1
 62
     0
 92
       -2
340
0
 93
        0
 40
0.045
309
GRIDFORMAT_END
309
TABLEFORMAT_END
  1
CELLSTYLE_BEGIN
 90
        1
 91
        1
300
_TITLE
309
CELLSTYLE_END
300
CELLSTYLE
  1
TABLEFORMAT_BEGIN
 90
        5
170
     1
 91
        0
 92
        0
 62
   257
 93
        1
300
CONTENTFORMAT
  1
CONTENTFORMAT_BEGIN
 90
        0
 91
        0
 92
      512
 93
        0
300

 40
0.0
140
1.0
 94
        5
 62
     0
340
11
144
4.5
309
CONTENTFORMAT_END
171
     1
301
MARGIN
  1
CELLMARGIN_BEGIN
 40
1.5
 40
1.5
 40
1.5
 40
1.5
 40
0.18
 40
0.18
309
CELLMARGIN_END
 94
        6
 95
        1
302
GRIDFORMAT
  1
GRIDFORMAT_BEGIN
 90
        0
 91
        1
 62
     0
 92
       -2
340
0
 93
        0
 40
0.045
309
GRIDFORMAT_END
 95
        2
302
GRIDFORMAT
  1
GRIDFORMAT_BEGIN
 90
        0
 91
        1
 62
     0
 92
       -2
340
0
 93
        0
 40
0.045
309
GRIDFORMAT_END
 95
        4
302
GRIDFORMAT
  1
GRIDFORMAT_BEGIN
 90
        0
 91
        1
 62
     0
 92
       -2
340
0
 93
        0
 40
0.045
309
GRIDFORMAT_END
 95
        8
302
GRIDFORMAT
  1
GRIDFORMAT_BEGIN
 90
        0
 91
        1
 62
     0
 92
       -2
340
0
 93
        0
 40
0.045
309
GRIDFORMAT_END
 95
       16
302
GRIDFORMAT
  1
GRIDFORMAT_BEGIN
 90
        0
 91
        1
 62
     0
 92
       -2
340
0
 93
        0
 40
0.045
309
GRIDFORMAT_END
 95
       32
302
GRIDFORMAT
  1
GRIDFORMAT_BEGIN
 90
        0
 91
        1
 62
     0
 92
       -2
340
0
 93
        0
 40
0.045
309
GRIDFORMAT_END
309
TABLEFORMAT_END
  1
CELLSTYLE_BEGIN
 90
        2
 91
        1
300
_HEADER
309
CELLSTYLE_END
300
CELLSTYLE
  1
TABLEFORMAT_BEGIN
 90
        5
170
     1
 91
        0
 92
        0
 62
   257
 93
        1
300
CONTENTFORMAT
  1
CONTENTFORMAT_BEGIN
 90
        0
 91
        0
 92
      512
 93
        0
300

 40
0.0
140
1.0
 94
        2
 62
     0
340
11
144
4.5
309
CONTENTFORMAT_END
171
     1
301
MARGIN
  1
CELLMARGIN_BEGIN
 40
1.5
 40
1.5
 40
1.5
 40
1.5
 40
0.18
 40
0.18
309
CELLMARGIN_END
 94
        6
 95
        1
302
GRIDFORMAT
  1
GRIDFORMAT_BEGIN
 90
        0
 91
        1
 62
     0
 92
       -2
340
0
 93
        0
 40
0.045
309
GRIDFORMAT_END
 95
        2
302
GRIDFORMAT
  1
GRIDFORMAT_BEGIN
 90
        0
 91
        1
 62
     0
 92
       -2
340
0
 93
        0
 40
0.045
309
GRIDFORMAT_END
 95
        4
302
GRIDFORMAT
  1
GRIDFORMAT_BEGIN
 90
        0
 91
        1
 62
     0
 92
       -2
340
0
 93
        0
 40
0.045
309
GRIDFORMAT_END
 95
        8
302
GRIDFORMAT
  1
GRIDFORMAT_BEGIN
 90
        0
 91
        1
 62
     0
 92
       -2
340
0
 93
        0
 40
0.045
309
GRIDFORMAT_END
 95
       16
302
GRIDFORMAT
  1
GRIDFORMAT_BEGIN
 90
        0
 91
        1
 62
     0
 92
       -2
340
0
 93
        0
 40
0.045
309
GRIDFORMAT_END
 95
       32
302
GRIDFORMAT
  1
GRIDFORMAT_BEGIN
 90
        0
 91
        1
 62
     0
 92
       -2
340
0
 93
        0
 40
0.045
309
GRIDFORMAT_END
309
TABLEFORMAT_END
  1
CELLSTYLE_BEGIN
 90
        3
 91
        2
300
_DATA
309
CELLSTYLE_END
  0
ENDSEC
  0
EOF
