  0
SECTION
  2
HEADER
  9
$ACADVER
  1
AC1032
  9
$ACADMAINTVER
 90
        4
  9
$DWGCODEPAGE
  3
ANSI_1252
  9
$LASTSAVEDBY
  1
Siqi
  9
$REQUIREDVERSIONS
160
                 0
  9
$INSBASE
 10
0.0
 20
0.0
 30
0.0
  9
$EXTMIN
 10
8160.004252375387
 20
-1094.476459409506
 30
0.0
  9
$EXTMAX
 10
10041.36450669217
 20
1826.222007977473
 30
0.0
  9
$LIMMIN
 10
0.0
 20
0.0
  9
$LIMMAX
 10
1000.0
 20
1000.0
  9
$ORTHOMODE
 70
     0
  9
$REGENMODE
 70
     1
  9
$FILLMODE
 70
     1
  9
$QTEXTMODE
 70
     0
  9
$MIRRTEXT
 70
     0
  9
$LTSCALE
 40
30.0
  9
$ATTMODE
 70
     1
  9
$TEXTSIZE
 40
0.2
  9
$TRACEWID
 40
0.05
  9
$TEXTSTYLE
  7
Standard
  9
$CLAYER
  8
0
  9
$CELTYPE
  6
ByLayer
  9
$CECOLOR
 62
   256
  9
$CELTSCALE
 40
1.0
  9
$DISPSILH
 70
     0
  9
$DIMSCALE
 40
1.0
  9
$DIMASZ
 40
25.0
  9
$DIMEXO
 40
5.0
  9
$DIMDLI
 40
2.0
  9
$DIMRND
 40
0.0
  9
$DIMDLE
 40
0.0
  9
$DIMEXE
 40
5.0
  9
$DIMTP
 40
0.0
  9
$DIMTM
 40
0.0
  9
$DIMTXT
 40
30.0
  9
$DIMCEN
 40
4.0
  9
$DIMTSZ
 40
0.0
  9
$DIMTOL
 70
     0
  9
$DIMLIM
 70
     0
  9
$DIMTIH
 70
     0
  9
$DIMTOH
 70
     0
  9
$DIMSE1
 70
     0
  9
$DIMSE2
 70
     0
  9
$DIMTAD
 70
     1
  9
$DIMZIN
 70
    12
  9
$DIMBLK
  1

  9
$DIMASO
 70
     1
  9
$DIMSHO
 70
     1
  9
$DIMPOST
  1

  9
$DIMAPOST
  1

  9
$DIMALT
 70
     0
  9
$DIMALTD
 70
     2
  9
$DIMALTF
 40
25.4
  9
$DIMLFAC
 40
1.0
  9
$DIMTOFL
 70
     0
  9
$DIMTVP
 40
0.0
  9
$DIMTIX
 70
     0
  9
$DIMSOXD
 70
     0
  9
$DIMSAH
 70
     0
  9
$DIMBLK1
  1

  9
$DIMBLK2
  1

  9
$DIMSTYLE
  2
Standard
  9
$DIMCLRD
 70
     0
  9
$DIMCLRE
 70
     0
  9
$DIMCLRT
 70
     0
  9
$DIMTFAC
 40
1.0
  9
$DIMGAP
 40
8.0
  9
$DIMJUST
 70
     0
  9
$DIMSD1
 70
     0
  9
$DIMSD2
 70
     0
  9
$DIMTOLJ
 70
     1
  9
$DIMTZIN
 70
     0
  9
$DIMALTZ
 70
     0
  9
$DIMALTTZ
 70
     0
  9
$DIMUPT
 70
     0
  9
$DIMDEC
 70
     4
  9
$DIMTDEC
 70
     4
  9
$DIMALTU
 70
     2
  9
$DIMALTTD
 70
     2
  9
$DIMTXSTY
  7
Standard
  9
$DIMAUNIT
 70
     0
  9
$DIMADEC
 70
     2
  9
$DIMALTRND
 40
0.0
  9
$DIMAZIN
 70
     3
  9
$DIMDSEP
 70
    46
  9
$DIMATFIT
 70
     3
  9
$DIMFRAC
 70
     0
  9
$DIMLDRBLK
  1

  9
$DIMLUNIT
 70
     2
  9
$DIMLWD
 70
    -2
  9
$DIMLWE
 70
    -2
  9
$DIMTMOVE
 70
     0
  9
$DIMFXL
 40
1.0
  9
$DIMFXLON
 70
     0
  9
$DIMJOGANG
 40
0.7853981633974483
  9
$DIMTFILL
 70
     0
  9
$DIMTFILLCLR
 70
     0
  9
$DIMARCSYM
 70
     0
  9
$DIMLTYPE
  6

  9
$DIMLTEX1
  6

  9
$DIMLTEX2
  6

  9
$DIMTXTDIRECTION
 70
     0
  9
$LUNITS
 70
     2
  9
$LUPREC
 70
     4
  9
$SKETCHINC
 40
0.1
  9
$FILLETRAD
 40
1.0
  9
$AUNITS
 70
     0
  9
$AUPREC
 70
     0
  9
$MENU
  1
.
  9
$ELEVATION
 40
0.0
  9
$PELEVATION
 40
0.0
  9
$THICKNESS
 40
0.0
  9
$LIMCHECK
 70
     0
  9
$CHAMFERA
 40
0.0
  9
$CHAMFERB
 40
0.0
  9
$CHAMFERC
 40
0.0
  9
$CHAMFERD
 40
0.0
  9
$SKPOLY
 70
     0
  9
$TDCREATE
 40
2453662.794189815
  9
$TDUCREATE
 40
2453663.085858287
  9
$TDUPDATE
 40
2457975.670069445
  9
$TDUUPDATE
 40
2457975.961736111
  9
$TDINDWG
 40
2.5151454745
  9
$TDUSRTIMER
 40
2.5151454745
  9
$USRTIMER
 70
     1
  9
$ANGBASE
 50
0.0
  9
$ANGDIR
 70
     0
  9
$PDMODE
 70
     0
  9
$PDSIZE
 40
0.0
  9
$PLINEWID
 40
0.0
  9
$SPLFRAME
 70
     0
  9
$SPLINETYPE
 70
     6
  9
$SPLINESEGS
 70
     8
  9
$HANDSEED
  5
A20C
  9
$SURFTAB1
 70
     6
  9
$SURFTAB2
 70
     6
  9
$SURFTYPE
 70
     6
  9
$SURFU
 70
     6
  9
$SURFV
 70
     6
  9
$UCSBASE
  2

  9
$UCSNAME
  2

  9
$UCSORG
 10
0.0
 20
0.0
 30
0.0
  9
$UCSXDIR
 10
1.0
 20
0.0
 30
0.0
  9
$UCSYDIR
 10
0.0
 20
1.0
 30
0.0
  9
$UCSORTHOREF
  2

  9
$UCSORTHOVIEW
 70
     0
  9
$UCSORGTOP
 10
0.0
 20
0.0
 30
0.0
  9
$UCSORGBOTTOM
 10
0.0
 20
0.0
 30
0.0
  9
$UCSORGLEFT
 10
0.0
 20
0.0
 30
0.0
  9
$UCSORGRIGHT
 10
0.0
 20
0.0
 30
0.0
  9
$UCSORGFRONT
 10
0.0
 20
0.0
 30
0.0
  9
$UCSORGBACK
 10
0.0
 20
0.0
 30
0.0
  9
$PUCSBASE
  2

  9
$PUCSNAME
  2

  9
$PUCSORG
 10
0.0
 20
0.0
 30
0.0
  9
$PUCSXDIR
 10
1.0
 20
0.0
 30
0.0
  9
$PUCSYDIR
 10
0.0
 20
1.0
 30
0.0
  9
$PUCSORTHOREF
  2

  9
$PUCSORTHOVIEW
 70
     0
  9
$PUCSORGTOP
 10
0.0
 20
0.0
 30
0.0
  9
$PUCSORGBOTTOM
 10
0.0
 20
0.0
 30
0.0
  9
$PUCSORGLEFT
 10
0.0
 20
0.0
 30
0.0
  9
$PUCSORGRIGHT
 10
0.0
 20
0.0
 30
0.0
  9
$PUCSORGFRONT
 10
0.0
 20
0.0
 30
0.0
  9
$PUCSORGBACK
 10
0.0
 20
0.0
 30
0.0
  9
$USERI1
 70
     0
  9
$USERI2
 70
     0
  9
$USERI3
 70
     0
  9
$USERI4
 70
     0
  9
$USERI5
 70
     0
  9
$USERR1
 40
0.0
  9
$USERR2
 40
0.0
  9
$USERR3
 40
0.0
  9
$USERR4
 40
0.0
  9
$USERR5
 40
2.5
  9
$WORLDVIEW
 70
     1
  9
$SHADEDGE
 70
     3
  9
$SHADEDIF
 70
    70
  9
$TILEMODE
 70
     1
  9
$MAXACTVP
 70
    64
  9
$PINSBASE
 10
0.0
 20
0.0
 30
0.0
  9
$PLIMCHECK
 70
     0
  9
$PEXTMIN
 10
0.0
 20
0.0
 30
0.0
  9
$PEXTMAX
 10
0.0
 20
0.0
 30
0.0
  9
$PLIMMIN
 10
0.0
 20
0.0
  9
$PLIMMAX
 10
12.0
 20
9.0
  9
$UNITMODE
 70
     0
  9
$VISRETAIN
 70
     1
  9
$PLINEGEN
 70
     0
  9
$PSLTSCALE
 70
     1
  9
$TREEDEPTH
 70
  3020
  9
$CMLSTYLE
  2
Standard
  9
$CMLJUST
 70
     0
  9
$CMLSCALE
 40
1.0
  9
$PROXYGRAPHICS
 70
     1
  9
$MEASUREMENT
 70
     0
  9
$CELWEIGHT
370
    -1
  9
$ENDCAPS
280
     0
  9
$JOINSTYLE
280
     0
  9
$LWDISPLAY
290
     0
  9
$INSUNITS
 70
     1
  9
$HYPERLINKBASE
  1

  9
$STYLESHEET
  1

  9
$XEDIT
290
     1
  9
$CEPSNTYPE
380
     0
  9
$PSTYLEMODE
290
     1
  9
$FINGERPRINTGUID
  2
{FDEAD576-A652-11D2-9A35-0060089B3A3F}
  9
$VERSIONGUID
  2
{FC17255D-F2A2-164D-9427-FAD533C268E7}
  9
$EXTNAMES
290
     1
  9
$PSVPSCALE
 40
0.0
  9
$OLESTARTUP
290
     0
  9
$SORTENTS
280
   127
  9
$INDEXCTL
280
     0
  9
$HIDETEXT
280
     1
  9
$XCLIPFRAME
280
     0
  9
$HALOGAP
280
     0
  9
$OBSCOLOR
 70
   257
  9
$OBSLTYPE
280
     0
  9
$INTERSECTIONDISPLAY
280
     0
  9
$INTERSECTIONCOLOR
 70
   257
  9
$DIMASSOC
280
     2
  9
$PROJECTNAME
  1

  9
$CAMERADISPLAY
290
     0
  9
$LENSLENGTH
 40
50.0
  9
$CAMERAHEIGHT
 40
0.0
  9
$STEPSPERSEC
 40
2.0
  9
$STEPSIZE
 40
6.0
  9
$3DDWFPREC
 40
2.0
  9
$PSOLWIDTH
 40
0.25
  9
$PSOLHEIGHT
 40
4.0
  9
$LOFTANG1
 40
1.570796326794896
  9
$LOFTANG2
 40
1.570796326794896
  9
$LOFTMAG1
 40
0.0
  9
$LOFTMAG2
 40
0.0
  9
$LOFTPARAM
 70
     7
  9
$LOFTNORMALS
280
     1
  9
$LATITUDE
 40
37.795
  9
$LONGITUDE
 40
-122.394
  9
$NORTHDIRECTION
 40
0.0
  9
$TIMEZONE
 70
 -8000
  9
$LIGHTGLYPHDISPLAY
280
     1
  9
$TILEMODELIGHTSYNCH
280
     1
  9
$CMATERIAL
347
A1A7
  9
$SOLIDHIST
280
     1
  9
$SHOWHIST
280
     1
  9
$DWFFRAME
280
     2
  9
$DGNFRAME
280
     0
  9
$REALWORLDSCALE
290
     1
  9
$INTERFERECOLOR
 62
     1
  9
$INTERFEREOBJVS
345
A1B4
  9
$INTERFEREVPVS
346
A1C6
  9
$CSHADOW
280
     0
  9
$SHADOWPLANELOCATION
 40
0.0
  0
ENDSEC
  0
SECTION
  2
CLASSES
  0
CLASS
  1
ACDBDICTIONARYWDFLT
  2
AcDbDictionaryWithDefault
  3
ObjectDBX Classes
 90
        0
 91
        1
280
     0
281
     0
  0
CLASS
  1
ACDBPLACEHOLDER
  2
AcDbPlaceHolder
  3
ObjectDBX Classes
 90
        0
 91
        1
280
     0
281
     0
  0
CLASS
  1
LAYOUT
  2
AcDbLayout
  3
ObjectDBX Classes
 90
        0
 91
        3
280
     0
281
     0
  0
CLASS
  1
DICTIONARYVAR
  2
AcDbDictionaryVar
  3
ObjectDBX Classes
 90
        0
 91
       20
280
     0
281
     0
  0
CLASS
  1
DIMASSOC
  2
AcDbDimAssoc
  3
"AcDbDimAssoc|Product Desc:     AcDim ARX App For Dimension|Company:          Autodesk, Inc.|WEB Address:      www.autodesk.com"
 90
        0
 91
       55
280
     0
281
     0
  0
CLASS
  1
MATERIAL
  2
AcDbMaterial
  3
ObjectDBX Classes
 90
     1153
 91
        3
280
     0
281
     0
  0
CLASS
  1
VISUALSTYLE
  2
AcDbVisualStyle
  3
ObjectDBX Classes
 90
     4095
 91
       26
280
     0
281
     0
  0
CLASS
  1
TABLESTYLE
  2
AcDbTableStyle
  3
ObjectDBX Classes
 90
     4095
 91
        1
280
     0
281
     0
  0
CLASS
  1
VLO-VL
  2
vlo_VL
  3
VL|AutoLISP based application
 90
      129
 91
        2
280
     0
281
     0
  0
CLASS
  1
SCALE
  2
AcDbScale
  3
ObjectDBX Classes
 90
     1153
 91
       17
280
     0
281
     0
  0
CLASS
  1
MLEADERSTYLE
  2
AcDbMLeaderStyle
  3
ACDB_MLEADERSTYLE_CLASS
 90
     4095
 91
        1
280
     0
281
     0
  0
CLASS
  1
ACDBSECTIONVIEWSTYLE
  2
AcDbSectionViewStyle
  3
ObjectDBX Classes
 90
     1025
 91
        1
280
     0
281
     0
  0
CLASS
  1
ACDBDETAILVIEWSTYLE
  2
AcDbDetailViewStyle
  3
ObjectDBX Classes
 90
     1025
 91
        1
280
     0
281
     0
  0
CLASS
  1
CELLSTYLEMAP
  2
AcDbCellStyleMap
  3
ObjectDBX Classes
 90
     1152
 91
        1
280
     0
281
     0
  0
ENDSEC
  0
SECTION
  2
TABLES
  0
TABLE
  2
VPORT
  5
8
330
0
100
AcDbSymbolTable
 70
     1
  0
VPORT
  5
A1A5
330
8
100
AcDbSymbolTableRecord
100
AcDbViewportTableRecord
  2
*Active
 70
     0
 10
0.0
 20
0.0
 11
1.0
 21
1.0
 12
9255.694706122572
 22
177.3372134288002
 13
0.0
 23
0.0
 14
0.5
 24
0.5
 15
0.5
 25
0.5
 16
0.0
 26
0.0
 36
1.0
 17
0.0
 27
0.0
 37
0.0
 40
2110.541731826117
 41
1.913595933926302
 42
50.0
 43
0.0
 44
0.0
 50
0.0
 51
0.0
 71
     0
 72
  1000
 73
     1
 74
     3
 75
     0
 76
     0
 77
     0
 78
     0
281
     0
 65
     1
110
0.0
120
0.0
130
0.0
111
1.0
121
0.0
131
0.0
112
0.0
122
1.0
132
0.0
 79
     0
146
0.0
348
A1B0
 60
     3
 61
     5
292
     1
282
     1
141
0.0
142
0.0
 63
   250
421
  3355443
1001
ACAD_NAV_VCDISPLAY
1070
     3
  0
ENDTAB
  0
TABLE
  2
LTYPE
  5
5
330
0
100
AcDbSymbolTable
 70
     2
  0
LTYPE
  5
14
330
5
100
AcDbSymbolTableRecord
100
AcDbLinetypeTableRecord
  2
ByBlock
 70
     0
  3

 72
    65
 73
     0
 40
0.0
  0
LTYPE
  5
15
330
5
100
AcDbSymbolTableRecord
100
AcDbLinetypeTableRecord
  2
ByLayer
 70
     0
  3

 72
    65
 73
     0
 40
0.0
  0
LTYPE
  5
16
330
5
100
AcDbSymbolTableRecord
100
AcDbLinetypeTableRecord
  2
Continuous
 70
     0
  3
Solid line
 72
    65
 73
     0
 40
0.0
  0
LTYPE
  5
38C
330
5
100
AcDbSymbolTableRecord
100
AcDbLinetypeTableRecord
  2
CENTER
 70
     0
  3
Center ____ _ ____ _ ____ _ ____ _ ____ _ ____
 72
    65
 73
     4
 40
2.0
 49
1.25
 74
     0
 49
-0.25
 74
     0
 49
0.25
 74
     0
 49
-0.25
 74
     0
  0
ENDTAB
  0
TABLE
  2
LAYER
  5
2
330
0
100
AcDbSymbolTable
 70
     6
  0
LAYER
  5
10
102
{ACAD_XDICTIONARY
360
A1EE
102
}
330
2
100
AcDbSymbolTableRecord
100
AcDbLayerTableRecord
  2
0
 70
     0
 62
     7
  6
Continuous
370
    30
390
F
347
A1A9
348
0
  0
LAYER
  5
97
102
{ACAD_XDICTIONARY
360
A1F0
102
}
330
2
100
AcDbSymbolTableRecord
100
AcDbLayerTableRecord
  2
CEN
 70
     0
 62
    14
  6
CENTER
370
    13
390
F
347
A1A9
348
0
  0
LAYER
  5
98
102
{ACAD_XDICTIONARY
360
A1F2
102
}
330
2
100
AcDbSymbolTableRecord
100
AcDbLayerTableRecord
  2
DIMJ
 70
     0
 62
   221
  6
Continuous
370
    13
390
F
347
A1A9
348
0
  0
LAYER
  5
99
102
{ACAD_XDICTIONARY
360
A1F4
102
}
330
2
100
AcDbSymbolTableRecord
100
AcDbLayerTableRecord
  2
Layer4
 70
     0
 62
    40
  6
Continuous
370
    13
390
F
347
A1A9
348
0
  0
LAYER
  5
9F
330
2
100
AcDbSymbolTableRecord
100
AcDbLayerTableRecord
  2
Defpoints
 70
     0
 62
     7
  6
Continuous
290
     0
370
    15
390
F
347
A1A9
348
0
  0
LAYER
  5
4658
102
{ACAD_XDICTIONARY
360
A1F6
102
}
330
2
100
AcDbSymbolTableRecord
100
AcDbLayerTableRecord
  2
Layer2
 70
     0
 62
   103
  6
CENTER
370
    13
390
F
347
A1A9
348
0
  0
ENDTAB
  0
TABLE
  2
STYLE
  5
3
330
0
100
AcDbSymbolTable
 70
     1
  0
STYLE
  5
11
330
3
100
AcDbSymbolTableRecord
100
AcDbTextStyleTableRecord
  2
Standard
 70
     0
 40
0.0
 41
0.85
 50
0.0
 71
     0
 42
0.2
  3

  4

1001
ACAD
1000
FangSong_GB2312
1071
    34353
  0
ENDTAB
  0
TABLE
  2
VIEW
  5
6
330
0
100
AcDbSymbolTable
 70
     0
  0
ENDTAB
  0
TABLE
  2
UCS
  5
7
330
0
100
AcDbSymbolTable
 70
     0
  0
ENDTAB
  0
TABLE
  2
APPID
  5
9
330
0
100
AcDbSymbolTable
 70
     3
  0
APPID
  5
12
330
9
100
AcDbSymbolTableRecord
100
AcDbRegAppTableRecord
  2
ACAD
 70
     0
  0
APPID
  5
A1EC
330
9
100
AcDbSymbolTableRecord
100
AcDbRegAppTableRecord
  2
AcadStringInfo
 70
     0
  0
APPID
  5
A1F8
330
9
100
AcDbSymbolTableRecord
100
AcDbRegAppTableRecord
  2
ACAD_NAV_VCDISPLAY
 70
     0
  0
ENDTAB
  0
TABLE
  2
DIMSTYLE
  5
A
330
0
100
AcDbSymbolTable
 70
     1
100
AcDbDimStyleTable
 71
     1
340
27
  0
DIMSTYLE
105
27
102
{ACAD_REACTORS
330
7E70
330
7E6D
330
7E6A
330
7E64
330
7E61
330
7E2A
330
7E27
330
7E24
330
7CDC
330
7CD9
330
7CD6
330
7CD3
330
7CD0
330
7CCB
330
7CC8
330
7CC5
330
7CC2
330
7CBF
330
7CBC
330
7CB0
330
7CAD
330
7CA8
330
7CA5
330
7CA2
330
7E21
330
7E1E
330
7E1B
330
7E18
330
7E15
330
7E12
330
7E0C
330
7E09
330
7E06
330
7E03
330
7E00
330
7DFD
330
7DB3
330
7DAF
330
7DA5
330
7D92
330
7D7B
330
7D72
330
7D6C
330
7D69
330
7D66
330
7D50
330
7D24
330
7CF1
330
7CEE
330
7CEB
330
7CE8
330
7CE5
330
7CE2
330
7CDF
330
81FD
330
8617
330
8A58
102
}
330
A
100
AcDbSymbolTableRecord
100
AcDbDimStyleTableRecord
  2
Standard
 70
     0
 41
25.0
 42
5.0
 43
2.0
 44
5.0
 73
     0
 74
     0
 77
     1
 78
    12
 79
     3
140
30.0
141
4.0
147
8.0
179
     2
340
11
  0
ENDTAB
  0
TABLE
  2
BLOCK_RECORD
  5
1
330
0
100
AcDbSymbolTable
 70
    88
  0
BLOCK_RECORD
  5
1F
330
1
100
AcDbSymbolTableRecord
100
AcDbBlockTableRecord
  2
*Model_Space
340
22
 70
     0
280
     1
281
     0
  0
BLOCK_RECORD
  5
58
330
1
100
AcDbSymbolTableRecord
100
AcDbBlockTableRecord
  2
*Paper_Space
340
59
 70
     0
280
     1
281
     0
  0
BLOCK_RECORD
  5
5D
330
1
100
AcDbSymbolTableRecord
100
AcDbBlockTableRecord
  2
*Paper_Space0
340
5E
 70
     0
280
     1
281
     0
  0
BLOCK_RECORD
  5
7EBA
330
1
100
AcDbSymbolTableRecord
100
AcDbBlockTableRecord
  2
*D1
340
0
 70
     0
280
     1
281
     0
  0
BLOCK_RECORD
  5
7EC6
330
1
100
AcDbSymbolTableRecord
100
AcDbBlockTableRecord
  2
*D2
340
0
 70
     0
280
     1
281
     0
  0
BLOCK_RECORD
  5
7ED2
330
1
100
AcDbSymbolTableRecord
100
AcDbBlockTableRecord
  2
*D3
340
0
 70
     0
280
     1
281
     0
  0
BLOCK_RECORD
  5
7EDE
330
1
100
AcDbSymbolTableRecord
100
AcDbBlockTableRecord
  2
*D4
340
0
 70
     0
280
     1
281
     0
  0
BLOCK_RECORD
  5
7EEA
330
1
100
AcDbSymbolTableRecord
100
AcDbBlockTableRecord
  2
*D5
340
0
 70
     0
280
     1
281
     0
  0
BLOCK_RECORD
  5
7EF6
330
1
100
AcDbSymbolTableRecord
100
AcDbBlockTableRecord
  2
*D6
340
0
 70
     0
280
     1
281
     0
  0
BLOCK_RECORD
  5
7F03
330
1
100
AcDbSymbolTableRecord
100
AcDbBlockTableRecord
  2
*D7
340
0
 70
     0
280
     1
281
     0
  0
BLOCK_RECORD
  5
7F10
330
1
100
AcDbSymbolTableRecord
100
AcDbBlockTableRecord
  2
*D8
340
0
 70
     0
280
     1
281
     0
  0
BLOCK_RECORD
  5
7F1D
330
1
100
AcDbSymbolTableRecord
100
AcDbBlockTableRecord
  2
*D9
340
0
 70
     0
280
     1
281
     0
  0
BLOCK_RECORD
  5
7F2A
330
1
100
AcDbSymbolTableRecord
100
AcDbBlockTableRecord
  2
*D10
340
0
 70
     0
280
     1
281
     0
  0
BLOCK_RECORD
  5
7F36
330
1
100
AcDbSymbolTableRecord
100
AcDbBlockTableRecord
  2
*D11
340
0
 70
     0
280
     1
281
     0
  0
BLOCK_RECORD
  5
7F3E
330
1
100
AcDbSymbolTableRecord
100
AcDbBlockTableRecord
  2
*D12
340
0
 70
     0
280
     1
281
     0
  0
BLOCK_RECORD
  5
7F46
330
1
100
AcDbSymbolTableRecord
100
AcDbBlockTableRecord
  2
*D13
340
0
 70
     0
280
     1
281
     0
  0
BLOCK_RECORD
  5
7F4E
330
1
100
AcDbSymbolTableRecord
100
AcDbBlockTableRecord
  2
*D14
340
0
 70
     0
280
     1
281
     0
  0
BLOCK_RECORD
  5
7F56
330
1
100
AcDbSymbolTableRecord
100
AcDbBlockTableRecord
  2
*D15
340
0
 70
     0
280
     1
281
     0
  0
BLOCK_RECORD
  5
7F60
330
1
100
AcDbSymbolTableRecord
100
AcDbBlockTableRecord
  2
*D16
340
0
 70
     0
280
     1
281
     0
  0
BLOCK_RECORD
  5
7F6C
330
1
100
AcDbSymbolTableRecord
100
AcDbBlockTableRecord
  2
*D17
340
0
 70
     0
280
     1
281
     0
  0
BLOCK_RECORD
  5
7F78
330
1
100
AcDbSymbolTableRecord
100
AcDbBlockTableRecord
  2
*D18
340
0
 70
     0
280
     1
281
     0
  0
BLOCK_RECORD
  5
7F82
330
1
100
AcDbSymbolTableRecord
100
AcDbBlockTableRecord
  2
*D19
340
0
 70
     0
280
     1
281
     0
  0
BLOCK_RECORD
  5
7F8F
330
1
100
AcDbSymbolTableRecord
100
AcDbBlockTableRecord
  2
*D20
340
0
 70
     0
280
     1
281
     0
  0
BLOCK_RECORD
  5
7F9C
330
1
100
AcDbSymbolTableRecord
100
AcDbBlockTableRecord
  2
*D21
340
0
 70
     0
280
     1
281
     0
  0
BLOCK_RECORD
  5
7FA9
330
1
100
AcDbSymbolTableRecord
100
AcDbBlockTableRecord
  2
*D22
340
0
 70
     0
280
     1
281
     0
  0
BLOCK_RECORD
  5
7FB6
330
1
100
AcDbSymbolTableRecord
100
AcDbBlockTableRecord
  2
*D23
340
0
 70
     0
280
     1
281
     0
  0
BLOCK_RECORD
  5
7FC3
330
1
100
AcDbSymbolTableRecord
100
AcDbBlockTableRecord
  2
*D24
340
0
 70
     0
280
     1
281
     0
  0
BLOCK_RECORD
  5
7FCF
330
1
100
AcDbSymbolTableRecord
100
AcDbBlockTableRecord
  2
*D25
340
0
 70
     0
280
     1
281
     0
  0
BLOCK_RECORD
  5
7FDB
330
1
100
AcDbSymbolTableRecord
100
AcDbBlockTableRecord
  2
*D26
340
0
 70
     0
280
     1
281
     0
  0
BLOCK_RECORD
  5
7FE8
330
1
100
AcDbSymbolTableRecord
100
AcDbBlockTableRecord
  2
*D27
340
0
 70
     0
280
     1
281
     0
  0
BLOCK_RECORD
  5
7FF5
330
1
100
AcDbSymbolTableRecord
100
AcDbBlockTableRecord
  2
*D28
340
0
 70
     0
280
     1
281
     0
  0
BLOCK_RECORD
  5
8002
330
1
100
AcDbSymbolTableRecord
100
AcDbBlockTableRecord
  2
*D29
340
0
 70
     0
280
     1
281
     0
  0
BLOCK_RECORD
  5
800F
330
1
100
AcDbSymbolTableRecord
100
AcDbBlockTableRecord
  2
*D30
340
0
 70
     0
280
     1
281
     0
  0
BLOCK_RECORD
  5
801B
330
1
100
AcDbSymbolTableRecord
100
AcDbBlockTableRecord
  2
*D31
340
0
 70
     0
280
     1
281
     0
  0
BLOCK_RECORD
  5
8027
330
1
100
AcDbSymbolTableRecord
100
AcDbBlockTableRecord
  2
*D32
340
0
 70
     0
280
     1
281
     0
  0
BLOCK_RECORD
  5
8034
330
1
100
AcDbSymbolTableRecord
100
AcDbBlockTableRecord
  2
*D33
340
0
 70
     0
280
     1
281
     0
  0
BLOCK_RECORD
  5
8041
330
1
100
AcDbSymbolTableRecord
100
AcDbBlockTableRecord
  2
*D34
340
0
 70
     0
280
     1
281
     0
  0
BLOCK_RECORD
  5
804E
330
1
100
AcDbSymbolTableRecord
100
AcDbBlockTableRecord
  2
*D35
340
0
 70
     0
280
     1
281
     0
  0
BLOCK_RECORD
  5
805A
330
1
100
AcDbSymbolTableRecord
100
AcDbBlockTableRecord
  2
*D36
340
0
 70
     0
280
     1
281
     0
  0
BLOCK_RECORD
  5
8067
330
1
100
AcDbSymbolTableRecord
100
AcDbBlockTableRecord
  2
*D37
340
0
 70
     0
280
     1
281
     0
  0
BLOCK_RECORD
  5
8074
330
1
100
AcDbSymbolTableRecord
100
AcDbBlockTableRecord
  2
*D38
340
0
 70
     0
280
     1
281
     0
  0
BLOCK_RECORD
  5
8088
330
1
100
AcDbSymbolTableRecord
100
AcDbBlockTableRecord
  2
*D39
340
0
 70
     0
280
     1
281
     0
  0
BLOCK_RECORD
  5
8099
330
1
100
AcDbSymbolTableRecord
100
AcDbBlockTableRecord
  2
*D40
340
0
 70
     0
280
     1
281
     0
  0
BLOCK_RECORD
  5
80A5
330
1
100
AcDbSymbolTableRecord
100
AcDbBlockTableRecord
  2
*D41
340
0
 70
     0
280
     1
281
     0
  0
BLOCK_RECORD
  5
80AD
330
1
100
AcDbSymbolTableRecord
100
AcDbBlockTableRecord
  2
*D42
340
0
 70
     0
280
     1
281
     0
  0
BLOCK_RECORD
  5
80B7
330
1
100
AcDbSymbolTableRecord
100
AcDbBlockTableRecord
  2
*D43
340
0
 70
     0
280
     1
281
     0
  0
BLOCK_RECORD
  5
80C3
330
1
100
AcDbSymbolTableRecord
100
AcDbBlockTableRecord
  2
*D44
340
0
 70
     0
280
     1
281
     0
  0
BLOCK_RECORD
  5
80D8
330
1
100
AcDbSymbolTableRecord
100
AcDbBlockTableRecord
  2
*D45
340
0
 70
     0
280
     1
281
     0
  0
BLOCK_RECORD
  5
80E4
330
1
100
AcDbSymbolTableRecord
100
AcDbBlockTableRecord
  2
*D46
340
0
 70
     0
280
     1
281
     0
  0
BLOCK_RECORD
  5
80F3
330
1
100
AcDbSymbolTableRecord
100
AcDbBlockTableRecord
  2
*D47
340
0
 70
     0
280
     1
281
     0
  0
BLOCK_RECORD
  5
8112
330
1
100
AcDbSymbolTableRecord
100
AcDbBlockTableRecord
  2
*D48
340
0
 70
     0
280
     1
281
     0
  0
BLOCK_RECORD
  5
811E
330
1
100
AcDbSymbolTableRecord
100
AcDbBlockTableRecord
  2
*D49
340
0
 70
     0
280
     1
281
     0
  0
BLOCK_RECORD
  5
812A
330
1
100
AcDbSymbolTableRecord
100
AcDbBlockTableRecord
  2
*D50
340
0
 70
     0
280
     1
281
     0
  0
BLOCK_RECORD
  5
8137
330
1
100
AcDbSymbolTableRecord
100
AcDbBlockTableRecord
  2
*D51
340
0
 70
     0
280
     1
281
     0
  0
BLOCK_RECORD
  5
8143
330
1
100
AcDbSymbolTableRecord
100
AcDbBlockTableRecord
  2
*D52
340
0
 70
     0
280
     1
281
     0
  0
BLOCK_RECORD
  5
814F
330
1
100
AcDbSymbolTableRecord
100
AcDbBlockTableRecord
  2
*D53
340
0
 70
     0
280
     1
281
     0
  0
BLOCK_RECORD
  5
815B
330
1
100
AcDbSymbolTableRecord
100
AcDbBlockTableRecord
  2
*D54
340
0
 70
     0
280
     1
281
     0
  0
BLOCK_RECORD
  5
81FE
330
1
100
AcDbSymbolTableRecord
100
AcDbBlockTableRecord
  2
*D55
340
0
 70
     0
280
     1
281
     0
  0
BLOCK_RECORD
  5
8618
330
1
100
AcDbSymbolTableRecord
100
AcDbBlockTableRecord
  2
*D56
340
0
 70
     0
280
     1
281
     0
  0
BLOCK_RECORD
  5
8A59
330
1
100
AcDbSymbolTableRecord
100
AcDbBlockTableRecord
  2
*D57
340
0
 70
     0
280
     1
281
     0
  0
ENDTAB
  0
ENDSEC
  0
SECTION
  2
BLOCKS
  0
BLOCK
  5
20
330
1F
100
AcDbEntity
  8
0
100
AcDbBlockBegin
  2
*Model_Space
 70
     0
 10
0.0
 20
0.0
 30
0.0
  3
*Model_Space
  1

  0
ENDBLK
  5
21
330
1F
100
AcDbEntity
  8
0
100
AcDbBlockEnd
  0
BLOCK
  5
5A
330
58
100
AcDbEntity
 67
     1
  8
0
100
AcDbBlockBegin
  2
*Paper_Space
 70
     0
 10
0.0
 20
0.0
 30
0.0
  3
*Paper_Space
  1

  0
ENDBLK
  5
5B
330
58
100
AcDbEntity
 67
     1
  8
0
100
AcDbBlockEnd
  0
BLOCK
  5
5F
330
5D
100
AcDbEntity
 67
     1
  8
0
100
AcDbBlockBegin
  2
*Paper_Space0
 70
     0
 10
0.0
 20
0.0
 30
0.0
  3
*Paper_Space0
  1

  0
ENDBLK
  5
60
330
5D
100
AcDbEntity
 67
     1
  8
0
100
AcDbBlockEnd
  0
BLOCK
  5
7EC4
330
7EBA
100
AcDbEntity
  8
0
100
AcDbBlockBegin
  2
*D1
 70
     1
 10
0.0
 20
0.0
 30
0.0
  3
*D1
  1

  0
LINE
  5
961A
330
7EBA
100
AcDbEntity
  8
DIMJ
 62
     0
440
 16777216
370
    -2
100
AcDbLine
 10
9605.515632871172
 20
245.8618008579779
 30
0.0
 11
9605.515632871172
 21
20.51563107115544
 31
0.0
  0
LINE
  5
961B
330
7EBA
100
AcDbEntity
  8
DIMJ
 62
     0
440
 16777216
370
    -2
100
AcDbLine
 10
9248.515632871175
 20
245.8618008579788
 30
0.0
 11
9248.515632871175
 21
20.51563107115544
 31
0.0
  0
LINE
  5
961C
330
7EBA
100
AcDbEntity
  8
DIMJ
 62
     0
440
 16777216
370
    -2
100
AcDbLine
 10
9580.515632871172
 20
25.51563107115544
 30
0.0
 11
9273.515632871175
 21
25.51563107115544
 31
0.0
  0
SOLID
  5
961D
330
7EBA
100
AcDbEntity
  8
DIMJ
 62
     0
440
 16777216
100
AcDbTrace
 10
9580.515632871172
 20
29.68229773782211
 30
0.0
 11
9580.515632871172
 21
21.34896440448878
 31
0.0
 12
9605.515632871172
 22
25.51563107115544
 32
0.0
 13
9605.515632871172
 23
25.51563107115544
 33
0.0
  0
SOLID
  5
961E
330
7EBA
100
AcDbEntity
  8
DIMJ
 62
     0
440
 16777216
100
AcDbTrace
 10
9273.515632871175
 20
29.68229773782211
 30
0.0
 11
9273.515632871175
 21
21.34896440448878
 31
0.0
 12
9248.515632871175
 22
25.51563107115544
 32
0.0
 13
9248.515632871175
 23
25.51563107115544
 33
0.0
  0
MTEXT
  5
961F
330
7EBA
100
AcDbEntity
  8
DIMJ
 62
     0
440
 16777216
100
AcDbMText
 10
9427.015632871173
 20
48.51563107115544
 30
0.0
 40
30.0
 41
0.0
 46
0.0
 71
     5
 72
     1
  1
\A1;357
 73
     1
 44
1.0
  0
POINT
  5
9620
330
7EBA
100
AcDbEntity
  8
Defpoints
 62
     0
440
 16777216
100
AcDbPoint
 10
9605.515632871172
 20
250.8618008579779
 30
0.0
  0
POINT
  5
9621
330
7EBA
100
AcDbEntity
  8
Defpoints
 62
     0
440
 16777216
100
AcDbPoint
 10
9248.515632871175
 20
250.8618008579788
 30
0.0
  0
POINT
  5
9622
330
7EBA
100
AcDbEntity
  8
Defpoints
 62
     0
440
 16777216
100
AcDbPoint
 10
9248.515632871175
 20
25.51563107115544
 30
0.0
  0
ENDBLK
  5
7EC5
330
7EBA
100
AcDbEntity
  8
0
100
AcDbBlockEnd
  0
BLOCK
  5
7ED0
330
7EC6
100
AcDbEntity
  8
0
100
AcDbBlockBegin
  2
*D2
 70
     1
 10
0.0
 20
0.0
 30
0.0
  3
*D2
  1

  0
LINE
  5
964A
330
7EC6
100
AcDbEntity
  8
DIMJ
 62
     0
440
 16777216
370
    -2
100
AcDbLine
 10
9635.015632871173
 20
1568.388932822841
 30
0.0
 11
9741.557600745721
 21
1568.388932822841
 31
0.0
  0
LINE
  5
964B
330
7EC6
100
AcDbEntity
  8
DIMJ
 62
     0
440
 16777216
370
    -2
100
AcDbLine
 10
9491.015632871173
 20
1339.388932822841
 30
0.0
 11
9741.557600745721
 21
1339.388932822841
 31
0.0
  0
LINE
  5
964C
330
7EC6
100
AcDbEntity
  8
DIMJ
 62
     0
440
 16777216
370
    -2
100
AcDbLine
 10
9736.557600745721
 20
1543.388932822841
 30
0.0
 11
9736.557600745721
 21
1364.388932822841
 31
0.0
  0
SOLID
  5
964D
330
7EC6
100
AcDbEntity
  8
DIMJ
 62
     0
440
 16777216
100
AcDbTrace
 10
9732.390934079056
 20
1543.388932822841
 30
0.0
 11
9740.724267412387
 21
1543.388932822841
 31
0.0
 12
9736.557600745721
 22
1568.388932822841
 32
0.0
 13
9736.557600745721
 23
1568.388932822841
 33
0.0
  0
SOLID
  5
964E
330
7EC6
100
AcDbEntity
  8
DIMJ
 62
     0
440
 16777216
100
AcDbTrace
 10
9732.390934079056
 20
1364.388932822841
 30
0.0
 11
9740.724267412387
 21
1364.388932822841
 31
0.0
 12
9736.557600745721
 22
1339.388932822841
 32
0.0
 13
9736.557600745721
 23
1339.388932822841
 33
0.0
  0
MTEXT
  5
964F
330
7EC6
100
AcDbEntity
  8
DIMJ
 62
     0
440
 16777216
100
AcDbMText
 10
9713.557600745721
 20
1453.888932822843
 30
0.0
 40
30.0
 41
0.0
 46
0.0
 71
     5
 72
     1
  1
\A1;208
 11
0.0000000000000001
 21
1.0
 31
0.0
 73
     1
 44
1.0
  0
POINT
  5
9650
330
7EC6
100
AcDbEntity
  8
Defpoints
 62
     0
440
 16777216
100
AcDbPoint
 10
9630.015632871174
 20
1568.388932822841
 30
0.0
  0
POINT
  5
9651
330
7EC6
100
AcDbEntity
  8
Defpoints
 62
     0
440
 16777216
100
AcDbPoint
 10
9486.015632871172
 20
1339.388932822841
 30
0.0
  0
POINT
  5
9652
330
7EC6
100
AcDbEntity
  8
Defpoints
 62
     0
440
 16777216
100
AcDbPoint
 10
9736.557600745721
 20
1339.388932822841
 30
0.0
  0
ENDBLK
  5
7ED1
330
7EC6
100
AcDbEntity
  8
0
100
AcDbBlockEnd
  0
BLOCK
  5
7EDC
330
7ED2
100
AcDbEntity
  8
0
100
AcDbBlockBegin
  2
*D3
 70
     1
 10
0.0
 20
0.0
 30
0.0
  3
*D3
  1

  0
LINE
  5
9559
330
7ED2
100
AcDbEntity
  8
DIMJ
 62
     0
440
 16777216
370
    -2
100
AcDbLine
 10
9513.190029355234
 20
-254.518500297059
 30
0.0
 11
9513.190029355234
 21
-343.6787184493551
 31
0.0
  0
LINE
  5
955A
330
7ED2
100
AcDbEntity
  8
DIMJ
 62
     0
440
 16777216
370
    -2
100
AcDbLine
 10
9860.08636163098
 20
-254.5185002970594
 30
0.0
 11
9860.08636163098
 21
-343.6787184493551
 31
0.0
  0
LINE
  5
955B
330
7ED2
100
AcDbEntity
  8
DIMJ
 62
     0
440
 16777216
370
    -2
100
AcDbLine
 10
9538.190029355234
 20
-338.6787184493551
 30
0.0
 11
9835.086361630979
 21
-338.6787184493551
 31
0.0
  0
SOLID
  5
955C
330
7ED2
100
AcDbEntity
  8
DIMJ
 62
     0
440
 16777216
100
AcDbTrace
 10
9538.190029355234
 20
-334.5120517826885
 30
0.0
 11
9538.190029355234
 21
-342.8453851160218
 31
0.0
 12
9513.190029355234
 22
-338.6787184493551
 32
0.0
 13
9513.190029355234
 23
-338.6787184493551
 33
0.0
  0
SOLID
  5
955D
330
7ED2
100
AcDbEntity
  8
DIMJ
 62
     0
440
 16777216
100
AcDbTrace
 10
9835.086361630979
 20
-334.5120517826885
 30
0.0
 11
9835.086361630979
 21
-342.8453851160218
 31
0.0
 12
9860.08636163098
 22
-338.6787184493551
 32
0.0
 13
9860.08636163098
 23
-338.6787184493551
 33
0.0
  0
MTEXT
  5
955E
330
7ED2
100
AcDbEntity
  8
DIMJ
 62
     0
440
 16777216
100
AcDbMText
 10
9686.638195493108
 20
-315.6787184493552
 30
0.0
 40
30.0
 41
0.0
 46
0.0
 71
     5
 72
     1
  1
\A1;Φ94
 73
     1
 44
1.0
  0
POINT
  5
955F
330
7ED2
100
AcDbEntity
  8
Defpoints
 62
     0
440
 16777216
100
AcDbPoint
 10
9513.190029355234
 20
-249.518500297059
 30
0.0
  0
POINT
  5
9560
330
7ED2
100
AcDbEntity
  8
Defpoints
 62
     0
440
 16777216
100
AcDbPoint
 10
9860.08636163098
 20
-249.5185002970593
 30
0.0
  0
POINT
  5
9561
330
7ED2
100
AcDbEntity
  8
Defpoints
 62
     0
440
 16777216
100
AcDbPoint
 10
9860.08636163098
 20
-338.6787184493551
 30
0.0
  0
ENDBLK
  5
7EDD
330
7ED2
100
AcDbEntity
  8
0
100
AcDbBlockEnd
  0
BLOCK
  5
7EE8
330
7EDE
100
AcDbEntity
  8
0
100
AcDbBlockBegin
  2
*D4
 70
     1
 10
0.0
 20
0.0
 30
0.0
  3
*D4
  1

  0
LINE
  5
9562
330
7EDE
100
AcDbEntity
  8
DIMJ
 62
     0
440
 16777216
370
    -2
100
AcDbLine
 10
9477.334195493105
 20
-232.8536696076947
 30
0.0
 11
9477.334195493105
 21
-149.3317345459918
 31
0.0
  0
LINE
  5
9563
330
7EDE
100
AcDbEntity
  8
DIMJ
 62
     0
440
 16777216
370
    -2
100
AcDbLine
 10
9895.942195493107
 20
-232.8536696076947
 30
0.0
 11
9895.942195493107
 21
-149.3317345459918
 31
0.0
  0
LINE
  5
9564
330
7EDE
100
AcDbEntity
  8
DIMJ
 62
     0
440
 16777216
370
    -2
100
AcDbLine
 10
9502.334195493105
 20
-154.3317345459918
 30
0.0
 11
9870.942195493107
 21
-154.3317345459918
 31
0.0
  0
SOLID
  5
9565
330
7EDE
100
AcDbEntity
  8
DIMJ
 62
     0
440
 16777216
100
AcDbTrace
 10
9502.334195493105
 20
-150.1650678793251
 30
0.0
 11
9502.334195493105
 21
-158.4984012126585
 31
0.0
 12
9477.334195493105
 22
-154.3317345459918
 32
0.0
 13
9477.334195493105
 23
-154.3317345459918
 33
0.0
  0
SOLID
  5
9566
330
7EDE
100
AcDbEntity
  8
DIMJ
 62
     0
440
 16777216
100
AcDbTrace
 10
9870.942195493107
 20
-150.1650678793251
 30
0.0
 11
9870.942195493107
 21
-158.4984012126585
 31
0.0
 12
9895.942195493107
 22
-154.3317345459918
 32
0.0
 13
9895.942195493107
 23
-154.3317345459918
 33
0.0
  0
MTEXT
  5
9567
330
7EDE
100
AcDbEntity
  8
DIMJ
 62
     0
440
 16777216
100
AcDbMText
 10
9686.638195493106
 20
-131.3317345459918
 30
0.0
 40
30.0
 41
0.0
 46
0.0
 71
     5
 72
     1
  1
\A1;Φ114
 73
     1
 44
1.0
  0
POINT
  5
9568
330
7EDE
100
AcDbEntity
  8
Defpoints
 62
     0
440
 16777216
100
AcDbPoint
 10
9477.334195493105
 20
-237.8536696076947
 30
0.0
  0
POINT
  5
9569
330
7EDE
100
AcDbEntity
  8
Defpoints
 62
     0
440
 16777216
100
AcDbPoint
 10
9895.942195493107
 20
-237.8536696076947
 30
0.0
  0
POINT
  5
956A
330
7EDE
100
AcDbEntity
  8
Defpoints
 62
     0
440
 16777216
100
AcDbPoint
 10
9895.942195493107
 20
-154.3317345459918
 30
0.0
  0
ENDBLK
  5
7EE9
330
7EDE
100
AcDbEntity
  8
0
100
AcDbBlockEnd
  0
BLOCK
  5
7EF4
330
7EEA
100
AcDbEntity
  8
0
100
AcDbBlockBegin
  2
*D5
 70
     1
 10
0.0
 20
0.0
 30
0.0
  3
*D5
  1

  0
LINE
  5
956B
330
7EEA
100
AcDbEntity
  8
DIMJ
 62
     0
440
 16777216
370
    -2
100
AcDbLine
 10
9465.97216261175
 20
-236.1022469844503
 30
0.0
 11
9465.97216261175
 21
-411.4172313835707
 31
0.0
  0
LINE
  5
956C
330
7EEA
100
AcDbEntity
  8
DIMJ
 62
     0
440
 16777216
370
    -2
100
AcDbLine
 10
9907.304228374462
 20
-236.1022469844504
 30
0.0
 11
9907.304228374462
 21
-411.4172313835707
 31
0.0
  0
LINE
  5
956D
330
7EEA
100
AcDbEntity
  8
DIMJ
 62
     0
440
 16777216
370
    -2
100
AcDbLine
 10
9490.97216261175
 20
-406.4172313835707
 30
0.0
 11
9882.304228374461
 21
-406.4172313835707
 31
0.0
  0
SOLID
  5
956E
330
7EEA
100
AcDbEntity
  8
DIMJ
 62
     0
440
 16777216
100
AcDbTrace
 10
9490.97216261175
 20
-402.250564716904
 30
0.0
 11
9490.97216261175
 21
-410.5838980502374
 31
0.0
 12
9465.97216261175
 22
-406.4172313835707
 32
0.0
 13
9465.97216261175
 23
-406.4172313835707
 33
0.0
  0
SOLID
  5
956F
330
7EEA
100
AcDbEntity
  8
DIMJ
 62
     0
440
 16777216
100
AcDbTrace
 10
9882.304228374461
 20
-402.250564716904
 30
0.0
 11
9882.304228374461
 21
-410.5838980502374
 31
0.0
 12
9907.304228374462
 22
-406.4172313835707
 32
0.0
 13
9907.304228374462
 23
-406.4172313835707
 33
0.0
  0
MTEXT
  5
9570
330
7EEA
100
AcDbEntity
  8
DIMJ
 62
     0
440
 16777216
100
AcDbMText
 10
9686.638195493106
 20
-383.4172313835708
 30
0.0
 40
30.0
 41
0.0
 46
0.0
 71
     5
 72
     1
  1
\A1;Φ119
 73
     1
 44
1.0
  0
POINT
  5
9571
330
7EEA
100
AcDbEntity
  8
Defpoints
 62
     0
440
 16777216
100
AcDbPoint
 10
9465.97216261175
 20
-231.1022469844504
 30
0.0
  0
POINT
  5
9572
330
7EEA
100
AcDbEntity
  8
Defpoints
 62
     0
440
 16777216
100
AcDbPoint
 10
9907.304228374462
 20
-231.1022469844504
 30
0.0
  0
POINT
  5
9573
330
7EEA
100
AcDbEntity
  8
Defpoints
 62
     0
440
 16777216
100
AcDbPoint
 10
9907.304228374462
 20
-406.4172313835707
 30
0.0
  0
ENDBLK
  5
7EF5
330
7EEA
100
AcDbEntity
  8
0
100
AcDbBlockEnd
  0
BLOCK
  5
7F01
330
7EF6
100
AcDbEntity
  8
0
100
AcDbBlockBegin
  2
*D6
 70
     1
 10
0.0
 20
0.0
 30
0.0
  3
*D6
  1

  0
LINE
  5
9574
330
7EF6
100
AcDbEntity
  8
DIMJ
 62
     0
440
 16777216
370
    -2
100
AcDbLine
 10
9472.334195493106
 20
-237.8536696076947
 30
0.0
 11
9350.196260694469
 21
-237.8536696076947
 31
0.0
  0
LINE
  5
9575
330
7EF6
100
AcDbEntity
  8
DIMJ
 62
     0
440
 16777216
370
    -2
100
AcDbLine
 10
9463.154195493105
 20
-226.8376696076948
 30
0.0
 11
9350.196260694469
 21
-226.8376696076947
 31
0.0
  0
LINE
  5
9576
330
7EF6
100
AcDbEntity
  8
DIMJ
 62
     0
440
 16777216
370
    -2
100
AcDbLine
 10
9355.196260694468
 20
-262.8536696076947
 30
0.0
 11
9355.196260694468
 21
-287.8536696076947
 31
0.0
  0
LINE
  5
9577
330
7EF6
100
AcDbEntity
  8
DIMJ
 62
     0
440
 16777216
370
    -2
100
AcDbLine
 10
9355.196260694468
 20
-201.8376696076947
 30
0.0
 11
9355.196260694468
 21
-149.8106425806677
 31
0.0
  0
SOLID
  5
9578
330
7EF6
100
AcDbEntity
  8
DIMJ
 62
     0
440
 16777216
100
AcDbTrace
 10
9351.029594027803
 20
-262.8536696076947
 30
0.0
 11
9359.362927361136
 21
-262.8536696076947
 31
0.0
 12
9355.196260694468
 22
-237.8536696076947
 32
0.0
 13
9355.196260694468
 23
-237.8536696076947
 33
0.0
  0
SOLID
  5
9579
330
7EF6
100
AcDbEntity
  8
DIMJ
 62
     0
440
 16777216
100
AcDbTrace
 10
9351.029594027803
 20
-201.8376696076947
 30
0.0
 11
9359.362927361136
 21
-201.8376696076947
 31
0.0
 12
9355.196260694468
 22
-226.8376696076947
 32
0.0
 13
9355.196260694468
 23
-226.8376696076947
 33
0.0
  0
MTEXT
  5
957A
330
7EF6
100
AcDbEntity
  8
DIMJ
 62
     0
440
 16777216
100
AcDbMText
 10
9332.19626069447
 20
-163.3241560941797
 30
0.0
 40
30.0
 41
0.0
 46
0.0
 71
     5
 72
     1
  1
\A1;3
 11
0.0000000000000001
 21
1.0
 31
0.0
 73
     1
 44
1.0
  0
POINT
  5
957B
330
7EF6
100
AcDbEntity
  8
Defpoints
 62
     0
440
 16777216
100
AcDbPoint
 10
9477.334195493105
 20
-237.8536696076947
 30
0.0
  0
POINT
  5
957C
330
7EF6
100
AcDbEntity
  8
Defpoints
 62
     0
440
 16777216
100
AcDbPoint
 10
9468.154195493104
 20
-226.8376696076948
 30
0.0
  0
POINT
  5
957D
330
7EF6
100
AcDbEntity
  8
Defpoints
 62
     0
440
 16777216
100
AcDbPoint
 10
9355.196260694468
 20
-226.8376696076947
 30
0.0
  0
ENDBLK
  5
7F02
330
7EF6
100
AcDbEntity
  8
0
100
AcDbBlockEnd
  0
BLOCK
  5
7F0E
330
7F03
100
AcDbEntity
  8
0
100
AcDbBlockBegin
  2
*D7
 70
     1
 10
0.0
 20
0.0
 30
0.0
  3
*D7
  1

  0
LINE
  5
957E
330
7F03
100
AcDbEntity
  8
DIMJ
 62
     0
440
 16777216
370
    -2
100
AcDbLine
 10
9463.154195493105
 20
-226.8376696076948
 30
0.0
 11
9295.253385355273
 21
-226.8376696076947
 31
0.0
  0
LINE
  5
957F
330
7F03
100
AcDbEntity
  8
DIMJ
 62
     0
440
 16777216
370
    -2
100
AcDbLine
 10
9509.054195493106
 20
-245.1976696076948
 30
0.0
 11
9295.253385355273
 21
-245.1976696076947
 31
0.0
  0
LINE
  5
9580
330
7F03
100
AcDbEntity
  8
DIMJ
 62
     0
440
 16777216
370
    -2
100
AcDbLine
 10
9300.253385355274
 20
-201.8376696076947
 30
0.0
 11
9300.253385355274
 21
-176.8376696076947
 31
0.0
  0
LINE
  5
9581
330
7F03
100
AcDbEntity
  8
DIMJ
 62
     0
440
 16777216
370
    -2
100
AcDbLine
 10
9300.253385355274
 20
-270.1976696076947
 30
0.0
 11
9300.253385355274
 21
-322.3625344725596
 31
0.0
  0
SOLID
  5
9582
330
7F03
100
AcDbEntity
  8
DIMJ
 62
     0
440
 16777216
100
AcDbTrace
 10
9296.086718688608
 20
-201.8376696076947
 30
0.0
 11
9304.42005202194
 21
-201.8376696076947
 31
0.0
 12
9300.253385355274
 22
-226.8376696076947
 32
0.0
 13
9300.253385355274
 23
-226.8376696076947
 33
0.0
  0
SOLID
  5
9583
330
7F03
100
AcDbEntity
  8
DIMJ
 62
     0
440
 16777216
100
AcDbTrace
 10
9296.086718688608
 20
-270.1976696076947
 30
0.0
 11
9304.42005202194
 21
-270.1976696076947
 31
0.0
 12
9300.253385355274
 22
-245.1976696076947
 32
0.0
 13
9300.253385355274
 23
-245.1976696076947
 33
0.0
  0
MTEXT
  5
9584
330
7F03
100
AcDbEntity
  8
DIMJ
 62
     0
440
 16777216
100
AcDbMText
 10
9277.253385355274
 20
-308.7801020401256
 30
0.0
 40
30.0
 41
0.0
 46
0.0
 71
     5
 72
     1
  1
\A1;5
 11
0.0000000000000001
 21
1.0
 31
0.0
 73
     1
 44
1.0
  0
POINT
  5
9585
330
7F03
100
AcDbEntity
  8
Defpoints
 62
     0
440
 16777216
100
AcDbPoint
 10
9468.154195493104
 20
-226.8376696076948
 30
0.0
  0
POINT
  5
9586
330
7F03
100
AcDbEntity
  8
Defpoints
 62
     0
440
 16777216
100
AcDbPoint
 10
9514.054195493107
 20
-245.1976696076948
 30
0.0
  0
POINT
  5
9587
330
7F03
100
AcDbEntity
  8
Defpoints
 62
     0
440
 16777216
100
AcDbPoint
 10
9300.253385355274
 20
-245.1976696076947
 30
0.0
  0
ENDBLK
  5
7F0F
330
7F03
100
AcDbEntity
  8
0
100
AcDbBlockEnd
  0
BLOCK
  5
7F1B
330
7F10
100
AcDbEntity
  8
0
100
AcDbBlockBegin
  2
*D8
 70
     1
 10
0.0
 20
0.0
 30
0.0
  3
*D8
  1

  0
LINE
  5
9588
330
7F10
100
AcDbEntity
  8
DIMJ
 62
     0
440
 16777216
370
    -2
100
AcDbLine
 10
8378.696396795998
 20
-384.678760761714
 30
0.0
 11
8277.820417882171
 21
-384.6787607617139
 31
0.0
  0
LINE
  5
9589
330
7F10
100
AcDbEntity
  8
DIMJ
 62
     0
440
 16777216
370
    -2
100
AcDbLine
 10
8353.529849173915
 20
-414.5122131396296
 30
0.0
 11
8277.820417882171
 21
-414.5122131396295
 31
0.0
  0
LINE
  5
958A
330
7F10
100
AcDbEntity
  8
DIMJ
 62
     0
440
 16777216
370
    -2
100
AcDbLine
 10
8282.82041788217
 20
-359.6787607617139
 30
0.0
 11
8282.82041788217
 21
-334.6787607617139
 31
0.0
  0
LINE
  5
958B
330
7F10
100
AcDbEntity
  8
DIMJ
 62
     0
440
 16777216
370
    -2
100
AcDbLine
 10
8282.82041788217
 20
-439.5122131396295
 30
0.0
 11
8282.82041788217
 21
-464.5122131396295
 31
0.0
  0
SOLID
  5
958C
330
7F10
100
AcDbEntity
  8
DIMJ
 62
     0
440
 16777216
100
AcDbTrace
 10
8278.653751215506
 20
-359.6787607617139
 30
0.0
 11
8286.987084548837
 21
-359.6787607617139
 31
0.0
 12
8282.82041788217
 22
-384.6787607617139
 32
0.0
 13
8282.82041788217
 23
-384.6787607617139
 33
0.0
  0
SOLID
  5
958D
330
7F10
100
AcDbEntity
  8
DIMJ
 62
     0
440
 16777216
100
AcDbTrace
 10
8278.653751215506
 20
-439.5122131396295
 30
0.0
 11
8286.987084548837
 21
-439.5122131396295
 31
0.0
 12
8282.82041788217
 22
-414.5122131396295
 32
0.0
 13
8282.82041788217
 23
-414.5122131396295
 33
0.0
  0
MTEXT
  5
958E
330
7F10
100
AcDbEntity
  8
DIMJ
 62
     0
440
 16777216
100
AcDbMText
 10
8259.820417882171
 20
-399.5954869506704
 30
0.0
 40
30.0
 41
0.0
 46
0.0
 71
     5
 72
     1
  1
\A1;5
 11
0.0000000000000001
 21
1.0
 31
0.0
 73
     1
 44
1.0
  0
POINT
  5
958F
330
7F10
100
AcDbEntity
  8
Defpoints
 62
     0
440
 16777216
100
AcDbPoint
 10
8383.696396795999
 20
-384.678760761714
 30
0.0
  0
POINT
  5
9590
330
7F10
100
AcDbEntity
  8
Defpoints
 62
     0
440
 16777216
100
AcDbPoint
 10
8358.529849173917
 20
-414.5122131396296
 30
0.0
  0
POINT
  5
9591
330
7F10
100
AcDbEntity
  8
Defpoints
 62
     0
440
 16777216
100
AcDbPoint
 10
8282.82041788217
 20
-414.5122131396295
 30
0.0
  0
ENDBLK
  5
7F1C
330
7F10
100
AcDbEntity
  8
0
100
AcDbBlockEnd
  0
BLOCK
  5
7F28
330
7F1D
100
AcDbEntity
  8
0
100
AcDbBlockBegin
  2
*D9
 70
     1
 10
0.0
 20
0.0
 30
0.0
  3
*D9
  1

  0
LINE
  5
9592
330
7F1D
100
AcDbEntity
  8
DIMJ
 62
     0
440
 16777216
370
    -2
100
AcDbLine
 10
8356.196396795999
 20
-407.178760761714
 30
0.0
 11
8356.196396795999
 21
-320.2067749984441
 31
0.0
  0
LINE
  5
9593
330
7F1D
100
AcDbEntity
  8
DIMJ
 62
     0
440
 16777216
370
    -2
100
AcDbLine
 10
8383.696396795999
 20
-379.678760761714
 30
0.0
 11
8383.696396795999
 21
-320.2067749984441
 31
0.0
  0
LINE
  5
9594
330
7F1D
100
AcDbEntity
  8
DIMJ
 62
     0
440
 16777216
370
    -2
100
AcDbLine
 10
8331.196396795998
 20
-325.2067749984441
 30
0.0
 11
8306.196396795998
 21
-325.2067749984441
 31
0.0
  0
LINE
  5
9595
330
7F1D
100
AcDbEntity
  8
DIMJ
 62
     0
440
 16777216
370
    -2
100
AcDbLine
 10
8408.696396795999
 20
-325.2067749984441
 30
0.0
 11
8433.696396795999
 21
-325.2067749984441
 31
0.0
  0
SOLID
  5
9596
330
7F1D
100
AcDbEntity
  8
DIMJ
 62
     0
440
 16777216
100
AcDbTrace
 10
8331.196396795998
 20
-321.0401083317774
 30
0.0
 11
8331.196396795998
 21
-329.3734416651107
 31
0.0
 12
8356.196396795999
 22
-325.2067749984441
 32
0.0
 13
8356.196396795999
 23
-325.2067749984441
 33
0.0
  0
SOLID
  5
9597
330
7F1D
100
AcDbEntity
  8
DIMJ
 62
     0
440
 16777216
100
AcDbTrace
 10
8408.696396795999
 20
-321.0401083317774
 30
0.0
 11
8408.696396795999
 21
-329.3734416651107
 31
0.0
 12
8383.696396795999
 22
-325.2067749984441
 32
0.0
 13
8383.696396795999
 23
-325.2067749984441
 33
0.0
  0
MTEXT
  5
9598
330
7F1D
100
AcDbEntity
  8
DIMJ
 62
     0
440
 16777216
100
AcDbMText
 10
8369.946396795999
 20
-302.2067749984441
 30
0.0
 40
30.0
 41
0.0
 46
0.0
 71
     5
 72
     1
  1
\A1;5
 73
     1
 44
1.0
  0
POINT
  5
9599
330
7F1D
100
AcDbEntity
  8
Defpoints
 62
     0
440
 16777216
100
AcDbPoint
 10
8356.196396795999
 20
-412.178760761714
 30
0.0
  0
POINT
  5
959A
330
7F1D
100
AcDbEntity
  8
Defpoints
 62
     0
440
 16777216
100
AcDbPoint
 10
8383.696396795999
 20
-384.678760761714
 30
0.0
  0
POINT
  5
959B
330
7F1D
100
AcDbEntity
  8
Defpoints
 62
     0
440
 16777216
100
AcDbPoint
 10
8383.696396795999
 20
-325.2067749984441
 30
0.0
  0
ENDBLK
  5
7F29
330
7F1D
100
AcDbEntity
  8
0
100
AcDbBlockEnd
  0
BLOCK
  5
7F34
330
7F2A
100
AcDbEntity
  8
0
100
AcDbBlockBegin
  2
*D10
 70
     1
 10
0.0
 20
0.0
 30
0.0
  3
*D10
  1

  0
LINE
  5
959C
330
7F2A
100
AcDbEntity
  8
DIMJ
 62
     0
440
 16777216
370
    -2
100
AcDbLine
 10
8466.196396795998
 20
-379.678760761714
 30
0.0
 11
8466.196396795998
 21
-268.8757036423
 31
0.0
  0
LINE
  5
959D
330
7F2A
100
AcDbEntity
  8
DIMJ
 62
     0
440
 16777216
370
    -2
100
AcDbLine
 10
8383.696396795999
 20
-379.678760761714
 30
0.0
 11
8383.696396795999
 21
-268.8757036423
 31
0.0
  0
LINE
  5
959E
330
7F2A
100
AcDbEntity
  8
DIMJ
 62
     0
440
 16777216
370
    -2
100
AcDbLine
 10
8441.196396795998
 20
-273.8757036423
 30
0.0
 11
8408.696396795999
 21
-273.8757036423
 31
0.0
  0
SOLID
  5
959F
330
7F2A
100
AcDbEntity
  8
DIMJ
 62
     0
440
 16777216
100
AcDbTrace
 10
8441.196396795998
 20
-269.7090369756333
 30
0.0
 11
8441.196396795998
 21
-278.0423703089667
 31
0.0
 12
8466.196396795998
 22
-273.8757036423
 32
0.0
 13
8466.196396795998
 23
-273.8757036423
 33
0.0
  0
SOLID
  5
95A0
330
7F2A
100
AcDbEntity
  8
DIMJ
 62
     0
440
 16777216
100
AcDbTrace
 10
8408.696396795999
 20
-269.7090369756333
 30
0.0
 11
8408.696396795999
 21
-278.0423703089667
 31
0.0
 12
8383.696396795999
 22
-273.8757036423
 32
0.0
 13
8383.696396795999
 23
-273.8757036423
 33
0.0
  0
MTEXT
  5
95A1
330
7F2A
100
AcDbEntity
  8
DIMJ
 62
     0
440
 16777216
100
AcDbMText
 10
8424.946396795998
 20
-250.8757036423
 30
0.0
 40
30.0
 41
0.0
 46
0.0
 71
     5
 72
     1
  1
\A1;15
 73
     1
 44
1.0
  0
POINT
  5
95A2
330
7F2A
100
AcDbEntity
  8
Defpoints
 62
     0
440
 16777216
100
AcDbPoint
 10
8466.196396795998
 20
-384.678760761714
 30
0.0
  0
POINT
  5
95A3
330
7F2A
100
AcDbEntity
  8
Defpoints
 62
     0
440
 16777216
100
AcDbPoint
 10
8383.696396795999
 20
-384.678760761714
 30
0.0
  0
POINT
  5
95A4
330
7F2A
100
AcDbEntity
  8
Defpoints
 62
     0
440
 16777216
100
AcDbPoint
 10
8383.696396795999
 20
-273.8757036423
 30
0.0
  0
ENDBLK
  5
7F35
330
7F2A
100
AcDbEntity
  8
0
100
AcDbBlockEnd
  0
BLOCK
  5
7F3C
330
7F36
100
AcDbEntity
  8
0
100
AcDbBlockBegin
  2
*D11
 70
     1
 10
0.0
 20
0.0
 30
0.0
  3
*D11
  1

  0
LINE
  5
96B4
330
7F36
100
AcDbEntity
  8
DIMJ
 62
     0
440
 16777216
370
    -2
100
AcDbLine
 10
9038.288348573725
 20
616.9133914363593
 30
0.0
 11
8898.254474464669
 21
594.8621228051246
 31
0.0
  0
MTEXT
  5
96B5
330
7F36
100
AcDbEntity
  8
DIMJ
 62
     0
440
 16777216
100
AcDbMText
 10
8977.041508785266
 20
630.552213205231
 30
0.0
 40
30.0
 41
0.0
 46
0.0
 71
     5
 72
     1
  1
\A1;8-R250
 11
0.9878273706955276
 21
0.1555541246793554
 31
0.0
 73
     1
 44
1.0
  0
SOLID
  5
96B6
330
7F36
100
AcDbEntity
  8
DIMJ
 62
     0
440
 16777216
100
AcDbTrace
 10
8897.606332278506
 20
598.9780701830225
 30
0.0
 11
8898.902616650834
 21
590.7461754272266
 31
0.0
 12
8873.558790197282
 22
590.9732696881406
 32
0.0
 13
8873.558790197282
 23
590.9732696881406
 33
0.0
  0
POINT
  5
96B7
330
7F36
100
AcDbEntity
  8
Defpoints
 62
     0
440
 16777216
100
AcDbPoint
 10
8873.558790197282
 20
590.9732696881406
 30
0.0
  0
POINT
  5
96B8
330
7F36
100
AcDbEntity
  8
Defpoints
 62
     0
440
 16777216
100
AcDbPoint
 10
9120.515632871164
 20
629.8618008579801
 30
0.0
  0
ENDBLK
  5
7F3D
330
7F36
100
AcDbEntity
  8
0
100
AcDbBlockEnd
  0
BLOCK
  5
7F44
330
7F3E
100
AcDbEntity
  8
0
100
AcDbBlockBegin
  2
*D12
 70
     1
 10
0.0
 20
0.0
 30
0.0
  3
*D12
  1

  0
LINE
  5
96B9
330
7F3E
100
AcDbEntity
  8
DIMJ
 62
     0
440
 16777216
370
    -2
100
AcDbLine
 10
9415.372424409044
 20
434.8860369473626
 30
0.0
 11
9273.778722436656
 21
441.7393505979458
 31
0.0
  0
MTEXT
  5
96BA
330
7F3E
100
AcDbEntity
  8
DIMJ
 62
     0
440
 16777216
100
AcDbMText
 10
9358.172884642632
 20
460.6814918537404
 30
0.0
 40
30.0
 41
0.0
 46
0.0
 71
     5
 72
     1
  1
\A1;8-R250
 11
0.9988307130423217
 21
-0.0483446655109661
 31
0.0
 73
     1
 44
1.0
  0
SOLID
  5
96BB
330
7F3E
100
AcDbEntity
  8
DIMJ
 62
     0
440
 16777216
100
AcDbTrace
 10
9273.980158542951
 20
445.901145235622
 30
0.0
 11
9273.577286330359
 21
437.5775559602694
 31
0.0
 12
9248.807954610596
 22
442.9479672357199
 32
0.0
 13
9248.807954610596
 23
442.9479672357199
 33
0.0
  0
POINT
  5
96BC
330
7F3E
100
AcDbEntity
  8
Defpoints
 62
     0
440
 16777216
100
AcDbPoint
 10
9248.807954610596
 20
442.9479672357199
 30
0.0
  0
POINT
  5
96BD
330
7F3E
100
AcDbEntity
  8
Defpoints
 62
     0
440
 16777216
100
AcDbPoint
 10
9498.515632871184
 20
430.861800857978
 30
0.0
  0
ENDBLK
  5
7F45
330
7F3E
100
AcDbEntity
  8
0
100
AcDbBlockEnd
  0
BLOCK
  5
7F4C
330
7F46
100
AcDbEntity
  8
0
100
AcDbBlockBegin
  2
*D13
 70
     1
 10
0.0
 20
0.0
 30
0.0
  3
*D13
  1

  0
LINE
  5
96BE
330
7F46
100
AcDbEntity
  8
DIMJ
 62
     0
440
 16777216
370
    -2
100
AcDbLine
 10
9349.698387886553
 20
274.2635523826454
 30
0.0
 11
9340.638059882545
 21
166.6551166622135
 31
0.0
  0
MTEXT
  5
96BF
330
7F46
100
AcDbEntity
  8
DIMJ
 62
     0
440
 16777216
100
AcDbMText
 10
9323.298072443904
 20
234.8449688832523
 30
0.0
 40
30.0
 41
0.0
 46
0.0
 71
     5
 72
     1
  1
\A1;R250
 11
0.083900324393886
 21
0.9964741519811743
 31
0.0
 73
     1
 44
1.0
  0
SOLID
  5
96C0
330
7F46
100
AcDbEntity
  8
DIMJ
 62
     0
440
 16777216
100
AcDbTrace
 10
9336.486084249292
 20
167.0047013471879
 30
0.0
 11
9344.790035515799
 21
166.305531977239
 31
0.0
 12
9338.5405517727
 22
141.7432628626842
 32
0.0
 13
9338.5405517727
 23
141.7432628626842
 33
0.0
  0
POINT
  5
96C1
330
7F46
100
AcDbEntity
  8
Defpoints
 62
     0
440
 16777216
100
AcDbPoint
 10
9338.5405517727
 20
141.7432628626842
 30
0.0
  0
POINT
  5
96C2
330
7F46
100
AcDbEntity
  8
Defpoints
 62
     0
440
 16777216
100
AcDbPoint
 10
9359.51563287117
 20
390.8618008579775
 30
0.0
  0
ENDBLK
  5
7F4D
330
7F46
100
AcDbEntity
  8
0
100
AcDbBlockEnd
  0
BLOCK
  5
7F54
330
7F4E
100
AcDbEntity
  8
0
100
AcDbBlockBegin
  2
*D14
 70
     1
 10
0.0
 20
0.0
 30
0.0
  3
*D14
  1

  0
LINE
  5
974E
330
7F4E
100
AcDbEntity
  8
DIMJ
 62
     0
440
 16777216
370
    -2
100
AcDbLine
 10
9140.178590607126
 20
384.4267228289409
 30
0.0
 11
9191.206764578652
 21
458.480540180557
 31
0.0
  0
MTEXT
  5
974F
330
7F4E
100
AcDbEntity
  8
DIMJ
 62
     0
440
 16777216
100
AcDbMText
 10
9139.661023489791
 20
424.2109825264288
 30
0.0
 40
30.0
 41
0.0
 46
0.0
 71
     5
 72
     1
  1
\A1;R13
 11
0.5674056910432349
 21
0.8234383897850216
 31
0.0
 73
     1
 44
1.0
  0
SOLID
  5
9750
330
7F4E
100
AcDbEntity
  8
DIMJ
 62
     0
440
 16777216
100
AcDbTrace
 10
9187.775771287881
 20
460.8447305599038
 30
0.0
 11
9194.637757869422
 21
456.1163498012101
 31
0.0
 12
9205.391906854734
 22
479.0664999251821
 32
0.0
 13
9205.391906854734
 23
479.0664999251821
 33
0.0
  0
POINT
  5
9751
330
7F4E
100
AcDbEntity
  8
Defpoints
 62
     0
440
 16777216
100
AcDbPoint
 10
9205.391906854734
 20
479.0664999251821
 30
0.0
  0
POINT
  5
9752
330
7F4E
100
AcDbEntity
  8
Defpoints
 62
     0
440
 16777216
100
AcDbPoint
 10
9198.015632871172
 20
468.3618008579778
 30
0.0
  0
ENDBLK
  5
7F55
330
7F4E
100
AcDbEntity
  8
0
100
AcDbBlockEnd
  0
BLOCK
  5
7F5E
330
7F56
100
AcDbEntity
  8
0
100
AcDbBlockBegin
  2
*D15
 70
     1
 10
0.0
 20
0.0
 30
0.0
  3
*D15
  1

  0
LINE
  5
A19D
330
7F56
100
AcDbEntity
  8
DIMJ
 62
     0
440
 16777216
370
    -2
100
AcDbLine
 10
8720.82401384655
 20
378.4135269095759
 30
0.0
 11
8825.076715422202
 21
476.2501334857206
 31
0.0
  0
MTEXT
  5
A19E
330
7F56
100
AcDbEntity
  8
DIMJ
 62
     0
440
 16777216
100
AcDbMText
 10
8740.92053963357
 20
428.8151224116891
 30
0.0
 40
30.0
 41
0.0
 46
0.0
 71
     5
 72
     1
  1
\A1;4-R38
 11
0.7291891658567074
 21
0.6843121805120813
 31
0.0
 73
     1
 44
1.0
  0
SOLID
  5
A19F
330
7F56
100
AcDbEntity
  8
DIMJ
 62
     0
440
 16777216
100
AcDbTrace
 10
8822.22541467007
 20
479.2884216767897
 30
0.0
 11
8827.928016174336
 21
473.2118452946506
 31
0.0
 12
8843.30644456862
 22
493.3579379985221
 32
0.0
 13
8843.30644456862
 23
493.3579379985221
 33
0.0
  0
LINE
  5
A1A0
330
7F56
100
AcDbEntity
  8
DIMJ
 62
     0
440
 16777216
370
    -2
100
AcDbLine
 10
8867.015632871172
 20
519.3618008579806
 30
0.0
 11
8875.015632871173
 21
519.3618008579806
 31
0.0
  0
LINE
  5
A1A1
330
7F56
100
AcDbEntity
  8
DIMJ
 62
     0
440
 16777216
370
    -2
100
AcDbLine
 10
8871.015632871174
 20
515.3618008579806
 30
0.0
 11
8871.015632871174
 21
523.3618008579806
 31
0.0
  0
POINT
  5
A1A2
330
7F56
100
AcDbEntity
  8
Defpoints
 62
     0
440
 16777216
100
AcDbPoint
 10
8843.30644456862
 20
493.3579379985221
 30
0.0
  0
POINT
  5
A1A3
330
7F56
100
AcDbEntity
  8
Defpoints
 62
     0
440
 16777216
100
AcDbPoint
 10
8871.015632871174
 20
519.3618008579797
 30
0.0
  0
ENDBLK
  5
7F5F
330
7F56
100
AcDbEntity
  8
0
100
AcDbBlockEnd
  0
BLOCK
  5
7F6A
330
7F60
100
AcDbEntity
  8
0
100
AcDbBlockBegin
  2
*D16
 70
     1
 10
0.0
 20
0.0
 30
0.0
  3
*D16
  1

  0
LINE
  5
96CF
330
7F60
100
AcDbEntity
  8
DIMJ
 62
     0
440
 16777216
370
    -2
100
AcDbLine
 10
9648.015632871171
 20
525.3618008579776
 30
0.0
 11
9836.543795953302
 21
525.3618008579776
 31
0.0
  0
LINE
  5
96D0
330
7F60
100
AcDbEntity
  8
DIMJ
 62
     0
440
 16777216
370
    -2
100
AcDbLine
 10
9610.015632871171
 20
103.3618008579787
 30
0.0
 11
9836.543795953302
 21
103.3618008579787
 31
0.0
  0
LINE
  5
96D1
330
7F60
100
AcDbEntity
  8
DIMJ
 62
     0
440
 16777216
370
    -2
100
AcDbLine
 10
9831.543795953301
 20
500.3618008579776
 30
0.0
 11
9831.543795953301
 21
128.3618008579787
 31
0.0
  0
SOLID
  5
96D2
330
7F60
100
AcDbEntity
  8
DIMJ
 62
     0
440
 16777216
100
AcDbTrace
 10
9827.377129286636
 20
500.3618008579776
 30
0.0
 11
9835.710462619967
 21
500.3618008579776
 31
0.0
 12
9831.543795953301
 22
525.3618008579776
 32
0.0
 13
9831.543795953301
 23
525.3618008579776
 33
0.0
  0
SOLID
  5
96D3
330
7F60
100
AcDbEntity
  8
DIMJ
 62
     0
440
 16777216
100
AcDbTrace
 10
9827.377129286636
 20
128.3618008579787
 30
0.0
 11
9835.710462619967
 21
128.3618008579787
 31
0.0
 12
9831.543795953301
 22
103.3618008579787
 32
0.0
 13
9831.543795953301
 23
103.3618008579787
 33
0.0
  0
MTEXT
  5
96D4
330
7F60
100
AcDbEntity
  8
DIMJ
 62
     0
440
 16777216
100
AcDbMText
 10
9808.543795953301
 20
314.3618008579797
 30
0.0
 40
30.0
 41
0.0
 46
0.0
 71
     5
 72
     1
  1
\A1;422
 11
0.0000000000000001
 21
1.0
 31
0.0
 73
     1
 44
1.0
  0
POINT
  5
96D5
330
7F60
100
AcDbEntity
  8
Defpoints
 62
     0
440
 16777216
100
AcDbPoint
 10
9643.015632871172
 20
525.3618008579776
 30
0.0
  0
POINT
  5
96D6
330
7F60
100
AcDbEntity
  8
Defpoints
 62
     0
440
 16777216
100
AcDbPoint
 10
9605.015632871172
 20
103.3618008579787
 30
0.0
  0
POINT
  5
96D7
330
7F60
100
AcDbEntity
  8
Defpoints
 62
     0
440
 16777216
100
AcDbPoint
 10
9831.543795953301
 20
103.3618008579787
 30
0.0
  0
ENDBLK
  5
7F6B
330
7F60
100
AcDbEntity
  8
0
100
AcDbBlockEnd
  0
BLOCK
  5
7F76
330
7F6C
100
AcDbEntity
  8
0
100
AcDbBlockBegin
  2
*D17
 70
     1
 10
0.0
 20
0.0
 30
0.0
  3
*D17
  1

  0
LINE
  5
96D8
330
7F6C
100
AcDbEntity
  8
DIMJ
 62
     0
440
 16777216
370
    -2
100
AcDbLine
 10
9255.015632871176
 20
918.3618008579783
 30
0.0
 11
9255.015632871176
 21
1107.376476334835
 31
0.0
  0
LINE
  5
96D9
330
7F6C
100
AcDbEntity
  8
DIMJ
 62
     0
440
 16777216
370
    -2
100
AcDbLine
 10
8833.015632871175
 20
880.3618008579793
 30
0.0
 11
8833.015632871175
 21
1107.376476334835
 31
0.0
  0
LINE
  5
96DA
330
7F6C
100
AcDbEntity
  8
DIMJ
 62
     0
440
 16777216
370
    -2
100
AcDbLine
 10
9230.015632871175
 20
1102.376476334835
 30
0.0
 11
8858.015632871175
 21
1102.376476334835
 31
0.0
  0
SOLID
  5
96DB
330
7F6C
100
AcDbEntity
  8
DIMJ
 62
     0
440
 16777216
100
AcDbTrace
 10
9230.015632871175
 20
1106.543143001502
 30
0.0
 11
9230.015632871175
 21
1098.209809668168
 31
0.0
 12
9255.015632871176
 22
1102.376476334835
 32
0.0
 13
9255.015632871176
 23
1102.376476334835
 33
0.0
  0
SOLID
  5
96DC
330
7F6C
100
AcDbEntity
  8
DIMJ
 62
     0
440
 16777216
100
AcDbTrace
 10
8858.015632871175
 20
1106.543143001502
 30
0.0
 11
8858.015632871175
 21
1098.209809668168
 31
0.0
 12
8833.015632871175
 22
1102.376476334835
 32
0.0
 13
8833.015632871175
 23
1102.376476334835
 33
0.0
  0
MTEXT
  5
96DD
330
7F6C
100
AcDbEntity
  8
DIMJ
 62
     0
440
 16777216
100
AcDbMText
 10
9044.015632871175
 20
1125.376476334835
 30
0.0
 40
30.0
 41
0.0
 46
0.0
 71
     5
 72
     1
  1
\A1;422
 73
     1
 44
1.0
  0
POINT
  5
96DE
330
7F6C
100
AcDbEntity
  8
Defpoints
 62
     0
440
 16777216
100
AcDbPoint
 10
9255.015632871176
 20
913.3618008579784
 30
0.0
  0
POINT
  5
96DF
330
7F6C
100
AcDbEntity
  8
Defpoints
 62
     0
440
 16777216
100
AcDbPoint
 10
8833.015632871175
 20
875.3618008579792
 30
0.0
  0
POINT
  5
96E0
330
7F6C
100
AcDbEntity
  8
Defpoints
 62
     0
440
 16777216
100
AcDbPoint
 10
8833.015632871175
 20
1102.376476334835
 30
0.0
  0
ENDBLK
  5
7F77
330
7F6C
100
AcDbEntity
  8
0
100
AcDbBlockEnd
  0
BLOCK
  5
7F80
330
7F78
100
AcDbEntity
  8
0
100
AcDbBlockBegin
  2
*D18
 70
     1
 10
0.0
 20
0.0
 30
0.0
  3
*D18
  1

  0
LINE
  5
9747
330
7F78
100
AcDbEntity
  8
DIMJ
 62
     0
440
 16777216
370
    -2
100
AcDbLine
 10
9763.817392094367
 20
625.447677849621
 30
0.0
 11
9655.915064910418
 21
546.7464456632351
 31
0.0
  0
MTEXT
  5
9748
330
7F78
100
AcDbEntity
  8
DIMJ
 62
     0
440
 16777216
100
AcDbMText
 10
9710.614320620264
 20
615.1106024051077
 30
0.0
 40
30.0
 41
0.0
 46
0.0
 71
     5
 72
     1
  1
\A1;2-R38
 11
0.8079274926862709
 21
0.5892819075465289
 31
0.0
 73
     1
 44
1.0
  0
SOLID
  5
9749
330
7F78
100
AcDbEntity
  8
DIMJ
 62
     0
440
 16777216
100
AcDbTrace
 10
9653.459723628975
 20
550.1128102160946
 30
0.0
 11
9658.370406191863
 21
543.3800811103747
 31
0.0
 12
9635.716877593262
 22
532.0143979745717
 32
0.0
 13
9635.716877593262
 23
532.0143979745717
 33
0.0
  0
LINE
  5
974A
330
7F78
100
AcDbEntity
  8
DIMJ
 62
     0
440
 16777216
370
    -2
100
AcDbLine
 10
9601.015632871177
 20
509.6216854877993
 30
0.0
 11
9609.015632871178
 21
509.6216854877984
 31
0.0
  0
LINE
  5
974B
330
7F78
100
AcDbEntity
  8
DIMJ
 62
     0
440
 16777216
370
    -2
100
AcDbLine
 10
9605.015632871177
 20
505.6216854878003
 30
0.0
 11
9605.015632871177
 21
513.6216854877984
 31
0.0
  0
POINT
  5
974C
330
7F78
100
AcDbEntity
  8
Defpoints
 62
     0
440
 16777216
100
AcDbPoint
 10
9635.716877593262
 20
532.0143979745717
 30
0.0
  0
POINT
  5
974D
330
7F78
100
AcDbEntity
  8
Defpoints
 62
     0
440
 16777216
100
AcDbPoint
 10
9605.015632871177
 20
509.6216854877993
 30
0.0
  0
ENDBLK
  5
7F81
330
7F78
100
AcDbEntity
  8
0
100
AcDbBlockEnd
  0
BLOCK
  5
7F8D
330
7F82
100
AcDbEntity
  8
0
100
AcDbBlockBegin
  2
*D19
 70
     1
 10
0.0
 20
0.0
 30
0.0
  3
*D19
  1

  0
LINE
  5
96E8
330
7F82
100
AcDbEntity
  8
DIMJ
 62
     0
440
 16777216
370
    -2
100
AcDbLine
 10
9333.332963469052
 20
610.7501992677243
 30
0.0
 11
9286.821506625029
 21
657.2616561117447
 31
0.0
  0
LINE
  5
96E9
330
7F82
100
AcDbEntity
  8
DIMJ
 62
     0
440
 16777216
370
    -2
100
AcDbLine
 10
9405.175012437606
 20
682.5922482362793
 30
0.0
 11
9358.663555593583
 21
729.1037050802997
 31
0.0
  0
LINE
  5
96EA
330
7F82
100
AcDbEntity
  8
DIMJ
 62
     0
440
 16777216
370
    -2
100
AcDbLine
 10
9344.521419969852
 20
707.8905016447033
 30
0.0
 11
9308.034710060628
 21
671.4037917354763
 31
0.0
  0
LINE
  5
96EB
330
7F82
100
AcDbEntity
  8
DIMJ
 62
     0
440
 16777216
370
    -2
100
AcDbLine
 10
9290.357040530963
 20
653.7261222058122
 30
0.0
 11
9203.763215227333
 21
567.1322969021794
 31
0.0
  0
SOLID
  5
96EC
330
7F82
100
AcDbEntity
  8
DIMJ
 62
     0
440
 16777216
100
AcDbTrace
 10
9341.575141714908
 20
710.8367798996469
 30
0.0
 11
9347.467698224798
 21
704.9442233897589
 31
0.0
 12
9362.199089499517
 22
725.5681711743672
 32
0.0
 13
9362.199089499517
 23
725.5681711743672
 33
0.0
  0
SOLID
  5
96ED
330
7F82
100
AcDbEntity
  8
DIMJ
 62
     0
440
 16777216
100
AcDbTrace
 10
9305.088431805682
 20
674.3500699904197
 30
0.0
 11
9310.980988315572
 21
668.4575134805318
 31
0.0
 12
9290.357040530963
 22
653.7261222058122
 32
0.0
 13
9290.357040530963
 23
653.7261222058122
 33
0.0
  0
MTEXT
  5
96EE
330
7F82
100
AcDbEntity
  8
DIMJ
 62
     0
440
 16777216
100
AcDbMText
 10
9221.957837147028
 20
617.8538307564549
 30
0.0
 40
30.0
 41
0.0
 46
0.0
 71
     5
 72
     1
  1
\A1;101.6
 11
0.7071067811865369
 21
0.7071067811865582
 31
0.0
 73
     1
 44
1.0
  0
POINT
  5
96EF
330
7F82
100
AcDbEntity
  8
Defpoints
 62
     0
440
 16777216
100
AcDbPoint
 10
9336.868497374986
 20
607.2146653617919
 30
0.0
  0
POINT
  5
96F0
330
7F82
100
AcDbEntity
  8
Defpoints
 62
     0
440
 16777216
100
AcDbPoint
 10
9408.710546343538
 20
679.0567143303469
 30
0.0
  0
POINT
  5
96F1
330
7F82
100
AcDbEntity
  8
Defpoints
 62
     0
440
 16777216
100
AcDbPoint
 10
9362.199089499517
 20
725.5681711743672
 30
0.0
  0
ENDBLK
  5
7F8E
330
7F82
100
AcDbEntity
  8
0
100
AcDbBlockEnd
  0
BLOCK
  5
7F9A
330
7F8F
100
AcDbEntity
  8
0
100
AcDbBlockBegin
  2
*D20
 70
     1
 10
0.0
 20
0.0
 30
0.0
  3
*D20
  1

  0
LINE
  5
96F2
330
7F8F
100
AcDbEntity
  8
DIMJ
 62
     0
440
 16777216
370
    -2
100
AcDbLine
 10
9502.112566597093
 20
553.3618008579783
 30
0.0
 11
9890.031895073654
 21
553.3618008579783
 31
0.0
  0
LINE
  5
96F3
330
7F8F
100
AcDbEntity
  8
DIMJ
 62
     0
440
 16777216
370
    -2
100
AcDbLine
 10
9499.515632871172
 20
540.8618008579788
 30
0.0
 11
9890.031895073654
 21
540.8618008579788
 31
0.0
  0
LINE
  5
96F4
330
7F8F
100
AcDbEntity
  8
DIMJ
 62
     0
440
 16777216
370
    -2
100
AcDbLine
 10
9885.031895073655
 20
515.8618008579788
 30
0.0
 11
9885.031895073655
 21
490.8618008579787
 31
0.0
  0
LINE
  5
96F5
330
7F8F
100
AcDbEntity
  8
DIMJ
 62
     0
440
 16777216
370
    -2
100
AcDbLine
 10
9885.031895073655
 20
578.3618008579783
 30
0.0
 11
9885.031895073655
 21
695.1461343037987
 31
0.0
  0
SOLID
  5
96F6
330
7F8F
100
AcDbEntity
  8
DIMJ
 62
     0
440
 16777216
100
AcDbTrace
 10
9880.865228406989
 20
515.8618008579788
 30
0.0
 11
9889.198561740322
 21
515.8618008579788
 31
0.0
 12
9885.031895073655
 22
540.8618008579788
 32
0.0
 13
9885.031895073655
 23
540.8618008579788
 33
0.0
  0
SOLID
  5
96F7
330
7F8F
100
AcDbEntity
  8
DIMJ
 62
     0
440
 16777216
100
AcDbTrace
 10
9880.865228406989
 20
578.3618008579783
 30
0.0
 11
9889.198561740322
 21
578.3618008579783
 31
0.0
 12
9885.031895073655
 22
553.3618008579783
 32
0.0
 13
9885.031895073655
 23
553.3618008579783
 33
0.0
  0
MTEXT
  5
96F8
330
7F8F
100
AcDbEntity
  8
DIMJ
 62
     0
440
 16777216
100
AcDbMText
 10
9862.031895073656
 20
655.3055937632598
 30
0.0
 40
30.0
 41
0.0
 46
0.0
 71
     5
 72
     1
  1
\A1;12.5
 11
0.0000000000000001
 21
1.0
 31
0.0
 73
     1
 44
1.0
  0
POINT
  5
96F9
330
7F8F
100
AcDbEntity
  8
Defpoints
 62
     0
440
 16777216
100
AcDbPoint
 10
9497.112566597092
 20
553.3618008579783
 30
0.0
  0
POINT
  5
96FA
330
7F8F
100
AcDbEntity
  8
Defpoints
 62
     0
440
 16777216
100
AcDbPoint
 10
9494.515632871173
 20
540.8618008579788
 30
0.0
  0
POINT
  5
96FB
330
7F8F
100
AcDbEntity
  8
Defpoints
 62
     0
440
 16777216
100
AcDbPoint
 10
9885.031895073655
 20
540.8618008579788
 30
0.0
  0
ENDBLK
  5
7F9B
330
7F8F
100
AcDbEntity
  8
0
100
AcDbBlockEnd
  0
BLOCK
  5
7FA7
330
7F9C
100
AcDbEntity
  8
0
100
AcDbBlockBegin
  2
*D21
 70
     1
 10
0.0
 20
0.0
 30
0.0
  3
*D21
  1

  0
LINE
  5
96FC
330
7F9C
100
AcDbEntity
  8
DIMJ
 62
     0
440
 16777216
370
    -2
100
AcDbLine
 10
9283.015632871173
 20
772.4587345839004
 30
0.0
 11
9283.015632871173
 21
1013.049112535169
 31
0.0
  0
LINE
  5
96FD
330
7F9C
100
AcDbEntity
  8
DIMJ
 62
     0
440
 16777216
370
    -2
100
AcDbLine
 10
9270.515632871171
 20
740.4006807444319
 30
0.0
 11
9270.515632871171
 21
1013.049112535169
 31
0.0
  0
LINE
  5
96FE
330
7F9C
100
AcDbEntity
  8
DIMJ
 62
     0
440
 16777216
370
    -2
100
AcDbLine
 10
9245.515632871173
 20
1008.049112535169
 30
0.0
 11
9220.515632871173
 21
1008.049112535169
 31
0.0
  0
LINE
  5
96FF
330
7F9C
100
AcDbEntity
  8
DIMJ
 62
     0
440
 16777216
370
    -2
100
AcDbLine
 10
9308.015632871173
 20
1008.049112535169
 30
0.0
 11
9412.696713952254
 21
1008.049112535169
 31
0.0
  0
SOLID
  5
9700
330
7F9C
100
AcDbEntity
  8
DIMJ
 62
     0
440
 16777216
100
AcDbTrace
 10
9245.515632871173
 20
1012.215779201836
 30
0.0
 11
9245.515632871173
 21
1003.882445868502
 31
0.0
 12
9270.515632871171
 22
1008.049112535169
 32
0.0
 13
9270.515632871171
 23
1008.049112535169
 33
0.0
  0
SOLID
  5
9701
330
7F9C
100
AcDbEntity
  8
DIMJ
 62
     0
440
 16777216
100
AcDbTrace
 10
9308.015632871173
 20
1012.215779201836
 30
0.0
 11
9308.015632871173
 21
1003.882445868502
 31
0.0
 12
9283.015632871173
 22
1008.049112535169
 32
0.0
 13
9283.015632871173
 23
1008.049112535169
 33
0.0
  0
MTEXT
  5
9702
330
7F9C
100
AcDbEntity
  8
DIMJ
 62
     0
440
 16777216
100
AcDbMText
 10
9372.856173411713
 20
1031.049112535169
 30
0.0
 40
30.0
 41
0.0
 46
0.0
 71
     5
 72
     1
  1
\A1;12.5
 73
     1
 44
1.0
  0
POINT
  5
9703
330
7F9C
100
AcDbEntity
  8
Defpoints
 62
     0
440
 16777216
100
AcDbPoint
 10
9283.015632871173
 20
767.4587345839004
 30
0.0
  0
POINT
  5
9704
330
7F9C
100
AcDbEntity
  8
Defpoints
 62
     0
440
 16777216
100
AcDbPoint
 10
9270.515632871171
 20
735.4006807444319
 30
0.0
  0
POINT
  5
9705
330
7F9C
100
AcDbEntity
  8
Defpoints
 62
     0
440
 16777216
100
AcDbPoint
 10
9270.515632871171
 20
1008.049112535169
 30
0.0
  0
ENDBLK
  5
7FA8
330
7F9C
100
AcDbEntity
  8
0
100
AcDbBlockEnd
  0
BLOCK
  5
7FB4
330
7FA9
100
AcDbEntity
  8
0
100
AcDbBlockBegin
  2
*D22
 70
     1
 10
0.0
 20
0.0
 30
0.0
  3
*D22
  1

  0
LINE
  5
9706
330
7FA9
100
AcDbEntity
  8
DIMJ
 62
     0
440
 16777216
370
    -2
100
AcDbLine
 10
9354.515632871171
 20
140.8618008579788
 30
0.0
 11
9138.50216069572
 21
140.8618008579788
 31
0.0
  0
LINE
  5
9707
330
7FA9
100
AcDbEntity
  8
DIMJ
 62
     0
440
 16777216
370
    -2
100
AcDbLine
 10
9244.015632871171
 20
103.3618008579806
 30
0.0
 11
9138.50216069572
 21
103.3618008579806
 31
0.0
  0
LINE
  5
9708
330
7FA9
100
AcDbEntity
  8
DIMJ
 62
     0
440
 16777216
370
    -2
100
AcDbLine
 10
9143.502160695719
 20
165.8618008579788
 30
0.0
 11
9143.502160695719
 21
190.8618008579788
 31
0.0
  0
LINE
  5
9709
330
7FA9
100
AcDbEntity
  8
DIMJ
 62
     0
440
 16777216
370
    -2
100
AcDbLine
 10
9143.502160695719
 20
78.36180085798062
 30
0.0
 11
9143.502160695719
 21
-25.76792887174912
 31
0.0
  0
SOLID
  5
970A
330
7FA9
100
AcDbEntity
  8
DIMJ
 62
     0
440
 16777216
100
AcDbTrace
 10
9139.335494029053
 20
165.8618008579788
 30
0.0
 11
9147.668827362386
 21
165.8618008579788
 31
0.0
 12
9143.502160695719
 22
140.8618008579788
 32
0.0
 13
9143.502160695719
 23
140.8618008579788
 33
0.0
  0
SOLID
  5
970B
330
7FA9
100
AcDbEntity
  8
DIMJ
 62
     0
440
 16777216
100
AcDbTrace
 10
9139.335494029053
 20
78.36180085798062
 30
0.0
 11
9147.668827362386
 21
78.36180085798062
 31
0.0
 12
9143.502160695719
 22
103.3618008579806
 32
0.0
 13
9143.502160695719
 23
103.3618008579806
 33
0.0
  0
MTEXT
  5
970C
330
7FA9
100
AcDbEntity
  8
DIMJ
 62
     0
440
 16777216
100
AcDbMText
 10
9120.502160695719
 20
13.79693599311723
 30
0.0
 40
30.0
 41
0.0
 46
0.0
 71
     5
 72
     1
  1
\A1;37.5
 11
0.0000000000000001
 21
1.0
 31
0.0
 73
     1
 44
1.0
  0
POINT
  5
970D
330
7FA9
100
AcDbEntity
  8
Defpoints
 62
     0
440
 16777216
100
AcDbPoint
 10
9359.51563287117
 20
140.8618008579788
 30
0.0
  0
POINT
  5
970E
330
7FA9
100
AcDbEntity
  8
Defpoints
 62
     0
440
 16777216
100
AcDbPoint
 10
9249.01563287117
 20
103.3618008579806
 30
0.0
  0
POINT
  5
970F
330
7FA9
100
AcDbEntity
  8
Defpoints
 62
     0
440
 16777216
100
AcDbPoint
 10
9143.502160695719
 20
103.3618008579806
 30
0.0
  0
ENDBLK
  5
7FB5
330
7FA9
100
AcDbEntity
  8
0
100
AcDbBlockEnd
  0
BLOCK
  5
7FC1
330
7FB6
100
AcDbEntity
  8
0
100
AcDbBlockBegin
  2
*D23
 70
     1
 10
0.0
 20
0.0
 30
0.0
  3
*D23
  1

  0
LINE
  5
9710
330
7FB6
100
AcDbEntity
  8
DIMJ
 62
     0
440
 16777216
370
    -2
100
AcDbLine
 10
8833.015632871171
 20
514.3618008579787
 30
0.0
 11
8833.015632871171
 21
394.1741034692413
 31
0.0
  0
LINE
  5
9711
330
7FB6
100
AcDbEntity
  8
DIMJ
 62
     0
440
 16777216
370
    -2
100
AcDbLine
 10
8870.515632871173
 20
624.8618008579796
 30
0.0
 11
8870.515632871173
 21
394.1741034692413
 31
0.0
  0
LINE
  5
9712
330
7FB6
100
AcDbEntity
  8
DIMJ
 62
     0
440
 16777216
370
    -2
100
AcDbLine
 10
8808.015632871173
 20
399.1741034692413
 30
0.0
 11
8783.015632871173
 21
399.1741034692413
 31
0.0
  0
LINE
  5
9713
330
7FB6
100
AcDbEntity
  8
DIMJ
 62
     0
440
 16777216
370
    -2
100
AcDbLine
 10
8895.515632871171
 20
399.1741034692413
 30
0.0
 11
8999.645362600903
 21
399.1741034692413
 31
0.0
  0
SOLID
  5
9714
330
7FB6
100
AcDbEntity
  8
DIMJ
 62
     0
440
 16777216
100
AcDbTrace
 10
8808.015632871173
 20
403.340770135908
 30
0.0
 11
8808.015632871173
 21
395.0074368025747
 31
0.0
 12
8833.015632871171
 22
399.1741034692413
 32
0.0
 13
8833.015632871171
 23
399.1741034692413
 33
0.0
  0
SOLID
  5
9715
330
7FB6
100
AcDbEntity
  8
DIMJ
 62
     0
440
 16777216
100
AcDbTrace
 10
8895.515632871171
 20
403.340770135908
 30
0.0
 11
8895.515632871171
 21
395.0074368025747
 31
0.0
 12
8870.515632871173
 22
399.1741034692413
 32
0.0
 13
8870.515632871173
 23
399.1741034692413
 33
0.0
  0
MTEXT
  5
9716
330
7FB6
100
AcDbEntity
  8
DIMJ
 62
     0
440
 16777216
100
AcDbMText
 10
8960.080497736038
 20
422.1741034692413
 30
0.0
 40
30.0
 41
0.0
 46
0.0
 71
     5
 72
     1
  1
\A1;37.5
 73
     1
 44
1.0
  0
POINT
  5
9717
330
7FB6
100
AcDbEntity
  8
Defpoints
 62
     0
440
 16777216
100
AcDbPoint
 10
8833.015632871171
 20
519.3618008579788
 30
0.0
  0
POINT
  5
9718
330
7FB6
100
AcDbEntity
  8
Defpoints
 62
     0
440
 16777216
100
AcDbPoint
 10
8870.515632871173
 20
629.8618008579796
 30
0.0
  0
POINT
  5
9719
330
7FB6
100
AcDbEntity
  8
Defpoints
 62
     0
440
 16777216
100
AcDbPoint
 10
8870.515632871173
 20
399.1741034692413
 30
0.0
  0
ENDBLK
  5
7FC2
330
7FB6
100
AcDbEntity
  8
0
100
AcDbBlockEnd
  0
BLOCK
  5
7FCD
330
7FC3
100
AcDbEntity
  8
0
100
AcDbBlockBegin
  2
*D24
 70
     1
 10
0.0
 20
0.0
 30
0.0
  3
*D24
  1

  0
LINE
  5
971A
330
7FC3
100
AcDbEntity
  8
DIMJ
 62
     0
440
 16777216
370
    -2
100
AcDbLine
 10
8866.015632871171
 20
888.3618008579787
 30
0.0
 11
8671.651177851318
 21
888.3618008579787
 31
0.0
  0
LINE
  5
971B
330
7FC3
100
AcDbEntity
  8
DIMJ
 62
     0
440
 16777216
370
    -2
100
AcDbLine
 10
8866.015632871171
 20
506.3618008579801
 30
0.0
 11
8671.651177851318
 21
506.3618008579801
 31
0.0
  0
LINE
  5
971C
330
7FC3
100
AcDbEntity
  8
DIMJ
 62
     0
440
 16777216
370
    -2
100
AcDbLine
 10
8676.651177851317
 20
863.3618008579787
 30
0.0
 11
8676.651177851317
 21
531.3618008579802
 31
0.0
  0
SOLID
  5
971D
330
7FC3
100
AcDbEntity
  8
DIMJ
 62
     0
440
 16777216
100
AcDbTrace
 10
8672.484511184652
 20
863.3618008579787
 30
0.0
 11
8680.817844517983
 21
863.3618008579787
 31
0.0
 12
8676.651177851317
 22
888.3618008579787
 32
0.0
 13
8676.651177851317
 23
888.3618008579787
 33
0.0
  0
SOLID
  5
971E
330
7FC3
100
AcDbEntity
  8
DIMJ
 62
     0
440
 16777216
100
AcDbTrace
 10
8672.484511184652
 20
531.3618008579802
 30
0.0
 11
8680.817844517983
 21
531.3618008579802
 31
0.0
 12
8676.651177851317
 22
506.3618008579801
 32
0.0
 13
8676.651177851317
 23
506.3618008579801
 33
0.0
  0
MTEXT
  5
971F
330
7FC3
100
AcDbEntity
  8
DIMJ
 62
     0
440
 16777216
100
AcDbMText
 10
8653.651177851317
 20
697.3618008579809
 30
0.0
 40
30.0
 41
0.0
 46
0.0
 71
     5
 72
     1
  1
\A1;382
 11
0.0000000000000001
 21
1.0
 31
0.0
 73
     1
 44
1.0
  0
POINT
  5
9720
330
7FC3
100
AcDbEntity
  8
Defpoints
 62
     0
440
 16777216
100
AcDbPoint
 10
8871.01563287117
 20
888.3618008579787
 30
0.0
  0
POINT
  5
9721
330
7FC3
100
AcDbEntity
  8
Defpoints
 62
     0
440
 16777216
100
AcDbPoint
 10
8871.01563287117
 20
506.3618008579801
 30
0.0
  0
POINT
  5
9722
330
7FC3
100
AcDbEntity
  8
Defpoints
 62
     0
440
 16777216
100
AcDbPoint
 10
8676.651177851317
 20
506.3618008579801
 30
0.0
  0
ENDBLK
  5
7FCE
330
7FC3
100
AcDbEntity
  8
0
100
AcDbBlockEnd
  0
BLOCK
  5
7FD9
330
7FCF
100
AcDbEntity
  8
0
100
AcDbBlockBegin
  2
*D25
 70
     1
 10
0.0
 20
0.0
 30
0.0
  3
*D25
  1

  0
LINE
  5
9723
330
7FCF
100
AcDbEntity
  8
DIMJ
 62
     0
440
 16777216
370
    -2
100
AcDbLine
 10
9618.015632871172
 20
136.3618008579778
 30
0.0
 11
9618.015632871172
 21
-39.34619186587133
 31
0.0
  0
LINE
  5
9724
330
7FCF
100
AcDbEntity
  8
DIMJ
 62
     0
440
 16777216
370
    -2
100
AcDbLine
 10
9236.01563287117
 20
136.3618008579797
 30
0.0
 11
9236.01563287117
 21
-39.34619186587133
 31
0.0
  0
LINE
  5
9725
330
7FCF
100
AcDbEntity
  8
DIMJ
 62
     0
440
 16777216
370
    -2
100
AcDbLine
 10
9593.015632871171
 20
-34.34619186587133
 30
0.0
 11
9261.015632871171
 21
-34.34619186587133
 31
0.0
  0
SOLID
  5
9726
330
7FCF
100
AcDbEntity
  8
DIMJ
 62
     0
440
 16777216
100
AcDbTrace
 10
9593.015632871171
 20
-30.17952519920467
 30
0.0
 11
9593.015632871171
 21
-38.512858532538
 31
0.0
 12
9618.015632871172
 22
-34.34619186587133
 32
0.0
 13
9618.015632871172
 23
-34.34619186587133
 33
0.0
  0
SOLID
  5
9727
330
7FCF
100
AcDbEntity
  8
DIMJ
 62
     0
440
 16777216
100
AcDbTrace
 10
9261.015632871171
 20
-30.17952519920467
 30
0.0
 11
9261.015632871171
 21
-38.512858532538
 31
0.0
 12
9236.01563287117
 22
-34.34619186587133
 32
0.0
 13
9236.01563287117
 23
-34.34619186587133
 33
0.0
  0
MTEXT
  5
9728
330
7FCF
100
AcDbEntity
  8
DIMJ
 62
     0
440
 16777216
100
AcDbMText
 10
9427.015632871171
 20
-11.34619186587133
 30
0.0
 40
30.0
 41
0.0
 46
0.0
 71
     5
 72
     1
  1
\A1;382
 73
     1
 44
1.0
  0
POINT
  5
9729
330
7FCF
100
AcDbEntity
  8
Defpoints
 62
     0
440
 16777216
100
AcDbPoint
 10
9618.015632871172
 20
141.3618008579778
 30
0.0
  0
POINT
  5
972A
330
7FCF
100
AcDbEntity
  8
Defpoints
 62
     0
440
 16777216
100
AcDbPoint
 10
9236.01563287117
 20
141.3618008579797
 30
0.0
  0
POINT
  5
972B
330
7FCF
100
AcDbEntity
  8
Defpoints
 62
     0
440
 16777216
100
AcDbPoint
 10
9236.01563287117
 20
-34.34619186587133
 30
0.0
  0
ENDBLK
  5
7FDA
330
7FCF
100
AcDbEntity
  8
0
100
AcDbBlockEnd
  0
BLOCK
  5
7FE6
330
7FDB
100
AcDbEntity
  8
0
100
AcDbBlockBegin
  2
*D26
 70
     1
 10
0.0
 20
0.0
 30
0.0
  3
*D26
  1

  0
LINE
  5
972C
330
7FDB
100
AcDbEntity
  8
DIMJ
 62
     0
440
 16777216
370
    -2
100
AcDbLine
 10
9605.515632871172
 20
245.8618008579788
 30
0.0
 11
9605.515632871172
 21
-67.49926834386406
 31
0.0
  0
LINE
  5
972D
330
7FDB
100
AcDbEntity
  8
DIMJ
 62
     0
440
 16777216
370
    -2
100
AcDbLine
 10
9643.015632871172
 20
136.3618008579787
 30
0.0
 11
9643.015632871172
 21
-67.49926834386406
 31
0.0
  0
LINE
  5
972E
330
7FDB
100
AcDbEntity
  8
DIMJ
 62
     0
440
 16777216
370
    -2
100
AcDbLine
 10
9580.515632871172
 20
-62.49926834386406
 30
0.0
 11
9555.515632871172
 21
-62.49926834386406
 31
0.0
  0
LINE
  5
972F
330
7FDB
100
AcDbEntity
  8
DIMJ
 62
     0
440
 16777216
370
    -2
100
AcDbLine
 10
9668.015632871172
 20
-62.49926834386406
 30
0.0
 11
9772.145362600902
 21
-62.49926834386406
 31
0.0
  0
SOLID
  5
9730
330
7FDB
100
AcDbEntity
  8
DIMJ
 62
     0
440
 16777216
100
AcDbTrace
 10
9580.515632871172
 20
-58.33260167719739
 30
0.0
 11
9580.515632871172
 21
-66.66593501053073
 31
0.0
 12
9605.515632871172
 22
-62.49926834386406
 32
0.0
 13
9605.515632871172
 23
-62.49926834386406
 33
0.0
  0
SOLID
  5
9731
330
7FDB
100
AcDbEntity
  8
DIMJ
 62
     0
440
 16777216
100
AcDbTrace
 10
9668.015632871172
 20
-58.33260167719739
 30
0.0
 11
9668.015632871172
 21
-66.66593501053073
 31
0.0
 12
9643.015632871172
 22
-62.49926834386406
 32
0.0
 13
9643.015632871172
 23
-62.49926834386406
 33
0.0
  0
MTEXT
  5
9732
330
7FDB
100
AcDbEntity
  8
DIMJ
 62
     0
440
 16777216
100
AcDbMText
 10
9732.580497736037
 20
-39.49926834386406
 30
0.0
 40
30.0
 41
0.0
 46
0.0
 71
     5
 72
     1
  1
\A1;37.5
 73
     1
 44
1.0
  0
POINT
  5
9733
330
7FDB
100
AcDbEntity
  8
Defpoints
 62
     0
440
 16777216
100
AcDbPoint
 10
9605.515632871172
 20
250.8618008579788
 30
0.0
  0
POINT
  5
9734
330
7FDB
100
AcDbEntity
  8
Defpoints
 62
     0
440
 16777216
100
AcDbPoint
 10
9643.015632871172
 20
141.3618008579788
 30
0.0
  0
POINT
  5
9735
330
7FDB
100
AcDbEntity
  8
Defpoints
 62
     0
440
 16777216
100
AcDbPoint
 10
9643.015632871172
 20
-62.49926834386406
 30
0.0
  0
ENDBLK
  5
7FE7
330
7FDB
100
AcDbEntity
  8
0
100
AcDbBlockEnd
  0
BLOCK
  5
7FF3
330
7FE8
100
AcDbEntity
  8
0
100
AcDbBlockBegin
  2
*D27
 70
     1
 10
0.0
 20
0.0
 30
0.0
  3
*D27
  1

  0
LINE
  5
95A5
330
7FE8
100
AcDbEntity
  8
DIMJ
 62
     0
440
 16777216
370
    -2
100
AcDbLine
 10
8466.196396795998
 20
-379.678760761714
 30
0.0
 11
8466.196396795998
 21
-298.8881595157824
 31
0.0
  0
LINE
  5
95A6
330
7FE8
100
AcDbEntity
  8
DIMJ
 62
     0
440
 16777216
370
    -2
100
AcDbLine
 10
8477.196396795999
 20
-390.678760761714
 30
0.0
 11
8477.196396795999
 21
-298.8881595157824
 31
0.0
  0
LINE
  5
95A7
330
7FE8
100
AcDbEntity
  8
DIMJ
 62
     0
440
 16777216
370
    -2
100
AcDbLine
 10
8441.196396795998
 20
-303.8881595157824
 30
0.0
 11
8416.196396795998
 21
-303.8881595157824
 31
0.0
  0
LINE
  5
95A8
330
7FE8
100
AcDbEntity
  8
DIMJ
 62
     0
440
 16777216
370
    -2
100
AcDbLine
 10
8502.196396796
 20
-303.8881595157824
 30
0.0
 11
8554.912613012215
 21
-303.8881595157824
 31
0.0
  0
SOLID
  5
95A9
330
7FE8
100
AcDbEntity
  8
DIMJ
 62
     0
440
 16777216
100
AcDbTrace
 10
8441.196396795998
 20
-299.7214928491157
 30
0.0
 11
8441.196396795998
 21
-308.0548261824491
 31
0.0
 12
8466.196396795998
 22
-303.8881595157824
 32
0.0
 13
8466.196396795998
 23
-303.8881595157824
 33
0.0
  0
SOLID
  5
95AA
330
7FE8
100
AcDbEntity
  8
DIMJ
 62
     0
440
 16777216
100
AcDbTrace
 10
8502.196396796
 20
-299.7214928491157
 30
0.0
 11
8502.196396796
 21
-308.0548261824491
 31
0.0
 12
8477.196396795999
 22
-303.8881595157824
 32
0.0
 13
8477.196396795999
 23
-303.8881595157824
 33
0.0
  0
MTEXT
  5
95AB
330
7FE8
100
AcDbEntity
  8
DIMJ
 62
     0
440
 16777216
100
AcDbMText
 10
8541.054504904106
 20
-280.8881595157824
 30
0.0
 40
30.0
 41
0.0
 46
0.0
 71
     5
 72
     1
  1
\A1;2
 73
     1
 44
1.0
  0
POINT
  5
95AC
330
7FE8
100
AcDbEntity
  8
Defpoints
 62
     0
440
 16777216
100
AcDbPoint
 10
8466.196396795998
 20
-384.678760761714
 30
0.0
  0
POINT
  5
95AD
330
7FE8
100
AcDbEntity
  8
Defpoints
 62
     0
440
 16777216
100
AcDbPoint
 10
8477.196396795999
 20
-395.678760761714
 30
0.0
  0
POINT
  5
95AE
330
7FE8
100
AcDbEntity
  8
Defpoints
 62
     0
440
 16777216
100
AcDbPoint
 10
8477.196396795999
 20
-303.8881595157824
 30
0.0
  0
ENDBLK
  5
7FF4
330
7FE8
100
AcDbEntity
  8
0
100
AcDbBlockEnd
  0
BLOCK
  5
8000
330
7FF5
100
AcDbEntity
  8
0
100
AcDbBlockBegin
  2
*D28
 70
     1
 10
0.0
 20
0.0
 30
0.0
  3
*D28
  1

  0
LINE
  5
95AF
330
7FF5
100
AcDbEntity
  8
DIMJ
 62
     0
440
 16777216
370
    -2
100
AcDbLine
 10
8934.145712505562
 20
-395.678760761714
 30
0.0
 11
9008.932927483774
 21
-395.678760761714
 31
0.0
  0
LINE
  5
95B0
330
7FF5
100
AcDbEntity
  8
DIMJ
 62
     0
440
 16777216
370
    -2
100
AcDbLine
 10
8953.96609223472
 20
-384.678760761714
 30
0.0
 11
9008.932927483774
 21
-384.678760761714
 31
0.0
  0
LINE
  5
95B1
330
7FF5
100
AcDbEntity
  8
DIMJ
 62
     0
440
 16777216
370
    -2
100
AcDbLine
 10
9003.932927483775
 20
-420.6787607617139
 30
0.0
 11
9003.932927483775
 21
-445.6787607617139
 31
0.0
  0
LINE
  5
95B2
330
7FF5
100
AcDbEntity
  8
DIMJ
 62
     0
440
 16777216
370
    -2
100
AcDbLine
 10
9003.932927483775
 20
-359.678760761714
 30
0.0
 11
9003.932927483775
 21
-306.9625445454978
 31
0.0
  0
SOLID
  5
95B3
330
7FF5
100
AcDbEntity
  8
DIMJ
 62
     0
440
 16777216
100
AcDbTrace
 10
8999.766260817109
 20
-420.6787607617139
 30
0.0
 11
9008.099594150442
 21
-420.6787607617139
 31
0.0
 12
9003.932927483775
 22
-395.678760761714
 32
0.0
 13
9003.932927483775
 23
-395.678760761714
 33
0.0
  0
SOLID
  5
95B4
330
7FF5
100
AcDbEntity
  8
DIMJ
 62
     0
440
 16777216
100
AcDbTrace
 10
8999.766260817109
 20
-359.678760761714
 30
0.0
 11
9008.099594150442
 21
-359.678760761714
 31
0.0
 12
9003.932927483775
 22
-384.678760761714
 32
0.0
 13
9003.932927483775
 23
-384.678760761714
 33
0.0
  0
MTEXT
  5
95B5
330
7FF5
100
AcDbEntity
  8
DIMJ
 62
     0
440
 16777216
100
AcDbMText
 10
8980.932927483776
 20
-320.8206526536045
 30
0.0
 40
30.0
 41
0.0
 46
0.0
 71
     5
 72
     1
  1
\A1;2
 11
0.0000000000000001
 21
1.0
 31
0.0
 73
     1
 44
1.0
  0
POINT
  5
95B6
330
7FF5
100
AcDbEntity
  8
Defpoints
 62
     0
440
 16777216
100
AcDbPoint
 10
8929.145712505563
 20
-395.678760761714
 30
0.0
  0
POINT
  5
95B7
330
7FF5
100
AcDbEntity
  8
Defpoints
 62
     0
440
 16777216
100
AcDbPoint
 10
8948.966092234719
 20
-384.678760761714
 30
0.0
  0
POINT
  5
95B8
330
7FF5
100
AcDbEntity
  8
Defpoints
 62
     0
440
 16777216
100
AcDbPoint
 10
9003.932927483775
 20
-384.678760761714
 30
0.0
  0
ENDBLK
  5
8001
330
7FF5
100
AcDbEntity
  8
0
100
AcDbBlockEnd
  0
BLOCK
  5
800D
330
8002
100
AcDbEntity
  8
0
100
AcDbBlockBegin
  2
*D29
 70
     1
 10
0.0
 20
0.0
 30
0.0
  3
*D29
  1

  0
LINE
  5
95B9
330
8002
100
AcDbEntity
  8
DIMJ
 62
     0
440
 16777216
370
    -2
100
AcDbLine
 10
8924.145712505561
 20
-395.678760761714
 30
0.0
 11
8915.042527596417
 21
-395.678760761714
 31
0.0
  0
LINE
  5
95BA
330
8002
100
AcDbEntity
  8
DIMJ
 62
     0
440
 16777216
370
    -2
100
AcDbLine
 10
8953.600595341939
 20
-412.178760761714
 30
0.0
 11
8915.042527596417
 21
-412.178760761714
 31
0.0
  0
LINE
  5
95BB
330
8002
100
AcDbEntity
  8
DIMJ
 62
     0
440
 16777216
370
    -2
100
AcDbLine
 10
8920.042527596418
 20
-370.678760761714
 30
0.0
 11
8920.042527596418
 21
-345.678760761714
 31
0.0
  0
LINE
  5
95BC
330
8002
100
AcDbEntity
  8
DIMJ
 62
     0
440
 16777216
370
    -2
100
AcDbLine
 10
8920.042527596418
 20
-437.178760761714
 30
0.0
 11
8920.042527596418
 21
-489.205787788741
 31
0.0
  0
SOLID
  5
95BD
330
8002
100
AcDbEntity
  8
DIMJ
 62
     0
440
 16777216
100
AcDbTrace
 10
8915.87586092975
 20
-370.678760761714
 30
0.0
 11
8924.209194263083
 21
-370.678760761714
 31
0.0
 12
8920.042527596418
 22
-395.678760761714
 32
0.0
 13
8920.042527596418
 23
-395.678760761714
 33
0.0
  0
SOLID
  5
95BE
330
8002
100
AcDbEntity
  8
DIMJ
 62
     0
440
 16777216
100
AcDbTrace
 10
8915.87586092975
 20
-437.178760761714
 30
0.0
 11
8924.209194263083
 21
-437.178760761714
 31
0.0
 12
8920.042527596418
 22
-412.178760761714
 32
0.0
 13
8920.042527596418
 23
-412.178760761714
 33
0.0
  0
MTEXT
  5
95BF
330
8002
100
AcDbEntity
  8
DIMJ
 62
     0
440
 16777216
100
AcDbMText
 10
8897.042527596417
 20
-475.692274275226
 30
0.0
 40
30.0
 41
0.0
 46
0.0
 71
     5
 72
     1
  1
\A1;3
 11
0.0000000000000001
 21
1.0
 31
0.0
 73
     1
 44
1.0
  0
POINT
  5
95C0
330
8002
100
AcDbEntity
  8
Defpoints
 62
     0
440
 16777216
100
AcDbPoint
 10
8929.145712505563
 20
-395.678760761714
 30
0.0
  0
POINT
  5
95C1
330
8002
100
AcDbEntity
  8
Defpoints
 62
     0
440
 16777216
100
AcDbPoint
 10
8958.600595341939
 20
-412.178760761714
 30
0.0
  0
POINT
  5
95C2
330
8002
100
AcDbEntity
  8
Defpoints
 62
     0
440
 16777216
100
AcDbPoint
 10
8920.042527596418
 20
-412.178760761714
 30
0.0
  0
ENDBLK
  5
800E
330
8002
100
AcDbEntity
  8
0
100
AcDbBlockEnd
  0
BLOCK
  5
8019
330
800F
100
AcDbEntity
  8
0
100
AcDbBlockBegin
  2
*D30
 70
     1
 10
0.0
 20
0.0
 30
0.0
  3
*D30
  1

  0
LINE
  5
95C3
330
800F
100
AcDbEntity
  8
DIMJ
 62
     0
440
 16777216
370
    -2
100
AcDbLine
 10
8565.196396795997
 20
-390.678760761714
 30
0.0
 11
8565.196396795997
 21
-268.8757036423
 31
0.0
  0
LINE
  5
95C4
330
800F
100
AcDbEntity
  8
DIMJ
 62
     0
440
 16777216
370
    -2
100
AcDbLine
 10
8774.196396795998
 20
-390.6787607617141
 30
0.0
 11
8774.196396795998
 21
-268.8757036423
 31
0.0
  0
LINE
  5
95C5
330
800F
100
AcDbEntity
  8
DIMJ
 62
     0
440
 16777216
370
    -2
100
AcDbLine
 10
8590.196396795997
 20
-273.8757036423
 30
0.0
 11
8749.196396796
 21
-273.8757036423
 31
0.0
  0
SOLID
  5
95C6
330
800F
100
AcDbEntity
  8
DIMJ
 62
     0
440
 16777216
100
AcDbTrace
 10
8590.196396795997
 20
-269.7090369756333
 30
0.0
 11
8590.196396795997
 21
-278.0423703089667
 31
0.0
 12
8565.196396795997
 22
-273.8757036423
 32
0.0
 13
8565.196396795997
 23
-273.8757036423
 33
0.0
  0
SOLID
  5
95C7
330
800F
100
AcDbEntity
  8
DIMJ
 62
     0
440
 16777216
100
AcDbTrace
 10
8749.196396796
 20
-269.7090369756333
 30
0.0
 11
8749.196396796
 21
-278.0423703089667
 31
0.0
 12
8774.196396795998
 22
-273.8757036423
 32
0.0
 13
8774.196396795998
 23
-273.8757036423
 33
0.0
  0
MTEXT
  5
95C8
330
800F
100
AcDbEntity
  8
DIMJ
 62
     0
440
 16777216
100
AcDbMText
 10
8669.696396795997
 20
-250.8757036423
 30
0.0
 40
30.0
 41
0.0
 46
0.0
 71
     5
 72
     1
  1
\A1;Φ38
 73
     1
 44
1.0
  0
POINT
  5
95C9
330
800F
100
AcDbEntity
  8
Defpoints
 62
     0
440
 16777216
100
AcDbPoint
 10
8565.196396795997
 20
-395.678760761714
 30
0.0
  0
POINT
  5
95CA
330
800F
100
AcDbEntity
  8
Defpoints
 62
     0
440
 16777216
100
AcDbPoint
 10
8774.196396795998
 20
-395.6787607617141
 30
0.0
  0
POINT
  5
95CB
330
800F
100
AcDbEntity
  8
Defpoints
 62
     0
440
 16777216
100
AcDbPoint
 10
8774.196396795998
 20
-273.8757036423
 30
0.0
  0
ENDBLK
  5
801A
330
800F
100
AcDbEntity
  8
0
100
AcDbBlockEnd
  0
BLOCK
  5
8025
330
801B
100
AcDbEntity
  8
0
100
AcDbBlockBegin
  2
*D31
 70
     1
 10
0.0
 20
0.0
 30
0.0
  3
*D31
  1

  0
LINE
  5
95CC
330
801B
100
AcDbEntity
  8
DIMJ
 62
     0
440
 16777216
370
    -2
100
AcDbLine
 10
8477.196396795999
 20
-390.678760761714
 30
0.0
 11
8477.196396795999
 21
-199.1361293291653
 31
0.0
  0
LINE
  5
95CD
330
801B
100
AcDbEntity
  8
DIMJ
 62
     0
440
 16777216
370
    -2
100
AcDbLine
 10
8862.196396795999
 20
-390.678760761714
 30
0.0
 11
8862.196396795999
 21
-199.1361293291653
 31
0.0
  0
LINE
  5
95CE
330
801B
100
AcDbEntity
  8
DIMJ
 62
     0
440
 16777216
370
    -2
100
AcDbLine
 10
8502.196396796
 20
-204.1361293291653
 30
0.0
 11
8837.196396795999
 21
-204.1361293291653
 31
0.0
  0
SOLID
  5
95CF
330
801B
100
AcDbEntity
  8
DIMJ
 62
     0
440
 16777216
100
AcDbTrace
 10
8502.196396796
 20
-199.9694626624987
 30
0.0
 11
8502.196396796
 21
-208.302795995832
 31
0.0
 12
8477.196396795999
 22
-204.1361293291653
 32
0.0
 13
8477.196396795999
 23
-204.1361293291653
 33
0.0
  0
SOLID
  5
95D0
330
801B
100
AcDbEntity
  8
DIMJ
 62
     0
440
 16777216
100
AcDbTrace
 10
8837.196396795999
 20
-199.9694626624987
 30
0.0
 11
8837.196396795999
 21
-208.302795995832
 31
0.0
 12
8862.196396795999
 22
-204.1361293291653
 32
0.0
 13
8862.196396795999
 23
-204.1361293291653
 33
0.0
  0
MTEXT
  5
95D1
330
801B
100
AcDbEntity
  8
DIMJ
 62
     0
440
 16777216
100
AcDbMText
 10
8669.696396795998
 20
-181.1361293291653
 30
0.0
 40
30.0
 41
0.0
 46
0.0
 71
     5
 72
     1
  1
\A1;70
 73
     1
 44
1.0
  0
POINT
  5
95D2
330
801B
100
AcDbEntity
  8
Defpoints
 62
     0
440
 16777216
100
AcDbPoint
 10
8477.196396795999
 20
-395.678760761714
 30
0.0
  0
POINT
  5
95D3
330
801B
100
AcDbEntity
  8
Defpoints
 62
     0
440
 16777216
100
AcDbPoint
 10
8862.196396795999
 20
-395.678760761714
 30
0.0
  0
POINT
  5
95D4
330
801B
100
AcDbEntity
  8
Defpoints
 62
     0
440
 16777216
100
AcDbPoint
 10
8862.196396795999
 20
-204.1361293291653
 30
0.0
  0
ENDBLK
  5
8026
330
801B
100
AcDbEntity
  8
0
100
AcDbBlockEnd
  0
BLOCK
  5
8032
330
8027
100
AcDbEntity
  8
0
100
AcDbBlockBegin
  2
*D32
 70
     1
 10
0.0
 20
0.0
 30
0.0
  3
*D32
  1

  0
LINE
  5
95D5
330
8027
100
AcDbEntity
  8
DIMJ
 62
     0
440
 16777216
370
    -2
100
AcDbLine
 10
8862.196396795999
 20
-390.678760761714
 30
0.0
 11
8862.196396795999
 21
-282.6818061008113
 31
0.0
  0
LINE
  5
95D6
330
8027
100
AcDbEntity
  8
DIMJ
 62
     0
440
 16777216
370
    -2
100
AcDbLine
 10
8875.946396795999
 20
-407.178760761714
 30
0.0
 11
8875.946396795999
 21
-282.6818061008113
 31
0.0
  0
LINE
  5
95D7
330
8027
100
AcDbEntity
  8
DIMJ
 62
     0
440
 16777216
370
    -2
100
AcDbLine
 10
8837.196396795999
 20
-287.6818061008113
 30
0.0
 11
8812.196396795998
 21
-287.6818061008113
 31
0.0
  0
LINE
  5
95D8
330
8027
100
AcDbEntity
  8
DIMJ
 62
     0
440
 16777216
370
    -2
100
AcDbLine
 10
8900.946396795999
 20
-287.6818061008113
 30
0.0
 11
8988.811261660863
 21
-287.6818061008113
 31
0.0
  0
SOLID
  5
95D9
330
8027
100
AcDbEntity
  8
DIMJ
 62
     0
440
 16777216
100
AcDbTrace
 10
8837.196396795999
 20
-283.5151394341446
 30
0.0
 11
8837.196396795999
 21
-291.848472767478
 31
0.0
 12
8862.196396795999
 22
-287.6818061008113
 32
0.0
 13
8862.196396795999
 23
-287.6818061008113
 33
0.0
  0
SOLID
  5
95DA
330
8027
100
AcDbEntity
  8
DIMJ
 62
     0
440
 16777216
100
AcDbTrace
 10
8900.946396795999
 20
-283.5151394341446
 30
0.0
 11
8900.946396795999
 21
-291.848472767478
 31
0.0
 12
8875.946396795999
 22
-287.6818061008113
 32
0.0
 13
8875.946396795999
 23
-287.6818061008113
 33
0.0
  0
MTEXT
  5
95DB
330
8027
100
AcDbEntity
  8
DIMJ
 62
     0
440
 16777216
100
AcDbMText
 10
8957.37882922843
 20
-264.6818061008113
 30
0.0
 40
30.0
 41
0.0
 46
0.0
 71
     5
 72
     1
  1
\A1;2.5
 73
     1
 44
1.0
  0
POINT
  5
95DC
330
8027
100
AcDbEntity
  8
Defpoints
 62
     0
440
 16777216
100
AcDbPoint
 10
8862.196396795999
 20
-395.678760761714
 30
0.0
  0
POINT
  5
95DD
330
8027
100
AcDbEntity
  8
Defpoints
 62
     0
440
 16777216
100
AcDbPoint
 10
8875.946396795999
 20
-412.178760761714
 30
0.0
  0
POINT
  5
95DE
330
8027
100
AcDbEntity
  8
Defpoints
 62
     0
440
 16777216
100
AcDbPoint
 10
8875.946396795999
 20
-287.6818061008113
 30
0.0
  0
ENDBLK
  5
8033
330
8027
100
AcDbEntity
  8
0
100
AcDbBlockEnd
  0
BLOCK
  5
803F
330
8034
100
AcDbEntity
  8
0
100
AcDbBlockBegin
  2
*D33
 70
     1
 10
0.0
 20
0.0
 30
0.0
  3
*D33
  1

  0
LINE
  5
95DF
330
8034
100
AcDbEntity
  8
DIMJ
 62
     0
440
 16777216
370
    -2
100
AcDbLine
 10
8327.191200422813
 20
1165.868978788766
 30
0.0
 11
8237.428004395498
 21
1165.868978788766
 31
0.0
  0
LINE
  5
95E0
330
8034
100
AcDbEntity
  8
DIMJ
 62
     0
440
 16777216
370
    -2
100
AcDbLine
 10
8307.335426450901
 20
1144.1038633281
 30
0.0
 11
8237.428004395498
 21
1144.1038633281
 31
0.0
  0
LINE
  5
95E1
330
8034
100
AcDbEntity
  8
DIMJ
 62
     0
440
 16777216
370
    -2
100
AcDbLine
 10
8242.428004395499
 20
1190.868978788766
 30
0.0
 11
8242.428004395499
 21
1215.868978788766
 31
0.0
  0
LINE
  5
95E2
330
8034
100
AcDbEntity
  8
DIMJ
 62
     0
440
 16777216
370
    -2
100
AcDbLine
 10
8242.428004395499
 20
1119.1038633281
 30
0.0
 11
8242.428004395499
 21
1066.938998463236
 31
0.0
  0
SOLID
  5
95E3
330
8034
100
AcDbEntity
  8
DIMJ
 62
     0
440
 16777216
100
AcDbTrace
 10
8238.261337728832
 20
1190.868978788766
 30
0.0
 11
8246.594671062165
 21
1190.868978788766
 31
0.0
 12
8242.428004395499
 22
1165.868978788766
 32
0.0
 13
8242.428004395499
 23
1165.868978788766
 33
0.0
  0
SOLID
  5
95E4
330
8034
100
AcDbEntity
  8
DIMJ
 62
     0
440
 16777216
100
AcDbTrace
 10
8238.261337728832
 20
1119.1038633281
 30
0.0
 11
8246.594671062165
 21
1119.1038633281
 31
0.0
 12
8242.428004395499
 22
1144.1038633281
 32
0.0
 13
8242.428004395499
 23
1144.1038633281
 33
0.0
  0
MTEXT
  5
95E5
330
8034
100
AcDbEntity
  8
DIMJ
 62
     0
440
 16777216
100
AcDbMText
 10
8219.428004395499
 20
1080.52143089567
 30
0.0
 40
30.0
 41
0.0
 46
0.0
 71
     5
 72
     1
  1
\A1;5
 11
0.0000000000000001
 21
1.0
 31
0.0
 73
     1
 44
1.0
  0
POINT
  5
95E6
330
8034
100
AcDbEntity
  8
Defpoints
 62
     0
440
 16777216
100
AcDbPoint
 10
8332.191200422812
 20
1165.868978788766
 30
0.0
  0
POINT
  5
95E7
330
8034
100
AcDbEntity
  8
Defpoints
 62
     0
440
 16777216
100
AcDbPoint
 10
8312.3354264509
 20
1144.1038633281
 30
0.0
  0
POINT
  5
95E8
330
8034
100
AcDbEntity
  8
Defpoints
 62
     0
440
 16777216
100
AcDbPoint
 10
8242.428004395499
 20
1144.1038633281
 30
0.0
  0
ENDBLK
  5
8040
330
8034
100
AcDbEntity
  8
0
100
AcDbBlockEnd
  0
BLOCK
  5
804C
330
8041
100
AcDbEntity
  8
0
100
AcDbBlockBegin
  2
*D34
 70
     1
 10
0.0
 20
0.0
 30
0.0
  3
*D34
  1

  0
LINE
  5
95E9
330
8041
100
AcDbEntity
  8
DIMJ
 62
     0
440
 16777216
370
    -2
100
AcDbLine
 10
8310.159200422814
 20
1151.590978788769
 30
0.0
 11
8310.159200422814
 21
1224.661391770823
 31
0.0
  0
LINE
  5
95EA
330
8041
100
AcDbEntity
  8
DIMJ
 62
     0
440
 16777216
370
    -2
100
AcDbLine
 10
8332.191200422812
 20
1170.868978788766
 30
0.0
 11
8332.191200422812
 21
1224.661391770823
 31
0.0
  0
LINE
  5
95EB
330
8041
100
AcDbEntity
  8
DIMJ
 62
     0
440
 16777216
370
    -2
100
AcDbLine
 10
8285.159200422816
 20
1219.661391770823
 30
0.0
 11
8260.159200422815
 21
1219.661391770823
 31
0.0
  0
LINE
  5
95EC
330
8041
100
AcDbEntity
  8
DIMJ
 62
     0
440
 16777216
370
    -2
100
AcDbLine
 10
8357.191200422812
 20
1219.661391770823
 30
0.0
 11
8382.191200422813
 21
1219.661391770823
 31
0.0
  0
SOLID
  5
95ED
330
8041
100
AcDbEntity
  8
DIMJ
 62
     0
440
 16777216
100
AcDbTrace
 10
8285.159200422816
 20
1223.828058437489
 30
0.0
 11
8285.159200422816
 21
1215.494725104156
 31
0.0
 12
8310.159200422814
 22
1219.661391770823
 32
0.0
 13
8310.159200422814
 23
1219.661391770823
 33
0.0
  0
SOLID
  5
95EE
330
8041
100
AcDbEntity
  8
DIMJ
 62
     0
440
 16777216
100
AcDbTrace
 10
8357.191200422812
 20
1223.828058437489
 30
0.0
 11
8357.191200422812
 21
1215.494725104156
 31
0.0
 12
8332.191200422812
 22
1219.661391770823
 32
0.0
 13
8332.191200422812
 23
1219.661391770823
 33
0.0
  0
MTEXT
  5
95EF
330
8041
100
AcDbEntity
  8
DIMJ
 62
     0
440
 16777216
100
AcDbMText
 10
8321.175200422814
 20
1242.661391770823
 30
0.0
 40
30.0
 41
0.0
 46
0.0
 71
     5
 72
     1
  1
\A1;5
 73
     1
 44
1.0
  0
POINT
  5
95F0
330
8041
100
AcDbEntity
  8
Defpoints
 62
     0
440
 16777216
100
AcDbPoint
 10
8310.159200422814
 20
1146.590978788769
 30
0.0
  0
POINT
  5
95F1
330
8041
100
AcDbEntity
  8
Defpoints
 62
     0
440
 16777216
100
AcDbPoint
 10
8332.191200422812
 20
1165.868978788766
 30
0.0
  0
POINT
  5
95F2
330
8041
100
AcDbEntity
  8
Defpoints
 62
     0
440
 16777216
100
AcDbPoint
 10
8332.191200422812
 20
1219.661391770823
 30
0.0
  0
ENDBLK
  5
804D
330
8041
100
AcDbEntity
  8
0
100
AcDbBlockEnd
  0
BLOCK
  5
8058
330
804E
100
AcDbEntity
  8
0
100
AcDbBlockBegin
  2
*D35
 70
     1
 10
0.0
 20
0.0
 30
0.0
  3
*D35
  1

  0
LINE
  5
95F3
330
804E
100
AcDbEntity
  8
DIMJ
 62
     0
440
 16777216
370
    -2
100
AcDbLine
 10
8310.159200422814
 20
1151.590978788769
 30
0.0
 11
8310.159200422814
 21
1294.010762165234
 31
0.0
  0
LINE
  5
95F4
330
804E
100
AcDbEntity
  8
DIMJ
 62
     0
440
 16777216
370
    -2
100
AcDbLine
 10
8392.779200422816
 20
1170.868978788766
 30
0.0
 11
8392.779200422816
 21
1294.010762165234
 31
0.0
  0
LINE
  5
95F5
330
804E
100
AcDbEntity
  8
DIMJ
 62
     0
440
 16777216
370
    -2
100
AcDbLine
 10
8335.159200422815
 20
1289.010762165234
 30
0.0
 11
8367.779200422816
 21
1289.010762165234
 31
0.0
  0
SOLID
  5
95F6
330
804E
100
AcDbEntity
  8
DIMJ
 62
     0
440
 16777216
100
AcDbTrace
 10
8335.159200422815
 20
1293.177428831901
 30
0.0
 11
8335.159200422815
 21
1284.844095498567
 31
0.0
 12
8310.159200422814
 22
1289.010762165234
 32
0.0
 13
8310.159200422814
 23
1289.010762165234
 33
0.0
  0
SOLID
  5
95F7
330
804E
100
AcDbEntity
  8
DIMJ
 62
     0
440
 16777216
100
AcDbTrace
 10
8367.779200422816
 20
1293.177428831901
 30
0.0
 11
8367.779200422816
 21
1284.844095498567
 31
0.0
 12
8392.779200422816
 22
1289.010762165234
 32
0.0
 13
8392.779200422816
 23
1289.010762165234
 33
0.0
  0
MTEXT
  5
95F8
330
804E
100
AcDbEntity
  8
DIMJ
 62
     0
440
 16777216
100
AcDbMText
 10
8351.469200422817
 20
1312.010762165234
 30
0.0
 40
30.0
 41
0.0
 46
0.0
 71
     5
 72
     1
  1
\A1;20
 73
     1
 44
1.0
  0
POINT
  5
95F9
330
804E
100
AcDbEntity
  8
Defpoints
 62
     0
440
 16777216
100
AcDbPoint
 10
8310.159200422814
 20
1146.590978788769
 30
0.0
  0
POINT
  5
95FA
330
804E
100
AcDbEntity
  8
Defpoints
 62
     0
440
 16777216
100
AcDbPoint
 10
8392.779200422816
 20
1165.868978788766
 30
0.0
  0
POINT
  5
95FB
330
804E
100
AcDbEntity
  8
Defpoints
 62
     0
440
 16777216
100
AcDbPoint
 10
8392.779200422816
 20
1289.010762165234
 30
0.0
  0
ENDBLK
  5
8059
330
804E
100
AcDbEntity
  8
0
100
AcDbBlockEnd
  0
BLOCK
  5
8065
330
805A
100
AcDbEntity
  8
0
100
AcDbBlockBegin
  2
*D36
 70
     1
 10
0.0
 20
0.0
 30
0.0
  3
*D36
  1

  0
LINE
  5
95FC
330
805A
100
AcDbEntity
  8
DIMJ
 62
     0
440
 16777216
370
    -2
100
AcDbLine
 10
8392.779200422816
 20
1170.868978788766
 30
0.0
 11
8392.779200422816
 21
1246.095635101715
 31
0.0
  0
LINE
  5
95FD
330
805A
100
AcDbEntity
  8
DIMJ
 62
     0
440
 16777216
370
    -2
100
AcDbLine
 10
8420.319200422815
 20
1151.590978788769
 30
0.0
 11
8420.319200422815
 21
1246.095635101715
 31
0.0
  0
LINE
  5
95FE
330
805A
100
AcDbEntity
  8
DIMJ
 62
     0
440
 16777216
370
    -2
100
AcDbLine
 10
8367.779200422816
 20
1241.095635101715
 30
0.0
 11
8342.779200422816
 21
1241.095635101715
 31
0.0
  0
LINE
  5
95FF
330
805A
100
AcDbEntity
  8
DIMJ
 62
     0
440
 16777216
370
    -2
100
AcDbLine
 10
8445.319200422815
 20
1241.095635101715
 30
0.0
 11
8470.319200422816
 21
1241.095635101715
 31
0.0
  0
SOLID
  5
9600
330
805A
100
AcDbEntity
  8
DIMJ
 62
     0
440
 16777216
100
AcDbTrace
 10
8367.779200422816
 20
1245.262301768381
 30
0.0
 11
8367.779200422816
 21
1236.928968435048
 31
0.0
 12
8392.779200422816
 22
1241.095635101715
 32
0.0
 13
8392.779200422816
 23
1241.095635101715
 33
0.0
  0
SOLID
  5
9601
330
805A
100
AcDbEntity
  8
DIMJ
 62
     0
440
 16777216
100
AcDbTrace
 10
8445.319200422815
 20
1245.262301768381
 30
0.0
 11
8445.319200422815
 21
1236.928968435048
 31
0.0
 12
8420.319200422815
 22
1241.095635101715
 32
0.0
 13
8420.319200422815
 23
1241.095635101715
 33
0.0
  0
MTEXT
  5
9602
330
805A
100
AcDbEntity
  8
DIMJ
 62
     0
440
 16777216
100
AcDbMText
 10
8406.549200422814
 20
1264.095635101715
 30
0.0
 40
30.0
 41
0.0
 46
0.0
 71
     5
 72
     1
  1
\A1;5
 73
     1
 44
1.0
  0
POINT
  5
9603
330
805A
100
AcDbEntity
  8
Defpoints
 62
     0
440
 16777216
100
AcDbPoint
 10
8392.779200422816
 20
1165.868978788766
 30
0.0
  0
POINT
  5
9604
330
805A
100
AcDbEntity
  8
Defpoints
 62
     0
440
 16777216
100
AcDbPoint
 10
8420.319200422815
 20
1146.590978788769
 30
0.0
  0
POINT
  5
9605
330
805A
100
AcDbEntity
  8
Defpoints
 62
     0
440
 16777216
100
AcDbPoint
 10
8420.319200422815
 20
1241.095635101715
 30
0.0
  0
ENDBLK
  5
8066
330
805A
100
AcDbEntity
  8
0
100
AcDbBlockEnd
  0
BLOCK
  5
8072
330
8067
100
AcDbEntity
  8
0
100
AcDbBlockBegin
  2
*D37
 70
     1
 10
0.0
 20
0.0
 30
0.0
  3
*D37
  1

  0
LINE
  5
9606
330
8067
100
AcDbEntity
  8
DIMJ
 62
     0
440
 16777216
370
    -2
100
AcDbLine
 10
8592.582960144508
 20
1146.590978788769
 30
0.0
 11
8597.784272886556
 21
1146.590978788769
 31
0.0
  0
LINE
  5
9607
330
8067
100
AcDbEntity
  8
DIMJ
 62
     0
440
 16777216
370
    -2
100
AcDbLine
 10
8592.582960144506
 20
1165.868978788766
 30
0.0
 11
8597.784272886556
 21
1165.868978788766
 31
0.0
  0
LINE
  5
9608
330
8067
100
AcDbEntity
  8
DIMJ
 62
     0
440
 16777216
370
    -2
100
AcDbLine
 10
8592.784272886557
 20
1121.590978788769
 30
0.0
 11
8592.784272886557
 21
1096.590978788769
 31
0.0
  0
LINE
  5
9609
330
8067
100
AcDbEntity
  8
DIMJ
 62
     0
440
 16777216
370
    -2
100
AcDbLine
 10
8592.784272886557
 20
1190.868978788766
 30
0.0
 11
8592.784272886557
 21
1243.033843653631
 31
0.0
  0
SOLID
  5
960A
330
8067
100
AcDbEntity
  8
DIMJ
 62
     0
440
 16777216
100
AcDbTrace
 10
8588.617606219889
 20
1121.590978788769
 30
0.0
 11
8596.950939553222
 21
1121.590978788769
 31
0.0
 12
8592.784272886557
 22
1146.590978788769
 32
0.0
 13
8592.784272886557
 23
1146.590978788769
 33
0.0
  0
SOLID
  5
960B
330
8067
100
AcDbEntity
  8
DIMJ
 62
     0
440
 16777216
100
AcDbTrace
 10
8588.617606219889
 20
1190.868978788766
 30
0.0
 11
8596.950939553222
 21
1190.868978788766
 31
0.0
 12
8592.784272886557
 22
1165.868978788766
 32
0.0
 13
8592.784272886557
 23
1165.868978788766
 33
0.0
  0
MTEXT
  5
960C
330
8067
100
AcDbEntity
  8
DIMJ
 62
     0
440
 16777216
100
AcDbMText
 10
8569.784272886556
 20
1229.4514112212
 30
0.0
 40
30.0
 41
0.0
 46
0.0
 71
     5
 72
     1
  1
\A1;5
 11
0.0000000000000001
 21
1.0
 31
0.0
 73
     1
 44
1.0
  0
POINT
  5
960D
330
8067
100
AcDbEntity
  8
Defpoints
 62
     0
440
 16777216
100
AcDbPoint
 10
8587.582960144507
 20
1146.590978788769
 30
0.0
  0
POINT
  5
960E
330
8067
100
AcDbEntity
  8
Defpoints
 62
     0
440
 16777216
100
AcDbPoint
 10
8587.582960144507
 20
1165.868978788766
 30
0.0
  0
POINT
  5
960F
330
8067
100
AcDbEntity
  8
Defpoints
 62
     0
440
 16777216
100
AcDbPoint
 10
8592.784272886557
 20
1165.868978788766
 30
0.0
  0
ENDBLK
  5
8073
330
8067
100
AcDbEntity
  8
0
100
AcDbBlockEnd
  0
BLOCK
  5
807A
330
8074
100
AcDbEntity
  8
0
100
AcDbBlockBegin
  2
*D38
 70
     1
 10
0.0
 20
0.0
 30
0.0
  3
*D38
  1

  0
LINE
  5
9610
330
8074
100
AcDbEntity
  8
DIMJ
 62
     0
440
 16777216
370
    -2
100
AcDbLine
 10
8512.197362749905
 20
1059.42431612659
 30
0.0
 11
8559.753509191606
 21
1112.94975807353
 31
0.0
  0
MTEXT
  5
9611
330
8074
100
AcDbEntity
  8
DIMJ
 62
     0
440
 16777216
100
AcDbMText
 10
8510.479109220744
 20
1092.118927376908
 30
0.0
 40
30.0
 41
0.0
 46
0.0
 71
     5
 72
     1
  1
\A1;R6
 11
0.664191989409266
 21
0.7475620383650856
 31
0.0
 73
     1
 44
1.0
  0
SOLID
  5
9612
330
8074
100
AcDbEntity
  8
DIMJ
 62
     0
440
 16777216
100
AcDbTrace
 10
8556.638667365085
 20
1115.717224696069
 30
0.0
 11
8562.86835101813
 21
1110.182291450992
 31
0.0
 12
8576.35830892684
 22
1131.638809032657
 32
0.0
 13
8576.35830892684
 23
1131.638809032657
 33
0.0
  0
POINT
  5
9613
330
8074
100
AcDbEntity
  8
Defpoints
 62
     0
440
 16777216
100
AcDbPoint
 10
8576.35830892684
 20
1131.638809032657
 30
0.0
  0
POINT
  5
9614
330
8074
100
AcDbEntity
  8
Defpoints
 62
     0
440
 16777216
100
AcDbPoint
 10
8554.408092060844
 20
1106.933378788769
 30
0.0
  0
ENDBLK
  5
807B
330
8074
100
AcDbEntity
  8
0
100
AcDbBlockEnd
  0
BLOCK
  5
808E
330
8088
100
AcDbEntity
  8
0
100
AcDbBlockBegin
  2
*D39
 70
     1
 10
0.0
 20
0.0
 30
0.0
  3
*D39
  1

  0
LINE
  5
9615
330
8088
100
AcDbEntity
  8
DIMJ
 62
     0
440
 16777216
370
    -2
100
AcDbLine
 10
9475.575875792037
 20
271.1401839005457
 30
0.0
 11
9562.756418808618
 21
183.768655814647
 31
0.0
  0
MTEXT
  5
9616
330
8088
100
AcDbEntity
  8
DIMJ
 62
     0
440
 16777216
100
AcDbMText
 10
9526.618229558348
 20
252.5485719656017
 30
0.0
 40
30.0
 41
0.0
 46
0.0
 71
     5
 72
     1
  1
\A1;4-R76
 11
0.7063326818808533
 21
-0.7078800339796294
 31
0.0
 73
     1
 44
1.0
  0
SOLID
  5
9617
330
8088
100
AcDbEntity
  8
DIMJ
 62
     0
440
 16777216
100
AcDbTrace
 10
9565.705918950198
 20
186.7117086558173
 30
0.0
 11
9559.806918667037
 21
180.8256029734766
 31
0.0
 12
9580.41473585564
 22
166.0716549651561
 32
0.0
 13
9580.41473585564
 23
166.0716549651561
 33
0.0
  0
POINT
  5
9618
330
8088
100
AcDbEntity
  8
Defpoints
 62
     0
440
 16777216
100
AcDbPoint
 10
9580.41473585564
 20
166.0716549651561
 30
0.0
  0
POINT
  5
9619
330
8088
100
AcDbEntity
  8
Defpoints
 62
     0
440
 16777216
100
AcDbPoint
 10
9526.733452032695
 20
219.8705375476102
 30
0.0
  0
ENDBLK
  5
808F
330
8088
100
AcDbEntity
  8
0
100
AcDbBlockEnd
  0
BLOCK
  5
80A3
330
8099
100
AcDbEntity
  8
0
100
AcDbBlockBegin
  2
*D40
 70
     1
 10
0.0
 20
0.0
 30
0.0
  3
*D40
  1

  0
LINE
  5
9623
330
8099
100
AcDbEntity
  8
DIMJ
 62
     0
440
 16777216
370
    -2
100
AcDbLine
 10
9499.515632871172
 20
540.8618008579788
 30
0.0
 11
9746.510458408174
 21
540.8618008579788
 31
0.0
  0
LINE
  5
9624
330
8099
100
AcDbEntity
  8
DIMJ
 62
     0
440
 16777216
370
    -2
100
AcDbLine
 10
9499.515632871171
 20
140.8618008579788
 30
0.0
 11
9746.510458408174
 21
140.8618008579787
 31
0.0
  0
LINE
  5
9625
330
8099
100
AcDbEntity
  8
DIMJ
 62
     0
440
 16777216
370
    -2
100
AcDbLine
 10
9741.510458408175
 20
515.8618008579788
 30
0.0
 11
9741.510458408175
 21
165.8618008579787
 31
0.0
  0
SOLID
  5
9626
330
8099
100
AcDbEntity
  8
DIMJ
 62
     0
440
 16777216
100
AcDbTrace
 10
9737.343791741508
 20
515.8618008579788
 30
0.0
 11
9745.677125074841
 21
515.8618008579788
 31
0.0
 12
9741.510458408175
 22
540.8618008579788
 32
0.0
 13
9741.510458408175
 23
540.8618008579788
 33
0.0
  0
SOLID
  5
9627
330
8099
100
AcDbEntity
  8
DIMJ
 62
     0
440
 16777216
100
AcDbTrace
 10
9737.343791741508
 20
165.8618008579787
 30
0.0
 11
9745.677125074841
 21
165.8618008579787
 31
0.0
 12
9741.510458408175
 22
140.8618008579787
 32
0.0
 13
9741.510458408175
 23
140.8618008579787
 33
0.0
  0
MTEXT
  5
9628
330
8099
100
AcDbEntity
  8
DIMJ
 62
     0
440
 16777216
100
AcDbMText
 10
9718.510458408175
 20
340.8618008579803
 30
0.0
 40
30.0
 41
0.0
 46
0.0
 71
     5
 72
     1
  1
\A1;400
 11
0.0000000000000001
 21
1.0
 31
0.0
 73
     1
 44
1.0
  0
POINT
  5
9629
330
8099
100
AcDbEntity
  8
Defpoints
 62
     0
440
 16777216
100
AcDbPoint
 10
9494.515632871173
 20
540.8618008579788
 30
0.0
  0
POINT
  5
962A
330
8099
100
AcDbEntity
  8
Defpoints
 62
     0
440
 16777216
100
AcDbPoint
 10
9494.515632871172
 20
140.8618008579788
 30
0.0
  0
POINT
  5
962B
330
8099
100
AcDbEntity
  8
Defpoints
 62
     0
440
 16777216
100
AcDbPoint
 10
9741.510458408175
 20
140.8618008579787
 30
0.0
  0
ENDBLK
  5
80A4
330
8099
100
AcDbEntity
  8
0
100
AcDbBlockEnd
  0
BLOCK
  5
80AB
330
80A5
100
AcDbEntity
  8
0
100
AcDbBlockBegin
  2
*D41
 70
     1
 10
0.0
 20
0.0
 30
0.0
  3
*D41
  1

  0
LINE
  5
962C
330
80A5
100
AcDbEntity
  8
DIMJ
 62
     0
440
 16777216
370
    -2
100
AcDbLine
 10
9140.237249828606
 20
745.922043778849
 30
0.0
 11
9227.608777914506
 21
833.1025867954286
 31
0.0
  0
MTEXT
  5
962D
330
80A5
100
AcDbEntity
  8
DIMJ
 62
     0
440
 16777216
100
AcDbMText
 10
9158.82886176355
 20
796.9643975451599
 30
0.0
 40
30.0
 41
0.0
 46
0.0
 71
     5
 72
     1
  1
\A1;4-R76
 11
0.7078800339796477
 21
0.7063326818808351
 31
0.0
 73
     1
 44
1.0
  0
SOLID
  5
962E
330
80A5
100
AcDbEntity
  8
DIMJ
 62
     0
440
 16777216
100
AcDbTrace
 10
9224.665725073334
 20
836.0520869370102
 30
0.0
 11
9230.551830755677
 21
830.153086653846
 31
0.0
 12
9245.305778763997
 22
850.7609038424497
 32
0.0
 13
9245.305778763997
 23
850.7609038424497
 33
0.0
  0
POINT
  5
962F
330
80A5
100
AcDbEntity
  8
Defpoints
 62
     0
440
 16777216
100
AcDbPoint
 10
9245.305778763997
 20
850.7609038424497
 30
0.0
  0
POINT
  5
9630
330
80A5
100
AcDbEntity
  8
Defpoints
 62
     0
440
 16777216
100
AcDbPoint
 10
9191.506896181541
 20
797.0796200195027
 30
0.0
  0
ENDBLK
  5
80AC
330
80A5
100
AcDbEntity
  8
0
100
AcDbBlockEnd
  0
BLOCK
  5
80B5
330
80AD
100
AcDbEntity
  8
0
100
AcDbBlockBegin
  2
*D42
 70
     1
 10
0.0
 20
0.0
 30
0.0
  3
*D42
  1

  0
LINE
  5
9631
330
80AD
100
AcDbEntity
  8
DIMJ
 62
     0
440
 16777216
370
    -2
100
AcDbLine
 10
9336.746489606374
 20
952.8259231124332
 30
0.0
 11
9336.841911843617
 21
794.8987552671873
 31
0.0
  0
MTEXT
  5
9632
330
80AD
100
AcDbEntity
  8
DIMJ
 62
     0
440
 16777216
100
AcDbMText
 10
9359.781509559315
 20
894.8736144596033
 30
0.0
 40
30.0
 41
0.0
 46
0.0
 71
     5
 72
     1
  1
\A1;4-Φ38
 11
0.0006042166216594
 21
-0.9999998174611203
 31
0.0
 73
     1
 44
1.0
  0
SOLID
  5
9633
330
80AD
100
AcDbEntity
  8
DIMJ
 62
     0
440
 16777216
100
AcDbTrace
 10
9341.008577749702
 20
794.9012728364443
 30
0.0
 11
9332.675245937529
 21
794.8962376979304
 31
0.0
 12
9336.857017259157
 22
769.8987598306594
 32
0.0
 13
9336.857017259157
 23
769.8987598306594
 33
0.0
  0
LINE
  5
9634
330
80AD
100
AcDbEntity
  8
DIMJ
 62
     0
440
 16777216
370
    -2
100
AcDbLine
 10
9332.86849737497
 20
750.8987632988983
 30
0.0
 11
9340.86849737497
 21
750.8987632988984
 31
0.0
  0
LINE
  5
9635
330
80AD
100
AcDbEntity
  8
DIMJ
 62
     0
440
 16777216
370
    -2
100
AcDbLine
 10
9336.868497374974
 20
746.8987632988985
 30
0.0
 11
9336.868497374972
 21
754.8987632988984
 31
0.0
  0
POINT
  5
9636
330
80AD
100
AcDbEntity
  8
Defpoints
 62
     0
440
 16777216
100
AcDbPoint
 10
9336.857017259157
 20
769.8987598306594
 30
0.0
  0
POINT
  5
9637
330
80AD
100
AcDbEntity
  8
Defpoints
 62
     0
440
 16777216
100
AcDbPoint
 10
9336.879977490779
 20
731.8987667671372
 30
0.0
  0
ENDBLK
  5
80B6
330
80AD
100
AcDbEntity
  8
0
100
AcDbBlockEnd
  0
BLOCK
  5
80C1
330
80B7
100
AcDbEntity
  8
0
100
AcDbBlockBegin
  2
*D43
 70
     1
 10
0.0
 20
0.0
 30
0.0
  3
*D43
  1

  0
LINE
  5
9638
330
80B7
100
AcDbEntity
  8
DIMJ
 62
     0
440
 16777216
370
    -2
100
AcDbLine
 10
9465.596961794036
 20
735.9431297808405
 30
0.0
 11
9507.112672146076
 21
777.4588401328756
 31
0.0
  0
LINE
  5
9639
330
80B7
100
AcDbEntity
  8
DIMJ
 62
     0
440
 16777216
370
    -2
100
AcDbLine
 10
9501.058691966504
 20
627.7207620162016
 30
0.0
 11
9578.954721114627
 21
705.6167911643133
 31
0.0
  0
LINE
  5
963A
330
80B7
100
AcDbEntity
  8
DIMJ
 62
     0
440
 16777216
370
    -2
100
AcDbLine
 10
9521.254807769805
 20
756.2456366972782
 30
0.0
 11
9557.741517679032
 21
719.7589267880466
 31
0.0
  0
SOLID
  5
963B
330
80B7
100
AcDbEntity
  8
DIMJ
 62
     0
440
 16777216
100
AcDbTrace
 10
9524.201086024751
 20
759.1919149522218
 30
0.0
 11
9518.308529514861
 21
753.2993584423338
 31
0.0
 12
9503.577138240144
 22
773.9233062269431
 32
0.0
 13
9503.577138240144
 23
773.9233062269431
 33
0.0
  0
SOLID
  5
963C
330
80B7
100
AcDbEntity
  8
DIMJ
 62
     0
440
 16777216
100
AcDbTrace
 10
9560.687795933977
 20
722.7052050429902
 30
0.0
 11
9554.795239424088
 21
716.8126485331022
 31
0.0
 12
9575.419187208694
 22
702.0812572583809
 32
0.0
 13
9575.419187208694
 23
702.0812572583809
 33
0.0
  0
MTEXT
  5
963D
330
80B7
100
AcDbEntity
  8
DIMJ
 62
     0
440
 16777216
100
AcDbMText
 10
9555.761618691711
 20
754.2657377099522
 30
0.0
 40
30.0
 41
0.0
 46
0.0
 71
     5
 72
     1
  1
\A1;101.6
 11
0.707106781186493
 21
-0.7071067811866022
 31
0.0
 73
     1
 44
1.0
  0
POINT
  5
963E
330
80B7
100
AcDbEntity
  8
Defpoints
 62
     0
440
 16777216
100
AcDbPoint
 10
9462.061427888102
 20
732.4075958749081
 30
0.0
  0
POINT
  5
963F
330
80B7
100
AcDbEntity
  8
Defpoints
 62
     0
440
 16777216
100
AcDbPoint
 10
9497.52315806057
 20
624.1852281102692
 30
0.0
  0
POINT
  5
9640
330
80B7
100
AcDbEntity
  8
Defpoints
 62
     0
440
 16777216
100
AcDbPoint
 10
9575.419187208694
 20
702.0812572583809
 30
0.0
  0
ENDBLK
  5
80C2
330
80B7
100
AcDbEntity
  8
0
100
AcDbBlockEnd
  0
BLOCK
  5
80CD
330
80C3
100
AcDbEntity
  8
0
100
AcDbBlockBegin
  2
*D44
 70
     1
 10
0.0
 20
0.0
 30
0.0
  3
*D44
  1

  0
LINE
  5
9641
330
80C3
100
AcDbEntity
  8
DIMJ
 62
     0
440
 16777216
370
    -2
100
AcDbLine
 10
9357.374594029396
 20
771.4048599533088
 30
0.0
 11
9435.270623177528
 21
849.3008891014278
 31
0.0
  0
LINE
  5
9642
330
80C3
100
AcDbEntity
  8
DIMJ
 62
     0
440
 16777216
370
    -2
100
AcDbLine
 10
9465.596961794036
 20
735.9431297808405
 30
0.0
 11
9507.112672146073
 21
777.458840132872
 31
0.0
  0
LINE
  5
9643
330
80C3
100
AcDbEntity
  8
DIMJ
 62
     0
440
 16777216
370
    -2
100
AcDbLine
 10
9449.412758801257
 20
828.0876856658306
 30
0.0
 11
9485.899468710476
 21
791.6009757566044
 31
0.0
  0
SOLID
  5
9644
330
80C3
100
AcDbEntity
  8
DIMJ
 62
     0
440
 16777216
100
AcDbTrace
 10
9452.359037056202
 20
831.033963920775
 30
0.0
 11
9446.466480546312
 21
825.141407410887
 31
0.0
 12
9431.735089271596
 22
845.7653551954955
 32
0.0
 13
9431.735089271596
 23
845.7653551954955
 33
0.0
  0
SOLID
  5
9645
330
80C3
100
AcDbEntity
  8
DIMJ
 62
     0
440
 16777216
100
AcDbTrace
 10
9488.84574696542
 20
794.5472540115488
 30
0.0
 11
9482.953190455534
 21
788.6546975016608
 31
0.0
 12
9503.577138240141
 22
773.9233062269395
 32
0.0
 13
9503.577138240141
 23
773.9233062269395
 33
0.0
  0
MTEXT
  5
9646
330
80C3
100
AcDbEntity
  8
DIMJ
 62
     0
440
 16777216
100
AcDbMText
 10
9483.919569723159
 20
826.107786678509
 30
0.0
 40
30.0
 41
0.0
 46
0.0
 71
     5
 72
     1
  1
\A1;101.6
 11
0.707106781186493
 21
-0.7071067811866022
 31
0.0
 73
     1
 44
1.0
  0
POINT
  5
9647
330
80C3
100
AcDbEntity
  8
Defpoints
 62
     0
440
 16777216
100
AcDbPoint
 10
9353.839060123464
 20
767.8693260473765
 30
0.0
  0
POINT
  5
9648
330
80C3
100
AcDbEntity
  8
Defpoints
 62
     0
440
 16777216
100
AcDbPoint
 10
9462.061427888102
 20
732.4075958749081
 30
0.0
  0
POINT
  5
9649
330
80C3
100
AcDbEntity
  8
Defpoints
 62
     0
440
 16777216
100
AcDbPoint
 10
9503.577138240141
 20
773.9233062269395
 30
0.0
  0
ENDBLK
  5
80CE
330
80C3
100
AcDbEntity
  8
0
100
AcDbBlockEnd
  0
BLOCK
  5
80E2
330
80D8
100
AcDbEntity
  8
0
100
AcDbBlockBegin
  2
*D45
 70
     1
 10
0.0
 20
0.0
 30
0.0
  3
*D45
  1

  0
LINE
  5
9653
330
80D8
100
AcDbEntity
  8
DIMJ
 62
     0
440
 16777216
370
    -2
100
AcDbLine
 10
8832.015632871174
 20
1568.388932822841
 30
0.0
 11
8734.473664996626
 21
1568.388932822841
 31
0.0
  0
LINE
  5
9654
330
80D8
100
AcDbEntity
  8
DIMJ
 62
     0
440
 16777216
370
    -2
100
AcDbLine
 10
9066.515632871174
 20
1340.67559027047
 30
0.0
 11
8734.473664996626
 21
1340.67559027047
 31
0.0
  0
LINE
  5
9655
330
80D8
100
AcDbEntity
  8
DIMJ
 62
     0
440
 16777216
370
    -2
100
AcDbLine
 10
8739.473664996625
 20
1543.388932822841
 30
0.0
 11
8739.473664996625
 21
1365.67559027047
 31
0.0
  0
SOLID
  5
9656
330
80D8
100
AcDbEntity
  8
DIMJ
 62
     0
440
 16777216
100
AcDbTrace
 10
8735.306998329958
 20
1543.388932822841
 30
0.0
 11
8743.640331663291
 21
1543.388932822841
 31
0.0
 12
8739.473664996625
 22
1568.388932822841
 32
0.0
 13
8739.473664996625
 23
1568.388932822841
 33
0.0
  0
SOLID
  5
9657
330
80D8
100
AcDbEntity
  8
DIMJ
 62
     0
440
 16777216
100
AcDbTrace
 10
8735.306998329958
 20
1365.67559027047
 30
0.0
 11
8743.640331663291
 21
1365.67559027047
 31
0.0
 12
8739.473664996625
 22
1340.67559027047
 32
0.0
 13
8739.473664996625
 23
1340.67559027047
 33
0.0
  0
MTEXT
  5
9658
330
80D8
100
AcDbEntity
  8
DIMJ
 62
     0
440
 16777216
100
AcDbMText
 10
8716.473664996625
 20
1454.532261546657
 30
0.0
 40
30.0
 41
0.0
 46
0.0
 71
     5
 72
     1
  1
\A1;208
 11
0.0000000000000001
 21
1.0
 31
0.0
 73
     1
 44
1.0
  0
POINT
  5
9659
330
80D8
100
AcDbEntity
  8
Defpoints
 62
     0
440
 16777216
100
AcDbPoint
 10
8837.015632871175
 20
1568.388932822841
 30
0.0
  0
POINT
  5
965A
330
80D8
100
AcDbEntity
  8
Defpoints
 62
     0
440
 16777216
100
AcDbPoint
 10
9071.515632871173
 20
1340.67559027047
 30
0.0
  0
POINT
  5
965B
330
80D8
100
AcDbEntity
  8
Defpoints
 62
     0
440
 16777216
100
AcDbPoint
 10
8739.473664996625
 20
1340.67559027047
 30
0.0
  0
ENDBLK
  5
80E3
330
80D8
100
AcDbEntity
  8
0
100
AcDbBlockEnd
  0
BLOCK
  5
80F1
330
80E4
100
AcDbEntity
  8
0
100
AcDbBlockBegin
  2
*D46
 70
     1
 10
0.0
 20
0.0
 30
0.0
  3
*D46
  1

  0
LINE
  5
965C
330
80E4
100
AcDbEntity
  8
DIMJ
 62
     0
440
 16777216
370
    -2
100
AcDbLine
 10
9590.6002292697
 20
1382.543865014677
 30
0.0
 11
9582.364767732814
 21
1277.9024046301
 31
0.0
  0
LINE
  5
965D
330
80E4
100
AcDbEntity
  8
DIMJ
 62
     0
440
 16777216
370
    -2
100
AcDbLine
 10
9604.421494236612
 20
1521.411046252868
 30
0.0
 11
9604.421494236618
 21
1277.035793485527
 31
0.0
  0
ARC
  5
965E
330
80E4
100
AcDbEntity
  8
DIMJ
 62
     0
440
 16777216
370
    -2
100
AcDbCircle
 10
9604.421494236612
 20
1558.159687397209
 30
0.0
 40
276.1238939116815
100
AcDbArc
 50
255.1214401374283
 51
260.3107200687143
  0
ARC
  5
965F
330
80E4
100
AcDbEntity
  8
DIMJ
 62
     0
440
 16777216
370
    -2
100
AcDbCircle
 10
9604.421494236612
 20
1558.159687397209
 30
0.0
 40
276.1238939116815
100
AcDbArc
 50
275.189279931287
 51
280.378559862573
  0
SOLID
  5
9660
330
80E4
100
AcDbEntity
  8
DIMJ
 62
     0
440
 16777216
100
AcDbTrace
 10
9558.463095146244
 20
1290.109471950015
 30
0.0
 11
9557.433856452064
 21
1281.839942812582
 31
0.0
 12
9582.757063211452
 22
1282.886991298765
 32
0.0
 13
9582.757063211452
 23
1282.886991298765
 33
0.0
  0
SOLID
  5
9661
330
80E4
100
AcDbEntity
  8
DIMJ
 62
     0
440
 16777216
100
AcDbTrace
 10
9629.584487523349
 20
1279.005136797122
 30
0.0
 11
9629.207241406792
 21
1287.329926873272
 31
0.0
 12
9604.421494236618
 22
1282.035793485527
 32
0.0
 13
9604.421494236618
 23
1282.035793485527
 33
0.0
  0
MTEXT
  5
9662
330
80E4
100
AcDbEntity
  8
DIMJ
 62
     0
440
 16777216
100
AcDbMText
 10
9661.273627344799
 20
1311.502961095124
 30
0.0
 40
30.0
 41
0.0
 46
0.0
 71
     5
 72
     1
  1
\A1;4.5°
 11
0.9744505842192294
 21
0.2246020011371278
 31
0.0
 73
     1
 44
1.0
  0
POINT
  5
9663
330
80E4
100
AcDbEntity
  8
Defpoints
 62
     0
440
 16777216
100
AcDbPoint
 10
9589.970286207224
 20
1282.414211685565
 30
0.0
  0
POINT
  5
9664
330
80E4
100
AcDbEntity
  8
Defpoints
 62
     0
440
 16777216
100
AcDbPoint
 10
9590.992524748338
 20
1387.528451683342
 30
0.0
  0
POINT
  5
9665
330
80E4
100
AcDbEntity
  8
Defpoints
 62
     0
440
 16777216
100
AcDbPoint
 10
9604.421494236612
 20
1558.159687397209
 30
0.0
  0
POINT
  5
9666
330
80E4
100
AcDbEntity
  8
Defpoints
 62
     0
440
 16777216
100
AcDbPoint
 10
9604.421494236612
 20
1526.411046252868
 30
0.0
  0
POINT
  5
9667
330
80E4
100
AcDbEntity
  8
Defpoints
 62
     0
440
 16777216
100
AcDbPoint
 10
9604.421494236612
 20
1558.159687397209
 30
0.0
  0
ENDBLK
  5
80F2
330
80E4
100
AcDbEntity
  8
0
100
AcDbBlockEnd
  0
BLOCK
  5
8100
330
80F3
100
AcDbEntity
  8
0
100
AcDbBlockBegin
  2
*D47
 70
     1
 10
0.0
 20
0.0
 30
0.0
  3
*D47
  1

  0
LINE
  5
9668
330
80F3
100
AcDbEntity
  8
DIMJ
 62
     0
440
 16777216
370
    -2
100
AcDbLine
 10
8869.841525333635
 20
1521.411046252867
 30
0.0
 11
8869.841525333638
 21
1234.924343378254
 31
0.0
  0
LINE
  5
9669
330
80F3
100
AcDbEntity
  8
DIMJ
 62
     0
440
 16777216
370
    -2
100
AcDbLine
 10
8882.962269742176
 20
1391.444822651193
 30
0.0
 11
8895.202278132632
 21
1235.920770069521
 31
0.0
  0
ARC
  5
966A
330
80F3
100
AcDbEntity
  8
DIMJ
 62
     0
440
 16777216
370
    -2
100
AcDbCircle
 10
8869.841525333633
 20
1558.159687397208
 30
0.0
 40
318.2353440189543
100
AcDbArc
 50
260.9955754532421
 51
265.4977877266214
  0
ARC
  5
966B
330
80F3
100
AcDbEntity
  8
DIMJ
 62
     0
440
 16777216
370
    -2
100
AcDbCircle
 10
8869.841525333633
 20
1558.159687397208
 30
0.0
 40
318.2353440189543
100
AcDbArc
 50
279.002212273378
 51
283.5044245467575
  0
SOLID
  5
966C
330
80F3
100
AcDbEntity
  8
DIMJ
 62
     0
440
 16777216
100
AcDbTrace
 10
8845.024481324902
 20
1245.069772201941
 30
0.0
 11
8844.697155436611
 21
1236.742869884314
 31
0.0
 12
8869.841525333638
 22
1239.924343378254
 32
0.0
 13
8869.841525333638
 23
1239.924343378254
 33
0.0
  0
SOLID
  5
966D
330
80F3
100
AcDbEntity
  8
DIMJ
 62
     0
440
 16777216
100
AcDbTrace
 10
8920.126456383554
 20
1239.706495190033
 30
0.0
 11
8919.146818305682
 21
1247.982046753574
 31
0.0
 12
8894.809982653994
 22
1240.905356738187
 32
0.0
 13
8894.809982653994
 23
1240.905356738187
 33
0.0
  0
MTEXT
  5
966E
330
80F3
100
AcDbEntity
  8
DIMJ
 62
     0
440
 16777216
100
AcDbMText
 10
8831.392857505212
 20
1265.438645618162
 30
0.0
 40
30.0
 41
0.0
 46
0.0
 71
     5
 72
     1
  1
\A1;4.5°
 11
0.9914837356338106
 21
-0.1302305723462193
 31
0.0
 73
     1
 44
1.0
  0
POINT
  5
966F
330
80F3
100
AcDbEntity
  8
Defpoints
 62
     0
440
 16777216
100
AcDbPoint
 10
8886.496676373162
 20
1240.360473857098
 30
0.0
  0
POINT
  5
9670
330
80F3
100
AcDbEntity
  8
Defpoints
 62
     0
440
 16777216
100
AcDbPoint
 10
8882.569974263537
 20
1396.429409319858
 30
0.0
  0
POINT
  5
9671
330
80F3
100
AcDbEntity
  8
Defpoints
 62
     0
440
 16777216
100
AcDbPoint
 10
8869.841525333633
 20
1558.159687397208
 30
0.0
  0
POINT
  5
9672
330
80F3
100
AcDbEntity
  8
Defpoints
 62
     0
440
 16777216
100
AcDbPoint
 10
8869.841525333633
 20
1526.411046252867
 30
0.0
  0
POINT
  5
9673
330
80F3
100
AcDbEntity
  8
Defpoints
 62
     0
440
 16777216
100
AcDbPoint
 10
8869.841525333633
 20
1558.159687397208
 30
0.0
  0
ENDBLK
  5
8101
330
80F3
100
AcDbEntity
  8
0
100
AcDbBlockEnd
  0
BLOCK
  5
811C
330
8112
100
AcDbEntity
  8
0
100
AcDbBlockBegin
  2
*D48
 70
     1
 10
0.0
 20
0.0
 30
0.0
  3
*D48
  1

  0
LINE
  5
9674
330
8112
100
AcDbEntity
  8
DIMJ
 62
     0
440
 16777216
370
    -2
100
AcDbLine
 10
9270.515632871175
 20
769.8618008579779
 30
0.0
 11
9270.515632871175
 21
976.9067243595182
 31
0.0
  0
LINE
  5
9675
330
8112
100
AcDbEntity
  8
DIMJ
 62
     0
440
 16777216
370
    -2
100
AcDbLine
 10
8870.515632871171
 20
769.8618008579779
 30
0.0
 11
8870.515632871171
 21
976.9067243595182
 31
0.0
  0
LINE
  5
9676
330
8112
100
AcDbEntity
  8
DIMJ
 62
     0
440
 16777216
370
    -2
100
AcDbLine
 10
9245.515632871175
 20
971.9067243595182
 30
0.0
 11
8895.515632871171
 21
971.9067243595182
 31
0.0
  0
SOLID
  5
9677
330
8112
100
AcDbEntity
  8
DIMJ
 62
     0
440
 16777216
100
AcDbTrace
 10
9245.515632871175
 20
976.0733910261848
 30
0.0
 11
9245.515632871175
 21
967.7400576928516
 31
0.0
 12
9270.515632871175
 22
971.9067243595182
 32
0.0
 13
9270.515632871175
 23
971.9067243595182
 33
0.0
  0
SOLID
  5
9678
330
8112
100
AcDbEntity
  8
DIMJ
 62
     0
440
 16777216
100
AcDbTrace
 10
8895.515632871171
 20
976.0733910261848
 30
0.0
 11
8895.515632871171
 21
967.7400576928516
 31
0.0
 12
8870.515632871171
 22
971.9067243595182
 32
0.0
 13
8870.515632871171
 23
971.9067243595182
 33
0.0
  0
MTEXT
  5
9679
330
8112
100
AcDbEntity
  8
DIMJ
 62
     0
440
 16777216
100
AcDbMText
 10
9070.515632871172
 20
994.9067243595182
 30
0.0
 40
30.0
 41
0.0
 46
0.0
 71
     5
 72
     1
  1
\A1;400
 73
     1
 44
1.0
  0
POINT
  5
967A
330
8112
100
AcDbEntity
  8
Defpoints
 62
     0
440
 16777216
100
AcDbPoint
 10
9270.515632871175
 20
764.8618008579778
 30
0.0
  0
POINT
  5
967B
330
8112
100
AcDbEntity
  8
Defpoints
 62
     0
440
 16777216
100
AcDbPoint
 10
8870.515632871171
 20
764.8618008579778
 30
0.0
  0
POINT
  5
967C
330
8112
100
AcDbEntity
  8
Defpoints
 62
     0
440
 16777216
100
AcDbPoint
 10
8870.515632871171
 20
971.9067243595182
 30
0.0
  0
ENDBLK
  5
811D
330
8112
100
AcDbEntity
  8
0
100
AcDbBlockEnd
  0
BLOCK
  5
8128
330
811E
100
AcDbEntity
  8
0
100
AcDbBlockBegin
  2
*D49
 70
     1
 10
0.0
 20
0.0
 30
0.0
  3
*D49
  1

  0
LINE
  5
967D
330
811E
100
AcDbEntity
  8
DIMJ
 62
     0
440
 16777216
370
    -2
100
AcDbLine
 10
8975.515632871175
 20
875.8618008579793
 30
0.0
 11
8751.238832768027
 21
875.8618008579793
 31
0.0
  0
LINE
  5
967E
330
811E
100
AcDbEntity
  8
DIMJ
 62
     0
440
 16777216
370
    -2
100
AcDbLine
 10
8975.515632871175
 20
518.8618008579806
 30
0.0
 11
8751.238832768027
 21
518.8618008579807
 31
0.0
  0
LINE
  5
967F
330
811E
100
AcDbEntity
  8
DIMJ
 62
     0
440
 16777216
370
    -2
100
AcDbLine
 10
8756.238832768028
 20
850.8618008579793
 30
0.0
 11
8756.238832768028
 21
543.8618008579807
 31
0.0
  0
SOLID
  5
9680
330
811E
100
AcDbEntity
  8
DIMJ
 62
     0
440
 16777216
100
AcDbTrace
 10
8752.072166101362
 20
850.8618008579793
 30
0.0
 11
8760.405499434694
 21
850.8618008579793
 31
0.0
 12
8756.238832768028
 22
875.8618008579793
 32
0.0
 13
8756.238832768028
 23
875.8618008579793
 33
0.0
  0
SOLID
  5
9681
330
811E
100
AcDbEntity
  8
DIMJ
 62
     0
440
 16777216
100
AcDbTrace
 10
8752.072166101362
 20
543.8618008579807
 30
0.0
 11
8760.405499434694
 21
543.8618008579807
 31
0.0
 12
8756.238832768028
 22
518.8618008579807
 32
0.0
 13
8756.238832768028
 23
518.8618008579807
 33
0.0
  0
MTEXT
  5
9682
330
811E
100
AcDbEntity
  8
DIMJ
 62
     0
440
 16777216
100
AcDbMText
 10
8733.238832768028
 20
697.3618008579814
 30
0.0
 40
30.0
 41
0.0
 46
0.0
 71
     5
 72
     1
  1
\A1;357
 11
0.0000000000000001
 21
1.0
 31
0.0
 73
     1
 44
1.0
  0
POINT
  5
9683
330
811E
100
AcDbEntity
  8
Defpoints
 62
     0
440
 16777216
100
AcDbPoint
 10
8980.515632871174
 20
875.8618008579793
 30
0.0
  0
POINT
  5
9684
330
811E
100
AcDbEntity
  8
Defpoints
 62
     0
440
 16777216
100
AcDbPoint
 10
8980.515632871174
 20
518.8618008579806
 30
0.0
  0
POINT
  5
9685
330
811E
100
AcDbEntity
  8
Defpoints
 62
     0
440
 16777216
100
AcDbPoint
 10
8756.238832768028
 20
518.8618008579807
 30
0.0
  0
ENDBLK
  5
8129
330
811E
100
AcDbEntity
  8
0
100
AcDbBlockEnd
  0
BLOCK
  5
8135
330
812A
100
AcDbEntity
  8
0
100
AcDbBlockBegin
  2
*D50
 70
     1
 10
0.0
 20
0.0
 30
0.0
  3
*D50
  1

  0
LINE
  5
9686
330
812A
100
AcDbEntity
  8
DIMJ
 62
     0
440
 16777216
370
    -2
100
AcDbLine
 10
8975.515632871175
 20
875.8618008579793
 30
0.0
 11
8792.513808975778
 21
875.8618008579793
 31
0.0
  0
LINE
  5
9687
330
812A
100
AcDbEntity
  8
DIMJ
 62
     0
440
 16777216
370
    -2
100
AcDbLine
 10
8866.015632871175
 20
913.3618008579793
 30
0.0
 11
8792.513808975778
 21
913.3618008579793
 31
0.0
  0
LINE
  5
9688
330
812A
100
AcDbEntity
  8
DIMJ
 62
     0
440
 16777216
370
    -2
100
AcDbLine
 10
8797.513808975779
 20
850.8618008579793
 30
0.0
 11
8797.513808975779
 21
825.8618008579793
 31
0.0
  0
LINE
  5
9689
330
812A
100
AcDbEntity
  8
DIMJ
 62
     0
440
 16777216
370
    -2
100
AcDbLine
 10
8797.513808975779
 20
938.3618008579793
 30
0.0
 11
8797.513808975779
 21
1042.491530587709
 31
0.0
  0
SOLID
  5
968A
330
812A
100
AcDbEntity
  8
DIMJ
 62
     0
440
 16777216
100
AcDbTrace
 10
8793.347142309112
 20
850.8618008579793
 30
0.0
 11
8801.680475642445
 21
850.8618008579793
 31
0.0
 12
8797.513808975779
 22
875.8618008579793
 32
0.0
 13
8797.513808975779
 23
875.8618008579793
 33
0.0
  0
SOLID
  5
968B
330
812A
100
AcDbEntity
  8
DIMJ
 62
     0
440
 16777216
100
AcDbTrace
 10
8793.347142309112
 20
938.3618008579793
 30
0.0
 11
8801.680475642445
 21
938.3618008579793
 31
0.0
 12
8797.513808975779
 22
913.3618008579793
 32
0.0
 13
8797.513808975779
 23
913.3618008579793
 33
0.0
  0
MTEXT
  5
968C
330
812A
100
AcDbEntity
  8
DIMJ
 62
     0
440
 16777216
100
AcDbMText
 10
8774.513808975779
 20
1002.926665722845
 30
0.0
 40
30.0
 41
0.0
 46
0.0
 71
     5
 72
     1
  1
\A1;37.5
 11
0.0000000000000001
 21
1.0
 31
0.0
 73
     1
 44
1.0
  0
POINT
  5
968D
330
812A
100
AcDbEntity
  8
Defpoints
 62
     0
440
 16777216
100
AcDbPoint
 10
8980.515632871174
 20
875.8618008579793
 30
0.0
  0
POINT
  5
968E
330
812A
100
AcDbEntity
  8
Defpoints
 62
     0
440
 16777216
100
AcDbPoint
 10
8871.015632871175
 20
913.3618008579793
 30
0.0
  0
POINT
  5
968F
330
812A
100
AcDbEntity
  8
Defpoints
 62
     0
440
 16777216
100
AcDbPoint
 10
8797.513808975779
 20
913.3618008579793
 30
0.0
  0
ENDBLK
  5
8136
330
812A
100
AcDbEntity
  8
0
100
AcDbBlockEnd
  0
BLOCK
  5
8141
330
8137
100
AcDbEntity
  8
0
100
AcDbBlockBegin
  2
*D51
 70
     1
 10
0.0
 20
0.0
 30
0.0
  3
*D51
  1

  0
LINE
  5
9690
330
8137
100
AcDbEntity
  8
DIMJ
 62
     0
440
 16777216
370
    -2
100
AcDbLine
 10
8866.015632871175
 20
913.3618008579793
 30
0.0
 11
8587.056179222267
 21
913.3618008579793
 31
0.0
  0
LINE
  5
9691
330
8137
100
AcDbEntity
  8
DIMJ
 62
     0
440
 16777216
370
    -2
100
AcDbLine
 10
8866.015632871173
 20
481.3618008579787
 30
0.0
 11
8587.056179222267
 21
481.3618008579788
 31
0.0
  0
LINE
  5
9692
330
8137
100
AcDbEntity
  8
DIMJ
 62
     0
440
 16777216
370
    -2
100
AcDbLine
 10
8592.056179222266
 20
888.3618008579793
 30
0.0
 11
8592.056179222266
 21
506.3618008579788
 31
0.0
  0
SOLID
  5
9693
330
8137
100
AcDbEntity
  8
DIMJ
 62
     0
440
 16777216
100
AcDbTrace
 10
8587.889512555602
 20
888.3618008579793
 30
0.0
 11
8596.222845888933
 21
888.3618008579793
 31
0.0
 12
8592.056179222266
 22
913.3618008579793
 32
0.0
 13
8592.056179222266
 23
913.3618008579793
 33
0.0
  0
SOLID
  5
9694
330
8137
100
AcDbEntity
  8
DIMJ
 62
     0
440
 16777216
100
AcDbTrace
 10
8587.889512555602
 20
506.3618008579788
 30
0.0
 11
8596.222845888933
 21
506.3618008579788
 31
0.0
 12
8592.056179222266
 22
481.3618008579788
 32
0.0
 13
8592.056179222266
 23
481.3618008579788
 33
0.0
  0
MTEXT
  5
9695
330
8137
100
AcDbEntity
  8
DIMJ
 62
     0
440
 16777216
100
AcDbMText
 10
8569.056179222267
 20
697.3618008579795
 30
0.0
 40
30.0
 41
0.0
 46
0.0
 71
     5
 72
     1
  1
\A1;432
 11
0.0000000000000001
 21
1.0
 31
0.0
 73
     1
 44
1.0
  0
POINT
  5
9696
330
8137
100
AcDbEntity
  8
Defpoints
 62
     0
440
 16777216
100
AcDbPoint
 10
8871.015632871175
 20
913.3618008579793
 30
0.0
  0
POINT
  5
9697
330
8137
100
AcDbEntity
  8
Defpoints
 62
     0
440
 16777216
100
AcDbPoint
 10
8871.015632871174
 20
481.3618008579787
 30
0.0
  0
POINT
  5
9698
330
8137
100
AcDbEntity
  8
Defpoints
 62
     0
440
 16777216
100
AcDbPoint
 10
8592.056179222266
 20
481.3618008579788
 30
0.0
  0
ENDBLK
  5
8142
330
8137
100
AcDbEntity
  8
0
100
AcDbBlockEnd
  0
BLOCK
  5
814D
330
8143
100
AcDbEntity
  8
0
100
AcDbBlockBegin
  2
*D52
 70
     1
 10
0.0
 20
0.0
 30
0.0
  3
*D52
  1

  0
LINE
  5
9699
330
8143
100
AcDbEntity
  8
DIMJ
 62
     0
440
 16777216
370
    -2
100
AcDbLine
 10
9643.015632871172
 20
136.3618008579787
 30
0.0
 11
9643.015632871172
 21
-98.07844463388846
 31
0.0
  0
LINE
  5
969A
330
8143
100
AcDbEntity
  8
DIMJ
 62
     0
440
 16777216
370
    -2
100
AcDbLine
 10
9211.015632871175
 20
136.3618008579787
 30
0.0
 11
9211.015632871175
 21
-98.07844463388846
 31
0.0
  0
LINE
  5
969B
330
8143
100
AcDbEntity
  8
DIMJ
 62
     0
440
 16777216
370
    -2
100
AcDbLine
 10
9618.015632871172
 20
-93.07844463388846
 30
0.0
 11
9236.015632871175
 21
-93.07844463388846
 31
0.0
  0
SOLID
  5
969C
330
8143
100
AcDbEntity
  8
DIMJ
 62
     0
440
 16777216
100
AcDbTrace
 10
9618.015632871172
 20
-88.9117779672218
 30
0.0
 11
9618.015632871172
 21
-97.24511130055514
 31
0.0
 12
9643.015632871172
 22
-93.07844463388846
 32
0.0
 13
9643.015632871172
 23
-93.07844463388846
 33
0.0
  0
SOLID
  5
969D
330
8143
100
AcDbEntity
  8
DIMJ
 62
     0
440
 16777216
100
AcDbTrace
 10
9236.015632871175
 20
-88.9117779672218
 30
0.0
 11
9236.015632871175
 21
-97.24511130055514
 31
0.0
 12
9211.015632871175
 22
-93.07844463388846
 32
0.0
 13
9211.015632871175
 23
-93.07844463388846
 33
0.0
  0
MTEXT
  5
969E
330
8143
100
AcDbEntity
  8
DIMJ
 62
     0
440
 16777216
100
AcDbMText
 10
9427.015632871173
 20
-70.07844463388846
 30
0.0
 40
30.0
 41
0.0
 46
0.0
 71
     5
 72
     1
  1
\A1;432
 73
     1
 44
1.0
  0
POINT
  5
969F
330
8143
100
AcDbEntity
  8
Defpoints
 62
     0
440
 16777216
100
AcDbPoint
 10
9643.015632871172
 20
141.3618008579788
 30
0.0
  0
POINT
  5
96A0
330
8143
100
AcDbEntity
  8
Defpoints
 62
     0
440
 16777216
100
AcDbPoint
 10
9211.015632871175
 20
141.3618008579788
 30
0.0
  0
POINT
  5
96A1
330
8143
100
AcDbEntity
  8
Defpoints
 62
     0
440
 16777216
100
AcDbPoint
 10
9211.015632871175
 20
-93.07844463388846
 30
0.0
  0
ENDBLK
  5
814E
330
8143
100
AcDbEntity
  8
0
100
AcDbBlockEnd
  0
BLOCK
  5
8159
330
814F
100
AcDbEntity
  8
0
100
AcDbBlockBegin
  2
*D53
 70
     1
 10
0.0
 20
0.0
 30
0.0
  3
*D53
  1

  0
LINE
  5
96A2
330
814F
100
AcDbEntity
  8
DIMJ
 62
     0
440
 16777216
370
    -2
100
AcDbLine
 10
8866.015632871175
 20
913.3618008579793
 30
0.0
 11
8499.685879837562
 21
913.3618008579793
 31
0.0
  0
LINE
  5
96A3
330
814F
100
AcDbEntity
  8
DIMJ
 62
     0
440
 16777216
370
    -2
100
AcDbLine
 10
9244.015632871171
 20
103.3618008579806
 30
0.0
 11
8499.685879837562
 21
103.3618008579808
 31
0.0
  0
LINE
  5
96A4
330
814F
100
AcDbEntity
  8
DIMJ
 62
     0
440
 16777216
370
    -2
100
AcDbLine
 10
8504.685879837563
 20
888.3618008579793
 30
0.0
 11
8504.685879837563
 21
128.3618008579808
 31
0.0
  0
SOLID
  5
96A5
330
814F
100
AcDbEntity
  8
DIMJ
 62
     0
440
 16777216
100
AcDbTrace
 10
8500.519213170894
 20
888.3618008579793
 30
0.0
 11
8508.852546504227
 21
888.3618008579793
 31
0.0
 12
8504.685879837563
 22
913.3618008579793
 32
0.0
 13
8504.685879837563
 23
913.3618008579793
 33
0.0
  0
SOLID
  5
96A6
330
814F
100
AcDbEntity
  8
DIMJ
 62
     0
440
 16777216
100
AcDbTrace
 10
8500.519213170894
 20
128.3618008579808
 30
0.0
 11
8508.852546504227
 21
128.3618008579808
 31
0.0
 12
8504.685879837563
 22
103.3618008579808
 32
0.0
 13
8504.685879837563
 23
103.3618008579808
 33
0.0
  0
MTEXT
  5
96A7
330
814F
100
AcDbEntity
  8
DIMJ
 62
     0
440
 16777216
100
AcDbMText
 10
8481.685879837561
 20
508.3618008579805
 30
0.0
 40
30.0
 41
0.0
 46
0.0
 71
     5
 72
     1
  1
\A1;810
 11
0.0000000000000001
 21
1.0
 31
0.0
 73
     1
 44
1.0
  0
POINT
  5
96A8
330
814F
100
AcDbEntity
  8
Defpoints
 62
     0
440
 16777216
100
AcDbPoint
 10
8871.015632871175
 20
913.3618008579793
 30
0.0
  0
POINT
  5
96A9
330
814F
100
AcDbEntity
  8
Defpoints
 62
     0
440
 16777216
100
AcDbPoint
 10
9249.01563287117
 20
103.3618008579806
 30
0.0
  0
POINT
  5
96AA
330
814F
100
AcDbEntity
  8
Defpoints
 62
     0
440
 16777216
100
AcDbPoint
 10
8504.685879837563
 20
103.3618008579808
 30
0.0
  0
ENDBLK
  5
815A
330
814F
100
AcDbEntity
  8
0
100
AcDbBlockEnd
  0
BLOCK
  5
8165
330
815B
100
AcDbEntity
  8
0
100
AcDbBlockBegin
  2
*D54
 70
     1
 10
0.0
 20
0.0
 30
0.0
  3
*D54
  1

  0
LINE
  5
9737
330
815B
100
AcDbEntity
  8
DIMJ
 62
     0
440
 16777216
370
    -2
100
AcDbLine
 10
8833.015632871175
 20
880.3618008579796
 30
0.0
 11
8833.015632871175
 21
1177.827478468407
 31
0.0
  0
LINE
  5
9738
330
815B
100
AcDbEntity
  8
DIMJ
 62
     0
440
 16777216
370
    -2
100
AcDbLine
 10
9643.015632871172
 20
514.6216854878016
 30
0.0
 11
9643.015632871172
 21
1177.827478468407
 31
0.0
  0
LINE
  5
9739
330
815B
100
AcDbEntity
  8
DIMJ
 62
     0
440
 16777216
370
    -2
100
AcDbLine
 10
8858.015632871175
 20
1172.827478468406
 30
0.0
 11
9618.015632871172
 21
1172.827478468406
 31
0.0
  0
SOLID
  5
973A
330
815B
100
AcDbEntity
  8
DIMJ
 62
     0
440
 16777216
100
AcDbTrace
 10
8858.015632871175
 20
1176.994145135073
 30
0.0
 11
8858.015632871175
 21
1168.66081180174
 31
0.0
 12
8833.015632871175
 22
1172.827478468406
 32
0.0
 13
8833.015632871175
 23
1172.827478468406
 33
0.0
  0
SOLID
  5
973B
330
815B
100
AcDbEntity
  8
DIMJ
 62
     0
440
 16777216
100
AcDbTrace
 10
9618.015632871172
 20
1176.994145135073
 30
0.0
 11
9618.015632871172
 21
1168.66081180174
 31
0.0
 12
9643.015632871172
 22
1172.827478468406
 32
0.0
 13
9643.015632871172
 23
1172.827478468406
 33
0.0
  0
MTEXT
  5
973C
330
815B
100
AcDbEntity
  8
DIMJ
 62
     0
440
 16777216
100
AcDbMText
 10
9238.015632871173
 20
1195.827478468407
 30
0.0
 40
30.0
 41
0.0
 46
0.0
 71
     5
 72
     1
  1
\A1;810
 73
     1
 44
1.0
  0
POINT
  5
973D
330
815B
100
AcDbEntity
  8
Defpoints
 62
     0
440
 16777216
100
AcDbPoint
 10
8833.015632871175
 20
875.3618008579797
 30
0.0
  0
POINT
  5
973E
330
815B
100
AcDbEntity
  8
Defpoints
 62
     0
440
 16777216
100
AcDbPoint
 10
9643.015632871172
 20
509.6216854878016
 30
0.0
  0
POINT
  5
973F
330
815B
100
AcDbEntity
  8
Defpoints
 62
     0
440
 16777216
100
AcDbPoint
 10
9643.015632871172
 20
1172.827478468406
 30
0.0
  0
ENDBLK
  5
8166
330
815B
100
AcDbEntity
  8
0
100
AcDbBlockEnd
  0
BLOCK
  5
8208
330
81FE
100
AcDbEntity
  8
0
100
AcDbBlockBegin
  2
*D55
 70
     1
 10
0.0
 20
0.0
 30
0.0
  3
*D55
  1

  0
LINE
  5
9550
330
81FE
100
AcDbEntity
  8
DIMJ
 62
     0
440
 16777216
370
    -2
100
AcDbLine
 10
9130.515632871173
 20
691.3719332102036
 30
0.0
 11
9130.515632871173
 21
523.8612804048698
 31
0.0
  0
LINE
  5
9551
330
81FE
100
AcDbEntity
  8
DIMJ
 62
     0
440
 16777216
370
    -2
100
AcDbLine
 10
9270.515632871175
 20
692.3618008579787
 30
0.0
 11
9270.515632871175
 21
523.8612804048698
 31
0.0
  0
LINE
  5
9552
330
81FE
100
AcDbEntity
  8
DIMJ
 62
     0
440
 16777216
370
    -2
100
AcDbLine
 10
9155.515632871173
 20
528.8612804048698
 30
0.0
 11
9245.515632871175
 21
528.8612804048698
 31
0.0
  0
SOLID
  5
9553
330
81FE
100
AcDbEntity
  8
DIMJ
 62
     0
440
 16777216
100
AcDbTrace
 10
9155.515632871173
 20
533.0279470715364
 30
0.0
 11
9155.515632871173
 21
524.6946137382032
 31
0.0
 12
9130.515632871173
 22
528.8612804048698
 32
0.0
 13
9130.515632871173
 23
528.8612804048698
 33
0.0
  0
SOLID
  5
9554
330
81FE
100
AcDbEntity
  8
DIMJ
 62
     0
440
 16777216
100
AcDbTrace
 10
9245.515632871175
 20
533.0279470715364
 30
0.0
 11
9245.515632871175
 21
524.6946137382032
 31
0.0
 12
9270.515632871175
 22
528.8612804048698
 32
0.0
 13
9270.515632871175
 23
528.8612804048698
 33
0.0
  0
MTEXT
  5
9555
330
81FE
100
AcDbEntity
  8
DIMJ
 62
     0
440
 16777216
100
AcDbMText
 10
9200.515632871175
 20
551.8612804048698
 30
0.0
 40
30.0
 41
0.0
 46
0.0
 71
     5
 72
     1
  1
\A1;140
 73
     1
 44
1.0
  0
POINT
  5
9556
330
81FE
100
AcDbEntity
  8
Defpoints
 62
     0
440
 16777216
100
AcDbPoint
 10
9130.515632871173
 20
696.3719332102036
 30
0.0
  0
POINT
  5
9557
330
81FE
100
AcDbEntity
  8
Defpoints
 62
     0
440
 16777216
100
AcDbPoint
 10
9270.515632871175
 20
697.3618008579787
 30
0.0
  0
POINT
  5
9558
330
81FE
100
AcDbEntity
  8
Defpoints
 62
     0
440
 16777216
100
AcDbPoint
 10
9270.515632871175
 20
528.8612804048698
 30
0.0
  0
ENDBLK
  5
8209
330
81FE
100
AcDbEntity
  8
0
100
AcDbBlockEnd
  0
BLOCK
  5
861E
330
8618
100
AcDbEntity
  8
0
100
AcDbBlockBegin
  2
*D56
 70
     1
 10
0.0
 20
0.0
 30
0.0
  3
*D56
  1

  0
LINE
  5
954B
330
8618
100
AcDbEntity
  8
DIMJ
 62
     0
440
 16777216
370
    -2
100
AcDbLine
 10
8973.631812129914
 20
1452.077908360686
 30
0.0
 11
8918.304497162329
 21
1380.654675674496
 31
0.0
  0
MTEXT
  5
954C
330
8618
100
AcDbEntity
  8
DIMJ
 62
     0
440
 16777216
100
AcDbMText
 10
8935.440367209412
 20
1440.333262866812
 30
0.0
 40
30.0
 41
0.0
 46
0.0
 71
     5
 72
     1
  1
\A1;R50
 11
0.6123939971881773
 21
0.7905527131114578
 31
0.0
 73
     1
 44
1.0
  0
SOLID
  5
954D
330
8618
100
AcDbEntity
  8
DIMJ
 62
     0
440
 16777216
100
AcDbTrace
 10
8915.010527524364
 20
1383.206317329447
 30
0.0
 11
8921.598466800295
 21
1378.103034019545
 31
0.0
 12
8902.994647232624
 22
1360.890857846711
 32
0.0
 13
8902.994647232624
 23
1360.890857846711
 33
0.0
  0
POINT
  5
954E
330
8618
100
AcDbEntity
  8
Defpoints
 62
     0
440
 16777216
100
AcDbPoint
 10
8902.994647232624
 20
1360.890857846711
 30
0.0
  0
POINT
  5
954F
330
8618
100
AcDbEntity
  8
Defpoints
 62
     0
440
 16777216
100
AcDbPoint
 10
8933.614347092031
 20
1400.418493502282
 30
0.0
  0
ENDBLK
  5
861F
330
8618
100
AcDbEntity
  8
0
100
AcDbBlockEnd
  0
BLOCK
  5
8A63
330
8A59
100
AcDbEntity
  8
0
100
AcDbBlockBegin
  2
*D57
 70
     1
 10
0.0
 20
0.0
 30
0.0
  3
*D57
  1

  0
LINE
  5
9542
330
8A59
100
AcDbEntity
  8
DIMJ
 62
     0
440
 16777216
370
    -2
100
AcDbLine
 10
9432.015632871172
 20
400.861800857979
 30
0.0
 11
9553.459417463988
 21
400.861800857979
 31
0.0
  0
LINE
  5
9543
330
8A59
100
AcDbEntity
  8
DIMJ
 62
     0
440
 16777216
370
    -2
100
AcDbLine
 10
9432.015632871173
 20
540.8618008579794
 30
0.0
 11
9553.459417463988
 21
540.8618008579793
 31
0.0
  0
LINE
  5
9544
330
8A59
100
AcDbEntity
  8
DIMJ
 62
     0
440
 16777216
370
    -2
100
AcDbLine
 10
9548.459417463988
 20
425.861800857979
 30
0.0
 11
9548.459417463988
 21
515.8618008579793
 31
0.0
  0
SOLID
  5
9545
330
8A59
100
AcDbEntity
  8
DIMJ
 62
     0
440
 16777216
100
AcDbTrace
 10
9544.292750797323
 20
425.861800857979
 30
0.0
 11
9552.626084130654
 21
425.861800857979
 31
0.0
 12
9548.459417463988
 22
400.861800857979
 32
0.0
 13
9548.459417463988
 23
400.861800857979
 33
0.0
  0
SOLID
  5
9546
330
8A59
100
AcDbEntity
  8
DIMJ
 62
     0
440
 16777216
100
AcDbTrace
 10
9544.292750797323
 20
515.8618008579793
 30
0.0
 11
9552.626084130654
 21
515.8618008579793
 31
0.0
 12
9548.459417463988
 22
540.8618008579793
 32
0.0
 13
9548.459417463988
 23
540.8618008579793
 33
0.0
  0
MTEXT
  5
9547
330
8A59
100
AcDbEntity
  8
DIMJ
 62
     0
440
 16777216
100
AcDbMText
 10
9525.459417463988
 20
470.8618008579807
 30
0.0
 40
30.0
 41
0.0
 46
0.0
 71
     5
 72
     1
  1
\A1;140
 11
0.0000000000000001
 21
1.0
 31
0.0
 73
     1
 44
1.0
  0
POINT
  5
9548
330
8A59
100
AcDbEntity
  8
Defpoints
 62
     0
440
 16777216
100
AcDbPoint
 10
9427.015632871171
 20
400.861800857979
 30
0.0
  0
POINT
  5
9549
330
8A59
100
AcDbEntity
  8
Defpoints
 62
     0
440
 16777216
100
AcDbPoint
 10
9427.015632871173
 20
540.8618008579794
 30
0.0
  0
POINT
  5
954A
330
8A59
100
AcDbEntity
  8
Defpoints
 62
     0
440
 16777216
100
AcDbPoint
 10
9548.459417463988
 20
540.8618008579793
 30
0.0
  0
ENDBLK
  5
8A64
330
8A59
100
AcDbEntity
  8
0
100
AcDbBlockEnd
  0
ENDSEC
  0
SECTION
  2
ENTITIES
  0
MTEXT
  5
B41
330
1F
100
AcDbEntity
  8
0
100
AcDbMText
 10
662.4001067862991
 20
1229.098281886483
 30
0.0
 40
12.0
 41
0.0
 46
0.0
 71
     1
 72
     1
  1
\A1;
 73
     1
 44
1.0
  0
MTEXT
  5
1857
330
1F
100
AcDbEntity
  8
0
100
AcDbMText
 10
1559.535557099123
 20
1258.488483269713
 30
0.0
 40
16.0
 41
0.0
 46
0.0
 71
     1
 72
     1
  1
\A1;
 73
     1
 44
1.0
  0
MTEXT
  5
1FB7
330
1F
100
AcDbEntity
  8
DIMJ
100
AcDbMText
 10
576.7924477274209
 20
-798.583205528841
 30
0.0
 40
16.0
 41
0.0
 46
0.0
 71
     9
 72
     1
  1
\A1;
 73
     1
 44
1.0
  0
MTEXT
  5
235B
330
1F
100
AcDbEntity
  8
DIMJ
100
AcDbMText
 10
88.87069053138111
 20
-707.7243013166223
 30
0.0
 40
16.0
 41
0.0
 46
0.0
 71
     3
 72
     1
  1
\A1;
 73
     1
 44
1.0
  0
MTEXT
  5
3107
330
1F
100
AcDbEntity
  8
0
100
AcDbMText
 10
1678.401950876178
 20
1280.67313948847
 30
0.0
 40
16.0
 41
0.0
 46
0.0
 71
     1
 72
     1
  1
\A1;
 73
     1
 44
1.0
  0
MTEXT
  5
310B
330
1F
100
AcDbEntity
  8
DIMJ
100
AcDbMText
 10
1883.855901857191
 20
1264.67313948847
 30
0.0
 40
16.0
 41
0.0
 46
0.0
 71
     9
 72
     1
  1
\A1;
 73
     1
 44
1.0
  0
MTEXT
  5
5549
330
1F
100
AcDbEntity
  8
Layer2
100
AcDbMText
 10
3425.908977785264
 20
1358.214336232857
 30
0.0
 40
30.0
 41
0.0
 46
0.0
 71
     9
 72
     1
  1
\A1;
 73
     1
 44
1.0
  0
DIMENSION
  5
7CA2
102
{ACAD_XDICTIONARY
360
7CA3
102
}
102
{ACAD_REACTORS
330
7CA4
102
}
330
1F
100
AcDbEntity
  8
DIMJ
100
AcDbDimension
280
     0
  2
*D26
 10
9643.015632871172
 20
-62.49926834386406
 30
0.0
 11
9732.580497736037
 21
-39.49926834386406
 31
0.0
 70
    32
 71
     5
 42
37.5
 73
     0
 74
     0
 75
     0
  3
Standard
100
AcDbAlignedDimension
 13
9605.515632871172
 23
250.8618008579788
 33
0.0
 14
9643.015632871172
 24
141.3618008579788
 34
0.0
100
AcDbRotatedDimension
  0
DIMENSION
  5
7CA5
102
{ACAD_XDICTIONARY
360
7CA6
102
}
102
{ACAD_REACTORS
330
7CA7
102
}
330
1F
100
AcDbEntity
  8
DIMJ
100
AcDbDimension
280
     0
  2
*D25
 10
9236.01563287117
 20
-34.34619186587133
 30
0.0
 11
9427.015632871171
 21
-11.34619186587133
 31
0.0
 70
    32
 71
     5
 42
382.0
 73
     0
 74
     0
 75
     0
  3
Standard
100
AcDbAlignedDimension
 13
9618.015632871172
 23
141.3618008579778
 33
0.0
 14
9236.01563287117
 24
141.3618008579797
 34
0.0
100
AcDbRotatedDimension
  0
DIMENSION
  5
7CA8
102
{ACAD_XDICTIONARY
360
7CA9
102
}
102
{ACAD_REACTORS
330
7CAA
102
}
330
1F
100
AcDbEntity
  8
DIMJ
100
AcDbDimension
280
     0
  2
*D24
 10
8676.651177851317
 20
506.3618008579801
 30
0.0
 11
8653.651177851317
 21
697.3618008579809
 31
0.0
 70
    32
 71
     5
 42
381.9999999999986
 73
     0
 74
     0
 75
     0
  3
Standard
100
AcDbAlignedDimension
 13
8871.01563287117
 23
888.3618008579787
 33
0.0
 14
8871.01563287117
 24
506.3618008579801
 34
0.0
 50
90.0
100
AcDbRotatedDimension
  0
DIMENSION
  5
7CAD
102
{ACAD_XDICTIONARY
360
7CAE
102
}
102
{ACAD_REACTORS
330
7CAF
102
}
330
1F
100
AcDbEntity
  8
DIMJ
100
AcDbDimension
280
     0
  2
*D23
 10
8870.515632871173
 20
399.1741034692413
 30
0.0
 11
8960.080497736038
 21
422.1741034692413
 31
0.0
 70
    32
 71
     5
 42
37.5
 73
     0
 74
     0
 75
     0
  3
Standard
100
AcDbAlignedDimension
 13
8833.015632871171
 23
519.3618008579788
 33
0.0
 14
8870.515632871173
 24
629.8618008579796
 34
0.0
100
AcDbRotatedDimension
  0
DIMENSION
  5
7CB0
102
{ACAD_XDICTIONARY
360
7CB1
102
}
102
{ACAD_REACTORS
330
7CB2
102
}
330
1F
100
AcDbEntity
  8
DIMJ
100
AcDbDimension
280
     0
  2
*D22
 10
9143.502160695719
 20
103.3618008579806
 30
0.0
 11
9120.502160695719
 21
13.79693599311723
 31
0.0
 70
    32
 71
     5
 42
37.4999999999982
 73
     0
 74
     0
 75
     0
  3
Standard
100
AcDbAlignedDimension
 13
9359.51563287117
 23
140.8618008579788
 33
0.0
 14
9249.01563287117
 24
103.3618008579806
 34
0.0
 50
90.0
100
AcDbRotatedDimension
  0
LEADER
  5
7CB3
330
1F
100
AcDbEntity
  8
DIMJ
100
AcDbLeader
  3
Standard
 73
     0
 75
     1
 76
     3
 10
8827.839100761554
 20
1537.273047682432
 30
0.0
 10
8811.000399240965
 20
1487.055587930887
 30
0.0
 10
8786.000399240965
 20
1487.055587930887
 30
0.0
210
0.0
220
0.0
230
-1.0
213
0.0
223
-8.5
233
0.0
1001
ACAD
1000
DSTYLE
1002
{
1070
   147
1040
4.0
1070
    77
1070
     0
1002
}
  0
MTEXT
  5
7CB4
330
1F
100
AcDbEntity
  8
0
100
AcDbMText
 10
9502.00049970231
 20
703.7915650545382
 30
0.0
 40
32.0
 41
283.0119414294454
 46
0.0
 71
     1
 72
     5
  1
{\fArial|b0|i0|c0|p32;A}
 73
     1
 44
1.0
  0
LEADER
  5
7CB5
330
1F
100
AcDbEntity
  8
0
100
AcDbLeader
  3
Standard
 76
     2
 10
9450.94299235127
 20
504.1871868299526
 30
0.0
 10
9410.926330480078
 20
544.2038487011464
 30
0.0
211
0.7071067811865474
221
-0.7071067811865478
231
0.0
210
0.0
220
0.0
230
-1.0
213
-10.60660171779821
223
-10.60660171779821
233
0.0
1001
ACAD
1000
DSTYLE
1002
{
1070
   147
1040
4.0
1070
    77
1070
     0
1002
}
  0
LINE
  5
7CB6
330
1F
100
AcDbEntity
  8
0
100
AcDbLine
 10
9411.025469369509
 20
544.1047098117174
 30
0.0
 11
9440.271904567019
 21
514.8582746142051
 31
0.0
  0
LINE
  5
7CB7
330
1F
100
AcDbEntity
  8
0
100
AcDbLine
 10
9437.1655341365
 20
570.2447745787107
 30
0.0
 11
9411.025469369509
 21
544.1047098117174
 31
0.0
  0
MTEXT
  5
7CB8
330
1F
100
AcDbEntity
  8
0
100
AcDbMText
 10
9374.380914449517
 20
571.5882517233649
 30
0.0
 40
32.0
 41
283.0119414294454
 46
0.0
 71
     1
 72
     5
  1
{\fArial|b0|i0|c0|p32;A}
 73
     1
 44
1.0
  0
LINE
  5
7CB9
330
1F
100
AcDbEntity
  8
0
100
AcDbLine
 10
9511.459954297116
 20
644.5391947393259
 30
0.0
 11
9537.600019064109
 21
670.6792595063193
 31
0.0
  0
LINE
  5
7CBA
330
1F
100
AcDbEntity
  8
0
100
AcDbLine
 10
9537.600019064109
 20
670.6792595063193
 30
0.0
 11
9566.84645426162
 21
641.432824308807
 31
0.0
  0
LEADER
  5
7CBB
330
1F
100
AcDbEntity
  8
0
100
AcDbLeader
  3
Standard
 76
     2
 10
9577.517542045873
 20
630.7617365245546
 30
0.0
 10
9537.500880174681
 20
670.7783983957483
 30
0.0
211
0.7071067811865474
221
-0.7071067811865478
231
0.0
213
10.60660171779821
223
10.60660171779821
233
0.0
1001
ACAD
1000
DSTYLE
1002
{
1070
   147
1040
4.0
1070
    77
1070
     0
1002
}
  0
DIMENSION
  5
7CBC
102
{ACAD_XDICTIONARY
360
7CBD
102
}
102
{ACAD_REACTORS
330
7CBE
102
}
330
1F
100
AcDbEntity
  8
DIMJ
100
AcDbDimension
280
     0
  2
*D21
 10
9270.515632871171
 20
1008.049112535169
 30
0.0
 11
9372.856173411713
 21
1008.049112535169
 31
0.0
 70
   160
 71
     5
 42
12.5
 73
     0
 74
     0
 75
     0
  3
Standard
100
AcDbAlignedDimension
 13
9283.015632871173
 23
767.4587345839004
 33
0.0
 14
9270.515632871171
 24
735.4006807444319
 34
0.0
100
AcDbRotatedDimension
  0
DIMENSION
  5
7CBF
102
{ACAD_XDICTIONARY
360
7CC0
102
}
102
{ACAD_REACTORS
330
7CC1
102
}
330
1F
100
AcDbEntity
  8
DIMJ
100
AcDbDimension
280
     0
  2
*D20
 10
9885.031895073655
 20
540.8618008579788
 30
0.0
 11
9885.031895073655
 21
655.3055937632598
 31
0.0
 70
   160
 71
     5
 42
12.49999999999954
 73
     0
 74
     0
 75
     0
  3
Standard
100
AcDbAlignedDimension
 13
9497.112566597092
 23
553.3618008579783
 33
0.0
 14
9494.515632871173
 24
540.8618008579788
 34
0.0
 50
90.0
100
AcDbRotatedDimension
  0
DIMENSION
  5
7CC2
102
{ACAD_XDICTIONARY
360
7CC3
102
}
102
{ACAD_REACTORS
330
7CC4
102
}
330
1F
100
AcDbEntity
  8
DIMJ
100
AcDbDimension
280
     0
  2
*D19
 10
9362.199089499517
 20
725.5681711743672
 30
0.0
 11
9238.221293114317
 21
601.5903747891652
 31
0.0
 70
   161
 71
     5
 42
101.6000000000003
 73
     0
 74
     0
 75
     0
  3
Standard
100
AcDbAlignedDimension
 13
9336.868497374986
 23
607.2146653617919
 33
0.0
 14
9408.710546343538
 24
679.0567143303463
 34
0.0
  0
DIMENSION
  5
7CC5
102
{ACAD_XDICTIONARY
360
7CC6
102
}
102
{ACAD_REACTORS
330
7CC7
102
}
330
1F
100
AcDbEntity
  8
DIMJ
100
AcDbDimension
280
     0
  2
*D18
 10
9605.015632871177
 20
509.6216854877993
 30
0.0
 11
9724.167804493832
 21
596.5282700733241
 31
0.0
 70
   164
  1
2-R38
 71
     5
 42
38.00000000000819
 73
     0
 74
     0
 75
     0
  3
Standard
100
AcDbRadialDimension
 15
9635.716877593262
 25
532.0143979745717
 35
0.0
 40
0.0
1001
ACAD
1000
DSTYLE
1002
{
1070
   288
1070
     1
1002
}
  0
DIMENSION
  5
7CC8
102
{ACAD_XDICTIONARY
360
7CC9
102
}
102
{ACAD_REACTORS
330
7CCA
102
}
330
1F
100
AcDbEntity
  8
DIMJ
100
AcDbDimension
280
     0
  2
*D17
 10
8833.015632871175
 20
1102.376476334835
 30
0.0
 11
9044.015632871175
 21
1102.376476334835
 31
0.0
 70
   160
 71
     5
 42
422.0
 73
     0
 74
     0
 75
     0
  3
Standard
100
AcDbAlignedDimension
 13
9255.015632871176
 23
913.3618008579784
 33
0.0
 14
8833.015632871175
 24
875.3618008579792
 34
0.0
100
AcDbRotatedDimension
  0
DIMENSION
  5
7CCB
102
{ACAD_XDICTIONARY
360
7CCC
102
}
102
{ACAD_REACTORS
330
7CCD
102
}
330
1F
100
AcDbEntity
  8
DIMJ
100
AcDbDimension
280
     0
  2
*D16
 10
9831.543795953301
 20
103.3618008579787
 30
0.0
 11
9808.543795953301
 21
314.3618008579797
 31
0.0
 70
    32
 71
     5
 42
421.9999999999989
 73
     0
 74
     0
 75
     0
  3
Standard
100
AcDbAlignedDimension
 13
9643.015632871172
 23
525.3618008579776
 33
0.0
 14
9605.015632871172
 24
103.3618008579787
 34
0.0
 50
90.0
100
AcDbRotatedDimension
  0
LINE
  5
7CCE
102
{ACAD_REACTORS
330
7CCA
102
}
330
1F
100
AcDbEntity
  8
DIMJ
100
AcDbLine
 10
9258.294742607596
 20
910.0826911215571
 30
0.0
 11
9255.015632871176
 21
913.3618008579784
 31
0.0
  0
DIMENSION
  5
7CD0
102
{ACAD_XDICTIONARY
360
7CD1
102
}
102
{ACAD_REACTORS
330
7CD2
102
}
330
1F
100
AcDbEntity
  8
DIMJ
100
AcDbDimension
280
     0
  2
*D15
 10
8871.015632871174
 20
519.3618008579797
 30
0.0
 11
8756.659719785348
 21
412.0437715969855
 31
0.0
 70
   164
  1
4-R38
 71
     5
 42
37.99999999999818
 73
     0
 74
     0
 75
     0
  3
Standard
100
AcDbRadialDimension
 15
8843.30644456862
 25
493.3579379985221
 35
0.0
 40
0.0
1001
ACAD
1000
DSTYLE
1002
{
1070
   288
1070
     1
1002
}
  0
DIMENSION
  5
7CD3
102
{ACAD_XDICTIONARY
360
7CD4
102
}
102
{ACAD_REACTORS
330
7CD5
102
}
330
1F
100
AcDbEntity
  8
DIMJ
100
AcDbDimension
280
     0
  2
*D14
 10
9198.015632871172
 20
468.3618008579778
 30
0.0
 11
9158.600106454846
 21
411.1606516324346
 31
0.0
 70
   164
 71
     5
 42
13.0
 73
     0
 74
     0
 75
     0
  3
Standard
100
AcDbRadialDimension
 15
9205.391906854734
 25
479.0664999251821
 35
0.0
 40
0.0
1001
ACAD
1000
DSTYLE
1002
{
1070
   279
1070
     1
1070
   288
1070
     1
1002
}
  0
DIMENSION
  5
7CD6
102
{ACAD_XDICTIONARY
360
7CD7
102
}
102
{ACAD_REACTORS
330
7CD8
102
}
330
1F
100
AcDbEntity
  8
DIMJ
100
AcDbDimension
280
     0
  2
*D13
 10
9359.51563287117
 20
390.8618008579775
 30
0.0
 11
9346.216977939471
 21
232.9152614221929
 31
0.0
 70
   164
 71
     5
 42
249.9999999999998
 73
     0
 74
     0
 75
     0
  3
Standard
100
AcDbRadialDimension
 15
9338.5405517727
 25
141.7432628626842
 35
0.0
 40
0.0
1001
ACAD
1000
DSTYLE
1002
{
1070
   288
1070
     1
1002
}
  0
DIMENSION
  5
7CD9
102
{ACAD_XDICTIONARY
360
7CDA
102
}
102
{ACAD_REACTORS
330
7CDB
102
}
330
1F
100
AcDbEntity
  8
DIMJ
100
AcDbDimension
280
     0
  2
*D12
 10
9498.515632871184
 20
430.861800857978
 30
0.0
 11
9357.06095733588
 21
437.708385453767
 31
0.0
 70
   164
  1
8-R250
 71
     5
 42
250.0000000000073
 73
     0
 74
     0
 75
     0
  3
Standard
100
AcDbRadialDimension
 15
9248.807954610596
 25
442.9479672357199
 35
0.0
 40
0.0
1001
ACAD
1000
DSTYLE
1002
{
1070
   288
1070
     1
1002
}
  0
DIMENSION
  5
7CDC
102
{ACAD_XDICTIONARY
360
7CDD
102
}
102
{ACAD_REACTORS
330
7CDE
102
}
330
1F
100
AcDbEntity
  8
DIMJ
100
AcDbDimension
280
     0
  2
*D11
 10
9120.515632871164
 20
629.8618008579801
 30
0.0
 11
8980.619253652891
 21
607.8321836792339
 31
0.0
 70
   164
  1
8-R250
 71
     5
 42
250.0000000000018
 73
     0
 74
     0
 75
     0
  3
Standard
100
AcDbRadialDimension
 15
8873.558790197282
 25
590.9732696881406
 35
0.0
 40
0.0
1001
ACAD
1000
DSTYLE
1002
{
1070
   288
1070
     1
1002
}
  0
DIMENSION
  5
7CDF
102
{ACAD_XDICTIONARY
360
7CE0
102
}
102
{ACAD_REACTORS
330
7CE1
102
}
330
1F
100
AcDbEntity
  8
DIMJ
100
AcDbDimension
280
     0
  2
*D54
 10
9643.015632871172
 20
1172.827478468406
 30
0.0
 11
9238.015632871173
 21
1172.827478468406
 31
0.0
 70
   160
 71
     5
 42
809.9999999999964
 73
     0
 74
     0
 75
     0
  3
Standard
100
AcDbAlignedDimension
 13
8833.015632871175
 23
875.3618008579797
 33
0.0
 14
9643.015632871172
 24
509.6216854878016
 34
0.0
100
AcDbRotatedDimension
  0
DIMENSION
  5
7CE2
102
{ACAD_XDICTIONARY
360
7CE3
102
}
102
{ACAD_REACTORS
330
7CE4
102
}
330
1F
100
AcDbEntity
  8
DIMJ
100
AcDbDimension
280
     0
  2
*D53
 10
8504.685879837563
 20
103.3618008579808
 30
0.0
 11
8504.685879837563
 21
508.3618008579805
 31
0.0
 70
   160
 71
     5
 42
809.9999999999985
 73
     0
 74
     0
 75
     0
  3
Standard
100
AcDbAlignedDimension
 13
8871.015632871175
 23
913.3618008579793
 33
0.0
 14
9249.01563287117
 24
103.3618008579806
 34
0.0
 50
90.0
100
AcDbRotatedDimension
  0
DIMENSION
  5
7CE5
102
{ACAD_XDICTIONARY
360
7CE6
102
}
102
{ACAD_REACTORS
330
7CE7
102
}
330
1F
100
AcDbEntity
  8
DIMJ
100
AcDbDimension
280
     0
  2
*D52
 10
9211.015632871175
 20
-93.07844463388846
 30
0.0
 11
9427.015632871173
 21
-93.07844463388846
 31
0.0
 70
   160
 71
     5
 42
431.9999999999963
 73
     0
 74
     0
 75
     0
  3
Standard
100
AcDbAlignedDimension
 13
9643.015632871172
 23
141.3618008579788
 33
0.0
 14
9211.015632871175
 24
141.3618008579788
 34
0.0
100
AcDbRotatedDimension
  0
DIMENSION
  5
7CE8
102
{ACAD_XDICTIONARY
360
7CE9
102
}
102
{ACAD_REACTORS
330
7CEA
102
}
330
1F
100
AcDbEntity
  8
DIMJ
100
AcDbDimension
280
     0
  2
*D51
 10
8592.056179222266
 20
481.3618008579788
 30
0.0
 11
8592.056179222266
 21
697.3618008579795
 31
0.0
 70
   160
 71
     5
 42
432.0000000000003
 73
     0
 74
     0
 75
     0
  3
Standard
100
AcDbAlignedDimension
 13
8871.015632871175
 23
913.3618008579793
 33
0.0
 14
8871.015632871174
 24
481.3618008579787
 34
0.0
 50
90.0
100
AcDbRotatedDimension
  0
DIMENSION
  5
7CEB
102
{ACAD_XDICTIONARY
360
7CEC
102
}
102
{ACAD_REACTORS
330
7CED
102
}
330
1F
100
AcDbEntity
  8
DIMJ
100
AcDbDimension
280
     0
  2
*D50
 10
8797.513808975779
 20
913.3618008579793
 30
0.0
 11
8774.513808975779
 21
1002.926665722845
 31
0.0
 70
    32
 71
     5
 42
37.49999999999989
 73
     0
 74
     0
 75
     0
  3
Standard
100
AcDbAlignedDimension
 13
8980.515632871174
 23
875.8618008579793
 33
0.0
 14
8871.015632871175
 24
913.3618008579793
 34
0.0
 50
90.0
100
AcDbRotatedDimension
  0
DIMENSION
  5
7CEE
102
{ACAD_XDICTIONARY
360
7CEF
102
}
102
{ACAD_REACTORS
330
7CF0
102
}
330
1F
100
AcDbEntity
  8
DIMJ
100
AcDbDimension
280
     0
  2
*D49
 10
8756.238832768028
 20
518.8618008579807
 30
0.0
 11
8733.238832768028
 21
697.3618008579814
 31
0.0
 70
    32
 71
     5
 42
356.9999999999986
 73
     0
 74
     0
 75
     0
  3
Standard
100
AcDbAlignedDimension
 13
8980.515632871174
 23
875.8618008579793
 33
0.0
 14
8980.515632871174
 24
518.8618008579806
 34
0.0
 50
90.0
100
AcDbRotatedDimension
  0
DIMENSION
  5
7CF1
102
{ACAD_XDICTIONARY
360
7CF2
102
}
102
{ACAD_REACTORS
330
7CF3
102
}
330
1F
100
AcDbEntity
  8
DIMJ
100
AcDbDimension
280
     0
  2
*D48
 10
8870.515632871171
 20
971.9067243595182
 30
0.0
 11
9070.515632871172
 21
994.9067243595182
 31
0.0
 70
    32
 71
     5
 42
400.0000000000036
 73
     0
 74
     0
 75
     0
  3
Standard
100
AcDbAlignedDimension
 13
9270.515632871175
 23
764.8618008579778
 33
0.0
 14
8870.515632871171
 24
764.8618008579778
 34
0.0
100
AcDbRotatedDimension
  0
LINE
  5
7CFA
330
1F
100
AcDbEntity
  8
0
100
AcDbLine
 10
9235.015632871174
 20
1564.888932822841
 30
0.0
 11
9241.015632871171
 21
1564.888932822841
 31
0.0
  0
LINE
  5
7CFB
330
1F
100
AcDbEntity
  8
0
100
AcDbLine
 10
9215.015632871175
 20
1568.388932822841
 30
0.0
 11
9211.015632871175
 21
1564.888932822841
 31
0.0
  0
LINE
  5
7CFC
330
1F
100
AcDbEntity
  8
0
100
AcDbLine
 10
9215.466515010499
 20
1567.188932822841
 30
0.0
 11
9211.805838400618
 21
1563.985840789193
 31
0.0
  0
LINE
  5
7CFD
330
1F
100
AcDbEntity
  8
0
100
AcDbLine
 10
9215.466515010499
 20
1567.188932822841
 30
0.0
 11
9229.637366194191
 21
1567.188932822841
 31
0.0
  0
LINE
  5
7CFE
330
1F
100
AcDbEntity
  8
0
100
AcDbLine
 10
9211.015632871175
 20
1564.888932822841
 30
0.0
 11
9211.805838400618
 21
1563.985840789193
 31
0.0
  0
LINE
  5
7CFF
330
1F
100
AcDbEntity
  8
0
100
AcDbLine
 10
9230.015632871175
 20
1568.388932822841
 30
0.0
 11
9235.015632871174
 21
1568.388932822841
 31
0.0
  0
LINE
  5
7D00
330
1F
100
AcDbEntity
  8
0
100
AcDbLine
 10
9235.015632871174
 20
1564.888932822841
 30
0.0
 11
9230.015632871175
 21
1568.388932822841
 31
0.0
  0
LINE
  5
7D01
330
1F
100
AcDbEntity
  8
0
100
AcDbLine
 10
9234.63736619419
 20
1563.688932822841
 30
0.0
 11
9229.637366194191
 21
1567.188932822841
 31
0.0
  0
LINE
  5
7D02
330
1F
100
AcDbEntity
  8
0
100
AcDbLine
 10
9234.63736619419
 20
1563.688932822841
 30
0.0
 11
9243.628267503337
 21
1563.688932822842
 31
0.0
  0
LINE
  5
7D03
330
1F
100
AcDbEntity
  8
0
100
AcDbLine
 10
9229.015632871174
 20
1564.888932822841
 30
0.0
 11
9229.015632871174
 21
1567.188932822841
 31
0.0
  0
LINE
  5
7D04
330
1F
100
AcDbEntity
  8
0
100
AcDbLine
 10
9229.015632871174
 20
1567.188932822841
 30
0.0
 11
9229.015632871174
 21
1550.188932822841
 31
0.0
  0
LINE
  5
7D05
330
1F
100
AcDbEntity
  8
0
100
AcDbLine
 10
9229.015632871174
 20
1550.188932822841
 30
0.0
 11
9227.815632871175
 21
1550.188932822841
 31
0.0
  0
LINE
  5
7D06
330
1F
100
AcDbEntity
  8
0
100
AcDbLine
 10
9227.815632871175
 20
1550.188932822841
 30
0.0
 11
9227.815632871175
 21
1565.988932822841
 31
0.0
  0
LINE
  5
7D07
330
1F
100
AcDbEntity
  8
0
100
AcDbLine
 10
9227.815632871175
 20
1565.988932822841
 30
0.0
 11
9219.815632871174
 21
1565.988932822841
 31
0.0
  0
LINE
  5
7D08
330
1F
100
AcDbEntity
  8
0
100
AcDbLine
 10
9219.815632871174
 20
1565.988932822841
 30
0.0
 11
9219.815632871174
 21
1567.188932822841
 31
0.0
  0
LINE
  5
7D11
330
1F
100
AcDbEntity
  8
0
100
AcDbLine
 10
8837.015632871175
 20
1568.388932822841
 30
0.0
 11
9245.515632871173
 21
1568.388932822842
 31
0.0
  0
LINE
  5
7D12
102
{ACAD_REACTORS
330
7D68
102
}
330
1F
100
AcDbEntity
  8
0
100
AcDbLine
 10
8837.015632871175
 20
1568.388932822841
 30
0.0
 11
8833.015632871175
 21
1564.888932822841
 31
0.0
  0
LINE
  5
7D13
330
1F
100
AcDbEntity
  8
0
100
AcDbLine
 10
8837.466515010499
 20
1567.188932822842
 30
0.0
 11
8833.805838400616
 21
1563.985840789193
 31
0.0
  0
LINE
  5
7D14
330
1F
100
AcDbEntity
  8
0
100
AcDbLine
 10
8837.466515010499
 20
1567.188932822842
 30
0.0
 11
8851.637366194191
 21
1567.188932822842
 31
0.0
  0
LINE
  5
7D15
102
{ACAD_REACTORS
330
7D26
102
}
330
1F
100
AcDbEntity
  8
0
100
AcDbLine
 10
8882.569974263537
 20
1396.429409319859
 30
0.0
 11
8869.841525333633
 21
1558.159687397208
 31
0.0
  0
ARC
  5
7D16
330
1F
100
AcDbEntity
  8
0
100
AcDbCircle
 10
8863.860021331234
 20
1557.688932822841
 30
0.0
 40
6.0
100
AcDbArc
 50
4.500000000000435
 51
90.0
  0
ARC
  5
7D17
330
1F
100
AcDbEntity
  8
0
100
AcDbCircle
 10
8863.860021331234
 20
1557.688932822841
 30
0.0
 40
7.2
100
AcDbArc
 50
4.500000000000435
 51
90.0
  0
LINE
  5
7D18
330
1F
100
AcDbEntity
  8
CEN
100
AcDbLine
 10
9070.515632871176
 20
1587.318726939495
 30
0.0
 11
9070.515632871176
 21
1312.892991682724
 31
0.0
  0
LINE
  5
7D19
330
1F
100
AcDbEntity
  8
0
100
AcDbLine
 10
9085.515632871175
 20
1334.67559027047
 30
0.0
 11
9175.515632871174
 21
1334.67559027047
 31
0.0
  0
LINE
  5
7D1A
102
{ACAD_REACTORS
330
7D68
102
}
330
1F
100
AcDbEntity
  8
0
100
AcDbLine
 10
9085.515632871175
 20
1334.67559027047
 30
0.0
 11
9070.935363082627
 21
1340.924277322705
 31
0.0
  0
LINE
  5
7D1B
330
1F
100
AcDbEntity
  8
0
100
AcDbLine
 10
9175.515632871174
 20
1334.67559027047
 30
0.0
 11
9190.054899509325
 21
1340.906704543963
 31
0.0
  0
LINE
  5
7D1C
330
1F
100
AcDbEntity
  8
0
100
AcDbLine
 10
9071.515632871173
 20
1341.87559027047
 30
0.0
 11
9189.515632871176
 21
1341.87559027047
 31
0.0
  0
LINE
  5
7D1F
330
1F
100
AcDbEntity
  8
0
100
AcDbLine
 10
8883.768480405381
 20
1396.495538715886
 30
0.0
 11
8871.037826134113
 21
1558.253838312082
 31
0.0
  0
LINE
  5
7D20
330
1F
100
AcDbEntity
  8
0
100
AcDbLine
 10
9085.761942113521
 20
1335.87559027047
 30
0.0
 11
9071.761942113521
 21
1341.87559027047
 31
0.0
  0
LINE
  5
7D21
330
1F
100
AcDbEntity
  8
0
100
AcDbLine
 10
9085.761942113521
 20
1335.87559027047
 30
0.0
 11
9175.26932362883
 21
1335.87559027047
 31
0.0
  0
LINE
  5
7D22
330
1F
100
AcDbEntity
  8
0
100
AcDbLine
 10
9175.26932362883
 20
1335.87559027047
 30
0.0
 11
9189.269323628829
 21
1341.87559027047
 31
0.0
  0
LINE
  5
7D23
102
{ACAD_REACTORS
330
7D26
102
}
330
1F
100
AcDbEntity
  8
DIMJ
100
AcDbLine
 10
8869.841525333633
 20
1558.159687397208
 30
0.0
 11
8869.841525333633
 21
1526.411046252868
 31
0.0
  0
DIMENSION
  5
7D24
102
{ACAD_XDICTIONARY
360
7D25
102
}
102
{ACAD_REACTORS
330
7D26
102
}
330
1F
100
AcDbEntity
  8
DIMJ
100
AcDbDimension
280
     0
  2
*D47
 10
8869.841525333633
 20
1558.159687397208
 30
0.0
 11
8828.397554341249
 21
1242.634519698585
 31
0.0
 70
   162
 71
     5
 42
0.0785398163397124
 73
     0
 74
     0
 75
     0
  3
Standard
100
AcDb2LineAngularDimension
 13
8869.841525333633
 23
1558.159687397208
 33
0.0
 14
8869.841525333633
 24
1526.411046252868
 34
0.0
 15
8882.569974263537
 25
1396.429409319859
 35
0.0
 16
8886.496676373162
 26
1240.360473857098
 36
0.0
  0
CIRCLE
  5
7D27
330
1F
100
AcDbEntity
  8
CEN
100
AcDbCircle
 10
8858.922725094503
 20
1558.878948205572
 30
0.0
 40
37.85507415245339
  0
MTEXT
  5
7D28
330
1F
100
AcDbEntity
  8
DIMJ
100
AcDbMText
 10
8782.000399240963
 20
1468.784691802182
 30
0.0
 40
32.0
 41
0.0
 46
0.0
 71
     9
 72
     1
  1
Ⅰ
 73
     1
 44
1.0
  0
LINE
  5
7D29
330
1F
100
AcDbEntity
  8
0
100
AcDbLine
 10
8833.015632871175
 20
1564.888932822841
 30
0.0
 11
8833.805838400616
 21
1563.985840789193
 31
0.0
  0
LINE
  5
7D2A
330
1F
100
AcDbEntity
  8
0
100
AcDbLine
 10
8852.015632871175
 20
1568.388932822841
 30
0.0
 11
8857.015632871174
 21
1568.388932822841
 31
0.0
  0
LINE
  5
7D2B
330
1F
100
AcDbEntity
  8
0
100
AcDbLine
 10
8857.015632871174
 20
1564.888932822841
 30
0.0
 11
8852.015632871175
 21
1568.388932822841
 31
0.0
  0
LINE
  5
7D2C
330
1F
100
AcDbEntity
  8
0
100
AcDbLine
 10
8856.63736619419
 20
1563.688932822841
 30
0.0
 11
8851.637366194191
 21
1567.188932822842
 31
0.0
  0
LINE
  5
7D2D
330
1F
100
AcDbEntity
  8
0
100
AcDbLine
 10
8857.015632871174
 20
1564.888932822841
 30
0.0
 11
9211.015632871175
 21
1564.888932822841
 31
0.0
  0
LINE
  5
7D2E
330
1F
100
AcDbEntity
  8
0
100
AcDbLine
 10
8856.63736619419
 20
1563.688932822841
 30
0.0
 11
8863.860021331234
 21
1563.688932822841
 31
0.0
  0
LINE
  5
7D31
330
1F
100
AcDbEntity
  8
0
100
AcDbLine
 10
9254.904368737816
 20
1388.996712440591
 30
0.0
 11
9258.913777552082
 21
1439.941081705703
 31
0.0
  0
LINE
  5
7D32
330
1F
100
AcDbEntity
  8
0
100
AcDbLine
 10
9256.102874879656
 20
1388.930583044557
 30
0.0
 11
9259.515632871176
 21
1432.29378479979
 31
0.0
  0
LINE
  5
7D33
330
1F
100
AcDbEntity
  8
0
100
AcDbLine
 10
9261.015632871171
 20
1568.388932822841
 30
0.0
 11
9241.015632871171
 21
1568.388932822841
 31
0.0
  0
LINE
  5
7D34
330
1F
100
AcDbEntity
  8
0
100
AcDbLine
 10
8851.015632871174
 20
1564.888932822841
 30
0.0
 11
8851.015632871174
 21
1564.988932822841
 31
0.0
  0
LINE
  5
7D35
330
1F
100
AcDbEntity
  8
0
100
AcDbLine
 10
8851.015632871174
 20
1564.988932822841
 30
0.0
 11
8851.015632871174
 21
1551.404653614021
 31
0.0
  0
LINE
  5
7D38
330
1F
100
AcDbEntity
  8
0
100
AcDbLine
 10
8848.815632871172
 20
1565.988932822842
 30
0.0
 11
8840.815632871175
 21
1565.988932822841
 31
0.0
  0
ARC
  5
7D40
330
1F
100
AcDbEntity
  8
0
100
AcDbCircle
 10
9243.628267503337
 20
1557.688932822841
 30
0.0
 40
6.0
100
AcDbArc
 50
4.500000000000438
 51
90.0
  0
ARC
  5
7D41
330
1F
100
AcDbEntity
  8
0
100
AcDbCircle
 10
9243.628267503337
 20
1557.688932822841
 30
0.0
 40
7.2
100
AcDbArc
 50
4.500000000000438
 51
90.0
  0
LINE
  5
7D42
330
1F
100
AcDbEntity
  8
0
100
AcDbLine
 10
9224.01563287117
 20
1568.388932822841
 30
0.0
 11
9244.015632871173
 21
1568.388932822841
 31
0.0
  0
LINE
  5
7D43
330
1F
100
AcDbEntity
  8
0
100
AcDbLine
 10
9262.859591399056
 20
1389.804763115242
 30
0.0
 11
9249.609771505737
 21
1558.159687397208
 31
0.0
  0
LINE
  5
7D44
330
1F
100
AcDbEntity
  8
0
100
AcDbLine
 10
9264.042251509261
 20
1390.072235433498
 30
0.0
 11
9250.806072306216
 21
1558.253838312082
 31
0.0
  0
LINE
  5
7D47
330
1F
100
AcDbEntity
  8
0
100
AcDbLine
 10
9619.393899548155
 20
1563.688932822841
 30
0.0
 11
9610.40299823901
 21
1563.688932822842
 31
0.0
  0
LINE
  5
7D48
330
1F
100
AcDbEntity
  8
0
100
AcDbLine
 10
9619.015632871171
 20
1564.888932822841
 30
0.0
 11
9241.015632871171
 21
1564.888932822841
 31
0.0
  0
LINE
  5
7D49
330
1F
100
AcDbEntity
  8
0
100
AcDbLine
 10
9619.393899548155
 20
1563.688932822841
 30
0.0
 11
9624.393899548156
 21
1567.188932822841
 31
0.0
  0
LINE
  5
7D4A
330
1F
100
AcDbEntity
  8
0
100
AcDbLine
 10
9619.015632871171
 20
1564.888932822841
 30
0.0
 11
9624.01563287117
 21
1568.388932822841
 31
0.0
  0
LINE
  5
7D4B
330
1F
100
AcDbEntity
  8
0
100
AcDbLine
 10
9624.01563287117
 20
1568.388932822841
 30
0.0
 11
9619.015632871171
 21
1568.388932822841
 31
0.0
  0
LINE
  5
7D4C
330
1F
100
AcDbEntity
  8
0
100
AcDbLine
 10
9643.015632871172
 20
1564.888932822841
 30
0.0
 11
9642.225427341728
 21
1563.985840789193
 31
0.0
  0
MTEXT
  5
7D4D
102
{ACAD_REACTORS
330
7D4E
102
}
330
1F
100
AcDbEntity
  8
DIMJ
100
AcDbMText
 10
9321.548127661833
 20
1240.748841274931
 30
0.0
 40
32.0
 41
0.0
 46
0.0
 71
     3
 72
     1
  1
Ⅱ
 73
     1
 44
1.0
  0
LEADER
  5
7D4E
330
1F
100
AcDbEntity
  8
DIMJ
100
AcDbLeader
  3
Standard
 73
     0
 74
     0
 75
     1
 76
     3
 10
9370.89279248914
 20
1285.762545192466
 30
0.0
 10
9341.548127661836
 20
1232.248841274931
 30
0.0
 10
9316.548127661837
 20
1232.248841274931
 30
0.0
211
-1.0
221
0.0
231
0.0
210
0.0
220
0.0
230
-1.0
213
0.0
223
-8.5
233
0.0
1001
ACAD
1000
DSTYLE
1002
{
1070
   147
1040
4.0
1070
    77
1070
     0
1002
}
  0
CIRCLE
  5
7D4F
330
1F
100
AcDbEntity
  8
CEN
100
AcDbCircle
 10
9427.015632871171
 20
1334.588932822842
 30
0.0
 40
74.38944375096977
  0
DIMENSION
  5
7D50
102
{ACAD_XDICTIONARY
360
7D51
102
}
102
{ACAD_REACTORS
330
7D52
102
}
330
1F
100
AcDbEntity
  8
DIMJ
100
AcDbDimension
280
     0
  2
*D46
 10
9604.421494236612
 20
1558.159687397209
 30
0.0
 11
9666.439473370953
 21
1289.090597658082
 31
0.0
 70
   162
 71
     5
 42
0.0785398163397542
 73
     0
 74
     0
 75
     0
  3
Standard
100
AcDb2LineAngularDimension
 13
9604.421494236612
 23
1558.159687397209
 33
0.0
 14
9604.421494236612
 24
1526.411046252868
 34
0.0
 15
9590.992524748338
 25
1387.528451683342
 35
0.0
 16
9589.970286207224
 26
1282.414211685565
 36
0.0
  0
LINE
  5
7D53
102
{ACAD_REACTORS
330
7D52
102
}
330
1F
100
AcDbEntity
  8
DIMJ
100
AcDbLine
 10
9604.421494236612
 20
1558.159687397209
 30
0.0
 11
9604.421494236612
 21
1526.411046252868
 31
0.0
  0
LINE
  5
7D57
330
1F
100
AcDbEntity
  8
0
100
AcDbLine
 10
9589.794018606498
 20
1387.594581079374
 30
0.0
 11
9603.225193436131
 21
1558.253838312082
 31
0.0
  0
LINE
  5
7D5E
330
1F
100
AcDbEntity
  8
CEN
100
AcDbLine
 10
9427.015632871173
 20
1587.318726939495
 30
0.0
 11
9427.015632871173
 21
1312.892991682724
 31
0.0
  0
ARC
  5
7D5F
330
1F
100
AcDbEntity
  8
0
100
AcDbCircle
 10
9610.40299823901
 20
1557.688932822841
 30
0.0
 40
7.2
100
AcDbArc
 50
90.0
 51
175.4999999999995
  0
ARC
  5
7D60
330
1F
100
AcDbEntity
  8
0
100
AcDbCircle
 10
9610.40299823901
 20
1557.688932822841
 30
0.0
 40
6.0
100
AcDbArc
 50
90.0
 51
175.4999999999995
  0
LINE
  5
7D61
102
{ACAD_REACTORS
330
7D52
102
}
330
1F
100
AcDbEntity
  8
0
100
AcDbLine
 10
9590.992524748338
 20
1387.528451683342
 30
0.0
 11
9604.421494236612
 21
1558.159687397209
 31
0.0
  0
LINE
  5
7D62
330
1F
100
AcDbEntity
  8
0
100
AcDbLine
 10
9638.564750731847
 20
1567.188932822841
 30
0.0
 11
9624.393899548156
 21
1567.188932822841
 31
0.0
  0
LINE
  5
7D63
330
1F
100
AcDbEntity
  8
0
100
AcDbLine
 10
9638.564750731847
 20
1567.188932822841
 30
0.0
 11
9642.225427341728
 21
1563.985840789193
 31
0.0
  0
LINE
  5
7D64
330
1F
100
AcDbEntity
  8
0
100
AcDbLine
 10
9639.015632871171
 20
1568.388932822841
 30
0.0
 11
9643.015632871172
 21
1564.888932822841
 31
0.0
  0
LINE
  5
7D65
330
1F
100
AcDbEntity
  8
0
100
AcDbLine
 10
9639.015632871171
 20
1568.388932822841
 30
0.0
 11
9239.515632871171
 21
1568.388932822842
 31
0.0
  0
DIMENSION
  5
7D66
102
{ACAD_XDICTIONARY
360
7D67
102
}
102
{ACAD_REACTORS
330
7D68
102
}
330
1F
100
AcDbEntity
  8
DIMJ
100
AcDbDimension
280
     0
  2
*D45
 10
8739.473664996625
 20
1340.67559027047
 30
0.0
 11
8716.473664996625
 21
1454.532261546657
 31
0.0
 70
    32
  1
208
 71
     5
 42
227.7133425523716
 73
     0
 74
     0
 75
     0
  3
Standard
100
AcDbAlignedDimension
 13
8837.015632871175
 23
1568.388932822841
 33
0.0
 14
9071.515632871173
 24
1340.67559027047
 34
0.0
 50
90.0
100
AcDbRotatedDimension
  0
DIMENSION
  5
7D69
330
1F
100
AcDbEntity
  8
DIMJ
100
AcDbDimension
280
     0
  2
*D2
 10
9736.557600745721
 20
1339.388932822841
 30
0.0
 11
9713.557600745721
 21
1453.888932822843
 31
0.0
 70
    32
  1
208
 71
     5
 42
228.9999999999998
 73
     0
 74
     0
 75
     0
  3
Standard
100
AcDbAlignedDimension
 13
9630.015632871174
 23
1568.388932822841
 33
0.0
 14
9486.015632871172
 24
1339.388932822841
 34
0.0
 50
90.0
100
AcDbRotatedDimension
  0
LINE
  5
7D6A
330
1F
100
AcDbEntity
  8
CEN
100
AcDbLine
 10
9319.897934626508
 20
624.1852281102692
 30
0.0
 11
9353.839060123464
 21
590.2441026133155
 31
0.0
  0
CIRCLE
  5
7D6B
102
{ACAD_REACTORS
330
7CC4
102
}
330
1F
100
AcDbEntity
  8
0
100
AcDbCircle
 10
9336.868497374986
 20
607.2146653617919
 30
0.0
 40
19.0
  0
DIMENSION
  5
7D6C
102
{ACAD_XDICTIONARY
360
7D6D
102
}
102
{ACAD_REACTORS
330
7D6E
102
}
330
1F
100
AcDbEntity
  8
DIMJ
100
AcDbDimension
280
     0
  2
*D44
 10
9503.577138240141
 20
773.9233062269395
 30
0.0
 11
9483.919569723159
 21
826.107786678509
 31
0.0
 70
    32
 71
     5
 42
101.5999999999958
 73
     0
 74
     0
 75
     0
  3
Standard
100
AcDbAlignedDimension
 13
9353.839060123464
 23
767.8693260473765
 33
0.0
 14
9462.061427888102
 24
732.4075958749086
 34
0.0
 50
314.9999999999956
100
AcDbRotatedDimension
  0
CIRCLE
  5
7D6F
330
1F
100
AcDbEntity
  8
0
100
AcDbCircle
 10
9480.552595312095
 20
607.2146653617924
 30
0.0
 40
19.0
  0
LINE
  5
7D70
330
1F
100
AcDbEntity
  8
CEN
100
AcDbLine
 10
9497.52315806057
 20
590.2441026133146
 30
0.0
 11
9463.582032563616
 21
624.1852281102692
 31
0.0
  0
LINE
  5
7D71
102
{ACAD_REACTORS
330
7D74
102
}
330
1F
100
AcDbEntity
  8
CEN
100
AcDbLine
 10
9497.523158060571
 20
624.1852281102692
 30
0.0
 11
9463.582032563616
 21
590.2441026133146
 31
0.0
  0
DIMENSION
  5
7D72
102
{ACAD_XDICTIONARY
360
7D73
102
}
102
{ACAD_REACTORS
330
7D74
102
}
330
1F
100
AcDbEntity
  8
DIMJ
100
AcDbDimension
280
     0
  2
*D43
 10
9575.419187208694
 20
702.0812572583809
 30
0.0
 11
9555.761618691711
 21
754.2657377099522
 31
0.0
 70
    32
 71
     5
 42
101.6000000000049
 73
     0
 74
     0
 75
     0
  3
Standard
100
AcDbAlignedDimension
 13
9462.061427888102
 23
732.4075958749086
 33
0.0
 14
9497.523158060571
 24
624.1852281102692
 34
0.0
 50
314.9999999999956
100
AcDbRotatedDimension
  0
LINE
  5
7D75
330
1F
100
AcDbEntity
  8
CEN
100
AcDbLine
 10
9189.905175922108
 20
460.2513439089148
 30
0.0
 11
9462.061427888102
 21
732.4075958749086
 31
0.0
  0
CIRCLE
  5
7D76
330
1F
100
AcDbEntity
  8
0
100
AcDbCircle
 10
9408.71054634354
 20
679.0567143303455
 30
0.0
 40
19.0
  0
LINE
  5
7D77
102
{ACAD_REACTORS
330
7CC4
102
}
330
1F
100
AcDbEntity
  8
CEN
100
AcDbLine
 10
9391.739983595062
 20
696.0272770788224
 30
0.0
 11
9425.681109092016
 21
662.0861515818687
 31
0.0
  0
LINE
  5
7D78
102
{ACAD_REACTORS
330
7D6E
102
}
330
1F
100
AcDbEntity
  8
CEN
100
AcDbLine
 10
9353.839060123464
 20
767.8693260473765
 30
0.0
 11
9319.897934626508
 21
733.9282005504219
 31
0.0
  0
LINE
  5
7D79
330
1F
100
AcDbEntity
  8
CEN
100
AcDbLine
 10
9319.897934626508
 20
767.8693260473765
 30
0.0
 11
9353.839060123464
 21
733.9282005504219
 31
0.0
  0
CIRCLE
  5
7D7A
102
{ACAD_REACTORS
330
7D7D
102
}
330
1F
100
AcDbEntity
  8
0
100
AcDbCircle
 10
9336.868497374986
 20
750.8987632988992
 30
0.0
 40
19.0
  0
DIMENSION
  5
7D7B
102
{ACAD_XDICTIONARY
360
7D7C
102
}
102
{ACAD_REACTORS
330
7D7D
102
}
330
1F
100
AcDbEntity
  8
DIMJ
100
AcDbDimension
280
     0
  2
*D42
 10
9336.879977490779
 20
731.8987667671372
 30
0.0
 11
9336.78151375771
 21
894.859717477305
 31
0.0
 70
   163
  1
4-Φ38
 71
     5
 42
37.99999999999954
 73
     0
 74
     0
 75
     0
  3
Standard
100
AcDbDiametricDimension
 15
9336.857017259157
 25
769.8987598306594
 35
0.0
 40
0.0
1001
ACAD
1000
DSTYLE
1002
{
1070
   288
1070
     1
1002
}
1001
AcadStringInfo
1000
MIFCodePage
1070
     5
  0
ARC
  5
7D7E
330
1F
100
AcDbEntity
  8
0
100
AcDbCircle
 10
9574.275517500993
 20
540.3618008579792
 30
0.0
 40
15.5
100
AcDbArc
 50
45.00000000000238
 51
89.99999999999998
  0
LINE
  5
7D7F
102
{ACAD_REACTORS
330
7DA7
102
}
330
1F
100
AcDbEntity
  8
0
100
AcDbLine
 10
9497.112566597092
 20
555.8618008579792
 30
0.0
 11
9574.275517500993
 21
555.8618008579787
 31
0.0
  0
ARC
  5
7D80
330
1F
100
AcDbEntity
  8
0
100
AcDbCircle
 10
9497.112566597094
 20
591.3618008579792
 30
0.0
 40
35.5
100
AcDbArc
 50
224.9999999999998
 51
269.9999999999998
  0
LINE
  5
7D81
330
1F
100
AcDbEntity
  8
0
100
AcDbLine
 10
9472.01027586497
 20
566.2595101258562
 30
0.0
 11
9295.91334213905
 21
742.3564438517778
 31
0.0
  0
ARC
  5
7D82
330
1F
100
AcDbEntity
  8
0
100
AcDbCircle
 10
9321.015632871173
 20
767.4587345838999
 30
0.0
 40
35.5
100
AcDbArc
 50
180.0
 51
224.9999999999998
  0
LINE
  5
7D83
330
1F
100
AcDbEntity
  8
0
100
AcDbLine
 10
9285.515632871172
 20
767.4587345839004
 30
0.0
 11
9285.515632871172
 21
844.621685487802
 31
0.0
  0
ARC
  5
7D84
330
1F
100
AcDbEntity
  8
0
100
AcDbCircle
 10
9270.015632871173
 20
844.621685487802
 30
0.0
 40
15.5
100
AcDbArc
 50
0.0
 51
44.99999999999988
  0
ARC
  5
7D85
330
1F
100
AcDbEntity
  8
0
100
AcDbCircle
 10
9321.015632871173
 20
767.4587345838999
 30
0.0
 40
38.0
100
AcDbArc
 50
180.0
 51
224.9999999999998
  0
ARC
  5
7D86
330
1F
100
AcDbEntity
  8
0
100
AcDbCircle
 10
9497.112566597094
 20
591.3618008579792
 30
0.0
 40
38.0
100
AcDbArc
 50
224.9999999999998
 51
269.9999999999998
  0
ARC
  5
7D87
330
1F
100
AcDbEntity
  8
0
100
AcDbCircle
 10
9574.275517500993
 20
540.3618008579792
 30
0.0
 40
13.0
100
AcDbArc
 50
45.00000000000238
 51
89.99999999999998
  0
LINE
  5
7D88
330
1F
100
AcDbEntity
  8
0
100
AcDbLine
 10
9583.467905656418
 20
549.5541890134045
 30
0.0
 11
9614.2080210266
 21
518.8140736432265
 31
0.0
  0
ARC
  5
7D89
330
1F
100
AcDbEntity
  8
0
100
AcDbCircle
 10
9270.015632871173
 20
844.621685487802
 30
0.0
 40
13.0
100
AcDbArc
 50
0.0
 51
44.99999999999988
  0
LINE
  5
7D8A
330
1F
100
AcDbEntity
  8
0
100
AcDbLine
 10
9470.242508912004
 20
564.4917431728895
 30
0.0
 11
9294.145575186085
 21
740.5886768988116
 31
0.0
  0
LINE
  5
7D8B
102
{ACAD_REACTORS
330
7DA7
330
7CC1
102
}
330
1F
100
AcDbEntity
  8
0
100
AcDbLine
 10
9497.112566597092
 20
553.3618008579783
 30
0.0
 11
9574.275517500996
 21
553.3618008579788
 31
0.0
  0
LINE
  5
7D8C
102
{ACAD_REACTORS
330
7CBE
102
}
330
1F
100
AcDbEntity
  8
0
100
AcDbLine
 10
9283.015632871173
 20
767.4587345839004
 30
0.0
 11
9283.015632871171
 21
844.6216854878029
 31
0.0
  0
LINE
  5
7D8D
330
1F
100
AcDbEntity
  8
CEN
100
AcDbLine
 10
9070.515632871176
 20
511.1119658206548
 30
0.0
 11
9070.515632871176
 21
884.2525204307166
 31
0.0
  0
ARC
  5
7D8E
330
1F
100
AcDbEntity
  8
0
100
AcDbCircle
 10
8949.524369560807
 20
797.0796200195023
 30
0.0
 40
76.0
100
AcDbArc
 50
100.2597332289183
 51
169.3295460960911
  0
ARC
  5
7D8F
330
1F
100
AcDbEntity
  8
0
100
AcDbCircle
 10
8980.515632871174
 20
625.8618008579819
 30
0.0
 40
250.0
100
AcDbArc
 50
90.00000000000003
 51
100.2597332289183
  0
LINE
  5
7D90
102
{ACAD_REACTORS
330
7CF0
330
7CED
102
}
330
1F
100
AcDbEntity
  8
0
100
AcDbLine
 10
8980.515632871174
 20
875.8618008579793
 30
0.0
 11
9160.515632871172
 21
875.8618008579796
 31
0.0
  0
ARC
  5
7D91
330
1F
100
AcDbEntity
  8
0
100
AcDbCircle
 10
9160.515632871174
 20
625.8618008579828
 30
0.0
 40
250.0
100
AcDbArc
 50
79.74026677108172
 51
90.00000000000003
  0
DIMENSION
  5
7D92
102
{ACAD_XDICTIONARY
360
7D93
102
}
102
{ACAD_REACTORS
330
7D94
102
}
330
1F
100
AcDbEntity
  8
DIMJ
100
AcDbDimension
280
     0
  2
*D41
 10
9191.506896181541
 20
797.0796200195027
 30
0.0
 11
9175.074513446809
 21
780.6831567636281
 31
0.0
 70
   164
  1
4-R76
 71
     5
 42
76.00000000000363
 73
     0
 74
     0
 75
     0
  3
Standard
100
AcDbRadialDimension
 15
9245.305778763997
 25
850.7609038424497
 35
0.0
 40
0.0
1001
ACAD
1000
DSTYLE
1002
{
1070
   288
1070
     1
1002
}
  0
LINE
  5
7D95
102
{ACAD_REACTORS
330
8214
102
}
330
1F
100
AcDbEntity
  8
CEN
100
AcDbLine
 10
8858.649655879672
 20
697.3618008579787
 30
0.0
 11
9279.242580265522
 21
697.3618008579787
 31
0.0
  0
ARC
  5
7D96
102
{ACAD_REACTORS
330
7D94
102
}
330
1F
100
AcDbEntity
  8
0
100
AcDbCircle
 10
9191.506896181543
 20
797.0796200195023
 30
0.0
 40
76.0
100
AcDbArc
 50
10.6704539039088
 51
79.74026677108172
  0
ARC
  5
7D97
330
1F
100
AcDbEntity
  8
0
100
AcDbCircle
 10
9020.515632871175
 20
764.8618008579806
 30
0.0
 40
250.0
100
AcDbArc
 50
0.0
 51
10.6704539039088
  0
LINE
  5
7D98
102
{ACAD_REACTORS
330
7CF3
330
7CBE
330
8214
102
}
330
1F
100
AcDbEntity
  8
0
100
AcDbLine
 10
9270.515632871171
 20
629.8618008579783
 30
0.0
 11
9270.515632871175
 21
764.8618008579778
 31
0.0
  0
ARC
  5
7D99
330
1F
100
AcDbEntity
  8
0
100
AcDbCircle
 10
9020.515632871175
 20
629.8618008579801
 30
0.0
 40
250.0
100
AcDbArc
 50
349.3295460960911
 51
0.0
  0
ARC
  5
7D9A
330
1F
100
AcDbEntity
  8
0
100
AcDbCircle
 10
9160.515632871174
 20
768.8618008579783
 30
0.0
 40
250.0
100
AcDbArc
 50
270.0
 51
280.2597332289184
  0
ARC
  5
7D9B
330
1F
100
AcDbEntity
  8
0
100
AcDbCircle
 10
9191.506896181543
 20
597.6439816964589
 30
0.0
 40
76.0
100
AcDbArc
 50
280.2597332289184
 51
349.3295460960911
  0
LINE
  5
7D9C
102
{ACAD_REACTORS
330
7CF0
102
}
330
1F
100
AcDbEntity
  8
0
100
AcDbLine
 10
8980.515632871172
 20
518.8618008579806
 30
0.0
 11
9160.515632871174
 21
518.8618008579806
 31
0.0
  0
ARC
  5
7D9D
330
1F
100
AcDbEntity
  8
0
100
AcDbCircle
 10
8980.515632871174
 20
768.8618008579788
 30
0.0
 40
250.0
100
AcDbArc
 50
259.7402667710817
 51
270.0
  0
ARC
  5
7D9E
330
1F
100
AcDbEntity
  8
0
100
AcDbCircle
 10
8949.524369560807
 20
597.643981696458
 30
0.0
 40
76.0
100
AcDbArc
 50
190.6704539039088
 51
259.7402667710817
  0
ARC
  5
7D9F
102
{ACAD_REACTORS
330
7CDE
102
}
330
1F
100
AcDbEntity
  8
0
100
AcDbCircle
 10
9120.515632871173
 20
629.8618008579796
 30
0.0
 40
250.0
100
AcDbArc
 50
180.0
 51
190.6704539039088
  0
LINE
  5
7DA0
102
{ACAD_REACTORS
330
7CF3
330
7CAF
102
}
330
1F
100
AcDbEntity
  8
0
100
AcDbLine
 10
8870.515632871173
 20
629.8618008579796
 30
0.0
 11
8870.515632871173
 21
764.8618008579788
 31
0.0
  0
ARC
  5
7DA1
330
1F
100
AcDbEntity
  8
0
100
AcDbCircle
 10
9120.515632871173
 20
764.8618008579801
 30
0.0
 40
250.0
100
AcDbArc
 50
169.3295460960911
 51
180.0
  0
CIRCLE
  5
7DA2
330
1F
100
AcDbEntity
  8
0
100
AcDbCircle
 10
9131.703219918291
 20
697.0413585902745
 30
0.0
 40
45.0
  0
CIRCLE
  5
7DA3
330
1F
100
AcDbEntity
  8
0
100
AcDbCircle
 10
9131.703219918291
 20
697.0413585902745
 30
0.0
 40
54.0
  0
CIRCLE
  5
7DA4
330
1F
100
AcDbEntity
  8
0
100
AcDbCircle
 10
9131.703219918291
 20
697.0413585902745
 30
0.0
 40
59.0
  0
DIMENSION
  5
7DA5
102
{ACAD_XDICTIONARY
360
7DA6
102
}
102
{ACAD_REACTORS
330
7DA7
102
}
330
1F
100
AcDbEntity
  8
DIMJ
100
AcDbDimension
280
     0
  2
*D40
 10
9741.510458408175
 20
140.8618008579787
 30
0.0
 11
9718.510458408175
 21
340.8618008579803
 31
0.0
 70
    32
 71
     5
 42
400.0
 73
     0
 74
     0
 75
     0
  3
Standard
100
AcDbAlignedDimension
 13
9494.515632871173
 23
540.8618008579788
 33
0.0
 14
9494.515632871172
 24
140.8618008579788
 34
0.0
 50
90.0
100
AcDbRotatedDimension
  0
LINE
  5
7DA8
330
1F
100
AcDbEntity
  8
CEN
100
AcDbLine
 10
9240.76579783385
 20
340.8618008579783
 30
0.0
 11
9613.906352443912
 21
340.8618008579788
 31
0.0
  0
CIRCLE
  5
7DA9
102
{ACAD_REACTORS
330
8A6F
102
}
330
1F
100
AcDbEntity
  8
0
100
AcDbCircle
 10
9427.015632871171
 20
400.861800857979
 30
0.0
 40
59.0
  0
CIRCLE
  5
7DAA
330
1F
100
AcDbEntity
  8
0
100
AcDbCircle
 10
9427.015632871173
 20
400.8618008579794
 30
0.0
 40
54.0
  0
CIRCLE
  5
7DAB
330
1F
100
AcDbEntity
  8
0
100
AcDbCircle
 10
9427.015632871173
 20
400.8618008579794
 30
0.0
 40
45.0
  0
LINE
  5
7DAC
330
1F
100
AcDbEntity
  8
CEN
100
AcDbLine
 10
9427.015632871173
 20
552.7277778494804
 30
0.0
 11
9427.015632871173
 21
132.1348534636272
 31
0.0
  0
ARC
  5
7DAD
330
1F
100
AcDbEntity
  8
0
100
AcDbCircle
 10
9327.29781370965
 20
219.8705375476107
 30
0.0
 40
76.0
100
AcDbArc
 50
190.2597332289183
 51
259.3295460960911
  0
ARC
  5
7DAE
330
1F
100
AcDbEntity
  8
0
100
AcDbCircle
 10
9498.515632871171
 20
250.8618008579788
 30
0.0
 40
250.0
100
AcDbArc
 50
180.0
 51
190.2597332289183
  0
DIMENSION
  5
7DAF
330
1F
100
AcDbEntity
  8
DIMJ
100
AcDbDimension
280
     0
  2
*D1
 10
9248.515632871175
 20
25.51563107115544
 30
0.0
 11
9427.015632871173
 21
25.51563107115544
 31
0.0
 70
   160
 71
     5
 42
356.9999999999964
 73
     0
 74
     0
 75
     0
  3
Standard
100
AcDbAlignedDimension
 13
9605.515632871172
 23
250.8618008579779
 33
0.0
 14
9248.515632871175
 24
250.8618008579788
 34
0.0
 50
180.0
100
AcDbRotatedDimension
  0
ARC
  5
7DB0
102
{ACAD_REACTORS
330
7CD8
102
}
330
1F
100
AcDbEntity
  8
0
100
AcDbCircle
 10
9359.515632871172
 20
390.8618008579774
 30
0.0
 40
250.0
100
AcDbArc
 50
259.3295460960911
 51
270.0
  0
LINE
  5
7DB1
102
{ACAD_REACTORS
330
7DA7
330
7CB2
102
}
330
1F
100
AcDbEntity
  8
0
100
AcDbLine
 10
9359.51563287117
 20
140.8618008579788
 30
0.0
 11
9494.515632871172
 21
140.8618008579788
 31
0.0
  0
ARC
  5
7DB2
330
1F
100
AcDbEntity
  8
0
100
AcDbCircle
 10
9494.515632871173
 20
390.8618008579779
 30
0.0
 40
250.0
100
AcDbArc
 50
270.0
 51
280.6704539039088
  0
DIMENSION
  5
7DB3
102
{ACAD_XDICTIONARY
360
7DB4
102
}
102
{ACAD_REACTORS
330
7DB5
102
}
330
1F
100
AcDbEntity
  8
DIMJ
100
AcDbDimension
280
     0
  2
*D39
 10
9526.733452032695
 20
219.8705375476102
 30
0.0
 11
9510.336988776817
 21
236.3029202823427
 31
0.0
 70
   164
  1
4-R76
 71
     5
 42
76.00000000000273
 73
     0
 74
     0
 75
     0
  3
Standard
100
AcDbRadialDimension
 15
9580.41473585564
 25
166.0716549651561
 35
0.0
 40
0.0
1001
ACAD
1000
DSTYLE
1002
{
1070
   288
1070
     1
1002
}
  0
ARC
  5
7DB6
102
{ACAD_REACTORS
330
7DB5
102
}
330
1F
100
AcDbEntity
  8
0
100
AcDbCircle
 10
9526.733452032695
 20
219.8705375476093
 30
0.0
 40
76.0
100
AcDbArc
 50
280.6704539039088
 51
349.7402667710817
  0
ARC
  5
7DB7
330
1F
100
AcDbEntity
  8
0
100
AcDbCircle
 10
9355.515632871174
 20
250.8618008579792
 30
0.0
 40
250.0
100
AcDbArc
 50
349.7402667710817
 51
0.0
  0
LINE
  5
7DB8
102
{ACAD_REACTORS
330
7CA4
102
}
330
1F
100
AcDbEntity
  8
0
100
AcDbLine
 10
9605.515632871172
 20
430.8618008579783
 30
0.0
 11
9605.515632871172
 21
250.8618008579788
 31
0.0
  0
ARC
  5
7DB9
330
1F
100
AcDbEntity
  8
0
100
AcDbCircle
 10
9355.515632871174
 20
430.8618008579783
 30
0.0
 40
250.0
100
AcDbArc
 50
0.0
 51
10.25973322891831
  0
ARC
  5
7DBA
330
1F
100
AcDbEntity
  8
0
100
AcDbCircle
 10
9526.733452032695
 20
461.8530641683469
 30
0.0
 40
76.0
100
AcDbArc
 50
10.25973322891831
 51
79.32954609609115
  0
ARC
  5
7DBB
330
1F
100
AcDbEntity
  8
0
100
AcDbCircle
 10
9494.515632871172
 20
290.8618008579801
 30
0.0
 40
250.0
100
AcDbArc
 50
79.32954609609115
 51
89.99999999999998
  0
LINE
  5
7DBC
102
{ACAD_REACTORS
330
7DA7
330
7CC1
330
8A6F
102
}
330
1F
100
AcDbEntity
  8
0
100
AcDbLine
 10
9359.51563287117
 20
540.8618008579801
 30
0.0
 11
9494.515632871173
 21
540.8618008579788
 31
0.0
  0
ARC
  5
7DBD
330
1F
100
AcDbEntity
  8
0
100
AcDbCircle
 10
9359.515632871172
 20
290.8618008579797
 30
0.0
 40
250.0
100
AcDbArc
 50
89.99999999999998
 51
100.6704539039088
  0
ARC
  5
7DBE
330
1F
100
AcDbEntity
  8
0
100
AcDbCircle
 10
9327.29781370965
 20
461.8530641683483
 30
0.0
 40
76.0
100
AcDbArc
 50
100.6704539039088
 51
169.7402667710816
  0
ARC
  5
7DBF
102
{ACAD_REACTORS
330
7CDB
102
}
330
1F
100
AcDbEntity
  8
0
100
AcDbCircle
 10
9498.515632871171
 20
430.8618008579787
 30
0.0
 40
250.0
100
AcDbArc
 50
169.7402667710816
 51
180.0
  0
LINE
  5
7DC0
330
1F
100
AcDbEntity
  8
0
100
AcDbLine
 10
9248.515632871175
 20
430.8618008579787
 30
0.0
 11
9248.515632871175
 21
250.8618008579788
 31
0.0
  0
LINE
  5
7DC1
330
1F
100
AcDbEntity
  8
0
100
AcDbLine
 10
9616.329341370159
 20
520.9353939867865
 30
0.0
 11
9250.589225999982
 21
886.6755093569636
 31
0.0
  0
ARC
  5
7DC2
330
1F
100
AcDbEntity
  8
0
100
AcDbCircle
 10
9198.015632871173
 20
468.3618008579787
 30
0.0
 40
38.0
100
AcDbArc
 50
0.0
 51
89.99999999999998
  0
LINE
  5
7DC3
102
{ACAD_REACTORS
330
7CA7
102
}
330
1F
100
AcDbEntity
  8
0
100
AcDbLine
 10
9236.01563287117
 20
141.3618008579797
 30
0.0
 11
9236.01563287117
 21
468.3618008579797
 31
0.0
  0
ARC
  5
7DC4
330
1F
100
AcDbEntity
  8
0
100
AcDbCircle
 10
9249.015632871174
 20
141.3618008579806
 30
0.0
 40
13.0
100
AcDbArc
 50
180.0000000000001
 51
270.0
  0
LINE
  5
7DC5
330
1F
100
AcDbEntity
  8
0
100
AcDbLine
 10
9605.015632871173
 20
128.3618008579788
 30
0.0
 11
9249.01563287117
 21
128.3618008579779
 31
0.0
  0
ARC
  5
7DC6
330
1F
100
AcDbEntity
  8
0
100
AcDbCircle
 10
9605.015632871175
 20
141.3618008579801
 30
0.0
 40
13.0
100
AcDbArc
 50
270.0
 51
0.0
  0
LINE
  5
7DC7
102
{ACAD_REACTORS
330
7CA7
102
}
330
1F
100
AcDbEntity
  8
0
100
AcDbLine
 10
9618.015632871172
 20
141.3618008579778
 30
0.0
 11
9618.015632871173
 21
509.6216854877998
 31
0.0
  0
ARC
  5
7DC8
330
1F
100
AcDbEntity
  8
0
100
AcDbCircle
 10
9605.015632871175
 20
509.6216854878007
 30
0.0
 40
13.0
100
AcDbArc
 50
0.0
 51
44.99999999999997
  0
LINE
  5
7DC9
330
1F
100
AcDbEntity
  8
0
100
AcDbLine
 10
9279.208021026596
 20
853.8140736432264
 30
0.0
 11
9248.46790565642
 21
884.5541890134045
 31
0.0
  0
ARC
  5
7DCA
330
1F
100
AcDbEntity
  8
0
100
AcDbCircle
 10
9239.275517500995
 20
875.3618008579783
 30
0.0
 40
13.0
100
AcDbArc
 50
44.99999999999982
 51
89.99999999999998
  0
LINE
  5
7DCB
102
{ACAD_REACTORS
330
7CAA
102
}
330
1F
100
AcDbEntity
  8
0
100
AcDbLine
 10
8871.01563287117
 20
888.3618008579787
 30
0.0
 11
9239.275517500995
 21
888.3618008579778
 31
0.0
  0
ARC
  5
7DCC
330
1F
100
AcDbEntity
  8
0
100
AcDbCircle
 10
8871.015632871175
 20
875.3618008579797
 30
0.0
 40
13.0
100
AcDbArc
 50
89.99999999999998
 51
180.0
  0
LINE
  5
7DCD
102
{ACAD_REACTORS
330
7CAA
102
}
330
1F
100
AcDbEntity
  8
0
100
AcDbLine
 10
8871.01563287117
 20
506.3618008579801
 30
0.0
 11
9198.015632871172
 21
506.3618008579797
 31
0.0
  0
LINE
  5
7DCE
330
1F
100
AcDbEntity
  8
0
100
AcDbLine
 10
8858.01563287117
 20
875.3618008579797
 30
0.0
 11
8858.015632871172
 21
519.3618008579797
 31
0.0
  0
ARC
  5
7DCF
330
1F
100
AcDbEntity
  8
0
100
AcDbCircle
 10
8871.015632871174
 20
519.3618008579792
 30
0.0
 40
13.0
100
AcDbArc
 50
180.0
 51
270.0
  0
ARC
  5
7DD0
330
1F
100
AcDbEntity
  8
0
100
AcDbCircle
 10
8871.015632871174
 20
519.3618008579792
 30
0.0
 40
18.0
100
AcDbArc
 50
180.0
 51
270.0
  0
LINE
  5
7DD1
330
1F
100
AcDbEntity
  8
0
100
AcDbLine
 10
8871.015632871174
 20
501.3618008579783
 30
0.0
 11
9198.015632871173
 21
501.3618008579796
 31
0.0
  0
ARC
  5
7DD2
330
1F
100
AcDbEntity
  8
0
100
AcDbCircle
 10
9198.015632871173
 20
468.3618008579787
 30
0.0
 40
33.0
100
AcDbArc
 50
0.0
 51
89.99999999999998
  0
LINE
  5
7DD3
330
1F
100
AcDbEntity
  8
0
100
AcDbLine
 10
9231.015632871171
 20
141.3618008579806
 30
0.0
 11
9231.015632871171
 21
468.3618008579806
 31
0.0
  0
ARC
  5
7DD4
330
1F
100
AcDbEntity
  8
0
100
AcDbCircle
 10
9249.015632871174
 20
141.3618008579806
 30
0.0
 40
18.0
100
AcDbArc
 50
180.0000000000001
 51
270.0
  0
LINE
  5
7DD5
330
1F
100
AcDbEntity
  8
0
100
AcDbLine
 10
9605.015632871173
 20
123.3618008579778
 30
0.0
 11
9249.01563287117
 21
123.3618008579788
 31
0.0
  0
ARC
  5
7DD6
330
1F
100
AcDbEntity
  8
0
100
AcDbCircle
 10
9605.015632871175
 20
141.3618008579801
 30
0.0
 40
18.0
100
AcDbArc
 50
270.0
 51
0.0
  0
LINE
  5
7DD7
330
1F
100
AcDbEntity
  8
0
100
AcDbLine
 10
9623.015632871174
 20
141.3618008579788
 30
0.0
 11
9623.015632871172
 21
509.6216854877998
 31
0.0
  0
ARC
  5
7DD8
330
1F
100
AcDbEntity
  8
0
100
AcDbCircle
 10
9605.015632871175
 20
509.6216854878007
 30
0.0
 40
18.0
100
AcDbArc
 50
0.0
 51
44.99999999999997
  0
LINE
  5
7DD9
330
1F
100
AcDbEntity
  8
0
100
AcDbLine
 10
9617.74355493253
 20
522.3496075491594
 30
0.0
 11
9252.003439562354
 21
888.0897229193369
 31
0.0
  0
ARC
  5
7DDA
330
1F
100
AcDbEntity
  8
0
100
AcDbCircle
 10
9239.275517500995
 20
875.3618008579783
 30
0.0
 40
18.0
100
AcDbArc
 50
44.99999999999982
 51
89.99999999999998
  0
LINE
  5
7DDB
330
1F
100
AcDbEntity
  8
0
100
AcDbLine
 10
8871.015632871175
 20
893.3618008579792
 30
0.0
 11
9239.275517500995
 21
893.3618008579779
 31
0.0
  0
LINE
  5
7DDC
330
1F
100
AcDbEntity
  8
0
100
AcDbLine
 10
8853.015632871175
 20
875.3618008579801
 30
0.0
 11
8853.015632871171
 21
519.3618008579797
 31
0.0
  0
ARC
  5
7DDD
330
1F
100
AcDbEntity
  8
0
100
AcDbCircle
 10
8871.015632871175
 20
875.3618008579797
 30
0.0
 40
18.0
100
AcDbArc
 50
89.99999999999998
 51
180.0
  0
ARC
  5
7DDE
330
1F
100
AcDbEntity
  8
0
100
AcDbCircle
 10
9249.015632871174
 20
141.3618008579806
 30
0.0
 40
33.0
100
AcDbArc
 50
180.0000000000001
 51
270.0
  0
LINE
  5
7DDF
330
1F
100
AcDbEntity
  8
0
100
AcDbLine
 10
9605.015632871173
 20
108.3618008579778
 30
0.0
 11
9249.01563287117
 21
108.3618008579787
 31
0.0
  0
ARC
  5
7DE0
330
1F
100
AcDbEntity
  8
0
100
AcDbCircle
 10
9605.015632871175
 20
141.3618008579801
 30
0.0
 40
33.0
100
AcDbArc
 50
270.0
 51
0.0
  0
LINE
  5
7DE1
330
1F
100
AcDbEntity
  8
0
100
AcDbLine
 10
9638.015632871175
 20
141.3618008579788
 30
0.0
 11
9638.015632871171
 21
509.6216854877998
 31
0.0
  0
ARC
  5
7DE2
330
1F
100
AcDbEntity
  8
0
100
AcDbCircle
 10
9605.015632871175
 20
509.6216854878007
 30
0.0
 40
33.0
100
AcDbArc
 50
0.0
 51
44.99999999999997
  0
ARC
  5
7DE3
330
1F
100
AcDbEntity
  8
0
100
AcDbCircle
 10
9239.275517500995
 20
875.3618008579783
 30
0.0
 40
33.0
100
AcDbArc
 50
44.99999999999982
 51
89.99999999999998
  0
LINE
  5
7DE4
330
1F
100
AcDbEntity
  8
0
100
AcDbLine
 10
9628.350156650329
 20
532.9562092669575
 30
0.0
 11
9262.610041280153
 21
898.6963246371351
 31
0.0
  0
LINE
  5
7DE5
330
1F
100
AcDbEntity
  8
0
100
AcDbLine
 10
9216.015632871171
 20
141.3618008579806
 30
0.0
 11
9216.015632871171
 21
468.3618008579806
 31
0.0
  0
ARC
  5
7DE6
330
1F
100
AcDbEntity
  8
0
100
AcDbCircle
 10
9198.015632871173
 20
468.3618008579787
 30
0.0
 40
18.0
100
AcDbArc
 50
0.0
 51
89.99999999999998
  0
LINE
  5
7DE7
330
1F
100
AcDbEntity
  8
0
100
AcDbLine
 10
8871.015632871174
 20
486.3618008579783
 30
0.0
 11
9198.015632871173
 21
486.3618008579792
 31
0.0
  0
ARC
  5
7DE8
330
1F
100
AcDbEntity
  8
0
100
AcDbCircle
 10
8871.015632871174
 20
519.3618008579792
 30
0.0
 40
33.0
100
AcDbArc
 50
180.0
 51
270.0
  0
LINE
  5
7DE9
330
1F
100
AcDbEntity
  8
0
100
AcDbLine
 10
8838.015632871174
 20
875.3618008579801
 30
0.0
 11
8838.015632871174
 21
519.3618008579792
 31
0.0
  0
LINE
  5
7DEA
330
1F
100
AcDbEntity
  8
0
100
AcDbLine
 10
8871.015632871175
 20
908.3618008579792
 30
0.0
 11
9239.275517500995
 21
908.3618008579778
 31
0.0
  0
ARC
  5
7DEB
330
1F
100
AcDbEntity
  8
0
100
AcDbCircle
 10
8871.015632871175
 20
875.3618008579797
 30
0.0
 40
33.0
100
AcDbArc
 50
89.99999999999998
 51
180.0
  0
LINE
  5
7DF3
102
{ACAD_REACTORS
330
7CCD
102
}
330
1F
100
AcDbEntity
  8
DIMJ
100
AcDbLine
 10
9643.015632871172
 20
525.3618008579776
 30
0.0
 11
9637.649324499715
 21
530.728109229437
 31
0.0
  0
DIMENSION
  5
7DFD
102
{ACAD_XDICTIONARY
360
7DFE
102
}
102
{ACAD_REACTORS
330
7DFF
102
}
330
1F
100
AcDbEntity
  8
DIMJ
100
AcDbDimension
280
     0
  2
*D38
 10
8554.408092060844
 20
1106.933378788769
 30
0.0
 11
8527.673036103141
 21
1076.842511620496
 31
0.0
 70
   164
  1
R6
 71
     5
 42
33.04799999999886
 73
     0
 74
     0
 75
     0
  3
Standard
100
AcDbRadialDimension
 15
8576.35830892684
 25
1131.638809032657
 35
0.0
 40
0.0
1001
ACAD
1000
DSTYLE
1002
{
1070
   279
1070
     1
1070
   288
1070
     1
1002
}
  0
DIMENSION
  5
7E00
102
{ACAD_XDICTIONARY
360
7E01
102
}
102
{ACAD_REACTORS
330
7E02
102
}
330
1F
100
AcDbEntity
  8
DIMJ
100
AcDbDimension
280
     0
  2
*D37
 10
8592.784272886557
 20
1165.868978788766
 30
0.0
 11
8569.784272886556
 21
1229.4514112212
 31
0.0
 70
    32
  1
5
 71
     5
 42
19.27799999999706
 73
     0
 74
     0
 75
     0
  3
Standard
100
AcDbAlignedDimension
 13
8587.582960144507
 23
1146.590978788769
 33
0.0
 14
8587.582960144507
 24
1165.868978788766
 34
0.0
 50
90.0
100
AcDbRotatedDimension
  0
DIMENSION
  5
7E03
102
{ACAD_XDICTIONARY
360
7E04
102
}
102
{ACAD_REACTORS
330
7E05
102
}
330
1F
100
AcDbEntity
  8
DIMJ
100
AcDbDimension
280
     0
  2
*D36
 10
8420.319200422815
 20
1241.095635101715
 30
0.0
 11
8406.549200422814
 21
1264.095635101715
 31
0.0
 70
    32
  1
5
 71
     5
 42
27.53999999999905
 73
     0
 74
     0
 75
     0
  3
Standard
100
AcDbAlignedDimension
 13
8392.779200422816
 23
1165.868978788766
 33
0.0
 14
8420.319200422815
 24
1146.590978788769
 34
0.0
100
AcDbRotatedDimension
  0
DIMENSION
  5
7E06
102
{ACAD_XDICTIONARY
360
7E07
102
}
102
{ACAD_REACTORS
330
7E08
102
}
330
1F
100
AcDbEntity
  8
DIMJ
100
AcDbDimension
280
     0
  2
*D35
 10
8392.779200422816
 20
1289.010762165234
 30
0.0
 11
8351.469200422817
 21
1312.010762165234
 31
0.0
 70
    32
  1
20
 71
     5
 42
82.6200000000008
 73
     0
 74
     0
 75
     0
  3
Standard
100
AcDbAlignedDimension
 13
8310.159200422814
 23
1146.590978788769
 33
0.0
 14
8392.779200422816
 24
1165.868978788766
 34
0.0
100
AcDbRotatedDimension
  0
DIMENSION
  5
7E09
102
{ACAD_XDICTIONARY
360
7E0A
102
}
102
{ACAD_REACTORS
330
7E0B
102
}
330
1F
100
AcDbEntity
  8
DIMJ
100
AcDbDimension
280
     0
  2
*D34
 10
8332.191200422812
 20
1219.661391770823
 30
0.0
 11
8321.175200422814
 21
1219.661391770823
 31
0.0
 70
   160
  1
5
 71
     5
 42
22.03199999999743
 73
     0
 74
     0
 75
     0
  3
Standard
100
AcDbAlignedDimension
 13
8310.159200422814
 23
1146.590978788769
 33
0.0
 14
8332.191200422812
 24
1165.868978788766
 34
0.0
100
AcDbRotatedDimension
  0
DIMENSION
  5
7E0C
102
{ACAD_XDICTIONARY
360
7E0D
102
}
102
{ACAD_REACTORS
330
7E0E
102
}
330
1F
100
AcDbEntity
  8
DIMJ
100
AcDbDimension
280
     0
  2
*D33
 10
8242.428004395499
 20
1144.1038633281
 30
0.0
 11
8219.428004395499
 21
1080.52143089567
 31
0.0
 70
    32
  1
5
 71
     5
 42
21.76511546066558
 73
     0
 74
     0
 75
     0
  3
Standard
100
AcDbAlignedDimension
 13
8332.191200422812
 23
1165.868978788766
 33
0.0
 14
8312.3354264509
 24
1144.1038633281
 34
0.0
 50
90.0
100
AcDbRotatedDimension
  0
HATCH
  5
7E0F
330
1F
100
AcDbEntity
  8
Layer4
100
AcDbHatch
 10
0.0
 20
0.0
 30
0.0
210
0.0
220
0.0
230
1.0
  2
ANSI31
 70
     0
 71
     0
 91
        1
 92
        7
 72
     1
 73
     1
 93
       14
 10
8420.319200422815
 20
1146.590978788769
 42
0.0
 10
8392.779200422816
 20
1165.868978788766
 42
0.0
 10
8332.191200422812
 20
1165.868978788766
 42
0.0
 10
8310.159200422814
 20
1146.590978788768
 42
0.0
 10
8314.511652478984
 20
1141.616747867431
 42
0.0
 10
8334.674659246227
 20
1159.259378788768
 42
0.0
 10
8390.695707565987
 20
1159.259378788768
 42
0.0
 10
8418.235707565989
 20
1139.981378788768
 42
0.0
 10
8554.408092060841
 20
1139.981378788768
 42
-0.391392455463089
 10
8587.354216106055
 20
1109.526294984382
 42
0.0
 10
8592.561947322762
 20
1043.355795933913
 42
0.0159626655646153
 10
8598.419817679451
 20
1053.167118579326
 42
0.0
 10
8593.943440915095
 20
1110.044878223504
 42
0.3913924554630872
 10
8554.408092060841
 20
1146.590978788769
 42
0.0
 97
        0
 75
     0
 76
     1
 52
0.0
 41
65.0
 77
     0
 78
     1
 53
45.0
 43
5294.766960199258
 44
167.4619258882876
 45
-5.745242597140697
 46
5.745242597140698
 79
     0
 47
0.6597760036053291
 98
        1
 10
8475.799449700868
 20
1144.511807956652
  0
MTEXT
  5
7E11
330
1F
100
AcDbEntity
  8
DIMJ
100
AcDbMText
 10
8609.198406356069
 20
-79.93485869943166
 30
0.0
 40
32.0
 41
283.0119414294459
 46
0.0
 71
     1
 72
     5
  1
{\fArial|b0|i0|c0|p32;A-A}
 73
     1
 44
1.0
  0
DIMENSION
  5
7E12
102
{ACAD_XDICTIONARY
360
7E13
102
}
102
{ACAD_REACTORS
330
7E14
102
}
330
1F
100
AcDbEntity
  8
DIMJ
100
AcDbDimension
280
     0
  2
*D32
 10
8875.946396795999
 20
-287.6818061008113
 30
0.0
 11
8957.37882922843
 21
-264.6818061008113
 31
0.0
 70
    32
  1
2.5
 71
     5
 42
13.75
 73
     0
 74
     0
 75
     0
  3
Standard
100
AcDbAlignedDimension
 13
8862.196396795999
 23
-395.678760761714
 33
0.0
 14
8875.946396795999
 24
-412.178760761714
 34
0.0
100
AcDbRotatedDimension
  0
DIMENSION
  5
7E15
102
{ACAD_XDICTIONARY
360
7E16
102
}
102
{ACAD_REACTORS
330
7E17
102
}
330
1F
100
AcDbEntity
  8
DIMJ
100
AcDbDimension
280
     0
  2
*D31
 10
8862.196396795999
 20
-204.1361293291653
 30
0.0
 11
8669.696396795998
 21
-181.1361293291653
 31
0.0
 70
    32
  1
70
 71
     5
 42
385.0
 73
     0
 74
     0
 75
     0
  3
Standard
100
AcDbAlignedDimension
 13
8477.196396795999
 23
-395.678760761714
 33
0.0
 14
8862.196396795999
 24
-395.678760761714
 34
0.0
100
AcDbRotatedDimension
  0
DIMENSION
  5
7E18
102
{ACAD_XDICTIONARY
360
7E19
102
}
102
{ACAD_REACTORS
330
7E1A
102
}
330
1F
100
AcDbEntity
  8
DIMJ
100
AcDbDimension
280
     0
  2
*D30
 10
8774.196396795998
 20
-273.8757036423
 30
0.0
 11
8669.696396795997
 21
-250.8757036423
 31
0.0
 70
    32
  1
Φ38
 71
     5
 42
209.0000000000018
 73
     0
 74
     0
 75
     0
  3
Standard
100
AcDbAlignedDimension
 13
8565.196396795997
 23
-395.678760761714
 33
0.0
 14
8774.196396795998
 24
-395.6787607617141
 34
0.0
100
AcDbRotatedDimension
1001
AcadStringInfo
1000
MIFCodePage
1070
     5
  0
DIMENSION
  5
7E1B
102
{ACAD_XDICTIONARY
360
7E1C
102
}
102
{ACAD_REACTORS
330
7E1D
102
}
330
1F
100
AcDbEntity
  8
DIMJ
100
AcDbDimension
280
     0
  2
*D29
 10
8920.042527596418
 20
-412.178760761714
 30
0.0
 11
8897.042527596417
 21
-475.692274275226
 31
0.0
 70
    32
  1
3
 71
     5
 42
16.5
 73
     0
 74
     0
 75
     0
  3
Standard
100
AcDbAlignedDimension
 13
8929.145712505563
 23
-395.678760761714
 33
0.0
 14
8958.600595341939
 24
-412.178760761714
 34
0.0
 50
90.0
100
AcDbRotatedDimension
  0
DIMENSION
  5
7E1E
102
{ACAD_XDICTIONARY
360
7E1F
102
}
102
{ACAD_REACTORS
330
7E20
102
}
330
1F
100
AcDbEntity
  8
DIMJ
100
AcDbDimension
280
     0
  2
*D28
 10
9003.932927483775
 20
-384.678760761714
 30
0.0
 11
8980.932927483776
 21
-320.8206526536045
 31
0.0
 70
    32
  1
2
 71
     5
 42
11.0
 73
     0
 74
     0
 75
     0
  3
Standard
100
AcDbAlignedDimension
 13
8929.145712505563
 23
-395.678760761714
 33
0.0
 14
8948.966092234719
 24
-384.678760761714
 34
0.0
 50
90.0
100
AcDbRotatedDimension
  0
DIMENSION
  5
7E21
102
{ACAD_XDICTIONARY
360
7E22
102
}
102
{ACAD_REACTORS
330
7E23
102
}
330
1F
100
AcDbEntity
  8
DIMJ
100
AcDbDimension
280
     0
  2
*D27
 10
8477.196396795999
 20
-303.8881595157824
 30
0.0
 11
8541.054504904106
 21
-280.8881595157824
 31
0.0
 70
    32
  1
2
 71
     5
 42
11.0
 73
     0
 74
     0
 75
     0
  3
Standard
100
AcDbAlignedDimension
 13
8466.196396795998
 23
-384.678760761714
 33
0.0
 14
8477.196396795999
 24
-395.678760761714
 34
0.0
100
AcDbRotatedDimension
  0
DIMENSION
  5
7E24
102
{ACAD_XDICTIONARY
360
7E25
102
}
102
{ACAD_REACTORS
330
7E26
102
}
330
1F
100
AcDbEntity
  8
DIMJ
100
AcDbDimension
280
     0
  2
*D10
 10
8383.696396795999
 20
-273.8757036423
 30
0.0
 11
8424.946396795998
 21
-250.8757036423
 31
0.0
 70
    32
  1
15
 71
     5
 42
82.5
 73
     0
 74
     0
 75
     0
  3
Standard
100
AcDbAlignedDimension
 13
8466.196396795998
 23
-384.678760761714
 33
0.0
 14
8383.696396795999
 24
-384.678760761714
 34
0.0
100
AcDbRotatedDimension
  0
DIMENSION
  5
7E27
102
{ACAD_XDICTIONARY
360
7E28
102
}
102
{ACAD_REACTORS
330
7E29
102
}
330
1F
100
AcDbEntity
  8
DIMJ
100
AcDbDimension
280
     0
  2
*D9
 10
8383.696396795999
 20
-325.2067749984441
 30
0.0
 11
8369.946396795999
 21
-302.2067749984441
 31
0.0
 70
    32
  1
5
 71
     5
 42
27.5
 73
     0
 74
     0
 75
     0
  3
Standard
100
AcDbAlignedDimension
 13
8356.196396795999
 23
-412.178760761714
 33
0.0
 14
8383.696396795999
 24
-384.678760761714
 34
0.0
100
AcDbRotatedDimension
  0
DIMENSION
  5
7E2A
102
{ACAD_XDICTIONARY
360
7E2B
102
}
102
{ACAD_REACTORS
330
7E2C
102
}
330
1F
100
AcDbEntity
  8
DIMJ
100
AcDbDimension
280
     0
  2
*D8
 10
8282.82041788217
 20
-414.5122131396295
 30
0.0
 11
8259.820417882171
 21
-399.5954869506704
 31
0.0
 70
    32
  1
5
 71
     5
 42
29.83345237791559
 73
     0
 74
     0
 75
     0
  3
Standard
100
AcDbAlignedDimension
 13
8383.696396795999
 23
-384.678760761714
 33
0.0
 14
8358.529849173917
 24
-414.5122131396296
 34
0.0
 50
90.0
100
AcDbRotatedDimension
  0
HATCH
  5
7E2E
330
1F
100
AcDbEntity
  8
Layer4
100
AcDbHatch
 10
0.0
 20
0.0
 30
0.0
210
0.0
220
0.0
230
1.0
  2
ANSI31
 70
     0
 71
     0
 91
        2
 92
        7
 72
     0
 73
     1
 93
       10
 10
8466.196396795998
 20
-384.678760761714
 10
8383.696396795999
 20
-384.678760761714
 10
8356.196396795999
 20
-412.1787607617143
 10
8360.863301551832
 20
-416.8456655175451
 10
8386.430206307659
 20
-391.2787607617143
 10
8463.462587284336
 20
-391.2787607617143
 10
8474.462587284335
 20
-402.2787607617142
 10
8565.196396795998
 20
-402.2787607617142
 10
8565.196396795995
 20
-395.678760761714
 10
8477.196396796001
 20
-395.678760761714
 97
        0
 92
        7
 72
     0
 73
     1
 93
        8
 10
8862.196396795999
 20
-395.678760761714
 10
8774.196396795998
 20
-395.6787607617141
 10
8774.196396795998
 20
-402.2787607617142
 10
8859.105122152499
 20
-402.2787607617142
 10
8872.855122152499
 20
-418.7787607617149
 10
8954.487087244613
 20
-418.7787607617142
 10
8954.487087244613
 20
-412.178760761714
 10
8875.946396795999
 20
-412.178760761714
 97
        0
 75
     0
 76
     1
 52
0.0
 41
60.0
 77
     0
 78
     1
 53
45.0
 43
5349.397066855696
 44
-288.0104320565175
 45
-5.303300858899105
 46
5.303300858899106
 79
     0
 47
0.8082324571300475
 98
        2
 10
8421.851352374094
 20
-387.9287234778627
 10
8819.724081881558
 20
-400.0522003302563
  0
LINE
  5
7E2F
102
{ACAD_REACTORS
330
7E1A
102
}
330
1F
100
AcDbEntity
  8
0
100
AcDbLine
 10
8774.196396795998
 20
-395.6787607617141
 30
0.0
 11
8774.196396795998
 21
-402.2787607617142
 31
0.0
  0
LINE
  5
7E30
102
{ACAD_REACTORS
330
7E1A
102
}
330
1F
100
AcDbEntity
  8
0
100
AcDbLine
 10
8565.196396795997
 20
-395.6787607617141
 30
0.0
 11
8565.196396795998
 21
-402.2787607617142
 31
0.0
  0
LINE
  5
7E31
330
1F
100
AcDbEntity
  8
CEN
100
AcDbLine
 10
8669.696396795998
 20
-371.0621922909837
 30
0.0
 11
8669.696396795998
 21
-417.0198200220644
 31
0.0
  0
LINE
  5
7E32
102
{ACAD_REACTORS
330
7E20
330
7E1D
330
7E14
102
}
330
1F
100
AcDbEntity
  8
0
100
AcDbLine
 10
8862.196396795999
 20
-395.678760761714
 30
0.0
 11
8929.145712505563
 21
-395.678760761714
 31
0.0
  0
LINE
  5
7E33
102
{ACAD_REACTORS
330
7E20
102
}
330
1F
100
AcDbEntity
  8
0
100
AcDbLine
 10
8466.196396795998
 20
-384.678760761714
 30
0.0
 11
8948.966092234719
 21
-384.678760761714
 31
0.0
  0
LINE
  5
7E39
330
1F
100
AcDbEntity
  8
0
100
AcDbLine
 10
8362.685183406107
 20
1159.259378788768
 30
0.0
 11
8382.347253773163
 21
1159.259378788768
 31
0.0
  0
LINE
  5
7E3B
102
{ACAD_REACTORS
330
92F3
102
}
330
1F
100
AcDbEntity
  8
0
100
AcDbLine
 10
8443.596396795998
 20
-397.8787607617144
 30
0.0
 11
8402.196396795996
 21
-397.8787607617144
 31
0.0
  0
LINE
  5
7E3E
102
{ACAD_REACTORS
330
92F3
102
}
330
1F
100
AcDbEntity
  8
0
100
AcDbLine
 10
8455.196396795997
 20
-402.8787607617144
 30
0.0
 11
8455.196396795997
 21
-478.1787607617157
 31
0.0
  0
LINE
  5
7E3F
330
1F
100
AcDbEntity
  8
0
100
AcDbLine
 10
8455.196396795997
 20
-412.178760761714
 30
0.0
 11
8455.196396795997
 21
-402.8787607617144
 31
0.0
  0
LINE
  5
7E40
102
{ACAD_REACTORS
330
7E2C
330
7E29
102
}
330
1F
100
AcDbEntity
  8
0
100
AcDbLine
 10
8356.196396795999
 20
-412.178760761714
 30
0.0
 11
8360.863301551832
 21
-416.8456655175451
 31
0.0
  0
LINE
  5
7E41
330
1F
100
AcDbEntity
  8
0
100
AcDbLine
 10
8872.855122152499
 20
-418.7787607617149
 30
0.0
 11
8958.600595341939
 21
-418.7787607617142
 31
0.0
  0
LINE
  5
7E42
330
1F
100
AcDbEntity
  8
0
100
AcDbLine
 10
8872.855122152499
 20
-418.7787607617149
 30
0.0
 11
8859.105122152499
 21
-402.2787607617142
 31
0.0
  0
LINE
  5
7E43
330
1F
100
AcDbEntity
  8
0
100
AcDbLine
 10
8474.462587284335
 20
-402.2787607617142
 30
0.0
 11
8859.105122152499
 21
-402.2787607617142
 31
0.0
  0
LINE
  5
7E44
330
1F
100
AcDbEntity
  8
0
100
AcDbLine
 10
8474.462587284335
 20
-402.2787607617142
 30
0.0
 11
8463.462587284336
 21
-391.2787607617143
 31
0.0
  0
LINE
  5
7E45
102
{ACAD_REACTORS
330
92F3
102
}
330
1F
100
AcDbEntity
  8
0
100
AcDbLine
 10
8386.430206307661
 20
-391.2787607617143
 30
0.0
 11
8463.462587284336
 21
-391.2787607617143
 31
0.0
  0
LINE
  5
7E46
330
1F
100
AcDbEntity
  8
0
100
AcDbLine
 10
8386.430206307661
 20
-391.2787607617143
 30
0.0
 11
8360.863301551832
 21
-416.8456655175451
 31
0.0
  0
LINE
  5
7E47
102
{ACAD_REACTORS
330
7E2C
330
7E29
330
7E26
102
}
330
1F
100
AcDbEntity
  8
0
100
AcDbLine
 10
8383.696396795999
 20
-384.678760761714
 30
0.0
 11
8356.196396795999
 21
-412.178760761714
 31
0.0
  0
LINE
  5
7E48
102
{ACAD_REACTORS
330
7E26
330
7E23
330
7E17
102
}
330
1F
100
AcDbEntity
  8
0
100
AcDbLine
 10
8477.196396795999
 20
-395.678760761714
 30
0.0
 11
8466.196396795998
 21
-384.678760761714
 31
0.0
  0
LINE
  5
7E49
102
{ACAD_REACTORS
330
7E17
330
7E14
102
}
330
1F
100
AcDbEntity
  8
0
100
AcDbLine
 10
8875.946396795999
 20
-412.178760761714
 30
0.0
 11
8862.196396795999
 21
-395.678760761714
 31
0.0
  0
LINE
  5
7E4A
102
{ACAD_REACTORS
330
7E1D
102
}
330
1F
100
AcDbEntity
  8
0
100
AcDbLine
 10
8875.946396795999
 20
-412.178760761714
 30
0.0
 11
8958.600595341939
 21
-412.178760761714
 31
0.0
  0
LINE
  5
7E4B
102
{ACAD_REACTORS
330
7E23
330
7E1A
102
}
330
1F
100
AcDbEntity
  8
0
100
AcDbLine
 10
8477.196396795999
 20
-395.678760761714
 30
0.0
 11
8862.196396795999
 21
-395.678760761714
 31
0.0
  0
LINE
  5
7E4C
330
1F
100
AcDbEntity
  8
0
100
AcDbLine
 10
8383.696396795999
 20
-384.678760761714
 30
0.0
 11
8466.196396795998
 21
-384.678760761714
 31
0.0
  0
CIRCLE
  5
7E4D
330
1F
100
AcDbEntity
  8
CEN
100
AcDbCircle
 10
8441.869568206172
 20
1139.981378788768
 30
0.0
 40
179.0103248023945
  0
LINE
  5
7E4E
102
{ACAD_REACTORS
330
7E02
102
}
330
1F
100
AcDbEntity
  8
0
100
AcDbLine
 10
8620.757828228171
 20
1146.590978788769
 30
0.0
 11
8554.408092060841
 21
1146.590978788769
 31
0.0
  0
LINE
  5
7E4F
330
1F
100
AcDbEntity
  8
0
100
AcDbLine
 10
8592.561947322762
 20
1043.355795933913
 30
0.0
 11
8587.354216106055
 21
1109.526294984382
 31
0.0
  0
LINE
  5
7E50
330
1F
100
AcDbEntity
  8
0
100
AcDbLine
 10
8598.419817679451
 20
1053.167118579327
 30
0.0
 11
8593.943440915095
 21
1110.044878223505
 31
0.0
  0
ARC
  5
7E51
102
{ACAD_REACTORS
330
7DFF
102
}
330
1F
100
AcDbEntity
  8
0
100
AcDbCircle
 10
8554.408092060841
 20
1106.933378788768
 30
0.0
 40
33.048
100
AcDbArc
 50
4.500000000000032
 51
90.0
  0
ARC
  5
7E52
330
1F
100
AcDbEntity
  8
0
100
AcDbCircle
 10
8554.408092060841
 20
1106.933378788768
 30
0.0
 40
39.65760000000001
100
AcDbArc
 50
4.500000000000032
 51
90.0
  0
LINE
  5
7E53
102
{ACAD_REACTORS
330
7E0E
330
7E0B
330
7E02
102
}
330
1F
100
AcDbEntity
  8
0
100
AcDbLine
 10
8332.191200422814
 20
1165.868978788766
 30
0.0
 11
8618.998133243263
 21
1165.868978788766
 31
0.0
  0
LINE
  5
7E54
330
1F
100
AcDbEntity
  8
0
100
AcDbLine
 10
8390.695707565988
 20
1159.259378788768
 30
0.0
 11
8334.674659246227
 21
1159.259378788768
 31
0.0
  0
LINE
  5
7E55
330
1F
100
AcDbEntity
  8
0
100
AcDbLine
 10
8334.674659246227
 20
1159.259378788768
 30
0.0
 11
8314.511652478989
 21
1141.616747867432
 31
0.0
  0
LINE
  5
7E56
102
{ACAD_REACTORS
330
7E0E
330
7E0B
330
7E08
102
}
330
1F
100
AcDbEntity
  8
0
100
AcDbLine
 10
8332.191200422814
 20
1165.868978788769
 30
0.0
 11
8310.159200422814
 21
1146.590978788769
 31
0.0
  0
LINE
  5
7E57
102
{ACAD_REACTORS
330
7E0E
102
}
330
1F
100
AcDbEntity
  8
0
100
AcDbLine
 10
8310.159200422814
 20
1146.590978788769
 30
0.0
 11
8314.511652478984
 21
1141.616747867432
 31
0.0
  0
LINE
  5
7E58
102
{ACAD_REACTORS
330
7E08
330
7E05
102
}
330
1F
100
AcDbEntity
  8
0
100
AcDbLine
 10
8420.319200422815
 20
1165.868978788766
 30
0.0
 11
8392.779200422816
 21
1165.868978788766
 31
0.0
  0
LINE
  5
7E59
102
{ACAD_REACTORS
330
7E05
102
}
330
1F
100
AcDbEntity
  8
0
100
AcDbLine
 10
8392.779200422816
 20
1165.868978788766
 30
0.0
 11
8420.319200422815
 21
1146.590978788769
 31
0.0
  0
LINE
  5
7E5A
330
1F
100
AcDbEntity
  8
0
100
AcDbLine
 10
8390.695707565988
 20
1159.259378788768
 30
0.0
 11
8418.235707565989
 21
1139.981378788768
 31
0.0
  0
LINE
  5
7E5B
330
1F
100
AcDbEntity
  8
0
100
AcDbLine
 10
8420.319200422815
 20
1146.590978788769
 30
0.0
 11
8554.408092060841
 21
1146.590978788769
 31
0.0
  0
LINE
  5
7E5C
330
1F
100
AcDbEntity
  8
0
100
AcDbLine
 10
8418.235707565989
 20
1139.981378788768
 30
0.0
 11
8554.408092060841
 21
1139.981378788768
 31
0.0
  0
LINE
  5
7E5D
330
1F
100
AcDbEntity
  8
CEN
100
AcDbLine
 10
9686.638195493108
 20
-288.1821785245725
 30
0.0
 11
9686.638195493108
 21
-189.1971868669584
 31
0.0
  0
DIMENSION
  5
7E61
102
{ACAD_XDICTIONARY
360
7E62
102
}
102
{ACAD_REACTORS
330
7E63
102
}
330
1F
100
AcDbEntity
  8
DIMJ
100
AcDbDimension
280
     0
  2
*D7
 10
9300.253385355274
 20
-245.1976696076947
 30
0.0
 11
9277.253385355274
 21
-308.7801020401256
 31
0.0
 70
    32
  1
5
 71
     5
 42
18.36000000000001
 73
     0
 74
     0
 75
     0
  3
Standard
100
AcDbAlignedDimension
 13
9468.154195493104
 23
-226.8376696076948
 33
0.0
 14
9514.054195493107
 24
-245.1976696076948
 34
0.0
 50
90.0
100
AcDbRotatedDimension
  0
DIMENSION
  5
7E64
102
{ACAD_XDICTIONARY
360
7E65
102
}
102
{ACAD_REACTORS
330
7E66
102
}
330
1F
100
AcDbEntity
  8
DIMJ
100
AcDbDimension
280
     0
  2
*D6
 10
9355.196260694468
 20
-226.8376696076947
 30
0.0
 11
9332.19626069447
 21
-163.3241560941797
 31
0.0
 70
    32
  1
3
 71
     5
 42
11.01599999999996
 73
     0
 74
     0
 75
     0
  3
Standard
100
AcDbAlignedDimension
 13
9477.334195493105
 23
-237.8536696076947
 33
0.0
 14
9468.154195493104
 24
-226.8376696076948
 34
0.0
 50
90.0
100
AcDbRotatedDimension
  0
HATCH
  5
7E69
330
1F
100
AcDbEntity
  8
DIMJ
100
AcDbHatch
 10
0.0
 20
0.0
 30
0.0
210
0.0
220
0.0
230
1.0
  2
ANSI31
 70
     0
 71
     0
 91
        2
 92
        5
 93
        8
 72
     4
 94
        3
 73
     0
 74
     0
 95
        8
 96
        4
 40
40.14526522736008
 40
40.14526522736008
 40
40.14526522736008
 40
40.14526522736008
 40
46.49886723905928
 40
46.49886723905928
 40
46.49886723905928
 40
46.49886723905928
 10
9398.415861922876
 20
-221.9610902708752
 10
9397.207807045637
 20
-223.3106964297031
 10
9395.951356874444
 20
-224.7025481369385
 10
9394.876473096251
 20
-226.1307520737056
 97
        0
 72
     1
 10
9394.876473096251
 20
-226.1307520737056
 11
9465.97216261175
 21
-231.1022469844504
 72
     1
 10
9465.97216261175
 20
-231.1022469844504
 11
9474.94484257567
 21
-241.8694629411449
 72
     1
 10
9474.944842575666
 20
-241.8694629411449
 11
9513.190029355234
 21
-249.5185002970589
 72
     1
 10
9513.190029355234
 20
-249.5185002970589
 11
9514.054195493107
 21
-245.1976696076947
 72
     1
 10
9514.054195493107
 20
-245.1976696076946
 11
9477.334195493106
 21
-237.8536696076948
 72
     1
 10
9477.334195493106
 20
-237.8536696076948
 11
9468.154195493108
 21
-226.8376696076948
 72
     1
 10
9468.154195493109
 20
-226.8376696076948
 11
9398.415861922877
 21
-221.9610902708752
 97
        0
 92
        5
 93
        8
 72
     4
 94
        3
 73
     0
 74
     0
 95
        8
 96
        4
 40
40.14526522735984
 40
40.14526522735984
 40
40.14526522735984
 40
40.14526522735984
 40
46.49886723905887
 40
46.49886723905887
 40
46.49886723905887
 40
46.49886723905887
 10
9978.399917889964
 20
-226.1307520737055
 10
9977.325034111769
 20
-224.7025481369385
 10
9976.068583940573
 20
-223.3106964297031
 10
9974.860529063336
 20
-221.9610902708752
 97
        0
 72
     1
 10
9974.860529063336
 20
-221.9610902708752
 11
9905.122195493106
 21
-226.8376696076948
 72
     1
 10
9905.122195493106
 20
-226.8376696076947
 11
9895.942195493105
 21
-237.8536696076948
 72
     1
 10
9895.942195493107
 20
-237.8536696076948
 11
9859.22219549311
 21
-245.1976696076948
 72
     1
 10
9859.222195493106
 20
-245.1976696076948
 11
9860.08636163098
 21
-249.5185002970593
 72
     1
 10
9860.08636163098
 20
-249.5185002970593
 11
9898.331548410547
 21
-241.8694629411451
 72
     1
 10
9898.331548410547
 20
-241.8694629411451
 11
9907.304228374458
 21
-231.1022469844504
 72
     1
 10
9907.30422837446
 20
-231.1022469844504
 11
9978.399917889966
 21
-226.1307520737056
 97
        0
 75
     0
 76
     1
 52
0.0
 41
38.25
 77
     0
 78
     1
 53
45.0
 43
6658.991296256481
 44
-96.3238105018998
 45
-3.380854297548179
 46
3.38085429754818
 79
     0
 47
1.078799378480179
 98
        2
 10
9439.444928121798
 20
-226.6474545246869
 10
9947.324229624843
 20
-226.6474545246869
  0
DIMENSION
  5
7E6A
102
{ACAD_XDICTIONARY
360
7E6B
102
}
102
{ACAD_REACTORS
330
7E6C
102
}
330
1F
100
AcDbEntity
  8
DIMJ
100
AcDbDimension
280
     0
  2
*D5
 10
9907.304228374462
 20
-406.4172313835707
 30
0.0
 11
9686.638195493106
 21
-383.4172313835708
 31
0.0
 70
    32
  1
Φ119
 71
     5
 42
441.3320657627118
 73
     0
 74
     0
 75
     0
  3
Standard
100
AcDbAlignedDimension
 13
9465.97216261175
 23
-231.1022469844504
 33
0.0
 14
9907.304228374462
 24
-231.1022469844504
 34
0.0
100
AcDbRotatedDimension
1001
AcadStringInfo
1000
MIFCodePage
1070
     5
  0
DIMENSION
  5
7E6D
102
{ACAD_XDICTIONARY
360
7E6E
102
}
102
{ACAD_REACTORS
330
7E6F
102
}
330
1F
100
AcDbEntity
  8
DIMJ
100
AcDbDimension
280
     0
  2
*D4
 10
9895.942195493107
 20
-154.3317345459918
 30
0.0
 11
9686.638195493106
 21
-131.3317345459918
 31
0.0
 70
    32
  1
Φ114
 71
     5
 42
418.608000000002
 73
     0
 74
     0
 75
     0
  3
Standard
100
AcDbAlignedDimension
 13
9477.334195493105
 23
-237.8536696076947
 33
0.0
 14
9895.942195493107
 24
-237.8536696076947
 34
0.0
100
AcDbRotatedDimension
1001
AcadStringInfo
1000
MIFCodePage
1070
     5
  0
DIMENSION
  5
7E70
102
{ACAD_XDICTIONARY
360
7E71
102
}
102
{ACAD_REACTORS
330
7E72
102
}
330
1F
100
AcDbEntity
  8
DIMJ
100
AcDbDimension
280
     0
  2
*D3
 10
9860.08636163098
 20
-338.6787184493551
 30
0.0
 11
9686.638195493108
 21
-315.6787184493552
 31
0.0
 70
    32
  1
Φ94
 71
     5
 42
346.8963322757445
 73
     0
 74
     0
 75
     0
  3
Standard
100
AcDbAlignedDimension
 13
9513.190029355234
 23
-249.518500297059
 33
0.0
 14
9860.08636163098
 24
-249.5185002970593
 34
0.0
100
AcDbRotatedDimension
1001
AcadStringInfo
1000
MIFCodePage
1070
     5
  0
LINE
  5
7E73
102
{ACAD_REACTORS
330
7E72
102
}
330
1F
100
AcDbEntity
  8
DIMJ
100
AcDbLine
 10
9859.22219549311
 20
-245.1976696076947
 30
0.0
 11
9860.08636163098
 21
-249.5185002970593
 31
0.0
  0
LINE
  5
7E74
102
{ACAD_REACTORS
330
7E72
102
}
330
1F
100
AcDbEntity
  8
DIMJ
100
AcDbLine
 10
9514.054195493107
 20
-245.1976696076947
 30
0.0
 11
9513.190029355234
 21
-249.5185002970588
 31
0.0
  0
SPLINE
  5
7E75
330
1F
100
AcDbEntity
  8
DIMJ
100
AcDbSpline
210
0.0
220
0.0
230
1.0
 70
  1064
 71
     3
 72
    10
 73
     6
 74
     4
 42
0.000000001
 43
0.0000000001
 44
0.0000000001
 40
0.0
 40
0.0
 40
0.0
 40
0.0
 40
21.35649496752687
 40
41.36973857272093
 40
53.62719101973736
 40
53.62719101973736
 40
53.62719101973736
 40
53.62719101973736
 10
9986.780440834497
 20
-200.7594125819113
 30
0.0
 10
9978.048144290355
 20
-204.8444223590008
 30
0.0
 10
9961.132783145188
 20
-212.7575086028888
 30
0.0
 10
9985.313184107283
 20
-228.0475305785757
 30
0.0
 10
9979.767870609581
 20
-238.5410070797712
 30
0.0
 10
9977.661581473709
 20
-242.5267683106165
 30
0.0
 11
9986.780440834497
 21
-200.7594125819113
 31
0.0
 11
9970.062601576094
 21
-214.0490223515098
 31
0.0
 11
9981.081131372308
 21
-230.7559646429878
 31
0.0
 11
9977.661581473709
 21
-242.5267683106165
 31
0.0
  0
SPLINE
  5
7E76
330
1F
100
AcDbEntity
  8
DIMJ
100
AcDbSpline
210
0.0
220
0.0
230
1.0
 70
  1064
 71
     3
 72
    10
 73
     6
 74
     4
 42
0.000000001
 43
0.0000000001
 44
0.0000000001
 40
0.0
 40
0.0
 40
0.0
 40
0.0
 40
21.35649496752543
 40
41.36973857271951
 40
53.62719101973644
 40
53.62719101973644
 40
53.62719101973644
 40
53.62719101973644
 10
9386.495950151719
 20
-201.3905057927221
 30
0.0
 10
9395.228246695863
 20
-205.4755155698117
 30
0.0
 10
9412.143607841031
 20
-213.3886018137001
 30
0.0
 10
9387.963206878925
 20
-228.6786237893867
 30
0.0
 10
9393.508520376633
 20
-239.1721002905821
 30
0.0
 10
9395.614809512506
 20
-243.1578615214273
 30
0.0
 11
9386.495950151719
 21
-201.3905057927221
 31
0.0
 11
9403.21378941012
 21
-214.6801155623206
 31
0.0
 11
9392.195259613904
 21
-231.3870578537986
 31
0.0
 11
9395.614809512506
 21
-243.1578615214273
 31
0.0
  0
LINE
  5
7E77
102
{ACAD_REACTORS
330
7E6C
102
}
330
1F
100
AcDbEntity
  8
0
100
AcDbLine
 10
9907.304228374462
 20
-231.1022469844504
 30
0.0
 11
9978.399917889962
 21
-226.1307520737057
 31
0.0
  0
LINE
  5
7E78
330
1F
100
AcDbEntity
  8
0
100
AcDbLine
 10
9898.331548410547
 20
-241.8694629411449
 30
0.0
 11
9907.304228374462
 21
-231.1022469844504
 31
0.0
  0
LINE
  5
7E79
330
1F
100
AcDbEntity
  8
0
100
AcDbLine
 10
9859.658515077805
 20
-249.6040696076948
 30
0.0
 11
9898.331548410553
 21
-241.8694629411445
 31
0.0
  0
LINE
  5
7E7A
330
1F
100
AcDbEntity
  8
0
100
AcDbLine
 10
9513.617875908414
 20
-249.6040696076948
 30
0.0
 11
9859.658515077805
 21
-249.6040696076948
 31
0.0
  0
LINE
  5
7E7B
102
{ACAD_REACTORS
330
7E72
102
}
330
1F
100
AcDbEntity
  8
0
100
AcDbLine
 10
9474.944842575666
 20
-241.869462941145
 30
0.0
 11
9513.617875908414
 21
-249.6040696076948
 31
0.0
  0
LINE
  5
7E7C
102
{ACAD_REACTORS
330
7E6C
102
}
330
1F
100
AcDbEntity
  8
0
100
AcDbLine
 10
9465.97216261175
 20
-231.1022469844504
 30
0.0
 11
9474.944842575666
 21
-241.869462941145
 31
0.0
  0
LINE
  5
7E7D
330
1F
100
AcDbEntity
  8
0
100
AcDbLine
 10
9465.97216261175
 20
-231.1022469844504
 30
0.0
 11
9394.876473096251
 21
-226.1307520737057
 31
0.0
  0
LINE
  5
7E7E
330
1F
100
AcDbEntity
  8
0
100
AcDbLine
 10
9905.122195493108
 20
-226.8376696076948
 30
0.0
 11
9974.86052906332
 21
-221.9610902708764
 31
0.0
  0
LINE
  5
7E7F
330
1F
100
AcDbEntity
  8
0
100
AcDbLine
 10
9468.154195493104
 20
-226.8376696076948
 30
0.0
 11
9398.415861922895
 21
-221.9610902708764
 31
0.0
  0
LINE
  5
7E80
102
{ACAD_REACTORS
330
7E6F
102
}
330
1F
100
AcDbEntity
  8
0
100
AcDbLine
 10
9895.942195493107
 20
-237.8536696076947
 30
0.0
 11
9905.122195493108
 21
-226.8376696076948
 31
0.0
  0
LINE
  5
7E81
330
1F
100
AcDbEntity
  8
0
100
AcDbLine
 10
9859.22219549311
 20
-245.1976696076947
 30
0.0
 11
9895.942195493107
 21
-237.8536696076947
 31
0.0
  0
LINE
  5
7E82
102
{ACAD_REACTORS
330
7E6F
102
}
330
1F
100
AcDbEntity
  8
0
100
AcDbLine
 10
9477.334195493105
 20
-237.8536696076947
 30
0.0
 11
9514.054195493107
 21
-245.1976696076947
 31
0.0
  0
LINE
  5
7E83
330
1F
100
AcDbEntity
  8
0
100
AcDbLine
 10
9468.154195493104
 20
-226.8376696076948
 30
0.0
 11
9477.334195493105
 21
-237.8536696076947
 31
0.0
  0
LINE
  5
7E84
102
{ACAD_REACTORS
330
7E66
330
7E63
102
}
330
1F
100
AcDbEntity
  8
0
100
AcDbLine
 10
9468.154195493104
 20
-226.8376696076948
 30
0.0
 11
9905.122195493108
 21
-226.8376696076948
 31
0.0
  0
LINE
  5
7E85
102
{ACAD_REACTORS
330
7E66
102
}
330
1F
100
AcDbEntity
  8
0
100
AcDbLine
 10
9477.334195493105
 20
-237.8536696076947
 30
0.0
 11
9895.942195493107
 21
-237.8536696076947
 31
0.0
  0
LINE
  5
7E86
102
{ACAD_REACTORS
330
7E63
102
}
330
1F
100
AcDbEntity
  8
0
100
AcDbLine
 10
9514.054195493107
 20
-245.1976696076947
 30
0.0
 11
9859.22219549311
 21
-245.1976696076947
 31
0.0
  0
LINE
  5
81A4
330
1F
100
AcDbEntity
  8
0
100
AcDbLine
 10
9208.110929027901
 20
1343.01292730589
 30
0.0
 11
9189.228320478431
 21
1341.858017491728
 31
0.0
  0
LINE
  5
81A5
330
1F
100
AcDbEntity
  8
0
100
AcDbLine
 10
9208.373566375543
 20
1342.027122207165
 30
0.0
 11
9190.054899509323
 21
1340.906704543963
 31
0.0
  0
ARC
  5
81A7
330
1F
100
AcDbEntity
  8
0
100
AcDbCircle
 10
9205.260090859264
 20
1392.931996926682
 30
0.0
 40
51.0
100
AcDbArc
 50
273.5000000000027
 51
355.4999999999956
  0
ARC
  5
81A8
330
1F
100
AcDbEntity
  8
0
100
AcDbCircle
 10
9205.058502051159
 20
1392.919667226985
 30
0.0
 40
50.0
100
AcDbArc
 50
273.5
 51
355.4999999999988
  0
LINE
  5
81CD
330
1F
100
AcDbEntity
  8
0
100
AcDbLine
 10
8930.561920115293
 20
1350.511753581188
 30
0.0
 11
9071.761942113521
 21
1341.87559027047
 31
0.0
  0
ARC
  5
81CE
102
{ACAD_REACTORS
330
8626
102
}
330
1F
100
AcDbEntity
  8
0
100
AcDbCircle
 10
8933.614347092037
 20
1400.41849350228
 30
0.0
 40
50.0
100
AcDbArc
 50
184.5000000000015
 51
266.499999999998
  0
LINE
  5
81CF
330
1F
100
AcDbEntity
  8
0
100
AcDbLine
 10
8930.299282767652
 20
1349.525948482462
 30
0.0
 11
9070.935363082627
 21
1340.924277322705
 31
0.0
  0
ARC
  5
81D0
330
1F
100
AcDbEntity
  8
0
100
AcDbCircle
 10
8933.412758283928
 20
1400.43082320198
 30
0.0
 40
51.0
100
AcDbArc
 50
184.5000000000015
 51
266.5000000000014
  0
LINE
  5
81DF
330
1F
100
AcDbEntity
  8
CEN
100
AcDbLine
 10
9130.515632871174
 20
1348.845009336581
 30
0.0
 11
9130.515632871174
 21
1326.032743193824
 31
0.0
  0
LINE
  5
81E0
102
{ACAD_REACTORS
330
8214
102
}
330
1F
100
AcDbEntity
  8
CEN
100
AcDbLine
 10
9130.515632871173
 20
765.1356234836967
 30
0.0
 11
9130.515632871173
 21
627.6082429367106
 31
0.0
  0
LINE
  5
81E1
330
1F
100
AcDbEntity
  8
CEN
100
AcDbLine
 10
9427.015632871171
 20
465.0974450414515
 30
0.0
 11
9427.015632871171
 21
331.6958763891753
 31
0.0
  0
DIMENSION
  5
81FD
102
{ACAD_XDICTIONARY
360
820A
102
}
102
{ACAD_REACTORS
330
8214
102
}
330
1F
100
AcDbEntity
  8
DIMJ
100
AcDbDimension
280
     0
  2
*D55
 10
9270.515632871175
 20
528.8612804048698
 30
0.0
 11
9200.515632871175
 21
551.8612804048698
 31
0.0
 70
    32
 71
     5
 42
140.0000000000018
 73
     0
 74
     0
 75
     0
  3
Standard
100
AcDbAlignedDimension
 13
9130.515632871173
 23
696.3719332102036
 33
0.0
 14
9270.515632871175
 24
697.3618008579787
 34
0.0
100
AcDbRotatedDimension
  0
DIMENSION
  5
8617
102
{ACAD_XDICTIONARY
360
8620
102
}
102
{ACAD_REACTORS
330
8626
102
}
330
1F
100
AcDbEntity
  8
DIMJ
100
AcDbDimension
280
     0
  2
*D56
 10
8933.614347092031
 20
1400.418493502282
 30
0.0
 11
8953.623079610974
 21
1426.248200931484
 31
0.0
 70
   164
 71
     5
 42
49.99999999999818
 73
     0
 74
     0
 75
     0
  3
Standard
100
AcDbRadialDimension
 15
8902.994647232624
 25
1360.890857846711
 35
0.0
 40
0.0
1001
ACAD
1000
DSTYLE
1002
{
1070
   288
1070
     1
1002
}
  0
LINE
  5
8A3E
330
1F
100
AcDbEntity
  8
CEN
100
AcDbLine
 10
9362.894526920507
 20
400.861800857979
 30
0.0
 11
9491.714957510994
 21
400.861800857979
 31
0.0
  0
LINE
  5
8A44
330
1F
100
AcDbEntity
  8
0
100
AcDbLine
 10
9382.261942113517
 20
1334.588932822842
 30
0.0
 11
9368.261942113518
 21
1340.588932822841
 31
0.0
  0
LINE
  5
8A45
330
1F
100
AcDbEntity
  8
0
100
AcDbLine
 10
9471.769323628826
 20
1334.588932822841
 30
0.0
 11
9382.261942113517
 21
1334.588932822842
 31
0.0
  0
LINE
  5
8A46
330
1F
100
AcDbEntity
  8
0
100
AcDbLine
 10
9471.769323628826
 20
1334.588932822841
 30
0.0
 11
9485.769323628828
 21
1340.588932822841
 31
0.0
  0
LINE
  5
8A47
330
1F
100
AcDbEntity
  8
0
100
AcDbLine
 10
9486.015632871172
 20
1340.588932822842
 30
0.0
 11
9368.015632871173
 21
1340.588932822842
 31
0.0
  0
LINE
  5
8A48
330
1F
100
AcDbEntity
  8
0
100
AcDbLine
 10
9382.015632871173
 20
1333.388932822841
 30
0.0
 11
9368.015632871173
 21
1339.388932822841
 31
0.0
  0
LINE
  5
8A49
330
1F
100
AcDbEntity
  8
0
100
AcDbLine
 10
9472.015632871173
 20
1333.388932822841
 30
0.0
 11
9486.015632871172
 21
1339.388932822841
 31
0.0
  0
LINE
  5
8A4A
330
1F
100
AcDbEntity
  8
0
100
AcDbLine
 10
9472.015632871173
 20
1333.388932822841
 30
0.0
 11
9382.015632871173
 21
1333.388932822841
 31
0.0
  0
LINE
  5
8A4B
330
1F
100
AcDbEntity
  8
0
100
AcDbLine
 10
9368.088891118615
 20
1340.586694580948
 30
0.0
 11
9310.835691219173
 21
1344.088450298797
 31
0.0
  0
ARC
  5
8A4C
330
1F
100
AcDbEntity
  8
0
100
AcDbCircle
 10
9313.702375419445
 20
1393.806176997362
 30
0.0
 40
51.0
100
AcDbArc
 50
184.5
 51
266.5000000000003
  0
ARC
  5
8A4D
330
1F
100
AcDbEntity
  8
0
100
AcDbCircle
 10
9313.888118195917
 20
1393.99519021989
 30
0.0
 40
50.0
100
AcDbArc
 50
184.5000000000006
 51
266.4999999999997
  0
LINE
  5
8A4E
330
1F
100
AcDbEntity
  8
0
100
AcDbLine
 10
9368.015632871175
 20
1339.388932822841
 30
0.0
 11
9310.588899903166
 21
1342.901302277847
 31
0.0
  0
LINE
  5
8A4F
330
1F
100
AcDbEntity
  8
0
100
AcDbLine
 10
9486.01563287117
 20
1339.388932822841
 30
0.0
 11
9543.442365839181
 21
1342.901302277847
 31
0.0
  0
LINE
  5
8A50
330
1F
100
AcDbEntity
  8
0
100
AcDbLine
 10
9485.94237462373
 20
1340.586694580948
 30
0.0
 11
9543.195574523176
 21
1344.088450298798
 31
0.0
  0
ARC
  5
8A51
330
1F
100
AcDbEntity
  8
0
100
AcDbCircle
 10
9540.328890322902
 20
1393.806176997363
 30
0.0
 40
51.0
100
AcDbArc
 50
273.5000000000006
 51
355.5000000000002
  0
ARC
  5
8A52
330
1F
100
AcDbEntity
  8
0
100
AcDbCircle
 10
9540.143147546435
 20
1393.995190219891
 30
0.0
 40
50.0
100
AcDbArc
 50
273.5000000000003
 51
355.5000000000009
  0
DIMENSION
  5
8A58
102
{ACAD_XDICTIONARY
360
8A65
102
}
102
{ACAD_REACTORS
330
8A6F
102
}
330
1F
100
AcDbEntity
  8
DIMJ
100
AcDbDimension
280
     0
  2
*D57
 10
9548.459417463988
 20
540.8618008579793
 30
0.0
 11
9525.459417463988
 21
470.8618008579807
 31
0.0
 70
    32
 71
     5
 42
140.0000000000004
 73
     0
 74
     0
 75
     0
  3
Standard
100
AcDbAlignedDimension
 13
9427.015632871171
 23
400.861800857979
 33
0.0
 14
9427.015632871173
 24
540.8618008579794
 34
0.0
 50
90.0
100
AcDbRotatedDimension
  0
LINE
  5
92C5
330
1F
100
AcDbEntity
  8
0
100
AcDbLine
 10
8397.196396795996
 20
-402.8787607617145
 30
0.0
 11
8397.196396795997
 21
-471.5787607617171
 31
0.0
  0
LINE
  5
92C7
102
{ACAD_REACTORS
330
92F3
102
}
330
1F
100
AcDbEntity
  8
0
100
AcDbLine
 10
8390.596396796
 20
-478.1787607617157
 30
0.0
 11
8390.596396796
 21
-402.8787607617144
 31
0.0
  0
ARC
  5
92C9
102
{ACAD_REACTORS
330
92F3
102
}
330
1F
100
AcDbEntity
  8
0
100
AcDbCircle
 10
8402.196396795996
 20
-402.8787607617144
 30
0.0
 40
5.0
100
AcDbArc
 50
89.99999999999992
 51
180.0000000000012
  0
ARC
  5
92CA
102
{ACAD_REACTORS
330
92F3
102
}
330
1F
100
AcDbEntity
  8
0
100
AcDbCircle
 10
8402.196396795996
 20
-402.8787607617144
 30
0.0
 40
11.6
100
AcDbArc
 50
89.99999999999992
 51
180.0000000000012
  0
ARC
  5
92CB
102
{ACAD_REACTORS
330
92F3
102
}
330
1F
100
AcDbEntity
  8
0
100
AcDbCircle
 10
8443.596396795998
 20
-402.8787607617144
 30
0.0
 40
5.0
100
AcDbArc
 50
0.0
 51
89.99999999999992
  0
ARC
  5
92CC
102
{ACAD_REACTORS
330
92F3
102
}
330
1F
100
AcDbEntity
  8
0
100
AcDbCircle
 10
8443.596396795998
 20
-402.8787607617144
 30
0.0
 40
11.6
100
AcDbArc
 50
0.0
 51
89.99999999999992
  0
LINE
  5
92CD
102
{ACAD_REACTORS
330
92F3
102
}
330
1F
100
AcDbEntity
  8
0
100
AcDbLine
 10
8397.196396795997
 20
-478.1787607617157
 30
0.0
 11
8397.196396795997
 21
-402.8787607617144
 31
0.0
  0
LINE
  5
92CF
102
{ACAD_REACTORS
330
92F3
102
}
330
1F
100
AcDbEntity
  8
0
100
AcDbLine
 10
8403.796396795996
 20
-464.7787607617143
 30
0.0
 11
8403.796396795996
 21
-478.1787607617157
 31
0.0
  0
LINE
  5
92D0
102
{ACAD_REACTORS
330
92F3
102
}
330
1F
100
AcDbEntity
  8
0
100
AcDbLine
 10
8403.796396795996
 20
-464.7787607617142
 30
0.0
 11
8397.196396795997
 21
-464.7787607617142
 31
0.0
  0
ARC
  5
92D2
102
{ACAD_REACTORS
330
92F3
102
}
330
1F
100
AcDbEntity
  8
0
100
AcDbCircle
 10
8397.196396795997
 20
-478.1787607617157
 30
0.0
 40
6.599999999998544
100
AcDbArc
 50
180.0
 51
0.0
  0
ARC
  5
92D8
102
{ACAD_REACTORS
330
92F3
102
}
330
1F
100
AcDbEntity
  8
0
100
AcDbCircle
 10
8448.596396795997
 20
-478.1787607617157
 30
0.0
 40
6.599999999998544
100
AcDbArc
 50
180.0
 51
0.000000000000007
  0
LINE
  5
92D9
102
{ACAD_REACTORS
330
92F3
102
}
330
1F
100
AcDbEntity
  8
0
100
AcDbLine
 10
8441.996396795998
 20
-464.7787607617142
 30
0.0
 11
8448.596396795997
 21
-464.7787607617142
 31
0.0
  0
LINE
  5
92DA
102
{ACAD_REACTORS
330
92F3
102
}
330
1F
100
AcDbEntity
  8
0
100
AcDbLine
 10
8441.996396795998
 20
-464.7787607617143
 30
0.0
 11
8441.996396795998
 21
-478.1787607617157
 31
0.0
  0
LINE
  5
92DB
330
1F
100
AcDbEntity
  8
0
100
AcDbLine
 10
8448.596396795997
 20
-478.1787607617157
 30
0.0
 11
8448.596396795997
 21
-402.8787607617144
 31
0.0
  0
LINE
  5
92DC
102
{ACAD_REACTORS
330
92F3
102
}
330
1F
100
AcDbEntity
  8
0
100
AcDbLine
 10
8448.596396795997
 20
-402.8787607617145
 30
0.0
 11
8448.596396795997
 21
-471.5787607617171
 31
0.0
  0
HATCH
  5
92F3
330
1F
100
AcDbEntity
  8
Layer4
100
AcDbHatch
 10
0.0
 20
0.0
 30
0.0
210
0.0
220
0.0
230
1.0
  2
ANSI31
 70
     0
 71
     1
 91
        1
 92
        7
 72
     1
 73
     1
 93
       16
 10
8448.596396795997
 20
-464.7787607617142
 42
0.0
 10
8441.996396795998
 20
-464.7787607617142
 42
0.0
 10
8441.996396795998
 20
-478.1787607617157
 42
1.0
 10
8455.196396795997
 20
-478.1787607617157
 42
0.0
 10
8455.196396795997
 20
-402.8787607617144
 42
0.414213562373099
 10
8443.596396795998
 20
-391.2787607617143
 42
0.0
 10
8402.196396795996
 20
-391.2787607617143
 42
0.4142135623730085
 10
8390.596396796
 20
-402.8787607617144
 42
0.0
 10
8390.596396796
 20
-478.1787607617157
 42
1.0
 10
8403.796396795996
 20
-478.1787607617157
 42
0.0
 10
8403.796396795996
 20
-464.7787607617143
 42
0.0
 10
8397.196396795996
 20
-464.7787607617142
 42
0.0
 10
8397.196396795997
 20
-402.8787607617144
 42
-0.4142135623729886
 10
8402.196396795996
 20
-397.8787607617144
 42
0.0
 10
8443.596396795998
 20
-397.8787607617144
 42
-0.4142135623731014
 10
8448.596396795997
 20
-402.8787607617145
 42
0.0
 97
       16
330
92CC
330
7E45
330
92CA
330
92C7
330
92D2
330
92CF
330
92D0
330
92CD
330
92C9
330
7E3B
330
92CB
330
92DC
330
92D9
330
92DA
330
92D8
330
7E3E
 75
     0
 76
     1
 52
0.0
 41
60.0
 77
     0
 78
     1
 53
45.0
 43
0.0
 44
0.0
 45
-5.303300858899105
 46
5.303300858899106
 79
     0
 47
0.4984421374292298
 98
        1
 10
8451.542987701897
 20
-436.7878598307925
  0
HATCH
  5
9307
330
1F
100
AcDbEntity
  8
Layer4
100
AcDbHatch
 10
0.0
 20
0.0
 30
0.0
210
0.0
220
0.0
230
1.0
  2
ANSI31
 70
     0
 71
     0
 91
        1
 92
        7
 72
     1
 73
     1
 93
       16
 10
8388.385183406107
 20
1085.759378788769
 42
0.0
 10
8381.785183406107
 20
1085.759378788769
 42
0.0
 10
8381.785183406107
 20
1072.359378788767
 42
1.0
 10
8394.985183406108
 20
1072.359378788767
 42
0.0
 10
8394.985183406108
 20
1147.659378788769
 42
0.414213562373099
 10
8383.385183406108
 20
1159.259378788769
 42
0.0
 10
8341.985183406107
 20
1159.259378788769
 42
0.4142135623730085
 10
8330.385183406109
 20
1147.659378788769
 42
0.0
 10
8330.385183406109
 20
1072.359378788767
 42
1.0
 10
8343.585183406107
 20
1072.359378788767
 42
0.0
 10
8343.585183406107
 20
1085.759378788769
 42
0.0
 10
8336.985183406106
 20
1085.759378788769
 42
0.0
 10
8336.985183406108
 20
1147.659378788769
 42
-0.4142135623729886
 10
8341.985183406107
 20
1152.659378788769
 42
0.0
 10
8383.385183406108
 20
1152.659378788769
 42
-0.4142135623731014
 10
8388.385183406107
 20
1147.659378788768
 42
0.0
 97
        0
 75
     0
 76
     1
 52
0.0
 41
60.0
 77
     0
 78
     1
 53
45.0
 43
-60.21121338988996
 44
1550.538139550483
 45
-5.303300858899105
 46
5.303300858899106
 79
     0
 47
0.4984421374292298
 98
        1
 10
8391.331774312007
 20
1113.75027971969
  0
LINE
  5
9308
330
1F
100
AcDbEntity
  8
0
100
AcDbLine
 10
8388.385183406107
 20
1147.659378788768
 30
0.0
 11
8388.385183406105
 21
1078.959378788766
 31
0.0
  0
LINE
  5
9309
330
1F
100
AcDbEntity
  8
0
100
AcDbLine
 10
8388.385183406105
 20
1072.359378788767
 30
0.0
 11
8388.385183406105
 21
1147.659378788769
 31
0.0
  0
LINE
  5
930A
330
1F
100
AcDbEntity
  8
0
100
AcDbLine
 10
8381.785183406107
 20
1085.759378788769
 30
0.0
 11
8381.785183406107
 21
1072.359378788767
 31
0.0
  0
LINE
  5
930B
330
1F
100
AcDbEntity
  8
0
100
AcDbLine
 10
8381.785183406107
 20
1085.759378788769
 30
0.0
 11
8388.385183406105
 21
1085.759378788769
 31
0.0
  0
ARC
  5
930C
330
1F
100
AcDbEntity
  8
0
100
AcDbCircle
 10
8388.385183406105
 20
1072.359378788767
 30
0.0
 40
6.599999999998544
100
AcDbArc
 50
180.0
 51
0.000000000000007
  0
ARC
  5
930D
330
1F
100
AcDbEntity
  8
0
100
AcDbCircle
 10
8336.985183406108
 20
1072.359378788767
 30
0.0
 40
6.599999999998544
100
AcDbArc
 50
180.0
 51
0.0
  0
LINE
  5
930E
330
1F
100
AcDbEntity
  8
0
100
AcDbLine
 10
8343.585183406107
 20
1085.759378788769
 30
0.0
 11
8336.985183406108
 21
1085.759378788769
 31
0.0
  0
LINE
  5
930F
330
1F
100
AcDbEntity
  8
0
100
AcDbLine
 10
8343.585183406107
 20
1085.759378788769
 30
0.0
 11
8343.585183406107
 21
1072.359378788767
 31
0.0
  0
LINE
  5
9310
330
1F
100
AcDbEntity
  8
0
100
AcDbLine
 10
8336.985183406108
 20
1072.359378788767
 30
0.0
 11
8336.985183406108
 21
1147.659378788769
 31
0.0
  0
ARC
  5
9311
330
1F
100
AcDbEntity
  8
0
100
AcDbCircle
 10
8383.385183406108
 20
1147.659378788769
 30
0.0
 40
11.6
100
AcDbArc
 50
0.0
 51
89.99999999999992
  0
ARC
  5
9312
330
1F
100
AcDbEntity
  8
0
100
AcDbCircle
 10
8383.385183406108
 20
1147.659378788769
 30
0.0
 40
5.0
100
AcDbArc
 50
0.0
 51
89.99999999999992
  0
ARC
  5
9313
330
1F
100
AcDbEntity
  8
0
100
AcDbCircle
 10
8341.985183406107
 20
1147.659378788769
 30
0.0
 40
11.6
100
AcDbArc
 50
89.99999999999992
 51
180.0000000000012
  0
ARC
  5
9314
330
1F
100
AcDbEntity
  8
0
100
AcDbCircle
 10
8341.985183406107
 20
1147.659378788769
 30
0.0
 40
5.0
100
AcDbArc
 50
89.99999999999992
 51
180.0000000000012
  0
LINE
  5
9315
330
1F
100
AcDbEntity
  8
0
100
AcDbLine
 10
8330.385183406109
 20
1072.359378788767
 30
0.0
 11
8330.385183406109
 21
1147.659378788769
 31
0.0
  0
LINE
  5
9316
330
1F
100
AcDbEntity
  8
0
100
AcDbLine
 10
8336.985183406106
 20
1147.659378788768
 30
0.0
 11
8336.985183406108
 21
1078.959378788766
 31
0.0
  0
LINE
  5
9317
330
1F
100
AcDbEntity
  8
0
100
AcDbLine
 10
8394.985183406108
 20
1138.359378788769
 30
0.0
 11
8394.985183406108
 21
1147.659378788769
 31
0.0
  0
LINE
  5
9318
330
1F
100
AcDbEntity
  8
0
100
AcDbLine
 10
8394.985183406108
 20
1147.659378788769
 30
0.0
 11
8394.985183406108
 21
1072.359378788767
 31
0.0
  0
LINE
  5
9319
330
1F
100
AcDbEntity
  8
0
100
AcDbLine
 10
8383.385183406108
 20
1152.659378788769
 30
0.0
 11
8341.985183406107
 21
1152.659378788769
 31
0.0
  0
LINE
  5
9324
330
1F
100
AcDbEntity
  8
0
100
AcDbLine
 10
8839.815632871177
 20
1551.404653614021
 30
0.0
 11
8839.815632871173
 21
1564.988932822841
 31
0.0
  0
LINE
  5
9325
330
1F
100
AcDbEntity
  8
0
100
AcDbLine
 10
8839.815632871177
 20
1555.188932822841
 30
0.0
 11
8841.015632871174
 21
1555.188932822841
 31
0.0
  0
LINE
  5
9326
330
1F
100
AcDbEntity
  8
0
100
AcDbLine
 10
8838.615632871173
 20
1564.988932822841
 30
0.0
 11
8838.615632871173
 21
1551.404653614021
 31
0.0
  0
ARC
  5
9327
330
1F
100
AcDbEntity
  8
0
100
AcDbCircle
 10
8840.815632871175
 20
1564.988932822841
 30
0.0
 40
1.0
100
AcDbArc
 50
90.0
 51
180.0
  0
ARC
  5
9328
330
1F
100
AcDbEntity
  8
0
100
AcDbCircle
 10
8848.815632871172
 20
1564.988932822841
 30
0.0
 40
1.0
100
AcDbArc
 50
0.0
 51
90.0
  0
ARC
  5
9329
330
1F
100
AcDbEntity
  8
0
100
AcDbCircle
 10
8840.815632871175
 20
1564.988932822841
 30
0.0
 40
2.2
100
AcDbArc
 50
90.0
 51
180.0
  0
ARC
  5
932A
330
1F
100
AcDbEntity
  8
0
100
AcDbCircle
 10
8848.815632871172
 20
1564.988932822841
 30
0.0
 40
2.2
100
AcDbArc
 50
0.0
 51
90.0
  0
LINE
  5
932B
330
1F
100
AcDbEntity
  8
0
100
AcDbLine
 10
8841.015632871174
 20
1555.188932822841
 30
0.0
 11
8841.015632871174
 21
1551.404653614021
 31
0.0
  0
ARC
  5
932D
330
1F
100
AcDbEntity
  8
0
100
AcDbCircle
 10
8839.815632871173
 20
1551.404653614021
 30
0.0
 40
1.200000000000727
100
AcDbArc
 50
180.0
 51
0.0
  0
ARC
  5
932F
330
1F
100
AcDbEntity
  8
0
100
AcDbCircle
 10
8849.815632871175
 20
1551.404653614021
 30
0.0
 40
1.200000000000727
100
AcDbArc
 50
180.0
 51
0.000000000000007
  0
LINE
  5
9330
330
1F
100
AcDbEntity
  8
0
100
AcDbLine
 10
8848.615632871172
 20
1555.188932822841
 30
0.0
 11
8848.615632871172
 21
1551.404653614021
 31
0.0
  0
LINE
  5
9331
330
1F
100
AcDbEntity
  8
0
100
AcDbLine
 10
8849.815632871171
 20
1555.188932822841
 30
0.0
 11
8848.615632871172
 21
1555.188932822841
 31
0.0
  0
LINE
  5
9332
330
1F
100
AcDbEntity
  8
0
100
AcDbLine
 10
8849.815632871171
 20
1551.404653614021
 30
0.0
 11
8849.815632871175
 21
1564.988932822841
 31
0.0
  0
LINE
  5
9333
330
1F
100
AcDbEntity
  8
0
100
AcDbLine
 10
9626.215632871174
 20
1551.404653614021
 30
0.0
 11
9626.215632871172
 21
1564.988932822841
 31
0.0
  0
LINE
  5
9334
330
1F
100
AcDbEntity
  8
0
100
AcDbLine
 10
9626.215632871174
 20
1555.188932822841
 30
0.0
 11
9627.415632871173
 21
1555.188932822841
 31
0.0
  0
LINE
  5
9335
330
1F
100
AcDbEntity
  8
0
100
AcDbLine
 10
9627.415632871173
 20
1555.188932822841
 30
0.0
 11
9627.415632871173
 21
1551.404653614021
 31
0.0
  0
ARC
  5
9336
330
1F
100
AcDbEntity
  8
0
100
AcDbCircle
 10
9626.215632871172
 20
1551.404653614021
 30
0.0
 40
1.200000000000727
100
AcDbArc
 50
180.0
 51
0.000000000000007
  0
ARC
  5
9337
330
1F
100
AcDbEntity
  8
0
100
AcDbCircle
 10
9636.215632871172
 20
1551.404653614021
 30
0.0
 40
1.200000000000727
100
AcDbArc
 50
180.0
 51
0.000000000000007
  0
LINE
  5
9338
330
1F
100
AcDbEntity
  8
0
100
AcDbLine
 10
9635.015632871171
 20
1555.188932822841
 30
0.0
 11
9635.015632871171
 21
1551.404653614021
 31
0.0
  0
ARC
  5
9339
330
1F
100
AcDbEntity
  8
0
100
AcDbCircle
 10
9627.215632871173
 20
1564.988932822841
 30
0.0
 40
2.2
100
AcDbArc
 50
90.0
 51
180.0
  0
ARC
  5
933A
330
1F
100
AcDbEntity
  8
0
100
AcDbCircle
 10
9635.215632871172
 20
1564.988932822841
 30
0.0
 40
2.2
100
AcDbArc
 50
0.000000000000007
 51
90.0
  0
ARC
  5
933B
330
1F
100
AcDbEntity
  8
0
100
AcDbCircle
 10
9627.215632871173
 20
1564.988932822841
 30
0.0
 40
1.0
100
AcDbArc
 50
90.0
 51
180.0
  0
ARC
  5
933C
330
1F
100
AcDbEntity
  8
0
100
AcDbCircle
 10
9635.215632871172
 20
1564.988932822841
 30
0.0
 40
1.0
100
AcDbArc
 50
0.000000000000007
 51
90.0
  0
LINE
  5
933D
330
1F
100
AcDbEntity
  8
0
100
AcDbLine
 10
9637.415632871173
 20
1564.988932822841
 30
0.0
 11
9637.415632871173
 21
1551.404653614021
 31
0.0
  0
LINE
  5
933E
330
1F
100
AcDbEntity
  8
0
100
AcDbLine
 10
9636.21563287117
 20
1555.188932822841
 30
0.0
 11
9635.015632871171
 21
1555.188932822841
 31
0.0
  0
LINE
  5
933F
330
1F
100
AcDbEntity
  8
0
100
AcDbLine
 10
9636.21563287117
 20
1551.404653614021
 30
0.0
 11
9636.215632871172
 21
1564.988932822841
 31
0.0
  0
LINE
  5
9340
330
1F
100
AcDbEntity
  8
0
100
AcDbLine
 10
9627.215632871173
 20
1565.988932822842
 30
0.0
 11
9635.215632871172
 21
1565.988932822841
 31
0.0
  0
LINE
  5
9341
330
1F
100
AcDbEntity
  8
0
100
AcDbLine
 10
9625.015632871171
 20
1564.988932822841
 30
0.0
 11
9625.015632871171
 21
1551.404653614021
 31
0.0
  0
LINE
  5
9342
330
1F
100
AcDbEntity
  8
0
100
AcDbLine
 10
9625.015632871171
 20
1564.888932822841
 30
0.0
 11
9625.015632871171
 21
1564.988932822841
 31
0.0
  0
LWPOLYLINE
  5
9736
102
{ACAD_REACTORS
330
7CED
330
7CEA
330
7CE4
330
7CE1
330
7CCA
330
7CAF
330
7CD2
330
7CC7
330
7CE7
330
7CA4
330
7CD5
330
7CCD
330
7CB2
102
}
330
1F
100
AcDbEntity
  8
0
100
AcDbPolyline
 90
       14
 70
     1
 43
0.0
 10
9211.015632871175
 20
141.3618008579788
 10
9211.015632871172
 20
468.3618008579787
 42
0.4142135623730951
 10
9198.015632871172
 20
481.3618008579778
 10
8871.015632871174
 20
481.3618008579792
 42
-0.4142135623730951
 10
8833.015632871171
 20
519.3618008579788
 10
8833.015632871175
 20
875.3618008579797
 42
-0.4142135623730951
 10
8871.015632871175
 20
913.3618008579793
 10
9239.275517500995
 20
913.3618008579784
 42
-0.1989123673796587
 10
9266.145575186085
 20
902.2318585430669
 10
9631.885690556263
 20
536.4917431728882
 42
-0.1989123673796579
 10
9643.015632871176
 20
509.6216854878007
 10
9643.015632871172
 20
141.3618008579788
 42
-0.4142135623730951
 10
9605.015632871175
 20
103.3618008579801
 10
9249.01563287117
 20
103.3618008579806
 42
-0.4142135623730943
  0
LWPOLYLINE
  5
9754
330
1F
100
AcDbEntity
  8
Layer2
100
AcDbPolyline
 90
       14
 70
     1
 43
0.0
 10
9215.015632871175
 20
141.3618008579787
 10
9215.015632871173
 20
468.3618008579791
 42
0.4142135623730324
 10
9198.015632871173
 20
485.3618008579792
 10
8871.015632871174
 20
485.3618008579792
 42
-0.4142135623730955
 10
8837.015632871173
 20
519.3618008579788
 10
8837.015632871175
 20
875.3618008579797
 42
-0.4142135623730931
 10
8871.015632871175
 20
909.3618008579793
 10
9239.275517500995
 20
909.3618008579783
 42
-0.1989123673796555
 10
9263.317148061338
 20
899.4034314183206
 10
9629.057263431516
 20
533.6633160481418
 42
-0.1989123673796567
 10
9639.015632871176
 20
509.6216854878005
 10
9639.015632871171
 20
141.3618008579786
 42
-0.4142135623730885
 10
9605.015632871175
 20
107.3618008579794
 10
9249.01563287117
 20
107.3618008579806
 42
-0.4142135623730931
  0
ENDSEC
  0
SECTION
  2
OBJECTS
  0
DICTIONARY
  5
C
330
0
100
AcDbDictionary
281
     1
  3
ACAD_CIP_PREVIOUS_PRODUCT_INFO
350
A1ED
  3
ACAD_COLOR
350
73
  3
ACAD_DETAILVIEWSTYLE
350
A1E6
  3
ACAD_GROUP
350
D
  3
ACAD_LAYOUT
350
1A
  3
ACAD_MATERIAL
350
72
  3
ACAD_MLEADERSTYLE
350
A1E2
  3
ACAD_MLINESTYLE
350
17
  3
ACAD_PLOTSETTINGS
350
19
  3
ACAD_PLOTSTYLENAME
350
E
  3
ACAD_SCALELIST
350
A1D0
  3
ACAD_SECTIONVIEWSTYLE
350
A1E4
  3
ACAD_TABLESTYLE
350
A1BB
  3
ACAD_VISUALSTYLE
350
A1AA
  3
AcadDim
350
4F25
  3
ACDB_RECOMPOSE_DATA
350
A20B
  3
AcDbVariableDictionary
350
66
  3
lxx_dict
350
A1C2
  0
DICTIONARY
  5
A1EE
330
10
100
AcDbDictionary
280
     1
281
     1
  3
ADSK_XREC_LAYER_RECONCILED
360
A1EF
  0
DICTIONARY
  5
A1F0
330
97
100
AcDbDictionary
280
     1
281
     1
  3
ADSK_XREC_LAYER_RECONCILED
360
A1F1
  0
DICTIONARY
  5
A1F2
330
98
100
AcDbDictionary
280
     1
281
     1
  3
ADSK_XREC_LAYER_RECONCILED
360
A1F3
  0
DICTIONARY
  5
A1F4
330
99
100
AcDbDictionary
280
     1
281
     1
  3
ADSK_XREC_LAYER_RECONCILED
360
A1F5
  0
DICTIONARY
  5
A1F6
330
4658
100
AcDbDictionary
280
     1
281
     1
  3
ADSK_XREC_LAYER_RECONCILED
360
A1F7
  0
DICTIONARY
  5
7CA3
330
7CA2
100
AcDbDictionary
280
     1
281
     1
  3
ACAD_DIMASSOC
360
7CA4
  0
DICTIONARY
  5
7CA6
330
7CA5
100
AcDbDictionary
280
     1
281
     1
  3
ACAD_DIMASSOC
360
7CA7
  0
DICTIONARY
  5
7CA9
330
7CA8
100
AcDbDictionary
280
     1
281
     1
  3
ACAD_DIMASSOC
360
7CAA
  0
DICTIONARY
  5
7CAE
330
7CAD
100
AcDbDictionary
280
     1
281
     1
  3
ACAD_DIMASSOC
360
7CAF
  0
DICTIONARY
  5
7CB1
330
7CB0
100
AcDbDictionary
280
     1
281
     1
  3
ACAD_DIMASSOC
360
7CB2
  0
DICTIONARY
  5
7CBD
330
7CBC
100
AcDbDictionary
280
     1
281
     1
  3
ACAD_DIMASSOC
360
7CBE
  0
DICTIONARY
  5
7CC0
330
7CBF
100
AcDbDictionary
280
     1
281
     1
  3
ACAD_DIMASSOC
360
7CC1
  0
DICTIONARY
  5
7CC3
330
7CC2
100
AcDbDictionary
280
     1
281
     1
  3
ACAD_DIMASSOC
360
7CC4
  0
DICTIONARY
  5
7CC6
330
7CC5
100
AcDbDictionary
280
     1
281
     1
  3
ACAD_DIMASSOC
360
7CC7
  0
DICTIONARY
  5
7CC9
330
7CC8
100
AcDbDictionary
280
     1
281
     1
  3
ACAD_DIMASSOC
360
7CCA
  0
DICTIONARY
  5
7CCC
330
7CCB
100
AcDbDictionary
280
     1
281
     1
  3
ACAD_DIMASSOC
360
7CCD
  0
DICTIONARY
  5
7CD1
330
7CD0
100
AcDbDictionary
280
     1
281
     1
  3
ACAD_DIMASSOC
360
7CD2
  0
DICTIONARY
  5
7CD4
330
7CD3
100
AcDbDictionary
280
     1
281
     1
  3
ACAD_DIMASSOC
360
7CD5
  0
DICTIONARY
  5
7CD7
330
7CD6
100
AcDbDictionary
280
     1
281
     1
  3
ACAD_DIMASSOC
360
7CD8
  0
DICTIONARY
  5
7CDA
330
7CD9
100
AcDbDictionary
280
     1
281
     1
  3
ACAD_DIMASSOC
360
7CDB
  0
DICTIONARY
  5
7CDD
330
7CDC
100
AcDbDictionary
280
     1
281
     1
  3
ACAD_DIMASSOC
360
7CDE
  0
DICTIONARY
  5
7CE0
330
7CDF
100
AcDbDictionary
280
     1
281
     1
  3
ACAD_DIMASSOC
360
7CE1
  0
DICTIONARY
  5
7CE3
330
7CE2
100
AcDbDictionary
280
     1
281
     1
  3
ACAD_DIMASSOC
360
7CE4
  0
DICTIONARY
  5
7CE6
330
7CE5
100
AcDbDictionary
280
     1
281
     1
  3
ACAD_DIMASSOC
360
7CE7
  0
DICTIONARY
  5
7CE9
330
7CE8
100
AcDbDictionary
280
     1
281
     1
  3
ACAD_DIMASSOC
360
7CEA
  0
DICTIONARY
  5
7CEC
330
7CEB
100
AcDbDictionary
280
     1
281
     1
  3
ACAD_DIMASSOC
360
7CED
  0
DICTIONARY
  5
7CEF
330
7CEE
100
AcDbDictionary
280
     1
281
     1
  3
ACAD_DIMASSOC
360
7CF0
  0
DICTIONARY
  5
7CF2
330
7CF1
100
AcDbDictionary
280
     1
281
     1
  3
ACAD_DIMASSOC
360
7CF3
  0
DICTIONARY
  5
7D25
330
7D24
100
AcDbDictionary
280
     1
281
     1
  3
ACAD_DIMASSOC
360
7D26
  0
DICTIONARY
  5
7D51
330
7D50
100
AcDbDictionary
280
     1
281
     1
  3
ACAD_DIMASSOC
360
7D52
  0
DICTIONARY
  5
7D67
330
7D66
100
AcDbDictionary
280
     1
281
     1
  3
ACAD_DIMASSOC
360
7D68
  0
DICTIONARY
  5
7D6D
330
7D6C
100
AcDbDictionary
280
     1
281
     1
  3
ACAD_DIMASSOC
360
7D6E
  0
DICTIONARY
  5
7D73
330
7D72
100
AcDbDictionary
280
     1
281
     1
  3
ACAD_DIMASSOC
360
7D74
  0
DICTIONARY
  5
7D7C
330
7D7B
100
AcDbDictionary
280
     1
281
     1
  3
ACAD_DIMASSOC
360
7D7D
  0
DICTIONARY
  5
7D93
330
7D92
100
AcDbDictionary
280
     1
281
     1
  3
ACAD_DIMASSOC
360
7D94
  0
DICTIONARY
  5
7DA6
330
7DA5
100
AcDbDictionary
280
     1
281
     1
  3
ACAD_DIMASSOC
360
7DA7
  0
DICTIONARY
  5
7DB4
330
7DB3
100
AcDbDictionary
280
     1
281
     1
  3
ACAD_DIMASSOC
360
7DB5
  0
DICTIONARY
  5
7DFE
330
7DFD
100
AcDbDictionary
280
     1
281
     1
  3
ACAD_DIMASSOC
360
7DFF
  0
DICTIONARY
  5
7E01
330
7E00
100
AcDbDictionary
280
     1
281
     1
  3
ACAD_DIMASSOC
360
7E02
  0
DICTIONARY
  5
7E04
330
7E03
100
AcDbDictionary
280
     1
281
     1
  3
ACAD_DIMASSOC
360
7E05
  0
DICTIONARY
  5
7E07
330
7E06
100
AcDbDictionary
280
     1
281
     1
  3
ACAD_DIMASSOC
360
7E08
  0
DICTIONARY
  5
7E0A
330
7E09
100
AcDbDictionary
280
     1
281
     1
  3
ACAD_DIMASSOC
360
7E0B
  0
DICTIONARY
  5
7E0D
330
7E0C
100
AcDbDictionary
280
     1
281
     1
  3
ACAD_DIMASSOC
360
7E0E
  0
DICTIONARY
  5
7E13
330
7E12
100
AcDbDictionary
280
     1
281
     1
  3
ACAD_DIMASSOC
360
7E14
  0
DICTIONARY
  5
7E16
330
7E15
100
AcDbDictionary
280
     1
281
     1
  3
ACAD_DIMASSOC
360
7E17
  0
DICTIONARY
  5
7E19
330
7E18
100
AcDbDictionary
280
     1
281
     1
  3
ACAD_DIMASSOC
360
7E1A
  0
DICTIONARY
  5
7E1C
330
7E1B
100
AcDbDictionary
280
     1
281
     1
  3
ACAD_DIMASSOC
360
7E1D
  0
DICTIONARY
  5
7E1F
330
7E1E
100
AcDbDictionary
280
     1
281
     1
  3
ACAD_DIMASSOC
360
7E20
  0
DICTIONARY
  5
7E22
330
7E21
100
AcDbDictionary
280
     1
281
     1
  3
ACAD_DIMASSOC
360
7E23
  0
DICTIONARY
  5
7E25
330
7E24
100
AcDbDictionary
280
     1
281
     1
  3
ACAD_DIMASSOC
360
7E26
  0
DICTIONARY
  5
7E28
330
7E27
100
AcDbDictionary
280
     1
281
     1
  3
ACAD_DIMASSOC
360
7E29
  0
DICTIONARY
  5
7E2B
330
7E2A
100
AcDbDictionary
280
     1
281
     1
  3
ACAD_DIMASSOC
360
7E2C
  0
DICTIONARY
  5
7E62
330
7E61
100
AcDbDictionary
280
     1
281
     1
  3
ACAD_DIMASSOC
360
7E63
  0
DICTIONARY
  5
7E65
330
7E64
100
AcDbDictionary
280
     1
281
     1
  3
ACAD_DIMASSOC
360
7E66
  0
DICTIONARY
  5
7E6B
330
7E6A
100
AcDbDictionary
280
     1
281
     1
  3
ACAD_DIMASSOC
360
7E6C
  0
DICTIONARY
  5
7E6E
330
7E6D
100
AcDbDictionary
280
     1
281
     1
  3
ACAD_DIMASSOC
360
7E6F
  0
DICTIONARY
  5
7E71
330
7E70
100
AcDbDictionary
280
     1
281
     1
  3
ACAD_DIMASSOC
360
7E72
  0
DICTIONARY
  5
820A
330
81FD
100
AcDbDictionary
280
     1
281
     1
  3
ACAD_DIMASSOC
360
8214
  0
DICTIONARY
  5
8620
330
8617
100
AcDbDictionary
280
     1
281
     1
  3
ACAD_DIMASSOC
360
8626
  0
DICTIONARY
  5
8A65
330
8A58
100
AcDbDictionary
280
     1
281
     1
  3
ACAD_DIMASSOC
360
8A6F
  0
XRECORD
  5
A1ED
102
{ACAD_REACTORS
330
C
102
}
330
C
100
AcDbXrecord
280
     1
300
ACDLT
300
2018
300

  0
DICTIONARY
  5
73
102
{ACAD_REACTORS
330
C
102
}
330
C
100
AcDbDictionary
281
     1
  0
DICTIONARY
  5
A1E6
102
{ACAD_REACTORS
330
C
102
}
330
C
100
AcDbDictionary
281
     1
  3
Imperial24
350
A1E7
  0
DICTIONARY
  5
D
102
{ACAD_REACTORS
330
C
102
}
330
C
100
AcDbDictionary
281
     1
  0
DICTIONARY
  5
1A
102
{ACAD_REACTORS
330
C
102
}
330
C
100
AcDbDictionary
281
     1
  3
Layout1
350
59
  3
Layout2
350
5E
  3
Model
350
22
  0
DICTIONARY
  5
72
102
{ACAD_REACTORS
330
C
102
}
330
C
100
AcDbDictionary
281
     1
  3
ByBlock
350
A1A8
  3
ByLayer
350
A1A7
  3
Global
350
A1A9
  0
DICTIONARY
  5
A1E2
102
{ACAD_REACTORS
330
C
102
}
330
C
100
AcDbDictionary
281
     1
  3
Standard
350
A1E3
  0
DICTIONARY
  5
17
102
{ACAD_REACTORS
330
C
102
}
330
C
100
AcDbDictionary
281
     1
  3
Standard
350
18
  0
DICTIONARY
  5
19
102
{ACAD_REACTORS
330
C
102
}
330
C
100
AcDbDictionary
281
     1
  0
ACDBDICTIONARYWDFLT
  5
E
102
{ACAD_REACTORS
330
C
102
}
330
C
100
AcDbDictionary
281
     1
  3
Normal
350
F
100
AcDbDictionaryWithDefault
340
F
  0
DICTIONARY
  5
A1D0
102
{ACAD_REACTORS
330
C
102
}
330
C
100
AcDbDictionary
281
     1
  3
A0
350
A1D1
  3
A1
350
A1D2
  3
A2
350
A1D3
  3
A3
350
A1D4
  3
A4
350
A1D5
  3
A5
350
A1D6
  3
A6
350
A1D7
  3
A7
350
A1D8
  3
A8
350
A1D9
  3
A9
350
A1DA
  3
B0
350
A1DB
  3
B1
350
A1DC
  3
B2
350
A1DD
  3
B3
350
A1DE
  3
B4
350
A1DF
  3
B5
350
A1E0
  3
B6
350
A1E1
  0
DICTIONARY
  5
A1E4
102
{ACAD_REACTORS
330
C
102
}
330
C
100
AcDbDictionary
281
     1
  3
Imperial24
350
A1E5
  0
DICTIONARY
  5
A1BB
102
{ACAD_REACTORS
330
C
102
}
330
C
100
AcDbDictionary
281
     1
  3
Standard
350
A1BC
  0
DICTIONARY
  5
A1AA
102
{ACAD_REACTORS
330
C
102
}
330
C
100
AcDbDictionary
281
     1
  3
2dWireframe
350
A1B0
  3
3D Hidden
350
A1B2
  3
3dWireframe
350
A1B1
  3
Basic
350
A1AF
  3
Brighten
350
A1B6
  3
ColorChange
350
A1BA
  3
Conceptual
350
A1B3
  3
Dim
350
A1B5
  3
EdgeColorOff
350
A1CF
  3
Facepattern
350
A1B9
  3
Flat
350
A1AB
  3
FlatWithEdges
350
A1AC
  3
Gouraud
350
A1AD
  3
GouraudWithEdges
350
A1AE
  3
Hidden
350
A1C7
  3
JitterOff
350
A1CD
  3
Linepattern
350
A1B8
  3
OverhangOff
350
A1CE
  3
Realistic
350
A1B4
  3
Shaded
350
A1CC
  3
Shaded with edges
350
A1CB
  3
Shades of Gray
350
A1C8
  3
Sketchy
350
A1C9
  3
Thicken
350
A1B7
  3
Wireframe
350
A1C6
  3
X-Ray
350
A1CA
  0
XRECORD
  5
4F25
102
{ACAD_REACTORS
330
C
102
}
330
C
100
AcDbXrecord
280
     1
 90
   990106
  3

 60
     0
 61
     0
 62
     1
 63
     3
 64
     0
 65
     0
 66
     0
 67
     3
 68
     1
 69
     0
 70
     0
 71
     0
 72
     0
 40
0.0
170
     0
340
5549
  0
XRECORD
  5
A20B
102
{ACAD_REACTORS
330
C
102
}
330
C
100
AcDbXrecord
280
     1
 90
        1
330
A1BC
  0
DICTIONARY
  5
66
102
{ACAD_REACTORS
330
C
102
}
330
C
100
AcDbDictionary
281
     1
  3
CANNOSCALE
350
A205
  3
CMLEADERSTYLE
350
A201
  3
CTABLESTYLE
350
A1C4
  3
CVIEWDETAILSTYLE
350
A202
  3
CVIEWSECTIONSTYLE
350
A203
  3
DIMASSOC
350
67
  3
HIDETEXT
350
6B
  3
LAYEREVAL
350
A207
  3
LAYERNOTIFY
350
A208
  3
LIGHTINGUNITS
350
A206
  3
MSLTSCALE
350
A204
  3
PROJECTNAME
350
29D
  0
DICTIONARY
  5
A1C2
102
{ACAD_REACTORS
330
C
102
}
330
C
100
AcDbDictionary
281
     1
  3
lxx_dimth
350
A1C3
  0
XRECORD
  5
A1EF
102
{ACAD_REACTORS
330
A1EE
102
}
330
A1EE
100
AcDbXrecord
280
     1
290
     1
  0
XRECORD
  5
A1F1
102
{ACAD_REACTORS
330
A1F0
102
}
330
A1F0
100
AcDbXrecord
280
     1
290
     1
  0
XRECORD
  5
A1F3
102
{ACAD_REACTORS
330
A1F2
102
}
330
A1F2
100
AcDbXrecord
280
     1
290
     1
  0
XRECORD
  5
A1F5
102
{ACAD_REACTORS
330
A1F4
102
}
330
A1F4
100
AcDbXrecord
280
     1
290
     1
  0
XRECORD
  5
A1F7
102
{ACAD_REACTORS
330
A1F6
102
}
330
A1F6
100
AcDbXrecord
280
     1
290
     1
  0
DIMASSOC
  5
7CA4
102
{ACAD_REACTORS
330
7CA3
102
}
330
7CA3
100
AcDbDimAssoc
330
7CA2
 90
        3
 70
     0
 71
     0
  1
AcDbOsnapPointRef
 72
     1
331
7DB8
 73
     2
 91
        0
 40
1.0
 10
0.0
 20
0.0
 30
2.000000000000000E+50
 75
     0
  1
AcDbOsnapPointRef
 72
    13
331
9736
 73
     2
 91
       12
 40
0.0
 10
0.0
 20
0.0
 30
2.000000000000000E+50
 75
     0
  0
DIMASSOC
  5
7CA7
102
{ACAD_REACTORS
330
7CA6
102
}
330
7CA6
100
AcDbDimAssoc
330
7CA5
 90
        3
 70
     0
 71
     0
  1
AcDbOsnapPointRef
 72
    13
331
7DC7
 73
     2
 91
        0
 40
0.0
 10
0.0
 20
0.0
 30
2.000000000000000E+50
 75
     0
  1
AcDbOsnapPointRef
 72
    13
331
7DC3
 73
     2
 91
        0
 40
0.0
 10
0.0
 20
0.0
 30
2.000000000000000E+50
 75
     0
  0
DIMASSOC
  5
7CAA
102
{ACAD_REACTORS
330
7CA9
102
}
330
7CA9
100
AcDbDimAssoc
330
7CA8
 90
        3
 70
     0
 71
     0
  1
AcDbOsnapPointRef
 72
    13
331
7DCB
 73
     2
 91
        0
 40
0.0
 10
0.0
 20
0.0
 30
2.000000000000000E+50
 75
     0
  1
AcDbOsnapPointRef
 72
    13
331
7DCD
 73
     2
 91
        0
 40
0.0
 10
0.0
 20
0.0
 30
2.000000000000000E+50
 75
     0
  0
DIMASSOC
  5
7CAF
102
{ACAD_REACTORS
330
7CAE
102
}
330
7CAE
100
AcDbDimAssoc
330
7CAD
 90
        3
 70
     0
 71
     0
  1
AcDbOsnapPointRef
 72
     1
331
9736
 73
     2
 91
        4
 40
1.0
 10
0.0
 20
0.0
 30
2.000000000000000E+50
 75
     0
  1
AcDbOsnapPointRef
 72
    13
331
7DA0
 73
     2
 91
        0
 40
0.0
 10
0.0
 20
0.0
 30
2.000000000000000E+50
 75
     0
  0
DIMASSOC
  5
7CB2
102
{ACAD_REACTORS
330
7CB1
102
}
330
7CB1
100
AcDbDimAssoc
330
7CB0
 90
        3
 70
     0
 71
     0
  1
AcDbOsnapPointRef
 72
    13
331
7DB1
 73
     2
 91
        0
 40
0.0
 10
0.0
 20
0.0
 30
2.000000000000000E+50
 75
     0
  1
AcDbOsnapPointRef
 72
     1
331
9736
 73
     2
 91
       13
 40
1.0
 10
0.0
 20
0.0
 30
2.000000000000000E+50
 75
     0
  0
DIMASSOC
  5
7CBE
102
{ACAD_REACTORS
330
7CBD
102
}
330
7CBD
100
AcDbDimAssoc
330
7CBC
 90
        3
 70
     0
 71
     0
  1
AcDbOsnapPointRef
 72
    13
331
7D8C
 73
     2
 91
        0
 40
0.0
 10
0.0
 20
0.0
 30
2.000000000000000E+50
 75
     0
  1
AcDbOsnapPointRef
 72
    10
331
7D98
 73
     2
 91
        0
 40
0.7817694806403999
 10
0.0
 20
0.0
 30
0.0
 75
     0
  0
DIMASSOC
  5
7CC1
102
{ACAD_REACTORS
330
7CC0
102
}
330
7CC0
100
AcDbDimAssoc
330
7CBF
 90
        3
 70
     0
 71
     0
  1
AcDbOsnapPointRef
 72
    13
331
7D8B
 73
     2
 91
        0
 40
0.0
 10
0.0
 20
0.0
 30
2.000000000000000E+50
 75
     0
  1
AcDbOsnapPointRef
 72
     1
331
7DBC
 73
     2
 91
        0
 40
1.0
 10
0.0
 20
0.0
 30
2.000000000000000E+50
 75
     0
  0
DIMASSOC
  5
7CC4
102
{ACAD_REACTORS
330
7CC3
102
}
330
7CC3
100
AcDbDimAssoc
330
7CC2
 90
        3
 70
     0
 71
     0
  1
AcDbOsnapPointRef
 72
     3
331
7D6B
 73
     2
 91
        0
 40
0.0
 10
0.0
 20
0.0
 30
0.0
 75
     0
  1
AcDbOsnapPointRef
 72
     8
331
7D77
 73
     2
 91
        0
 40
0.499999999999975
 10
0.0
 20
0.0
 30
0.0
 75
     1
  1
AcDbOsnapPointRef
 72
     3
331
7D6B
 73
     2
 91
        0
 40
0.0
 10
0.0
 20
0.0
 30
0.0
 75
     0
  0
DIMASSOC
  5
7CC7
102
{ACAD_REACTORS
330
7CC6
102
}
330
7CC6
100
AcDbDimAssoc
330
7CC5
 90
        2
 70
     0
 71
     0
  1
AcDbOsnapPointRef
 72
     3
331
9736
 73
     2
 91
       10
 40
0.0
 10
0.0
 20
0.0
 30
0.0
 75
     0
  0
DIMASSOC
  5
7CCA
102
{ACAD_REACTORS
330
7CC9
102
}
330
7CC9
100
AcDbDimAssoc
330
7CC8
 90
        3
 70
     0
 71
     0
  1
AcDbOsnapPointRef
 72
     1
331
7CCE
 73
     2
 91
        0
 40
0.9999999999999998
 10
0.0
 20
0.0
 30
2.000000000000000E+50
 75
     0
  1
AcDbOsnapPointRef
 72
    13
331
9736
 73
     2
 91
        6
 40
0.0
 10
0.0
 20
0.0
 30
2.000000000000000E+50
 75
     0
  0
DIMASSOC
  5
7CCD
102
{ACAD_REACTORS
330
7CCC
102
}
330
7CCC
100
AcDbDimAssoc
330
7CCB
 90
        3
 70
     0
 71
     0
  1
AcDbOsnapPointRef
 72
    13
331
7DF3
 73
     2
 91
        0
 40
0.0
 10
0.0
 20
0.0
 30
2.000000000000000E+50
 75
     0
  1
AcDbOsnapPointRef
 72
    13
331
9736
 73
     2
 91
       13
 40
0.0
 10
0.0
 20
0.0
 30
2.000000000000000E+50
 75
     0
  0
DIMASSOC
  5
7CD2
102
{ACAD_REACTORS
330
7CD1
102
}
330
7CD1
100
AcDbDimAssoc
330
7CD0
 90
        2
 70
     0
 71
     0
  1
AcDbOsnapPointRef
 72
     3
331
9736
 73
     2
 91
        4
 40
0.0
 10
0.0
 20
0.0
 30
0.0
 75
     0
  0
DIMASSOC
  5
7CD5
102
{ACAD_REACTORS
330
7CD4
102
}
330
7CD4
100
AcDbDimAssoc
330
7CD3
 90
        2
 70
     0
 71
     0
  1
AcDbOsnapPointRef
 72
     3
331
9736
 73
     2
 91
        2
 40
0.0
 10
0.0
 20
0.0
 30
0.0
 75
     0
  0
DIMASSOC
  5
7CD8
102
{ACAD_REACTORS
330
7CD7
102
}
330
7CD7
100
AcDbDimAssoc
330
7CD6
 90
        2
 70
     0
 71
     0
  1
AcDbOsnapPointRef
 72
     3
331
7DB0
 73
     2
 91
        0
 40
0.0
 10
0.0
 20
0.0
 30
0.0
 75
     0
  0
DIMASSOC
  5
7CDB
102
{ACAD_REACTORS
330
7CDA
102
}
330
7CDA
100
AcDbDimAssoc
330
7CD9
 90
        2
 70
     0
 71
     0
  1
AcDbOsnapPointRef
 72
     3
331
7DBF
 73
     2
 91
        0
 40
0.0
 10
0.0
 20
0.0
 30
0.0
 75
     0
  0
DIMASSOC
  5
7CDE
102
{ACAD_REACTORS
330
7CDD
102
}
330
7CDD
100
AcDbDimAssoc
330
7CDC
 90
        2
 70
     0
 71
     0
  1
AcDbOsnapPointRef
 72
     3
331
7D9F
 73
     2
 91
        0
 40
0.0
 10
0.0
 20
0.0
 30
0.0
 75
     0
  0
DIMASSOC
  5
7CE1
102
{ACAD_REACTORS
330
7CE0
102
}
330
7CE0
100
AcDbDimAssoc
330
7CDF
 90
        3
 70
     0
 71
     0
  1
AcDbOsnapPointRef
 72
    13
331
9736
 73
     2
 91
        6
 40
0.0
 10
0.0
 20
0.0
 30
2.000000000000000E+50
 75
     0
  1
AcDbOsnapPointRef
 72
     1
331
9736
 73
     2
 91
       10
 40
1.0
 10
0.0
 20
0.0
 30
2.000000000000000E+50
 75
     0
  0
DIMASSOC
  5
7CE4
102
{ACAD_REACTORS
330
7CE3
102
}
330
7CE3
100
AcDbDimAssoc
330
7CE2
 90
        3
 70
     0
 71
     0
  1
AcDbOsnapPointRef
 72
    13
331
9736
 73
     2
 91
        7
 40
0.0
 10
0.0
 20
0.0
 30
2.000000000000000E+50
 75
     0
  1
AcDbOsnapPointRef
 72
     1
331
9736
 73
     2
 91
       13
 40
1.0
 10
0.0
 20
0.0
 30
2.000000000000000E+50
 75
     0
  0
DIMASSOC
  5
7CE7
102
{ACAD_REACTORS
330
7CE6
102
}
330
7CE6
100
AcDbDimAssoc
330
7CE5
 90
        3
 70
     0
 71
     0
  1
AcDbOsnapPointRef
 72
    13
331
9736
 73
     2
 91
       12
 40
0.0
 10
0.0
 20
0.0
 30
2.000000000000000E+50
 75
     0
  1
AcDbOsnapPointRef
 72
    13
331
9736
 73
     2
 91
        1
 40
0.0
 10
0.0
 20
0.0
 30
2.000000000000000E+50
 75
     0
  0
DIMASSOC
  5
7CEA
102
{ACAD_REACTORS
330
7CE9
102
}
330
7CE9
100
AcDbDimAssoc
330
7CE8
 90
        3
 70
     0
 71
     0
  1
AcDbOsnapPointRef
 72
    13
331
9736
 73
     2
 91
        7
 40
0.0
 10
0.0
 20
0.0
 30
2.000000000000000E+50
 75
     0
  1
AcDbOsnapPointRef
 72
    13
331
9736
 73
     2
 91
        4
 40
0.0
 10
0.0
 20
0.0
 30
2.000000000000000E+50
 75
     0
  0
DIMASSOC
  5
7CED
102
{ACAD_REACTORS
330
7CEC
102
}
330
7CEC
100
AcDbDimAssoc
330
7CEB
 90
        3
 70
     0
 71
     0
  1
AcDbOsnapPointRef
 72
    13
331
7D90
 73
     2
 91
        0
 40
0.0
 10
0.0
 20
0.0
 30
2.000000000000000E+50
 75
     0
  1
AcDbOsnapPointRef
 72
    13
331
9736
 73
     2
 91
        7
 40
0.0
 10
0.0
 20
0.0
 30
2.000000000000000E+50
 75
     0
  0
DIMASSOC
  5
7CF0
102
{ACAD_REACTORS
330
7CEF
102
}
330
7CEF
100
AcDbDimAssoc
330
7CEE
 90
        3
 70
     0
 71
     0
  1
AcDbOsnapPointRef
 72
    13
331
7D90
 73
     2
 91
        0
 40
0.0
 10
0.0
 20
0.0
 30
2.000000000000000E+50
 75
     0
  1
AcDbOsnapPointRef
 72
     8
331
7D9C
 73
     2
 91
        0
 40
0.0000000000000152
 10
0.0
 20
0.0
 30
0.0
 75
     1
  1
AcDbOsnapPointRef
 72
    13
331
7D90
 73
     2
 91
        0
 40
0.0
 10
0.0
 20
0.0
 30
2.000000000000000E+50
 75
     0
  0
DIMASSOC
  5
7CF3
102
{ACAD_REACTORS
330
7CF2
102
}
330
7CF2
100
AcDbDimAssoc
330
7CF1
 90
        3
 70
     0
 71
     0
  1
AcDbOsnapPointRef
 72
     1
331
7D98
 73
     2
 91
        0
 40
1.0
 10
0.0
 20
0.0
 30
2.000000000000000E+50
 75
     0
  1
AcDbOsnapPointRef
 72
     8
331
7DA0
 73
     2
 91
        0
 40
0.9999999999999932
 10
0.0
 20
0.0
 30
0.0
 75
     1
  1
AcDbOsnapPointRef
 72
     1
331
7D98
 73
     2
 91
        0
 40
1.0
 10
0.0
 20
0.0
 30
2.000000000000000E+50
 75
     0
  0
DIMASSOC
  5
7D26
102
{ACAD_REACTORS
330
7D25
102
}
330
7D25
100
AcDbDimAssoc
330
7D24
 90
       15
 70
     0
 71
     0
  1
AcDbOsnapPointRef
 72
    13
331
7D23
 73
     2
 91
        0
 40
0.0
 10
0.0
 20
0.0
 30
2.000000000000000E+50
 75
     0
  1
AcDbOsnapPointRef
 72
     1
331
7D23
 73
     2
 91
        0
 40
0.9999999999999998
 10
0.0
 20
0.0
 30
2.000000000000000E+50
 75
     0
  1
AcDbOsnapPointRef
 72
    13
331
7D15
 73
     2
 91
        0
 40
0.0
 10
0.0
 20
0.0
 30
2.000000000000000E+50
 75
     0
  1
AcDbOsnapPointRef
 72
     1
331
7D15
 73
     2
 91
        0
 40
1.0
 10
0.0
 20
0.0
 30
2.000000000000000E+50
 75
     0
  0
DIMASSOC
  5
7D52
102
{ACAD_REACTORS
330
7D51
102
}
330
7D51
100
AcDbDimAssoc
330
7D50
 90
       15
 70
     0
 71
     0
  1
AcDbOsnapPointRef
 72
    13
331
7D53
 73
     2
 91
        0
 40
0.0
 10
0.0
 20
0.0
 30
2.000000000000000E+50
 75
     0
  1
AcDbOsnapPointRef
 72
     1
331
7D53
 73
     2
 91
        0
 40
0.9999999999999998
 10
0.0
 20
0.0
 30
2.000000000000000E+50
 75
     0
  1
AcDbOsnapPointRef
 72
    13
331
7D61
 73
     2
 91
        0
 40
0.0
 10
0.0
 20
0.0
 30
2.000000000000000E+50
 75
     0
  1
AcDbOsnapPointRef
 72
     1
331
7D61
 73
     2
 91
        0
 40
1.0
 10
0.0
 20
0.0
 30
2.000000000000000E+50
 75
     0
  0
DIMASSOC
  5
7D68
102
{ACAD_REACTORS
330
7D67
102
}
330
7D67
100
AcDbDimAssoc
330
7D66
 90
        3
 70
     0
 71
     0
  1
AcDbOsnapPointRef
 72
    13
331
7D12
 73
     2
 91
        0
 40
0.0
 10
0.0
 20
0.0
 30
2.000000000000000E+50
 75
     0
  1
AcDbOsnapPointRef
 72
     1
331
7D1A
 73
     2
 91
        0
 40
0.9999999999999998
 10
0.0
 20
0.0
 30
2.000000000000000E+50
 75
     0
  0
DIMASSOC
  5
7D6E
102
{ACAD_REACTORS
330
7D6D
102
}
330
7D6D
100
AcDbDimAssoc
330
7D6C
 90
        1
 70
     0
 71
     0
  1
AcDbOsnapPointRef
 72
    13
331
7D78
 73
     2
 91
        0
 40
0.0
 10
0.0
 20
0.0
 30
2.000000000000000E+50
 75
     0
  0
DIMASSOC
  5
7D74
102
{ACAD_REACTORS
330
7D73
102
}
330
7D73
100
AcDbDimAssoc
330
7D72
 90
        2
 70
     0
 71
     0
  1
AcDbOsnapPointRef
 72
    13
331
7D71
 73
     2
 91
        0
 40
0.0
 10
0.0
 20
0.0
 30
2.000000000000000E+50
 75
     0
  0
DIMASSOC
  5
7D7D
102
{ACAD_REACTORS
330
7D7C
102
}
330
7D7C
100
AcDbDimAssoc
330
7D7B
 90
        2
 70
     0
 71
     0
  1
AcDbOsnapPointRef
 72
     3
331
7D7A
 73
     2
 91
        0
 40
0.0
 10
0.0
 20
0.0
 30
0.0
 75
     0
  0
DIMASSOC
  5
7D94
102
{ACAD_REACTORS
330
7D93
102
}
330
7D93
100
AcDbDimAssoc
330
7D92
 90
        2
 70
     0
 71
     0
  1
AcDbOsnapPointRef
 72
     3
331
7D96
 73
     2
 91
        0
 40
0.0
 10
0.0
 20
0.0
 30
0.0
 75
     0
  0
DIMASSOC
  5
7DA7
102
{ACAD_REACTORS
330
7DA6
102
}
330
7DA6
100
AcDbDimAssoc
330
7DA5
 90
        3
 70
     0
 71
     0
  1
AcDbOsnapPointRef
 72
     1
331
7DBC
 73
     2
 91
        0
 40
1.0
 10
0.0
 20
0.0
 30
2.000000000000000E+50
 75
     0
  1
AcDbOsnapPointRef
 72
     1
331
7DB1
 73
     2
 91
        0
 40
1.0
 10
0.0
 20
0.0
 30
2.000000000000000E+50
 75
     0
  0
DIMASSOC
  5
7DB5
102
{ACAD_REACTORS
330
7DB4
102
}
330
7DB4
100
AcDbDimAssoc
330
7DB3
 90
        2
 70
     0
 71
     0
  1
AcDbOsnapPointRef
 72
     3
331
7DB6
 73
     2
 91
        0
 40
0.0
 10
0.0
 20
0.0
 30
0.0
 75
     0
  0
DIMASSOC
  5
7DFF
102
{ACAD_REACTORS
330
7DFE
102
}
330
7DFE
100
AcDbDimAssoc
330
7DFD
 90
        2
 70
     0
 71
     0
  1
AcDbOsnapPointRef
 72
     3
331
7E51
 73
     2
 91
        0
 40
0.0
 10
0.0
 20
0.0
 30
0.0
 75
     0
  0
DIMASSOC
  5
7E02
102
{ACAD_REACTORS
330
7E01
102
}
330
7E01
100
AcDbDimAssoc
330
7E00
 90
        3
 70
     0
 71
     0
  1
AcDbOsnapPointRef
 72
     2
331
7E4E
 73
     2
 91
        0
 40
0.5
 10
0.0
 20
0.0
 30
0.0
 75
     0
  1
AcDbOsnapPointRef
 72
     8
331
7E53
 73
     2
 91
        0
 40
0.8904657820164214
 10
0.0
 20
0.0
 30
0.0
 75
     1
  1
AcDbOsnapPointRef
 72
     2
331
7E4E
 73
     2
 91
        0
 40
0.5
 10
0.0
 20
0.0
 30
0.0
 75
     0
  0
DIMASSOC
  5
7E05
102
{ACAD_REACTORS
330
7E04
102
}
330
7E04
100
AcDbDimAssoc
330
7E03
 90
        3
 70
     0
 71
     0
  1
AcDbOsnapPointRef
 72
     1
331
7E58
 73
     2
 91
        0
 40
1.0
 10
0.0
 20
0.0
 30
2.000000000000000E+50
 75
     0
  1
AcDbOsnapPointRef
 72
     1
331
7E59
 73
     2
 91
        0
 40
1.0
 10
0.0
 20
0.0
 30
2.000000000000000E+50
 75
     0
  0
DIMASSOC
  5
7E08
102
{ACAD_REACTORS
330
7E07
102
}
330
7E07
100
AcDbDimAssoc
330
7E06
 90
        3
 70
     0
 71
     0
  1
AcDbOsnapPointRef
 72
     1
331
7E56
 73
     2
 91
        0
 40
1.0
 10
0.0
 20
0.0
 30
2.000000000000000E+50
 75
     0
  1
AcDbOsnapPointRef
 72
     1
331
7E58
 73
     2
 91
        0
 40
1.0
 10
0.0
 20
0.0
 30
2.000000000000000E+50
 75
     0
  0
DIMASSOC
  5
7E0B
102
{ACAD_REACTORS
330
7E0A
102
}
330
7E0A
100
AcDbDimAssoc
330
7E09
 90
        3
 70
     0
 71
     0
  1
AcDbOsnapPointRef
 72
     1
331
7E56
 73
     2
 91
        0
 40
1.0
 10
0.0
 20
0.0
 30
2.000000000000000E+50
 75
     0
  1
AcDbOsnapPointRef
 72
     6
331
7E53
 73
     2
 91
        0
 40
-0.0000000000000095
 10
0.0
 20
0.0
 30
0.0
332
7E56
 74
     2
 92
        0
 75
     0
  0
DIMASSOC
  5
7E0E
102
{ACAD_REACTORS
330
7E0D
102
}
330
7E0D
100
AcDbDimAssoc
330
7E0C
 90
        3
 70
     0
 71
     0
  1
AcDbOsnapPointRef
 72
     6
331
7E53
 73
     2
 91
        0
 40
-0.0000000000000095
 10
0.0
 20
0.0
 30
0.0
332
7E56
 74
     2
 92
        0
 75
     0
  1
AcDbOsnapPointRef
 72
     2
331
7E57
 73
     2
 91
        0
 40
0.5
 10
0.0
 20
0.0
 30
0.0
 75
     0
  0
DIMASSOC
  5
7E14
102
{ACAD_REACTORS
330
7E13
102
}
330
7E13
100
AcDbDimAssoc
330
7E12
 90
        3
 70
     0
 71
     0
  1
AcDbOsnapPointRef
 72
    13
331
7E32
 73
     2
 91
        0
 40
0.0
 10
0.0
 20
0.0
 30
2.000000000000000E+50
 75
     0
  1
AcDbOsnapPointRef
 72
    13
331
7E49
 73
     2
 91
        0
 40
0.0
 10
0.0
 20
0.0
 30
2.000000000000000E+50
 75
     0
  0
DIMASSOC
  5
7E17
102
{ACAD_REACTORS
330
7E16
102
}
330
7E16
100
AcDbDimAssoc
330
7E15
 90
        3
 70
     0
 71
     0
  1
AcDbOsnapPointRef
 72
    13
331
7E48
 73
     2
 91
        0
 40
0.0
 10
0.0
 20
0.0
 30
2.000000000000000E+50
 75
     0
  1
AcDbOsnapPointRef
 72
     1
331
7E49
 73
     2
 91
        0
 40
0.9999999999999998
 10
0.0
 20
0.0
 30
2.000000000000000E+50
 75
     0
  0
DIMASSOC
  5
7E1A
102
{ACAD_REACTORS
330
7E19
102
}
330
7E19
100
AcDbDimAssoc
330
7E18
 90
        3
 70
     0
 71
     0
  1
AcDbOsnapPointRef
 72
     6
331
7E30
 73
     2
 91
        0
 40
-0.0000000000000129
 10
0.0
 20
0.0
 30
0.0
332
7E4B
 74
     2
 92
        0
 75
     0
  1
AcDbOsnapPointRef
 72
    13
331
7E2F
 73
     2
 91
        0
 40
0.0
 10
0.0
 20
0.0
 30
2.000000000000000E+50
 75
     0
  0
DIMASSOC
  5
7E1D
102
{ACAD_REACTORS
330
7E1C
102
}
330
7E1C
100
AcDbDimAssoc
330
7E1B
 90
        3
 70
     0
 71
     0
  1
AcDbOsnapPointRef
 72
     1
331
7E32
 73
     2
 91
        0
 40
1.0
 10
0.0
 20
0.0
 30
2.000000000000000E+50
 75
     0
  1
AcDbOsnapPointRef
 72
     1
331
7E4A
 73
     2
 91
        0
 40
0.9999999999999998
 10
0.0
 20
0.0
 30
2.000000000000000E+50
 75
     0
  0
DIMASSOC
  5
7E20
102
{ACAD_REACTORS
330
7E1F
102
}
330
7E1F
100
AcDbDimAssoc
330
7E1E
 90
        3
 70
     0
 71
     0
  1
AcDbOsnapPointRef
 72
     1
331
7E32
 73
     2
 91
        0
 40
1.0
 10
0.0
 20
0.0
 30
2.000000000000000E+50
 75
     0
  1
AcDbOsnapPointRef
 72
     1
331
7E33
 73
     2
 91
        0
 40
0.9999999999999998
 10
0.0
 20
0.0
 30
2.000000000000000E+50
 75
     0
  0
DIMASSOC
  5
7E23
102
{ACAD_REACTORS
330
7E22
102
}
330
7E22
100
AcDbDimAssoc
330
7E21
 90
        3
 70
     0
 71
     0
  1
AcDbOsnapPointRef
 72
     1
331
7E48
 73
     2
 91
        0
 40
1.0
 10
0.0
 20
0.0
 30
2.000000000000000E+50
 75
     0
  1
AcDbOsnapPointRef
 72
    13
331
7E4B
 73
     2
 91
        0
 40
0.0
 10
0.0
 20
0.0
 30
2.000000000000000E+50
 75
     0
  0
DIMASSOC
  5
7E26
102
{ACAD_REACTORS
330
7E25
102
}
330
7E25
100
AcDbDimAssoc
330
7E24
 90
        3
 70
     0
 71
     0
  1
AcDbOsnapPointRef
 72
     1
331
7E48
 73
     2
 91
        0
 40
1.0
 10
0.0
 20
0.0
 30
2.000000000000000E+50
 75
     0
  1
AcDbOsnapPointRef
 72
    13
331
7E47
 73
     2
 91
        0
 40
0.0
 10
0.0
 20
0.0
 30
2.000000000000000E+50
 75
     0
  0
DIMASSOC
  5
7E29
102
{ACAD_REACTORS
330
7E28
102
}
330
7E28
100
AcDbDimAssoc
330
7E27
 90
        3
 70
     0
 71
     0
  1
AcDbOsnapPointRef
 72
    13
331
7E40
 73
     2
 91
        0
 40
0.0
 10
0.0
 20
0.0
 30
2.000000000000000E+50
 75
     0
  1
AcDbOsnapPointRef
 72
    13
331
7E47
 73
     2
 91
        0
 40
0.0
 10
0.0
 20
0.0
 30
2.000000000000000E+50
 75
     0
  0
DIMASSOC
  5
7E2C
102
{ACAD_REACTORS
330
7E2B
102
}
330
7E2B
100
AcDbDimAssoc
330
7E2A
 90
        3
 70
     0
 71
     0
  1
AcDbOsnapPointRef
 72
    13
331
7E47
 73
     2
 91
        0
 40
0.0
 10
0.0
 20
0.0
 30
2.000000000000000E+50
 75
     0
  1
AcDbOsnapPointRef
 72
     2
331
7E40
 73
     2
 91
        0
 40
0.5000000000000244
 10
0.0
 20
0.0
 30
0.0
 75
     0
  0
DIMASSOC
  5
7E63
102
{ACAD_REACTORS
330
7E62
102
}
330
7E62
100
AcDbDimAssoc
330
7E61
 90
        3
 70
     0
 71
     0
  1
AcDbOsnapPointRef
 72
    13
331
7E84
 73
     2
 91
        0
 40
0.0
 10
0.0
 20
0.0
 30
2.000000000000000E+50
 75
     0
  1
AcDbOsnapPointRef
 72
    13
331
7E86
 73
     2
 91
        0
 40
0.0
 10
0.0
 20
0.0
 30
2.000000000000000E+50
 75
     0
  0
DIMASSOC
  5
7E66
102
{ACAD_REACTORS
330
7E65
102
}
330
7E65
100
AcDbDimAssoc
330
7E64
 90
        3
 70
     0
 71
     0
  1
AcDbOsnapPointRef
 72
    13
331
7E85
 73
     2
 91
        0
 40
0.0
 10
0.0
 20
0.0
 30
2.000000000000000E+50
 75
     0
  1
AcDbOsnapPointRef
 72
    13
331
7E84
 73
     2
 91
        0
 40
0.0
 10
0.0
 20
0.0
 30
2.000000000000000E+50
 75
     0
  0
DIMASSOC
  5
7E6C
102
{ACAD_REACTORS
330
7E6B
102
}
330
7E6B
100
AcDbDimAssoc
330
7E6A
 90
        3
 70
     0
 71
     0
  1
AcDbOsnapPointRef
 72
    13
331
7E7C
 73
     2
 91
        0
 40
0.0
 10
0.0
 20
0.0
 30
2.000000000000000E+50
 75
     0
  1
AcDbOsnapPointRef
 72
    13
331
7E77
 73
     2
 91
        0
 40
0.0
 10
0.0
 20
0.0
 30
2.000000000000000E+50
 75
     0
  0
DIMASSOC
  5
7E6F
102
{ACAD_REACTORS
330
7E6E
102
}
330
7E6E
100
AcDbDimAssoc
330
7E6D
 90
        3
 70
     0
 71
     0
  1
AcDbOsnapPointRef
 72
    13
331
7E82
 73
     2
 91
        0
 40
0.0
 10
0.0
 20
0.0
 30
2.000000000000000E+50
 75
     0
  1
AcDbOsnapPointRef
 72
    13
331
7E80
 73
     2
 91
        0
 40
0.0
 10
0.0
 20
0.0
 30
2.000000000000000E+50
 75
     0
  0
DIMASSOC
  5
7E72
102
{ACAD_REACTORS
330
7E71
102
}
330
7E71
100
AcDbDimAssoc
330
7E70
 90
        3
 70
     0
 71
     0
  1
AcDbOsnapPointRef
 72
     6
331
7E74
 73
     2
 91
        0
 40
1.0
 10
0.0
 20
0.0
 30
0.0
332
7E7B
 74
     2
 92
        0
 75
     0
  1
AcDbOsnapPointRef
 72
     1
331
7E73
 73
     2
 91
        0
 40
1.0
 10
0.0
 20
0.0
 30
2.000000000000000E+50
 75
     0
  0
DIMASSOC
  5
8214
102
{ACAD_REACTORS
330
820A
102
}
330
820A
100
AcDbDimAssoc
330
81FD
 90
        3
 70
     0
 71
     0
  1
AcDbOsnapPointRef
 72
     2
331
81E0
 73
     2
 91
        0
 40
0.5
 10
0.0
 20
0.0
 30
0.0
 75
     0
  1
AcDbOsnapPointRef
 72
     6
331
7D98
 73
     2
 91
        0
 40
0.5000000000000052
 10
0.0
 20
0.0
 30
0.0
332
7D95
 74
     2
 92
        0
 75
     0
  0
DIMASSOC
  5
8626
102
{ACAD_REACTORS
330
8620
102
}
330
8620
100
AcDbDimAssoc
330
8617
 90
        2
 70
     0
 71
     0
  1
AcDbOsnapPointRef
 72
     3
331
81CE
 73
     2
 91
        0
 40
0.0
 10
0.0
 20
0.0
 30
0.0
 75
     0
  0
DIMASSOC
  5
8A6F
102
{ACAD_REACTORS
330
8A65
102
}
330
8A65
100
AcDbDimAssoc
330
8A58
 90
        3
 70
     0
 71
     0
  1
AcDbOsnapPointRef
 72
     3
331
7DA9
 73
     2
 91
        0
 40
0.0
 10
0.0
 20
0.0
 30
0.0
 75
     0
  1
AcDbOsnapPointRef
 72
     8
331
7DBC
 73
     2
 91
        0
 40
0.500000000000007
 10
0.0
 20
0.0
 30
0.0
 75
     1
  1
AcDbOsnapPointRef
 72
     3
331
7DA9
 73
     2
 91
        0
 40
0.0
 10
0.0
 20
0.0
 30
0.0
 75
     0
  0
ACDBDETAILVIEWSTYLE
  5
A1E7
102
{ACAD_REACTORS
330
A1E6
102
}
330
A1E6
100
AcDbModelDocViewStyle
 70
     0
  3
Imperial24
290
     1
300
Imperial24
 90
        0
100
AcDbDetailViewStyle
 70
     0
 71
     0
 90
        3
 71
     1
340
11
 62
   256
 40
0.24
340
0
 62
   256
 40
0.24
300

 40
0.36
280
     3
 71
     2
340
16
 90
       25
 62
   256
 71
     3
340
11
 62
   256
 40
0.24
 90
        1
 40
0.75
 90
        1
300
%<\AcVar ViewType \f "%tc1">% %<\AcVar ViewDetailId>%\PSCALE %<\AcVar ViewScale \f "%sn">%
 71
     4
340
16
 90
       25
 62
   256
340
16
 90
       25
 62
   256
280
     0
  0
LAYOUT
  5
59
102
{ACAD_REACTORS
330
1A
102
}
330
1A
100
AcDbPlotSettings
  1

  2
None
  4

  6

 40
0.0
 41
0.0
 42
0.0
 43
0.0
 44
0.0
 45
0.0
 46
0.0
 47
0.0
 48
0.0
 49
0.0
140
0.0
141
0.0
142
1.0
143
1.0
 70
   688
 72
     0
 73
     0
 74
     5
  7

 75
    16
147
1.0
 76
     0
 77
     2
 78
   300
148
0.0
149
0.0
100
AcDbLayout
  1
Layout1
 70
     1
 71
     1
 10
0.0
 20
0.0
 11
12.0
 21
9.0
 12
0.0
 22
0.0
 32
0.0
 14
0.0
 24
0.0
 34
0.0
 15
0.0
 25
0.0
 35
0.0
146
0.0
 13
0.0
 23
0.0
 33
0.0
 16
1.0
 26
0.0
 36
0.0
 17
0.0
 27
1.0
 37
0.0
 76
     0
330
58
  0
LAYOUT
  5
5E
102
{ACAD_REACTORS
330
1A
102
}
330
1A
100
AcDbPlotSettings
  1

  2
None
  4

  6

 40
0.0
 41
0.0
 42
0.0
 43
0.0
 44
0.0
 45
0.0
 46
0.0
 47
0.0
 48
0.0
 49
0.0
140
0.0
141
0.0
142
1.0
143
1.0
 70
   688
 72
     0
 73
     0
 74
     5
  7

 75
    16
147
1.0
 76
     0
 77
     2
 78
   300
148
0.0
149
0.0
100
AcDbLayout
  1
Layout2
 70
     1
 71
     2
 10
0.0
 20
0.0
 11
12.0
 21
9.0
 12
0.0
 22
0.0
 32
0.0
 14
0.0
 24
0.0
 34
0.0
 15
0.0
 25
0.0
 35
0.0
146
0.0
 13
0.0
 23
0.0
 33
0.0
 16
1.0
 26
0.0
 36
0.0
 17
0.0
 27
1.0
 37
0.0
 76
     0
330
5D
  0
LAYOUT
  5
22
102
{ACAD_REACTORS
330
1A
102
}
330
1A
100
AcDbPlotSettings
  1

  2
EPSON ME 1
  4
A4
  6

 40
3.757083177566528
 41
13.28207111358642
 42
3.757080078125
 43
3.757080078125
 44
209.9733276367187
 45
296.9683227539062
 46
11.07
 47
0.0
 48
8160.004252375387
 49
-1094.476459409506
140
10041.36450669217
141
1826.222007977473
142
1.0
143
10.43370525153737
 70
 11956
 72
     1
 73
     0
 74
     4
  7

 75
     0
147
0.0958432288330795
 76
     0
 77
     2
 78
   180
148
-8160.004252375387
149
1094.476459409506
100
AcDbLayout
  1
Model
 70
     1
 71
     0
 10
0.0
 20
0.0
 11
12.0
 21
9.0
 12
0.0
 22
0.0
 32
0.0
 14
0.0
 24
0.0
 34
0.0
 15
0.0
 25
0.0
 35
0.0
146
0.0
 13
0.0
 23
0.0
 33
0.0
 16
1.0
 26
0.0
 36
0.0
 17
0.0
 27
1.0
 37
0.0
 76
     0
330
1F
331
A1A5
  0
MATERIAL
  5
A1A8
102
{ACAD_REACTORS
330
72
102
}
330
72
100
AcDbMaterial
  1
ByBlock
 73
     1
 78
     1
172
     1
176
     1
270
     1
274
     1
 94
       63
  0
MATERIAL
  5
A1A7
102
{ACAD_REACTORS
330
72
102
}
330
72
100
AcDbMaterial
  1
ByLayer
 73
     1
 78
     1
172
     1
176
     1
270
     1
274
     1
 94
       63
  0
MATERIAL
  5
A1A9
102
{ACAD_REACTORS
330
72
102
}
330
72
100
AcDbMaterial
  1
Global
 73
     1
 78
     1
172
     1
176
     1
270
     1
274
     1
 94
       63
  0
MLEADERSTYLE
  5
A1E3
102
{ACAD_REACTORS
330
A1E2
102
}
330
A1E2
100
AcDbMLeaderStyle
179
     2
170
     2
171
     1
172
     0
 90
        2
 40
0.0
 41
0.0
173
     1
 91
-1056964608
340
14
 92
       -2
290
     1
 42
0.09
291
     1
 43
0.36
  3
Standard
 44
0.18
300

342
11
174
     1
178
     6
175
     1
176
     0
 93
-1056964608
 45
0.18
292
     0
297
     0
 46
0.18
 94
-1056964608
 47
1.0
 49
1.0
140
1.0
293
     1
141
0.0
294
     1
177
     0
142
1.0
295
     1
296
     0
143
0.125
271
     0
272
     9
273
     9
298
     1
  0
MLINESTYLE
  5
18
102
{ACAD_REACTORS
330
17
102
}
330
17
100
AcDbMlineStyle
  2
STANDARD
 70
     0
  3

 62
   256
 51
90.0
 52
90.0
 71
     2
 49
0.5
 62
   256
  6
BYLAYER
 49
-0.5
 62
   256
  6
BYLAYER
  0
ACDBPLACEHOLDER
  5
F
102
{ACAD_REACTORS
330
E
102
}
330
E
  0
SCALE
  5
A1D1
102
{ACAD_REACTORS
330
A1D0
102
}
330
A1D0
100
AcDbScale
 70
     0
300
1:1
140
1.0
141
1.0
290
     1
  0
SCALE
  5
A1D2
102
{ACAD_REACTORS
330
A1D0
102
}
330
A1D0
100
AcDbScale
 70
     0
300
1/128" = 1'-0"
140
0.0078125
141
12.0
290
     0
  0
SCALE
  5
A1D3
102
{ACAD_REACTORS
330
A1D0
102
}
330
A1D0
100
AcDbScale
 70
     0
300
1/64" = 1'-0"
140
0.015625
141
12.0
290
     0
  0
SCALE
  5
A1D4
102
{ACAD_REACTORS
330
A1D0
102
}
330
A1D0
100
AcDbScale
 70
     0
300
1/32" = 1'-0"
140
0.03125
141
12.0
290
     0
  0
SCALE
  5
A1D5
102
{ACAD_REACTORS
330
A1D0
102
}
330
A1D0
100
AcDbScale
 70
     0
300
1/16" = 1'-0"
140
0.0625
141
12.0
290
     0
  0
SCALE
  5
A1D6
102
{ACAD_REACTORS
330
A1D0
102
}
330
A1D0
100
AcDbScale
 70
     0
300
3/32" = 1'-0"
140
0.09375
141
12.0
290
     0
  0
SCALE
  5
A1D7
102
{ACAD_REACTORS
330
A1D0
102
}
330
A1D0
100
AcDbScale
 70
     0
300
1/8" = 1'-0"
140
0.125
141
12.0
290
     0
  0
SCALE
  5
A1D8
102
{ACAD_REACTORS
330
A1D0
102
}
330
A1D0
100
AcDbScale
 70
     0
300
3/16" = 1'-0"
140
0.1875
141
12.0
290
     0
  0
SCALE
  5
A1D9
102
{ACAD_REACTORS
330
A1D0
102
}
330
A1D0
100
AcDbScale
 70
     0
300
1/4" = 1'-0"
140
0.25
141
12.0
290
     0
  0
SCALE
  5
A1DA
102
{ACAD_REACTORS
330
A1D0
102
}
330
A1D0
100
AcDbScale
 70
     0
300
3/8" = 1'-0"
140
0.375
141
12.0
290
     0
  0
SCALE
  5
A1DB
102
{ACAD_REACTORS
330
A1D0
102
}
330
A1D0
100
AcDbScale
 70
     0
300
1/2" = 1'-0"
140
0.5
141
12.0
290
     0
  0
SCALE
  5
A1DC
102
{ACAD_REACTORS
330
A1D0
102
}
330
A1D0
100
AcDbScale
 70
     0
300
3/4" = 1'-0"
140
0.75
141
12.0
290
     0
  0
SCALE
  5
A1DD
102
{ACAD_REACTORS
330
A1D0
102
}
330
A1D0
100
AcDbScale
 70
     0
300
1" = 1'-0"
140
1.0
141
12.0
290
     0
  0
SCALE
  5
A1DE
102
{ACAD_REACTORS
330
A1D0
102
}
330
A1D0
100
AcDbScale
 70
     0
300
1-1/2" = 1'-0"
140
1.5
141
12.0
290
     0
  0
SCALE
  5
A1DF
102
{ACAD_REACTORS
330
A1D0
102
}
330
A1D0
100
AcDbScale
 70
     0
300
3" = 1'-0"
140
3.0
141
12.0
290
     0
  0
SCALE
  5
A1E0
102
{ACAD_REACTORS
330
A1D0
102
}
330
A1D0
100
AcDbScale
 70
     0
300
6" = 1'-0"
140
6.0
141
12.0
290
     0
  0
SCALE
  5
A1E1
102
{ACAD_REACTORS
330
A1D0
102
}
330
A1D0
100
AcDbScale
 70
     0
300
1'-0" = 1'-0"
140
12.0
141
12.0
290
     0
  0
ACDBSECTIONVIEWSTYLE
  5
A1E5
102
{ACAD_REACTORS
330
A1E4
102
}
330
A1E4
100
AcDbModelDocViewStyle
 70
     0
  3
Imperial24
290
     1
300
Imperial24
 90
        0
100
AcDbSectionViewStyle
 70
     0
 71
     0
 90
       78
 71
     1
340
11
 62
   256
 40
0.24
340
0
340
0
 62
   256
 40
0.24
300
I, O, Q, S, X, Z
 40
0.48
 90
        3
 40
0.18
 90
        1
 71
     2
340
16
 90
       25
 62
   256
340
16
 90
       50
 62
   256
 40
0.24
 40
0.0
 40
0.24
 71
     3
340
11
 62
   256
 40
0.24
 90
        1
 40
0.75
 90
        1
300
%<\AcVar ViewType \f "%tc1">% %<\AcVar ViewSectionStartId>%-%<\AcVar ViewSectionEndId>%\PSCALE %<\AcVar ViewScale \f "%sn">%
 71
     4
 62
   256
 62
   257
300
ANSI31
 40
1.0
 90
        0
290
     0
290
     0
 90
        6
 40
0.0
 40
1.570796326794896
 40
0.2617993877991494
 40
1.308996938995747
 40
-0.2617993877991494
 40
1.832595714594046
  0
TABLESTYLE
  5
A1BC
102
{ACAD_XDICTIONARY
360
A209
102
}
102
{ACAD_REACTORS
330
A1BB
102
}
330
A1BB
100
AcDbTableStyle
280
     0
  3
Standard
 70
     0
 71
     0
 40
0.06
 41
0.06
280
     0
281
     0
  7
Standard
140
0.18
170
     2
 62
     0
 63
     7
283
     0
 90
      512
 91
        0
  1

274
    -2
284
     1
 64
     0
275
    -2
285
     1
 65
     0
276
    -2
286
     1
 66
     0
277
    -2
287
     1
 67
     0
278
    -2
288
     1
 68
     0
279
    -2
289
     1
 69
     0
  7
Standard
140
0.25
170
     5
 62
     0
 63
     7
283
     0
 90
      512
 91
        0
  1

274
    -2
284
     1
 64
     0
275
    -2
285
     1
 65
     0
276
    -2
286
     1
 66
     0
277
    -2
287
     1
 67
     0
278
    -2
288
     1
 68
     0
279
    -2
289
     1
 69
     0
  7
Standard
140
0.18
170
     5
 62
     0
 63
     7
283
     0
 90
      512
 91
        0
  1

274
    -2
284
     1
 64
     0
275
    -2
285
     1
 65
     0
276
    -2
286
     1
 66
     0
277
    -2
287
     1
 67
     0
278
    -2
288
     1
 68
     0
279
    -2
289
     1
 69
     0
  0
VISUALSTYLE
  5
A1B0
102
{ACAD_REACTORS
330
A1AA
102
}
330
A1AA
100
AcDbVisualStyle
  2
2dWireframe
 70
     4
177
     3
291
     0
 70
    58
 90
        0
176
     1
 90
        2
176
     1
 90
        0
176
     1
 90
        0
176
     1
 40
0.6
176
     1
 40
30.0
176
     1
 62
     7
420
 16777215
176
     1
 90
        1
176
     1
 90
        4
176
     1
 62
     7
176
     1
 62
   257
176
     1
 90
        1
176
     1
 90
        1
176
     1
 40
1.0
176
     1
 90
        0
176
     1
 62
   257
176
     1
 40
1.0
176
     1
 90
        1
176
     1
 90
        6
176
     1
 90
        2
176
     1
 62
     7
176
     1
 90
        5
176
     1
 90
        0
176
     1
 90
        0
176
     1
290
     0
176
     1
 90
        1
176
     1
 40
0.0
176
     1
 90
        0
176
     1
290
     1
176
     1
290
     1
176
     1
290
     0
176
     1
290
     0
176
     1
290
     0
176
     1
290
     0
176
     1
290
     0
176
     1
290
     0
176
     1
290
     0
176
     1
 90
       50
176
     1
 40
0.0
176
     1
 40
1.0
176
     1
 90
        0
176
     1
 62
    18
420
        0
176
     1
 90
       50
176
     1
 90
        3
176
     1
 62
     5
420
      255
176
     1
290
     0
176
     1
 90
       50
176
     1
 90
       50
176
     1
 90
       50
176
     1
290
     0
176
     1
 90
       50
176
     1
 62
   256
176
     0
 40
1.0
176
     0
 90
        2
176
     1
  1
strokes_ogs.tif
176
     1
290
     0
176
     1
 40
1.0
176
     1
 40
1.0
176
     1
  0
VISUALSTYLE
  5
A1B2
102
{ACAD_REACTORS
330
A1AA
102
}
330
A1AA
100
AcDbVisualStyle
  2
3D Hidden
 70
     6
177
     3
291
     0
 70
    58
 90
        1
176
     1
 90
        2
176
     1
 90
        2
176
     1
 90
        0
176
     1
 40
0.6
176
     1
 40
30.0
176
     1
 62
     7
420
 16777215
176
     1
 90
        2
176
     1
 90
        2
176
     1
 62
     7
176
     1
 62
   257
176
     1
 90
        2
176
     1
 90
        1
176
     1
 40
40.0
176
     1
 90
        0
176
     1
 62
   257
176
     1
 40
1.0
176
     1
 90
        1
176
     1
 90
        6
176
     1
 90
        2
176
     1
 62
     7
176
     1
 90
        3
176
     1
 90
        0
176
     1
 90
        0
176
     1
290
     0
176
     1
 90
        1
176
     1
 40
0.0
176
     1
 90
        0
176
     1
290
     0
176
     1
290
     1
176
     1
290
     1
176
     1
290
     0
176
     1
290
     0
176
     1
290
     0
176
     1
290
     0
176
     1
290
     0
176
     1
290
     0
176
     1
 90
       50
176
     1
 40
0.0
176
     1
 40
1.0
176
     1
 90
        0
176
     1
 62
    18
420
        0
176
     1
 90
       50
176
     1
 90
        3
176
     1
 62
     5
420
      255
176
     1
290
     0
176
     1
 90
       50
176
     1
 90
       50
176
     1
 90
       50
176
     1
290
     0
176
     1
 90
       50
176
     1
 62
   256
176
     0
 40
1.0
176
     0
 90
        2
176
     1
  1
strokes_ogs.tif
176
     1
290
     0
176
     1
 40
1.0
176
     1
 40
1.0
176
     1
  0
VISUALSTYLE
  5
A1B1
102
{ACAD_REACTORS
330
A1AA
102
}
330
A1AA
100
AcDbVisualStyle
  2
3dWireframe
 70
     5
177
     3
291
     0
 70
    58
 90
        0
176
     1
 90
        2
176
     1
 90
        0
176
     1
 90
        0
176
     1
 40
0.6
176
     1
 40
30.0
176
     1
 62
     7
420
 16777215
176
     1
 90
        1
176
     1
 90
        4
176
     1
 62
     7
176
     1
 62
   257
176
     1
 90
        1
176
     1
 90
        1
176
     1
 40
1.0
176
     1
 90
        0
176
     1
 62
   257
176
     1
 40
1.0
176
     1
 90
        1
176
     1
 90
        6
176
     1
 90
        2
176
     1
 62
     7
176
     1
 90
        5
176
     1
 90
        0
176
     1
 90
        0
176
     1
290
     0
176
     1
 90
        1
176
     1
 40
0.0
176
     1
 90
        0
176
     1
290
     0
176
     1
290
     1
176
     1
290
     1
176
     1
290
     0
176
     1
290
     0
176
     1
290
     0
176
     1
290
     0
176
     1
290
     0
176
     1
290
     0
176
     1
 90
       50
176
     1
 40
0.0
176
     1
 40
1.0
176
     1
 90
        0
176
     1
 62
    18
420
        0
176
     1
 90
       50
176
     1
 90
        3
176
     1
 62
     5
420
      255
176
     1
290
     0
176
     1
 90
       50
176
     1
 90
       50
176
     1
 90
       50
176
     1
290
     0
176
     1
 90
       50
176
     1
 62
   256
176
     0
 40
1.0
176
     0
 90
        2
176
     1
  1
strokes_ogs.tif
176
     1
290
     0
176
     1
 40
1.0
176
     1
 40
1.0
176
     1
  0
VISUALSTYLE
  5
A1AF
102
{ACAD_REACTORS
330
A1AA
102
}
330
A1AA
100
AcDbVisualStyle
  2
Basic
 70
     7
177
     3
291
     1
 70
    58
 90
        1
176
     1
 90
        0
176
     1
 90
        1
176
     1
 90
        0
176
     1
 40
0.6
176
     1
 40
30.0
176
     1
 62
     7
420
 16777215
176
     1
 90
        0
176
     1
 90
        4
176
     1
 62
     7
176
     1
 62
   257
176
     1
 90
        1
176
     1
 90
        1
176
     1
 40
1.0
176
     1
 90
        8
176
     1
 62
     7
176
     1
 40
1.0
176
     1
 90
        1
176
     1
 90
        6
176
     1
 90
        2
176
     1
 62
     7
176
     1
 90
        5
176
     1
 90
        0
176
     1
 90
        0
176
     1
290
     0
176
     1
 90
        1
176
     1
 40
0.0
176
     1
 90
        0
176
     1
290
     0
176
     1
290
     1
176
     1
290
     1
176
     1
290
     0
176
     1
290
     0
176
     1
290
     0
176
     1
290
     0
176
     1
290
     0
176
     1
290
     0
176
     1
 90
       50
176
     1
 40
0.0
176
     1
 40
1.0
176
     1
 90
        0
176
     1
 62
    18
420
        0
176
     1
 90
       50
176
     1
 90
        3
176
     1
 62
     5
420
      255
176
     1
290
     0
176
     1
 90
       50
176
     1
 90
       50
176
     1
 90
       50
176
     1
290
     0
176
     1
 90
       50
176
     1
 62
   256
176
     0
 40
1.0
176
     0
 90
        2
176
     1
  1
strokes_ogs.tif
176
     1
290
     0
176
     1
 40
1.0
176
     1
 40
1.0
176
     1
  0
VISUALSTYLE
  5
A1B6
102
{ACAD_REACTORS
330
A1AA
102
}
330
A1AA
100
AcDbVisualStyle
  2
Brighten
 70
    12
177
     3
291
     1
 70
    58
 90
        2
176
     1
 90
        2
176
     1
 90
        0
176
     1
 90
        0
176
     1
 40
0.6
176
     1
 40
30.0
176
     1
 62
     7
420
 16777215
176
     1
 90
        1
176
     1
 90
        4
176
     1
 62
     7
176
     1
 62
   257
176
     1
 90
        1
176
     1
 90
        1
176
     1
 40
1.0
176
     1
 90
        8
176
     1
 62
     7
176
     1
 40
1.0
176
     1
 90
        1
176
     1
 90
        6
176
     1
 90
        2
176
     1
 62
     7
176
     1
 90
        5
176
     1
 90
        0
176
     1
 90
        0
176
     1
290
     0
176
     1
 90
        1
176
     1
 40
50.0
176
     1
 90
        0
176
     1
290
     0
176
     1
290
     1
176
     1
290
     1
176
     1
290
     0
176
     1
290
     0
176
     1
290
     0
176
     1
290
     0
176
     1
290
     0
176
     1
290
     0
176
     1
 90
       50
176
     1
 40
0.0
176
     1
 40
1.0
176
     1
 90
        0
176
     1
 62
    18
420
        0
176
     1
 90
       50
176
     1
 90
        3
176
     1
 62
     5
420
      255
176
     1
290
     0
176
     1
 90
       50
176
     1
 90
       50
176
     1
 90
       50
176
     1
290
     0
176
     1
 90
       50
176
     1
 62
   256
176
     0
 40
1.0
176
     0
 90
        2
176
     1
  1
strokes_ogs.tif
176
     1
290
     0
176
     1
 40
1.0
176
     1
 40
1.0
176
     1
  0
VISUALSTYLE
  5
A1BA
102
{ACAD_REACTORS
330
A1AA
102
}
330
A1AA
100
AcDbVisualStyle
  2
ColorChange
 70
    16
177
     3
291
     1
 70
    58
 90
        2
176
     1
 90
        2
176
     1
 90
        3
176
     1
 90
        0
176
     1
 40
0.6
176
     1
 40
30.0
176
     1
 62
     8
420
  8421504
176
     1
 90
        1
176
     1
 90
        4
176
     1
 62
     7
176
     1
 62
   257
176
     1
 90
        1
176
     1
 90
        1
176
     1
 40
1.0
176
     1
 90
        8
176
     1
 62
     8
420
  8421504
176
     1
 40
1.0
176
     1
 90
        1
176
     1
 90
        6
176
     1
 90
        2
176
     1
 62
     7
176
     1
 90
        5
176
     1
 90
        0
176
     1
 90
        0
176
     1
290
     0
176
     1
 90
        1
176
     1
 40
0.0
176
     1
 90
        0
176
     1
290
     0
176
     1
290
     1
176
     1
290
     1
176
     1
290
     0
176
     1
290
     0
176
     1
290
     0
176
     1
290
     0
176
     1
290
     0
176
     1
290
     0
176
     1
 90
       50
176
     1
 40
0.0
176
     1
 40
1.0
176
     1
 90
        0
176
     1
 62
    18
420
        0
176
     1
 90
       50
176
     1
 90
        3
176
     1
 62
     5
420
      255
176
     1
290
     0
176
     1
 90
       50
176
     1
 90
       50
176
     1
 90
       50
176
     1
290
     0
176
     1
 90
       50
176
     1
 62
   256
176
     0
 40
1.0
176
     0
 90
        2
176
     1
  1
strokes_ogs.tif
176
     1
290
     0
176
     1
 40
1.0
176
     1
 40
1.0
176
     1
  0
VISUALSTYLE
  5
A1B3
102
{ACAD_REACTORS
330
A1AA
102
}
330
A1AA
100
AcDbVisualStyle
  2
Conceptual
 70
     9
177
     3
291
     0
 70
    58
 90
        3
176
     1
 90
        2
176
     1
 90
        0
176
     1
 90
        0
176
     1
 40
0.6
176
     1
 40
30.0
176
     1
 62
     7
420
 16777215
176
     1
 90
        2
176
     1
 90
        2
176
     1
 62
     7
176
     1
 62
   257
176
     1
 90
        1
176
     1
 90
        1
176
     1
 40
40.0
176
     1
 90
        8
176
     1
 62
     7
176
     1
 40
1.0
176
     1
 90
        1
176
     1
 90
        6
176
     1
 90
        2
176
     1
 62
     7
176
     1
 90
        3
176
     1
 90
        0
176
     1
 90
        0
176
     1
290
     0
176
     1
 90
        1
176
     1
 40
0.0
176
     1
 90
        0
176
     1
290
     0
176
     1
290
     1
176
     1
290
     1
176
     1
290
     0
176
     1
290
     0
176
     1
290
     0
176
     1
290
     0
176
     1
290
     0
176
     1
290
     0
176
     1
 90
       50
176
     1
 40
0.0
176
     1
 40
1.0
176
     1
 90
        0
176
     1
 62
    18
420
        0
176
     1
 90
       50
176
     1
 90
        3
176
     1
 62
     5
420
      255
176
     1
290
     0
176
     1
 90
       50
176
     1
 90
       50
176
     1
 90
       50
176
     1
290
     0
176
     1
 90
       50
176
     1
 62
   256
176
     0
 40
1.0
176
     0
 90
        2
176
     1
  1
strokes_ogs.tif
176
     1
290
     0
176
     1
 40
1.0
176
     1
 40
1.0
176
     1
  0
VISUALSTYLE
  5
A1B5
102
{ACAD_REACTORS
330
A1AA
102
}
330
A1AA
100
AcDbVisualStyle
  2
Dim
 70
    11
177
     3
291
     1
 70
    58
 90
        2
176
     1
 90
        2
176
     1
 90
        0
176
     1
 90
        0
176
     1
 40
0.6
176
     1
 40
30.0
176
     1
 62
     7
420
 16777215
176
     1
 90
        1
176
     1
 90
        4
176
     1
 62
     7
176
     1
 62
   257
176
     1
 90
        1
176
     1
 90
        1
176
     1
 40
1.0
176
     1
 90
        8
176
     1
 62
     7
176
     1
 40
1.0
176
     1
 90
        1
176
     1
 90
        6
176
     1
 90
        2
176
     1
 62
     7
176
     1
 90
        5
176
     1
 90
        0
176
     1
 90
        0
176
     1
290
     0
176
     1
 90
        1
176
     1
 40
-50.0
176
     1
 90
        0
176
     1
290
     0
176
     1
290
     1
176
     1
290
     1
176
     1
290
     0
176
     1
290
     0
176
     1
290
     0
176
     1
290
     0
176
     1
290
     0
176
     1
290
     0
176
     1
 90
       50
176
     1
 40
0.0
176
     1
 40
1.0
176
     1
 90
        0
176
     1
 62
    18
420
        0
176
     1
 90
       50
176
     1
 90
        3
176
     1
 62
     5
420
      255
176
     1
290
     0
176
     1
 90
       50
176
     1
 90
       50
176
     1
 90
       50
176
     1
290
     0
176
     1
 90
       50
176
     1
 62
   256
176
     0
 40
1.0
176
     0
 90
        2
176
     1
  1
strokes_ogs.tif
176
     1
290
     0
176
     1
 40
1.0
176
     1
 40
1.0
176
     1
  0
VISUALSTYLE
  5
A1CF
102
{ACAD_REACTORS
330
A1AA
102
}
330
A1AA
100
AcDbVisualStyle
  2
EdgeColorOff
 70
    22
177
     3
291
     1
 70
    58
 90
        2
176
     0
 90
        2
176
     0
 90
        0
176
     0
 90
        0
176
     0
 40
0.6
176
     0
 40
30.0
176
     0
 62
     7
420
 16777215
176
     0
 90
        1
176
     0
 90
        4
176
     0
 62
     7
176
     0
 62
   257
176
     0
 90
        1
176
     0
 90
        1
176
     0
 40
1.0
176
     0
 90
        8
176
     2
 62
     7
176
     0
 40
1.0
176
     0
 90
        1
176
     0
 90
        6
176
     0
 90
        2
176
     0
 62
     7
176
     0
 90
        5
176
     0
 90
        0
176
     0
 90
        0
176
     0
290
     0
176
     0
 90
        1
176
     0
 40
0.0
176
     0
 90
        0
176
     0
290
     0
176
     0
290
     1
176
     0
290
     1
176
     0
290
     0
176
     0
290
     0
176
     0
290
     0
176
     0
290
     0
176
     0
290
     0
176
     0
290
     0
176
     0
 90
       50
176
     0
 40
0.0
176
     0
 40
1.0
176
     0
 90
        0
176
     0
 62
    18
420
        0
176
     0
 90
       50
176
     0
 90
        3
176
     0
 62
     5
420
      255
176
     0
290
     0
176
     0
 90
       50
176
     0
 90
       50
176
     0
 90
       50
176
     0
290
     0
176
     0
 90
       50
176
     0
 62
   256
176
     0
 40
1.0
176
     0
 90
        2
176
     0
  1
strokes_ogs.tif
176
     0
290
     0
176
     0
 40
1.0
176
     0
 40
1.0
176
     0
  0
VISUALSTYLE
  5
A1B9
102
{ACAD_REACTORS
330
A1AA
102
}
330
A1AA
100
AcDbVisualStyle
  2
Facepattern
 70
    15
177
     3
291
     1
 70
    58
 90
        2
176
     1
 90
        2
176
     1
 90
        0
176
     1
 90
        0
176
     1
 40
0.6
176
     1
 40
30.0
176
     1
 62
     7
420
 16777215
176
     1
 90
        1
176
     1
 90
        4
176
     1
 62
     7
176
     1
 62
   257
176
     1
 90
        1
176
     1
 90
        1
176
     1
 40
1.0
176
     1
 90
        8
176
     1
 62
     7
176
     1
 40
1.0
176
     1
 90
        1
176
     1
 90
        6
176
     1
 90
        2
176
     1
 62
     7
176
     1
 90
        5
176
     1
 90
        0
176
     1
 90
        0
176
     1
290
     0
176
     1
 90
        1
176
     1
 40
0.0
176
     1
 90
        0
176
     1
290
     0
176
     1
290
     1
176
     1
290
     1
176
     1
290
     0
176
     1
290
     0
176
     1
290
     0
176
     1
290
     0
176
     1
290
     0
176
     1
290
     0
176
     1
 90
       50
176
     1
 40
0.0
176
     1
 40
1.0
176
     1
 90
        0
176
     1
 62
    18
420
        0
176
     1
 90
       50
176
     1
 90
        3
176
     1
 62
     5
420
      255
176
     1
290
     0
176
     1
 90
       50
176
     1
 90
       50
176
     1
 90
       50
176
     1
290
     0
176
     1
 90
       50
176
     1
 62
   256
176
     0
 40
1.0
176
     0
 90
        2
176
     1
  1
strokes_ogs.tif
176
     1
290
     0
176
     1
 40
1.0
176
     1
 40
1.0
176
     1
  0
VISUALSTYLE
  5
A1AB
102
{ACAD_REACTORS
330
A1AA
102
}
330
A1AA
100
AcDbVisualStyle
  2
Flat
 70
     0
177
     3
291
     1
 70
    58
 90
        2
176
     1
 90
        1
176
     1
 90
        1
176
     1
 90
        2
176
     1
 40
0.6
176
     1
 40
30.0
176
     1
 62
     7
420
 16777215
176
     1
 90
        0
176
     1
 90
        4
176
     1
 62
     7
176
     1
 62
   257
176
     1
 90
        1
176
     1
 90
        1
176
     1
 40
1.0
176
     1
 90
        8
176
     1
 62
     7
176
     1
 40
1.0
176
     1
 90
        1
176
     1
 90
        6
176
     1
 90
        2
176
     1
 62
     7
176
     1
 90
        5
176
     1
 90
        0
176
     1
 90
        0
176
     1
290
     0
176
     1
 90
       13
176
     1
 40
0.0
176
     1
 90
        0
176
     1
290
     0
176
     1
290
     1
176
     1
290
     1
176
     1
290
     0
176
     1
290
     0
176
     1
290
     0
176
     1
290
     0
176
     1
290
     0
176
     1
290
     0
176
     1
 90
       50
176
     1
 40
0.0
176
     1
 40
1.0
176
     1
 90
        0
176
     1
 62
    18
420
        0
176
     1
 90
       50
176
     1
 90
        3
176
     1
 62
     5
420
      255
176
     1
290
     0
176
     1
 90
       50
176
     1
 90
       50
176
     1
 90
       50
176
     1
290
     0
176
     1
 90
       50
176
     1
 62
   256
176
     0
 40
1.0
176
     0
 90
        2
176
     1
  1
strokes_ogs.tif
176
     1
290
     0
176
     1
 40
1.0
176
     1
 40
1.0
176
     1
  0
VISUALSTYLE
  5
A1AC
102
{ACAD_REACTORS
330
A1AA
102
}
330
A1AA
100
AcDbVisualStyle
  2
FlatWithEdges
 70
     1
177
     3
291
     1
 70
    58
 90
        2
176
     1
 90
        1
176
     1
 90
        1
176
     1
 90
        2
176
     1
 40
0.6
176
     1
 40
30.0
176
     1
 62
     7
420
 16777215
176
     1
 90
        1
176
     1
 90
        4
176
     1
 62
     7
176
     1
 62
   257
176
     1
 90
        1
176
     1
 90
        1
176
     1
 40
1.0
176
     1
 90
        0
176
     1
 62
   257
176
     1
 40
1.0
176
     1
 90
        1
176
     1
 90
        6
176
     1
 90
        2
176
     1
 62
     7
176
     1
 90
        5
176
     1
 90
        0
176
     1
 90
        0
176
     1
290
     0
176
     1
 90
       13
176
     1
 40
0.0
176
     1
 90
        0
176
     1
290
     0
176
     1
290
     1
176
     1
290
     1
176
     1
290
     0
176
     1
290
     0
176
     1
290
     0
176
     1
290
     0
176
     1
290
     0
176
     1
290
     0
176
     1
 90
       50
176
     1
 40
0.0
176
     1
 40
1.0
176
     1
 90
        0
176
     1
 62
    18
420
        0
176
     1
 90
       50
176
     1
 90
        3
176
     1
 62
     5
420
      255
176
     1
290
     0
176
     1
 90
       50
176
     1
 90
       50
176
     1
 90
       50
176
     1
290
     0
176
     1
 90
       50
176
     1
 62
   256
176
     0
 40
1.0
176
     0
 90
        2
176
     1
  1
strokes_ogs.tif
176
     1
290
     0
176
     1
 40
1.0
176
     1
 40
1.0
176
     1
  0
VISUALSTYLE
  5
A1AD
102
{ACAD_REACTORS
330
A1AA
102
}
330
A1AA
100
AcDbVisualStyle
  2
Gouraud
 70
     2
177
     3
291
     1
 70
    58
 90
        2
176
     1
 90
        2
176
     1
 90
        1
176
     1
 90
        2
176
     1
 40
0.6
176
     1
 40
30.0
176
     1
 62
     7
420
 16777215
176
     1
 90
        0
176
     1
 90
        4
176
     1
 62
     7
176
     1
 62
   257
176
     1
 90
        1
176
     1
 90
        1
176
     1
 40
1.0
176
     1
 90
        0
176
     1
 62
     7
176
     1
 40
1.0
176
     1
 90
        1
176
     1
 90
        6
176
     1
 90
        2
176
     1
 62
     7
176
     1
 90
        5
176
     1
 90
        0
176
     1
 90
        0
176
     1
290
     0
176
     1
 90
       13
176
     1
 40
0.0
176
     1
 90
        0
176
     1
290
     0
176
     1
290
     1
176
     1
290
     1
176
     1
290
     0
176
     1
290
     0
176
     1
290
     0
176
     1
290
     0
176
     1
290
     0
176
     1
290
     0
176
     1
 90
       50
176
     1
 40
0.0
176
     1
 40
1.0
176
     1
 90
        0
176
     1
 62
    18
420
        0
176
     1
 90
       50
176
     1
 90
        3
176
     1
 62
     5
420
      255
176
     1
290
     0
176
     1
 90
       50
176
     1
 90
       50
176
     1
 90
       50
176
     1
290
     0
176
     1
 90
       50
176
     1
 62
   256
176
     0
 40
1.0
176
     0
 90
        2
176
     1
  1
strokes_ogs.tif
176
     1
290
     0
176
     1
 40
1.0
176
     1
 40
1.0
176
     1
  0
VISUALSTYLE
  5
A1AE
102
{ACAD_REACTORS
330
A1AA
102
}
330
A1AA
100
AcDbVisualStyle
  2
GouraudWithEdges
 70
     3
177
     3
291
     1
 70
    58
 90
        2
176
     1
 90
        2
176
     1
 90
        1
176
     1
 90
        2
176
     1
 40
0.6
176
     1
 40
30.0
176
     1
 62
     7
420
 16777215
176
     1
 90
        1
176
     1
 90
        4
176
     1
 62
     7
176
     1
 62
   257
176
     1
 90
        1
176
     1
 90
        1
176
     1
 40
1.0
176
     1
 90
        0
176
     1
 62
   257
176
     1
 40
1.0
176
     1
 90
        1
176
     1
 90
        6
176
     1
 90
        2
176
     1
 62
     7
176
     1
 90
        5
176
     1
 90
        0
176
     1
 90
        0
176
     1
290
     0
176
     1
 90
       13
176
     1
 40
0.0
176
     1
 90
        0
176
     1
290
     0
176
     1
290
     1
176
     1
290
     1
176
     1
290
     0
176
     1
290
     0
176
     1
290
     0
176
     1
290
     0
176
     1
290
     0
176
     1
290
     0
176
     1
 90
       50
176
     1
 40
0.0
176
     1
 40
1.0
176
     1
 90
        0
176
     1
 62
    18
420
        0
176
     1
 90
       50
176
     1
 90
        3
176
     1
 62
     5
420
      255
176
     1
290
     0
176
     1
 90
       50
176
     1
 90
       50
176
     1
 90
       50
176
     1
290
     0
176
     1
 90
       50
176
     1
 62
   256
176
     0
 40
1.0
176
     0
 90
        2
176
     1
  1
strokes_ogs.tif
176
     1
290
     0
176
     1
 40
1.0
176
     1
 40
1.0
176
     1
  0
VISUALSTYLE
  5
A1C7
102
{ACAD_REACTORS
330
A1AA
102
}
330
A1AA
100
AcDbVisualStyle
  2
Hidden
 70
     6
177
     3
291
     0
 70
    58
 90
        1
176
     1
 90
        2
176
     1
 90
        2
176
     1
 90
        0
176
     1
 40
0.6
176
     1
 40
30.0
176
     1
 62
     7
420
 16777215
176
     1
 90
        2
176
     1
 90
        2
176
     1
 62
     7
176
     1
 62
   257
176
     1
 90
        2
176
     1
 90
        1
176
     1
 40
40.0
176
     1
 90
        0
176
     1
 62
   257
176
     1
 40
1.0
176
     1
 90
        1
176
     1
 90
        6
176
     1
 90
        2
176
     1
 62
     7
176
     1
 90
        3
176
     1
 90
        0
176
     1
 90
        0
176
     1
290
     0
176
     1
 90
        1
176
     1
 40
0.0
176
     1
 90
        0
176
     1
290
     0
176
     1
290
     1
176
     1
290
     1
176
     1
290
     0
176
     1
290
     0
176
     1
290
     0
176
     1
290
     0
176
     1
290
     0
176
     1
290
     0
176
     1
 90
       50
176
     1
 40
0.0
176
     1
 40
1.0
176
     1
 90
        0
176
     1
 62
    18
420
        0
176
     1
 90
       50
176
     1
 90
        3
176
     1
 62
     5
420
      255
176
     1
290
     0
176
     1
 90
       50
176
     1
 90
       50
176
     1
 90
       50
176
     1
290
     0
176
     1
 90
       50
176
     1
 62
   256
176
     0
 40
1.0
176
     0
 90
        2
176
     1
  1
strokes_ogs.tif
176
     1
290
     0
176
     1
 40
1.0
176
     1
 40
1.0
176
     1
  0
VISUALSTYLE
  5
A1CD
102
{ACAD_REACTORS
330
A1AA
102
}
330
A1AA
100
AcDbVisualStyle
  2
JitterOff
 70
    20
177
     3
291
     1
 70
    58
 90
        2
176
     0
 90
        2
176
     0
 90
        0
176
     0
 90
        0
176
     0
 40
0.6
176
     0
 40
30.0
176
     0
 62
     7
420
 16777215
176
     0
 90
        1
176
     0
 90
        4
176
     0
 62
     7
176
     0
 62
   257
176
     0
 90
        1
176
     0
 90
        1
176
     0
 40
1.0
176
     0
 90
       10
176
     2
 62
     7
176
     0
 40
1.0
176
     0
 90
        1
176
     0
 90
        6
176
     0
 90
        2
176
     0
 62
     7
176
     0
 90
        5
176
     0
 90
        0
176
     0
 90
        0
176
     0
290
     0
176
     0
 90
        1
176
     0
 40
0.0
176
     0
 90
        0
176
     0
290
     0
176
     0
290
     1
176
     0
290
     1
176
     0
290
     0
176
     0
290
     0
176
     0
290
     0
176
     0
290
     0
176
     0
290
     0
176
     0
290
     0
176
     0
 90
       50
176
     0
 40
0.0
176
     0
 40
1.0
176
     0
 90
        0
176
     0
 62
    18
420
        0
176
     0
 90
       50
176
     0
 90
        3
176
     0
 62
     5
420
      255
176
     0
290
     0
176
     0
 90
       50
176
     0
 90
       50
176
     0
 90
       50
176
     0
290
     0
176
     0
 90
       50
176
     0
 62
   256
176
     0
 40
1.0
176
     0
 90
        2
176
     0
  1
strokes_ogs.tif
176
     0
290
     0
176
     0
 40
1.0
176
     0
 40
1.0
176
     0
  0
VISUALSTYLE
  5
A1B8
102
{ACAD_REACTORS
330
A1AA
102
}
330
A1AA
100
AcDbVisualStyle
  2
Linepattern
 70
    14
177
     3
291
     1
 70
    58
 90
        2
176
     1
 90
        2
176
     1
 90
        0
176
     1
 90
        0
176
     1
 40
0.6
176
     1
 40
30.0
176
     1
 62
     7
420
 16777215
176
     1
 90
        1
176
     1
 90
        4
176
     1
 62
     7
176
     1
 62
   257
176
     1
 90
        7
176
     1
 90
        7
176
     1
 40
1.0
176
     1
 90
        8
176
     1
 62
     7
176
     1
 40
1.0
176
     1
 90
        1
176
     1
 90
        6
176
     1
 90
        2
176
     1
 62
     7
176
     1
 90
        5
176
     1
 90
        0
176
     1
 90
        0
176
     1
290
     0
176
     1
 90
        1
176
     1
 40
0.0
176
     1
 90
        0
176
     1
290
     0
176
     1
290
     1
176
     1
290
     1
176
     1
290
     0
176
     1
290
     0
176
     1
290
     0
176
     1
290
     0
176
     1
290
     0
176
     1
290
     0
176
     1
 90
       50
176
     1
 40
0.0
176
     1
 40
1.0
176
     1
 90
        0
176
     1
 62
    18
420
        0
176
     1
 90
       50
176
     1
 90
        3
176
     1
 62
     5
420
      255
176
     1
290
     0
176
     1
 90
       50
176
     1
 90
       50
176
     1
 90
       50
176
     1
290
     0
176
     1
 90
       50
176
     1
 62
   256
176
     0
 40
1.0
176
     0
 90
        2
176
     1
  1
strokes_ogs.tif
176
     1
290
     0
176
     1
 40
1.0
176
     1
 40
1.0
176
     1
  0
VISUALSTYLE
  5
A1CE
102
{ACAD_REACTORS
330
A1AA
102
}
330
A1AA
100
AcDbVisualStyle
  2
OverhangOff
 70
    21
177
     3
291
     1
 70
    58
 90
        2
176
     0
 90
        2
176
     0
 90
        0
176
     0
 90
        0
176
     0
 40
0.6
176
     0
 40
30.0
176
     0
 62
     7
420
 16777215
176
     0
 90
        1
176
     0
 90
        4
176
     0
 62
     7
176
     0
 62
   257
176
     0
 90
        1
176
     0
 90
        1
176
     0
 40
1.0
176
     0
 90
        9
176
     2
 62
     7
176
     0
 40
1.0
176
     0
 90
        1
176
     0
 90
        6
176
     0
 90
        2
176
     0
 62
     7
176
     0
 90
        5
176
     0
 90
        0
176
     0
 90
        0
176
     0
290
     0
176
     0
 90
        1
176
     0
 40
0.0
176
     0
 90
        0
176
     0
290
     0
176
     0
290
     1
176
     0
290
     1
176
     0
290
     0
176
     0
290
     0
176
     0
290
     0
176
     0
290
     0
176
     0
290
     0
176
     0
290
     0
176
     0
 90
       50
176
     0
 40
0.0
176
     0
 40
1.0
176
     0
 90
        0
176
     0
 62
    18
420
        0
176
     0
 90
       50
176
     0
 90
        3
176
     0
 62
     5
420
      255
176
     0
290
     0
176
     0
 90
       50
176
     0
 90
       50
176
     0
 90
       50
176
     0
290
     0
176
     0
 90
       50
176
     0
 62
   256
176
     0
 40
1.0
176
     0
 90
        2
176
     0
  1
strokes_ogs.tif
176
     0
290
     0
176
     0
 40
1.0
176
     0
 40
1.0
176
     0
  0
VISUALSTYLE
  5
A1B4
102
{ACAD_REACTORS
330
A1AA
102
}
330
A1AA
100
AcDbVisualStyle
  2
Realistic
 70
     8
177
     3
291
     0
 70
    58
 90
        2
176
     1
 90
        2
176
     1
 90
        0
176
     1
 90
        0
176
     1
 40
0.6
176
     1
 40
30.0
176
     1
 62
     7
420
 16777215
176
     1
 90
        1
176
     1
 90
        0
176
     1
 62
     7
176
     1
 62
   257
176
     1
 90
        1
176
     1
 90
        1
176
     1
 40
1.0
176
     1
 90
        8
176
     1
 62
     8
420
  7895160
176
     1
 40
1.0
176
     1
 90
        1
176
     1
 90
        6
176
     1
 90
        2
176
     1
 62
     7
176
     1
 90
        5
176
     1
 90
        0
176
     1
 90
        0
176
     1
290
     0
176
     1
 90
       13
176
     1
 40
0.0
176
     1
 90
        0
176
     1
290
     0
176
     1
290
     1
176
     1
290
     1
176
     1
290
     0
176
     1
290
     0
176
     1
290
     0
176
     1
290
     0
176
     1
290
     0
176
     1
290
     0
176
     1
 90
       50
176
     1
 40
0.0
176
     1
 40
1.0
176
     1
 90
        0
176
     1
 62
    18
420
        0
176
     1
 90
       50
176
     1
 90
        3
176
     1
 62
     5
420
      255
176
     1
290
     0
176
     1
 90
       50
176
     1
 90
       50
176
     1
 90
       50
176
     1
290
     0
176
     1
 90
       50
176
     1
 62
   256
176
     0
 40
1.0
176
     0
 90
        2
176
     1
  1
strokes_ogs.tif
176
     1
290
     0
176
     1
 40
1.0
176
     1
 40
1.0
176
     1
  0
VISUALSTYLE
  5
A1CC
102
{ACAD_REACTORS
330
A1AA
102
}
330
A1AA
100
AcDbVisualStyle
  2
Shaded
 70
    27
177
     3
291
     0
 70
    58
 90
        2
176
     1
 90
        2
176
     1
 90
        1
176
     1
 90
        2
176
     1
 40
0.6
176
     1
 40
30.0
176
     1
 62
     7
420
 16777215
176
     1
 90
        0
176
     1
 90
        4
176
     1
 62
     7
176
     1
 62
   257
176
     1
 90
        1
176
     1
 90
        1
176
     1
 40
1.0
176
     1
 90
        8
176
     1
 62
   257
176
     1
 40
1.0
176
     1
 90
        1
176
     1
 90
        6
176
     1
 90
        2
176
     1
 62
     8
420
  7895160
176
     1
 90
        3
176
     1
 90
        0
176
     1
 90
        0
176
     1
290
     0
176
     1
 90
        5
176
     1
 40
0.0
176
     1
 90
        0
176
     1
290
     0
176
     1
290
     1
176
     1
290
     1
176
     1
290
     0
176
     1
290
     0
176
     1
290
     0
176
     1
290
     0
176
     1
290
     0
176
     1
290
     0
176
     1
 90
       50
176
     1
 40
0.0
176
     1
 40
1.0
176
     1
 90
        0
176
     1
 62
    18
420
        0
176
     1
 90
       50
176
     1
 90
        3
176
     1
 62
     5
420
      255
176
     1
290
     0
176
     1
 90
       50
176
     1
 90
       50
176
     1
 90
       50
176
     1
290
     0
176
     1
 90
       50
176
     1
 62
   256
176
     0
 40
1.0
176
     0
 90
        2
176
     1
  1
strokes_ogs.tif
176
     1
290
     0
176
     1
 40
1.0
176
     1
 40
1.0
176
     1
  0
VISUALSTYLE
  5
A1CB
102
{ACAD_REACTORS
330
A1AA
102
}
330
A1AA
100
AcDbVisualStyle
  2
Shaded with edges
 70
    26
177
     3
291
     0
 70
    58
 90
        2
176
     1
 90
        2
176
     1
 90
        1
176
     1
 90
        2
176
     1
 40
0.6
176
     1
 40
30.0
176
     1
 62
     7
420
 16777215
176
     1
 90
        1
176
     1
 90
        2
176
     1
 62
     7
176
     1
 62
   257
176
     1
 90
        2
176
     1
 90
        1
176
     1
 40
1.0
176
     1
 90
        8
176
     1
 62
   257
176
     1
 40
1.0
176
     1
 90
        1
176
     1
 90
        6
176
     1
 90
        2
176
     1
 62
     7
176
     1
 90
        3
176
     1
 90
        0
176
     1
 90
        0
176
     1
290
     0
176
     1
 90
        5
176
     1
 40
0.0
176
     1
 90
        0
176
     1
290
     0
176
     1
290
     1
176
     1
290
     1
176
     1
290
     0
176
     1
290
     0
176
     1
290
     0
176
     1
290
     0
176
     1
290
     0
176
     1
290
     0
176
     1
 90
       50
176
     1
 40
0.0
176
     1
 40
1.0
176
     1
 90
        0
176
     1
 62
    18
420
        0
176
     1
 90
       50
176
     1
 90
        3
176
     1
 62
     5
420
      255
176
     1
290
     0
176
     1
 90
       50
176
     1
 90
       50
176
     1
 90
       50
176
     1
290
     0
176
     1
 90
       50
176
     1
 62
   256
176
     0
 40
1.0
176
     0
 90
        2
176
     1
  1
strokes_ogs.tif
176
     1
290
     0
176
     1
 40
1.0
176
     1
 40
1.0
176
     1
  0
VISUALSTYLE
  5
A1C8
102
{ACAD_REACTORS
330
A1AA
102
}
330
A1AA
100
AcDbVisualStyle
  2
Shades of Gray
 70
    23
177
     3
291
     0
 70
    58
 90
        2
176
     1
 90
        2
176
     1
 90
        3
176
     1
 90
        0
176
     1
 40
0.6
176
     1
 40
30.0
176
     1
 62
     7
420
 16777215
176
     1
 90
        2
176
     1
 90
        2
176
     1
 62
     7
176
     1
 62
     7
176
     1
 90
        1
176
     1
 90
        1
176
     1
 40
40.0
176
     1
 90
        8
176
     1
 62
     7
176
     1
 40
1.0
176
     1
 90
        1
176
     1
 90
        6
176
     1
 90
        2
176
     1
 62
     7
176
     1
 90
        3
176
     1
 90
        0
176
     1
 90
        0
176
     1
290
     0
176
     1
 90
        1
176
     1
 40
0.0
176
     1
 90
        0
176
     1
290
     0
176
     1
290
     1
176
     1
290
     1
176
     1
290
     0
176
     1
290
     0
176
     1
290
     0
176
     1
290
     0
176
     1
290
     0
176
     1
290
     0
176
     1
 90
       50
176
     1
 40
0.0
176
     1
 40
1.0
176
     1
 90
        0
176
     1
 62
    18
420
        0
176
     1
 90
       50
176
     1
 90
        3
176
     1
 62
     5
420
      255
176
     1
290
     0
176
     1
 90
       50
176
     1
 90
       50
176
     1
 90
       50
176
     1
290
     0
176
     1
 90
       50
176
     1
 62
   256
176
     0
 40
1.0
176
     0
 90
        2
176
     1
  1
strokes_ogs.tif
176
     1
290
     0
176
     1
 40
1.0
176
     1
 40
1.0
176
     1
  0
VISUALSTYLE
  5
A1C9
102
{ACAD_REACTORS
330
A1AA
102
}
330
A1AA
100
AcDbVisualStyle
  2
Sketchy
 70
    24
177
     3
291
     0
 70
    58
 90
        1
176
     1
 90
        2
176
     1
 90
        2
176
     1
 90
        0
176
     1
 40
0.6
176
     1
 40
30.0
176
     1
 62
     7
420
 16777215
176
     1
 90
        2
176
     1
 90
        2
176
     1
 62
     7
176
     1
 62
     7
176
     1
 90
        1
176
     1
 90
        1
176
     1
 40
40.0
176
     1
 90
       11
176
     1
 62
     7
176
     1
 40
1.0
176
     1
 90
        1
176
     1
 90
        6
176
     1
 90
        2
176
     1
 62
     7
176
     1
 90
        6
176
     1
 90
        0
176
     1
 90
        0
176
     1
290
     0
176
     1
 90
        1
176
     1
 40
0.0
176
     1
 90
        0
176
     1
290
     0
176
     1
290
     1
176
     1
290
     1
176
     1
290
     0
176
     1
290
     0
176
     1
290
     0
176
     1
290
     0
176
     1
290
     0
176
     1
290
     0
176
     1
 90
       50
176
     1
 40
0.0
176
     1
 40
1.0
176
     1
 90
        0
176
     1
 62
    18
420
        0
176
     1
 90
       50
176
     1
 90
        3
176
     1
 62
     5
420
      255
176
     1
290
     0
176
     1
 90
       50
176
     1
 90
       50
176
     1
 90
       50
176
     1
290
     0
176
     1
 90
       50
176
     1
 62
   256
176
     0
 40
1.0
176
     0
 90
        2
176
     1
  1
strokes_ogs.tif
176
     1
290
     0
176
     1
 40
1.0
176
     1
 40
1.0
176
     1
  0
VISUALSTYLE
  5
A1B7
102
{ACAD_REACTORS
330
A1AA
102
}
330
A1AA
100
AcDbVisualStyle
  2
Thicken
 70
    13
177
     3
291
     1
 70
    58
 90
        2
176
     1
 90
        2
176
     1
 90
        0
176
     1
 90
        0
176
     1
 40
0.6
176
     1
 40
30.0
176
     1
 62
     7
420
 16777215
176
     1
 90
        1
176
     1
 90
        4
176
     1
 62
     7
176
     1
 62
   257
176
     1
 90
        1
176
     1
 90
        1
176
     1
 40
1.0
176
     1
 90
       12
176
     1
 62
     7
176
     1
 40
1.0
176
     1
 90
        1
176
     1
 90
        6
176
     1
 90
        2
176
     1
 62
     7
176
     1
 90
        5
176
     1
 90
        0
176
     1
 90
        0
176
     1
290
     0
176
     1
 90
        1
176
     1
 40
0.0
176
     1
 90
        0
176
     1
290
     0
176
     1
290
     1
176
     1
290
     1
176
     1
290
     0
176
     1
290
     0
176
     1
290
     0
176
     1
290
     0
176
     1
290
     0
176
     1
290
     0
176
     1
 90
       50
176
     1
 40
0.0
176
     1
 40
1.0
176
     1
 90
        0
176
     1
 62
    18
420
        0
176
     1
 90
       50
176
     1
 90
        3
176
     1
 62
     5
420
      255
176
     1
290
     0
176
     1
 90
       50
176
     1
 90
       50
176
     1
 90
       50
176
     1
290
     0
176
     1
 90
       50
176
     1
 62
   256
176
     0
 40
1.0
176
     0
 90
        2
176
     1
  1
strokes_ogs.tif
176
     1
290
     0
176
     1
 40
1.0
176
     1
 40
1.0
176
     1
  0
VISUALSTYLE
  5
A1C6
102
{ACAD_REACTORS
330
A1AA
102
}
330
A1AA
100
AcDbVisualStyle
  2
Wireframe
 70
     5
177
     3
291
     0
 70
    58
 90
        0
176
     1
 90
        2
176
     1
 90
        0
176
     1
 90
        0
176
     1
 40
0.6
176
     1
 40
30.0
176
     1
 62
     7
420
 16777215
176
     1
 90
        1
176
     1
 90
        4
176
     1
 62
     7
176
     1
 62
   257
176
     1
 90
        1
176
     1
 90
        1
176
     1
 40
1.0
176
     1
 90
        0
176
     1
 62
   257
176
     1
 40
1.0
176
     1
 90
        1
176
     1
 90
        6
176
     1
 90
        2
176
     1
 62
     7
176
     1
 90
        3
176
     1
 90
        0
176
     1
 90
        0
176
     1
290
     0
176
     1
 90
        1
176
     1
 40
0.0
176
     1
 90
        0
176
     1
290
     0
176
     1
290
     1
176
     1
290
     1
176
     1
290
     0
176
     1
290
     0
176
     1
290
     0
176
     1
290
     0
176
     1
290
     0
176
     1
290
     0
176
     1
 90
       50
176
     1
 40
0.0
176
     1
 40
1.0
176
     1
 90
        0
176
     1
 62
    18
420
        0
176
     1
 90
       50
176
     1
 90
        3
176
     1
 62
     5
420
      255
176
     1
290
     0
176
     1
 90
       50
176
     1
 90
       50
176
     1
 90
       50
176
     1
290
     0
176
     1
 90
       50
176
     1
 62
   256
176
     0
 40
1.0
176
     0
 90
        2
176
     1
  1
strokes_ogs.tif
176
     1
290
     0
176
     1
 40
1.0
176
     1
 40
1.0
176
     1
  0
VISUALSTYLE
  5
A1CA
102
{ACAD_REACTORS
330
A1AA
102
}
330
A1AA
100
AcDbVisualStyle
  2
X-Ray
 70
    25
177
     3
291
     0
 70
    58
 90
        2
176
     1
 90
        2
176
     1
 90
        1
176
     1
 90
        1
176
     1
 40
0.5
176
     1
 40
30.0
176
     1
 62
     7
420
 16777215
176
     1
 90
        1
176
     1
 90
        0
176
     1
 62
     7
176
     1
 62
   257
176
     1
 90
        1
176
     1
 90
        1
176
     1
 40
1.0
176
     1
 90
        8
176
     1
 62
     7
176
     1
 40
1.0
176
     1
 90
        1
176
     1
 90
        6
176
     1
 90
        2
176
     1
 62
     7
176
     1
 90
        3
176
     1
 90
        0
176
     1
 90
        0
176
     1
290
     0
176
     1
 90
       13
176
     1
 40
0.0
176
     1
 90
        0
176
     1
290
     0
176
     1
290
     1
176
     1
290
     1
176
     1
290
     0
176
     1
290
     0
176
     1
290
     0
176
     1
290
     0
176
     1
290
     0
176
     1
290
     0
176
     1
 90
       50
176
     1
 40
0.0
176
     1
 40
1.0
176
     1
 90
        0
176
     1
 62
    18
420
        0
176
     1
 90
       50
176
     1
 90
        3
176
     1
 62
     5
420
      255
176
     1
290
     0
176
     1
 90
       50
176
     1
 90
       50
176
     1
 90
       50
176
     1
290
     0
176
     1
 90
       50
176
     1
 62
   256
176
     0
 40
1.0
176
     0
 90
        2
176
     1
  1
strokes_ogs.tif
176
     1
290
     0
176
     1
 40
1.0
176
     1
 40
1.0
176
     1
  0
DICTIONARYVAR
  5
A205
102
{ACAD_REACTORS
330
66
102
}
330
66
100
DictionaryVariables
280
     0
  1
1:1
  0
DICTIONARYVAR
  5
A201
102
{ACAD_REACTORS
330
66
102
}
330
66
100
DictionaryVariables
280
     0
  1
STANDARD
  0
DICTIONARYVAR
  5
A1C4
102
{ACAD_REACTORS
330
66
102
}
330
66
100
DictionaryVariables
280
     0
  1
STANDARD
  0
DICTIONARYVAR
  5
A202
102
{ACAD_REACTORS
330
66
102
}
330
66
100
DictionaryVariables
280
     0
  1
Imperial24
  0
DICTIONARYVAR
  5
A203
102
{ACAD_REACTORS
330
66
102
}
330
66
100
DictionaryVariables
280
     0
  1
Imperial24
  0
DICTIONARYVAR
  5
67
102
{ACAD_REACTORS
330
66
102
}
330
66
100
DictionaryVariables
280
     0
  1
2
  0
DICTIONARYVAR
  5
6B
102
{ACAD_REACTORS
330
66
102
}
330
66
100
DictionaryVariables
280
     0
  1
1
  0
DICTIONARYVAR
  5
A207
102
{ACAD_REACTORS
330
66
102
}
330
66
100
DictionaryVariables
280
     0
  1
1
  0
DICTIONARYVAR
  5
A208
102
{ACAD_REACTORS
330
66
102
}
330
66
100
DictionaryVariables
280
     0
  1
15
  0
DICTIONARYVAR
  5
A206
102
{ACAD_REACTORS
330
66
102
}
330
66
100
DictionaryVariables
280
     0
  1
0
  0
DICTIONARYVAR
  5
A204
102
{ACAD_REACTORS
330
66
102
}
330
66
100
DictionaryVariables
280
     0
  1
0
  0
DICTIONARYVAR
  5
29D
102
{ACAD_REACTORS
330
66
102
}
330
66
100
DictionaryVariables
280
     0
  1

  0
ACAD_PROXY_OBJECT
  5
A1C3
102
{ACAD_REACTORS
330
A1C2
102
}
330
A1C2
100
AcDbProxyObject
 90
      499
 91
      508
 71
    27
 97
        1
 70
     0
162
                 0
161
               224
310
00013FFFD0C4040800000000000004402826564C4F2D52202E20302979
 94
        0
  0
DICTIONARY
  5
A209
330
A1BC
100
AcDbDictionary
280
     1
281
     1
  3
ACAD_ROUNDTRIP_2008_TABLESTYLE_CELLSTYLEMAP
360
A20A
  0
CELLSTYLEMAP
  5
A20A
102
{ACAD_REACTORS
330
A209
102
}
330
A209
100
AcDbCellStyleMap
 90
        3
300
CELLSTYLE
  1
TABLEFORMAT_BEGIN
 90
        5
170
     1
 91
        0
 92
    32768
 62
   257
 93
        1
300
CONTENTFORMAT
  1
CONTENTFORMAT_BEGIN
 90
        0
 91
        0
 92
      512
 93
        0
300

 40
0.0
140
1.0
 94
        5
 62
     0
340
11
144
0.25
309
CONTENTFORMAT_END
171
     0
 94
        6
 95
        1
302
GRIDFORMAT
  1
GRIDFORMAT_BEGIN
 90
        0
 91
        1
 62
     0
 92
       -2
340
0
 93
        0
 40
0.045
309
GRIDFORMAT_END
 95
        2
302
GRIDFORMAT
  1
GRIDFORMAT_BEGIN
 90
        0
 91
        1
 62
     0
 92
       -2
340
0
 93
        0
 40
0.045
309
GRIDFORMAT_END
 95
        4
302
GRIDFORMAT
  1
GRIDFORMAT_BEGIN
 90
        0
 91
        1
 62
     0
 92
       -2
340
0
 93
        0
 40
0.045
309
GRIDFORMAT_END
 95
        8
302
GRIDFORMAT
  1
GRIDFORMAT_BEGIN
 90
        0
 91
        1
 62
     0
 92
       -2
340
0
 93
        0
 40
0.045
309
GRIDFORMAT_END
 95
       16
302
GRIDFORMAT
  1
GRIDFORMAT_BEGIN
 90
        0
 91
        1
 62
     0
 92
       -2
340
0
 93
        0
 40
0.045
309
GRIDFORMAT_END
 95
       32
302
GRIDFORMAT
  1
GRIDFORMAT_BEGIN
 90
        0
 91
        1
 62
     0
 92
       -2
340
0
 93
        0
 40
0.045
309
GRIDFORMAT_END
309
TABLEFORMAT_END
  1
CELLSTYLE_BEGIN
 90
        1
 91
        1
300
_TITLE
309
CELLSTYLE_END
300
CELLSTYLE
  1
TABLEFORMAT_BEGIN
 90
        5
170
     1
 91
        0
 92
        0
 62
   257
 93
        1
300
CONTENTFORMAT
  1
CONTENTFORMAT_BEGIN
 90
        0
 91
        0
 92
      512
 93
        0
300

 40
0.0
140
1.0
 94
        5
 62
     0
340
11
144
0.18
309
CONTENTFORMAT_END
171
     0
 94
        6
 95
        1
302
GRIDFORMAT
  1
GRIDFORMAT_BEGIN
 90
        0
 91
        1
 62
     0
 92
       -2
340
0
 93
        0
 40
0.045
309
GRIDFORMAT_END
 95
        2
302
GRIDFORMAT
  1
GRIDFORMAT_BEGIN
 90
        0
 91
        1
 62
     0
 92
       -2
340
0
 93
        0
 40
0.045
309
GRIDFORMAT_END
 95
        4
302
GRIDFORMAT
  1
GRIDFORMAT_BEGIN
 90
        0
 91
        1
 62
     0
 92
       -2
340
0
 93
        0
 40
0.045
309
GRIDFORMAT_END
 95
        8
302
GRIDFORMAT
  1
GRIDFORMAT_BEGIN
 90
        0
 91
        1
 62
     0
 92
       -2
340
0
 93
        0
 40
0.045
309
GRIDFORMAT_END
 95
       16
302
GRIDFORMAT
  1
GRIDFORMAT_BEGIN
 90
        0
 91
        1
 62
     0
 92
       -2
340
0
 93
        0
 40
0.045
309
GRIDFORMAT_END
 95
       32
302
GRIDFORMAT
  1
GRIDFORMAT_BEGIN
 90
        0
 91
        1
 62
     0
 92
       -2
340
0
 93
        0
 40
0.045
309
GRIDFORMAT_END
309
TABLEFORMAT_END
  1
CELLSTYLE_BEGIN
 90
        2
 91
        1
300
_HEADER
309
CELLSTYLE_END
300
CELLSTYLE
  1
TABLEFORMAT_BEGIN
 90
        5
170
     1
 91
        0
 92
        0
 62
   257
 93
        1
300
CONTENTFORMAT
  1
CONTENTFORMAT_BEGIN
 90
        0
 91
        0
 92
      512
 93
        0
300

 40
0.0
140
1.0
 94
        2
 62
     0
340
11
144
0.18
309
CONTENTFORMAT_END
171
     0
 94
        6
 95
        1
302
GRIDFORMAT
  1
GRIDFORMAT_BEGIN
 90
        0
 91
        1
 62
     0
 92
       -2
340
0
 93
        0
 40
0.045
309
GRIDFORMAT_END
 95
        2
302
GRIDFORMAT
  1
GRIDFORMAT_BEGIN
 90
        0
 91
        1
 62
     0
 92
       -2
340
0
 93
        0
 40
0.045
309
GRIDFORMAT_END
 95
        4
302
GRIDFORMAT
  1
GRIDFORMAT_BEGIN
 90
        0
 91
        1
 62
     0
 92
       -2
340
0
 93
        0
 40
0.045
309
GRIDFORMAT_END
 95
        8
302
GRIDFORMAT
  1
GRIDFORMAT_BEGIN
 90
        0
 91
        1
 62
     0
 92
       -2
340
0
 93
        0
 40
0.045
309
GRIDFORMAT_END
 95
       16
302
GRIDFORMAT
  1
GRIDFORMAT_BEGIN
 90
        0
 91
        1
 62
     0
 92
       -2
340
0
 93
        0
 40
0.045
309
GRIDFORMAT_END
 95
       32
302
GRIDFORMAT
  1
GRIDFORMAT_BEGIN
 90
        0
 91
        1
 62
     0
 92
       -2
340
0
 93
        0
 40
0.045
309
GRIDFORMAT_END
309
TABLEFORMAT_END
  1
CELLSTYLE_BEGIN
 90
        3
 91
        2
300
_DATA
309
CELLSTYLE_END
  0
ENDSEC
  0
EOF
