  0
SECTION
  2
HEADER
  9
$ACADVER
  1
AC1032
  9
$ACADMAINTVER
 90
        4
  9
$DWGCODEPAGE
  3
ANSI_1252
  9
$LASTSAVEDBY
  1
Siqi
  9
$REQUIREDVERSIONS
160
                 0
  9
$INSBASE
 10
0.0
 20
0.0
 30
0.0
  9
$EXTMIN
 10
-27164.19027514843
 20
-21467.73917311158
 30
0.0
  9
$EXTMAX
 10
21317.48351502385
 20
1507.106318990857
 30
0.0
  9
$LIMMIN
 10
0.0
 20
0.0
  9
$LIMMAX
 10
420.0
 20
297.0
  9
$ORTHOMODE
 70
     0
  9
$REGENMODE
 70
     1
  9
$FILLMODE
 70
     1
  9
$QTEXTMODE
 70
     0
  9
$MIRRTEXT
 70
     0
  9
$LTSCALE
 40
1.0
  9
$ATTMODE
 70
     1
  9
$TEXTSIZE
 40
2.5
  9
$TRACEWID
 40
1.0
  9
$TEXTSTYLE
  7
Standard
  9
$CLAYER
  8
0
  9
$CELTYPE
  6
ByLayer
  9
$CECOLOR
 62
   256
  9
$CELTSCALE
 40
1.0
  9
$DISPSILH
 70
     0
  9
$DIMSCALE
 40
1.0
  9
$DIMASZ
 40
15.0
  9
$DIMEXO
 40
1.0
  9
$DIMDLI
 40
3.75
  9
$DIMRND
 40
0.0
  9
$DIMDLE
 40
0.0
  9
$DIMEXE
 40
1.25
  9
$DIMTP
 40
0.0
  9
$DIMTM
 40
0.0
  9
$DIMTXT
 40
35.0
  9
$DIMCEN
 40
0.5
  9
$DIMTSZ
 40
0.0
  9
$DIMTOL
 70
     0
  9
$DIMLIM
 70
     0
  9
$DIMTIH
 70
     0
  9
$DIMTOH
 70
     0
  9
$DIMSE1
 70
     0
  9
$DIMSE2
 70
     0
  9
$DIMTAD
 70
     1
  9
$DIMZIN
 70
     8
  9
$DIMBLK
  1

  9
$DIMASO
 70
     1
  9
$DIMSHO
 70
     1
  9
$DIMPOST
  1

  9
$DIMAPOST
  1

  9
$DIMALT
 70
     0
  9
$DIMALTD
 70
     3
  9
$DIMALTF
 40
0.03937007874016
  9
$DIMLFAC
 40
1.0
  9
$DIMTOFL
 70
     1
  9
$DIMTVP
 40
0.0
  9
$DIMTIX
 70
     0
  9
$DIMSOXD
 70
     0
  9
$DIMSAH
 70
     0
  9
$DIMBLK1
  1

  9
$DIMBLK2
  1

  9
$DIMSTYLE
  2
ISO-25
  9
$DIMCLRD
 70
     0
  9
$DIMCLRE
 70
     0
  9
$DIMCLRT
 70
     0
  9
$DIMTFAC
 40
1.0
  9
$DIMGAP
 40
3.0
  9
$DIMJUST
 70
     0
  9
$DIMSD1
 70
     0
  9
$DIMSD2
 70
     0
  9
$DIMTOLJ
 70
     0
  9
$DIMTZIN
 70
     8
  9
$DIMALTZ
 70
     0
  9
$DIMALTTZ
 70
     0
  9
$DIMUPT
 70
     0
  9
$DIMDEC
 70
     2
  9
$DIMTDEC
 70
     2
  9
$DIMALTU
 70
     2
  9
$DIMALTTD
 70
     3
  9
$DIMTXSTY
  7
Standard
  9
$DIMAUNIT
 70
     0
  9
$DIMADEC
 70
     2
  9
$DIMALTRND
 40
0.0
  9
$DIMAZIN
 70
     0
  9
$DIMDSEP
 70
    44
  9
$DIMATFIT
 70
     3
  9
$DIMFRAC
 70
     0
  9
$DIMLDRBLK
  1

  9
$DIMLUNIT
 70
     2
  9
$DIMLWD
 70
    -2
  9
$DIMLWE
 70
    -2
  9
$DIMTMOVE
 70
     0
  9
$DIMFXL
 40
1.0
  9
$DIMFXLON
 70
     0
  9
$DIMJOGANG
 40
0.7853981633974483
  9
$DIMTFILL
 70
     0
  9
$DIMTFILLCLR
 70
     0
  9
$DIMARCSYM
 70
     0
  9
$DIMLTYPE
  6

  9
$DIMLTEX1
  6

  9
$DIMLTEX2
  6

  9
$DIMTXTDIRECTION
 70
     0
  9
$LUNITS
 70
     2
  9
$LUPREC
 70
     4
  9
$SKETCHINC
 40
1.0
  9
$FILLETRAD
 40
25.0
  9
$AUNITS
 70
     0
  9
$AUPREC
 70
     0
  9
$MENU
  1
.
  9
$ELEVATION
 40
0.0
  9
$PELEVATION
 40
0.0
  9
$THICKNESS
 40
0.0
  9
$LIMCHECK
 70
     0
  9
$CHAMFERA
 40
240.0
  9
$CHAMFERB
 40
240.0
  9
$CHAMFERC
 40
0.0
  9
$CHAMFERD
 40
0.0
  9
$SKPOLY
 70
     0
  9
$TDCREATE
 40
2453649.060439815
  9
$TDUCREATE
 40
2453649.352115521
  9
$TDUPDATE
 40
2457975.669305556
  9
$TDUUPDATE
 40
2457975.960972222
  9
$TDINDWG
 40
4.5981189931
  9
$TDUSRTIMER
 40
4.5981142940
  9
$USRTIMER
 70
     1
  9
$ANGBASE
 50
0.0
  9
$ANGDIR
 70
     0
  9
$PDMODE
 70
     0
  9
$PDSIZE
 40
0.0
  9
$PLINEWID
 40
0.0
  9
$SPLFRAME
 70
     0
  9
$SPLINETYPE
 70
     6
  9
$SPLINESEGS
 70
     8
  9
$HANDSEED
  5
25220
  9
$SURFTAB1
 70
     6
  9
$SURFTAB2
 70
     6
  9
$SURFTYPE
 70
     6
  9
$SURFU
 70
     6
  9
$SURFV
 70
     6
  9
$UCSBASE
  2

  9
$UCSNAME
  2

  9
$UCSORG
 10
0.0
 20
0.0
 30
0.0
  9
$UCSXDIR
 10
1.0
 20
0.0
 30
0.0
  9
$UCSYDIR
 10
0.0
 20
1.0
 30
0.0
  9
$UCSORTHOREF
  2

  9
$UCSORTHOVIEW
 70
     0
  9
$UCSORGTOP
 10
0.0
 20
0.0
 30
0.0
  9
$UCSORGBOTTOM
 10
0.0
 20
0.0
 30
0.0
  9
$UCSORGLEFT
 10
0.0
 20
0.0
 30
0.0
  9
$UCSORGRIGHT
 10
0.0
 20
0.0
 30
0.0
  9
$UCSORGFRONT
 10
0.0
 20
0.0
 30
0.0
  9
$UCSORGBACK
 10
0.0
 20
0.0
 30
0.0
  9
$PUCSBASE
  2

  9
$PUCSNAME
  2

  9
$PUCSORG
 10
0.0
 20
0.0
 30
0.0
  9
$PUCSXDIR
 10
1.0
 20
0.0
 30
0.0
  9
$PUCSYDIR
 10
0.0
 20
1.0
 30
0.0
  9
$PUCSORTHOREF
  2

  9
$PUCSORTHOVIEW
 70
     0
  9
$PUCSORGTOP
 10
0.0
 20
0.0
 30
0.0
  9
$PUCSORGBOTTOM
 10
0.0
 20
0.0
 30
0.0
  9
$PUCSORGLEFT
 10
0.0
 20
0.0
 30
0.0
  9
$PUCSORGRIGHT
 10
0.0
 20
0.0
 30
0.0
  9
$PUCSORGFRONT
 10
0.0
 20
0.0
 30
0.0
  9
$PUCSORGBACK
 10
0.0
 20
0.0
 30
0.0
  9
$USERI1
 70
     0
  9
$USERI2
 70
     0
  9
$USERI3
 70
     0
  9
$USERI4
 70
     0
  9
$USERI5
 70
     0
  9
$USERR1
 40
0.0
  9
$USERR2
 40
0.0
  9
$USERR3
 40
0.0
  9
$USERR4
 40
0.0
  9
$USERR5
 40
2.5
  9
$WORLDVIEW
 70
     1
  9
$SHADEDGE
 70
     3
  9
$SHADEDIF
 70
    70
  9
$TILEMODE
 70
     1
  9
$MAXACTVP
 70
    64
  9
$PINSBASE
 10
0.0
 20
0.0
 30
0.0
  9
$PLIMCHECK
 70
     0
  9
$PEXTMIN
 10
0.0
 20
0.0
 30
0.0
  9
$PEXTMAX
 10
0.0
 20
0.0
 30
0.0
  9
$PLIMMIN
 10
0.0
 20
0.0
  9
$PLIMMAX
 10
12.0
 20
9.0
  9
$UNITMODE
 70
     0
  9
$VISRETAIN
 70
     1
  9
$PLINEGEN
 70
     0
  9
$PSLTSCALE
 70
     1
  9
$TREEDEPTH
 70
  3020
  9
$CMLSTYLE
  2
Standard
  9
$CMLJUST
 70
     0
  9
$CMLSCALE
 40
20.0
  9
$PROXYGRAPHICS
 70
     1
  9
$MEASUREMENT
 70
     1
  9
$CELWEIGHT
370
    -1
  9
$ENDCAPS
280
     0
  9
$JOINSTYLE
280
     0
  9
$LWDISPLAY
290
     0
  9
$INSUNITS
 70
     4
  9
$HYPERLINKBASE
  1

  9
$STYLESHEET
  1

  9
$XEDIT
290
     1
  9
$CEPSNTYPE
380
     0
  9
$PSTYLEMODE
290
     1
  9
$FINGERPRINTGUID
  2
{FDEAD578-A652-11D2-9A35-0060089B3A3F}
  9
$VERSIONGUID
  2
{61153A77-1228-0E49-83C8-E4C71B0FE39D}
  9
$EXTNAMES
290
     1
  9
$PSVPSCALE
 40
0.0
  9
$OLESTARTUP
290
     0
  9
$SORTENTS
280
   127
  9
$INDEXCTL
280
     0
  9
$HIDETEXT
280
     1
  9
$XCLIPFRAME
280
     0
  9
$HALOGAP
280
     0
  9
$OBSCOLOR
 70
   257
  9
$OBSLTYPE
280
     0
  9
$INTERSECTIONDISPLAY
280
     0
  9
$INTERSECTIONCOLOR
 70
   257
  9
$DIMASSOC
280
     2
  9
$PROJECTNAME
  1

  9
$CAMERADISPLAY
290
     0
  9
$LENSLENGTH
 40
50.0
  9
$CAMERAHEIGHT
 40
0.0
  9
$STEPSPERSEC
 40
2.0
  9
$STEPSIZE
 40
6.0
  9
$3DDWFPREC
 40
2.0
  9
$PSOLWIDTH
 40
0.25
  9
$PSOLHEIGHT
 40
4.0
  9
$LOFTANG1
 40
1.570796326794896
  9
$LOFTANG2
 40
1.570796326794896
  9
$LOFTMAG1
 40
0.0
  9
$LOFTMAG2
 40
0.0
  9
$LOFTPARAM
 70
     7
  9
$LOFTNORMALS
280
     1
  9
$LATITUDE
 40
37.795
  9
$LONGITUDE
 40
-122.394
  9
$NORTHDIRECTION
 40
0.0
  9
$TIMEZONE
 70
 -8000
  9
$LIGHTGLYPHDISPLAY
280
     1
  9
$TILEMODELIGHTSYNCH
280
     1
  9
$CMATERIAL
347
2509D
  9
$SOLIDHIST
280
     1
  9
$SHOWHIST
280
     1
  9
$DWFFRAME
280
     2
  9
$DGNFRAME
280
     0
  9
$REALWORLDSCALE
290
     1
  9
$INTERFERECOLOR
 62
     1
  9
$INTERFEREOBJVS
345
250AA
  9
$INTERFEREVPVS
346
250C7
  9
$CSHADOW
280
     0
  9
$SHADOWPLANELOCATION
 40
0.0
  0
ENDSEC
  0
SECTION
  2
CLASSES
  0
CLASS
  1
ACDBDICTIONARYWDFLT
  2
AcDbDictionaryWithDefault
  3
ObjectDBX Classes
 90
        0
 91
        1
280
     0
281
     0
  0
CLASS
  1
ACDBPLACEHOLDER
  2
AcDbPlaceHolder
  3
ObjectDBX Classes
 90
        0
 91
        1
280
     0
281
     0
  0
CLASS
  1
LAYOUT
  2
AcDbLayout
  3
ObjectDBX Classes
 90
        0
 91
        3
280
     0
281
     0
  0
CLASS
  1
DICTIONARYVAR
  2
AcDbDictionaryVar
  3
ObjectDBX Classes
 90
        0
 91
       12
280
     0
281
     0
  0
CLASS
  1
DIMASSOC
  2
AcDbDimAssoc
  3
"AcDbDimAssoc|Product Desc:     AcDim ARX App For Dimension|Company:          Autodesk, Inc.|WEB Address:      www.autodesk.com"
 90
        0
 91
       12
280
     0
281
     0
  0
CLASS
  1
VLO-VL
  2
vlo_VL
  3
VL|AutoLISP based application
 90
      129
 91
        2
280
     0
281
     0
  0
CLASS
  1
MATERIAL
  2
AcDbMaterial
  3
ObjectDBX Classes
 90
     1153
 91
        3
280
     0
281
     0
  0
CLASS
  1
VISUALSTYLE
  2
AcDbVisualStyle
  3
ObjectDBX Classes
 90
     4095
 91
       26
280
     0
281
     0
  0
CLASS
  1
TABLESTYLE
  2
AcDbTableStyle
  3
ObjectDBX Classes
 90
     4095
 91
        1
280
     0
281
     0
  0
CLASS
  1
SCALE
  2
AcDbScale
  3
ObjectDBX Classes
 90
     1153
 91
       17
280
     0
281
     0
  0
CLASS
  1
MLEADERSTYLE
  2
AcDbMLeaderStyle
  3
ACDB_MLEADERSTYLE_CLASS
 90
     4095
 91
        1
280
     0
281
     0
  0
CLASS
  1
ACDBSECTIONVIEWSTYLE
  2
AcDbSectionViewStyle
  3
ObjectDBX Classes
 90
     1025
 91
        1
280
     0
281
     0
  0
CLASS
  1
ACDBDETAILVIEWSTYLE
  2
AcDbDetailViewStyle
  3
ObjectDBX Classes
 90
     1025
 91
        1
280
     0
281
     0
  0
CLASS
  1
CELLSTYLEMAP
  2
AcDbCellStyleMap
  3
ObjectDBX Classes
 90
     1152
 91
        1
280
     0
281
     0
  0
ENDSEC
  0
SECTION
  2
TABLES
  0
TABLE
  2
VPORT
  5
8
330
0
100
AcDbSymbolTable
 70
     1
  0
VPORT
  5
2509B
330
8
100
AcDbSymbolTableRecord
100
AcDbViewportTableRecord
  2
*Active
 70
     0
 10
0.0
 20
0.0
 11
1.0
 21
1.0
 12
-26531.98432473722
 22
676.9999440831961
 13
0.0
 23
0.0
 14
10.0
 24
10.0
 15
10.0
 25
10.0
 16
0.0
 26
0.0
 36
1.0
 17
0.0
 27
0.0
 37
0.0
 40
1385.33028296429
 41
1.913595933926302
 42
50.0
 43
0.0
 44
0.0
 50
0.0
 51
0.0
 71
     0
 72
  1000
 73
     1
 74
     3
 75
     0
 76
     0
 77
     0
 78
     0
281
     0
 65
     1
110
0.0
120
0.0
130
0.0
111
1.0
121
0.0
131
0.0
112
0.0
122
1.0
132
0.0
 79
     0
146
0.0
348
250A6
 60
     3
 61
     5
292
     1
282
     1
141
0.0
142
0.0
 63
   250
421
  3355443
1001
ACAD_NAV_VCDISPLAY
1070
     3
  0
ENDTAB
  0
TABLE
  2
LTYPE
  5
5
330
0
100
AcDbSymbolTable
 70
     4
  0
LTYPE
  5
14
330
5
100
AcDbSymbolTableRecord
100
AcDbLinetypeTableRecord
  2
ByBlock
 70
     0
  3

 72
    65
 73
     0
 40
0.0
  0
LTYPE
  5
15
330
5
100
AcDbSymbolTableRecord
100
AcDbLinetypeTableRecord
  2
ByLayer
 70
     0
  3

 72
    65
 73
     0
 40
0.0
  0
LTYPE
  5
16
330
5
100
AcDbSymbolTableRecord
100
AcDbLinetypeTableRecord
  2
Continuous
 70
     0
  3
Solid line
 72
    65
 73
     0
 40
0.0
  0
LTYPE
  5
5BBC
330
5
100
AcDbSymbolTableRecord
100
AcDbLinetypeTableRecord
  2
CENTER
 70
     0
  3
Center ____ _ ____ _ ____ _ ____ _ ____ _ ____
 72
    65
 73
     4
 40
50.8
 49
31.75
 74
     0
 49
-6.349999999999999
 74
     0
 49
6.349999999999999
 74
     0
 49
-6.349999999999999
 74
     0
  0
LTYPE
  5
6D14
330
5
100
AcDbSymbolTableRecord
100
AcDbLinetypeTableRecord
  2
ACAD_ISO02W100
 70
     0
  3
ISO dash __ __ __ __ __ __ __ __ __ __ __ __ __
 72
    65
 73
     2
 40
15.0
 49
12.0
 74
     0
 49
-3.0
 74
     0
  0
ENDTAB
  0
TABLE
  2
LAYER
  5
2
102
{ACAD_XDICTIONARY
360
25102
102
}
330
0
100
AcDbSymbolTable
 70
     8
  0
LAYER
  5
10
102
{ACAD_XDICTIONARY
360
250F1
102
}
330
2
100
AcDbSymbolTableRecord
100
AcDbLayerTableRecord
  2
0
 70
     0
 62
     7
  6
Continuous
370
    25
390
F
347
2509F
348
0
  0
LAYER
  5
84
102
{ACAD_XDICTIONARY
360
250F3
102
}
330
2
100
AcDbSymbolTableRecord
100
AcDbLayerTableRecord
  2
base
 70
     0
 62
     4
  6
Continuous
370
    40
390
F
347
2509F
348
0
  0
LAYER
  5
1DA
330
2
100
AcDbSymbolTableRecord
100
AcDbLayerTableRecord
  2
Defpoints
 70
     0
 62
     7
  6
Continuous
290
     0
370
    -3
390
F
347
2509F
348
0
  0
LAYER
  5
2D93
102
{ACAD_XDICTIONARY
360
250F5
102
}
330
2
100
AcDbSymbolTableRecord
100
AcDbLayerTableRecord
  2
DIM
 70
     0
 62
     7
  6
Continuous
370
    13
390
F
347
2509F
348
0
  0
LAYER
  5
6409
102
{ACAD_XDICTIONARY
360
250F7
102
}
330
2
100
AcDbSymbolTableRecord
100
AcDbLayerTableRecord
  2
模芯1
 70
     0
 62
     5
  6
Continuous
370
    25
390
F
347
2509F
348
0
1001
AcadStringInfo
1000
MIFCodePage
1070
     5
  0
LAYER
  5
640F
102
{ACAD_XDICTIONARY
360
250F9
102
}
330
2
100
AcDbSymbolTableRecord
100
AcDbLayerTableRecord
  2
模芯1DIM
 70
     0
 62
     7
  6
Continuous
370
    20
390
F
347
2509F
348
0
1001
AcadStringInfo
1000
MIFCodePage
1070
     5
  0
LAYER
  5
F778
102
{ACAD_XDICTIONARY
360
250FB
102
}
330
2
100
AcDbSymbolTableRecord
100
AcDbLayerTableRecord
  2
模芯2
 70
     0
 62
     4
  6
Continuous
370
    25
390
F
347
2509F
348
0
1001
AcadStringInfo
1000
MIFCodePage
1070
     5
  0
LAYER
  5
1B8EE
102
{ACAD_XDICTIONARY
360
250FD
102
}
330
2
100
AcDbSymbolTableRecord
100
AcDbLayerTableRecord
  2
DEFAULT
 70
     0
 62
     7
  6
Continuous
370
    -3
390
F
347
2509F
348
0
  0
ENDTAB
  0
TABLE
  2
STYLE
  5
3
330
0
100
AcDbSymbolTable
 70
     2
  0
STYLE
  5
11
330
3
100
AcDbSymbolTableRecord
100
AcDbTextStyleTableRecord
  2
Standard
 70
     0
 40
0.0
 41
1.0
 50
0.0
 71
     0
 42
2.5
  3
txt
  4

  0
STYLE
  5
1B8EF
330
3
100
AcDbSymbolTableRecord
100
AcDbTextStyleTableRecord
  2
arial_ttf
 70
     0
 40
0.0
 41
1.0
 50
0.0
 71
     0
 42
0.2
  3
arial.ttf
  4

1001
ACAD
1000
Arial
1071
    34306
  0
ENDTAB
  0
TABLE
  2
VIEW
  5
6
330
0
100
AcDbSymbolTable
 70
     0
  0
ENDTAB
  0
TABLE
  2
UCS
  5
7
330
0
100
AcDbSymbolTable
 70
     0
  0
ENDTAB
  0
TABLE
  2
APPID
  5
9
330
0
100
AcDbSymbolTable
 70
     6
  0
APPID
  5
12
330
9
100
AcDbSymbolTableRecord
100
AcDbRegAppTableRecord
  2
ACAD
 70
     0
  0
APPID
  5
5388
330
9
100
AcDbSymbolTableRecord
100
AcDbRegAppTableRecord
  2
DCO15
 70
     0
  0
APPID
  5
25108
330
9
100
AcDbSymbolTableRecord
100
AcDbRegAppTableRecord
  2
ACAD_NAV_VCDISPLAY
 70
     0
  0
APPID
  5
25118
330
9
100
AcDbSymbolTableRecord
100
AcDbRegAppTableRecord
  2
AcadStringInfo
 70
     0
  0
APPID
  5
2511E
330
9
100
AcDbSymbolTableRecord
100
AcDbRegAppTableRecord
  2
AcadAnnoMonitorAlertIconDisabled
 70
     0
  0
APPID
  5
2511F
330
9
100
AcDbSymbolTableRecord
100
AcDbRegAppTableRecord
  2
ACAD_EXEMPT_FROM_CAD_STANDARDS
 70
     0
  0
ENDTAB
  0
TABLE
  2
DIMSTYLE
  5
A
330
0
100
AcDbSymbolTable
 70
     1
100
AcDbDimStyleTable
 71
     1
340
27
  0
DIMSTYLE
105
27
102
{ACAD_REACTORS
330
1A402
330
1A3F2
330
1A40E
330
1A40B
330
1A409
330
1A41E
330
1A3DA
330
1A50C
330
1A4F4
330
1A536
330
1F141
330
1F125
330
1F0DB
330
1F10D
330
1F0F5
102
}
330
A
100
AcDbSymbolTableRecord
100
AcDbDimStyleTableRecord
  2
ISO-25
 70
     0
 41
2.0
 42
1.0
 43
3.75
 44
1.25
 73
     0
 74
     0
 77
     1
 78
     8
140
3.0
141
2.5
143
0.03937007874016
147
5.0
171
     3
172
     1
271
     2
272
     2
274
     3
278
    44
283
     0
284
     8
340
11
  0
ENDTAB
  0
TABLE
  2
BLOCK_RECORD
  5
1
330
0
100
AcDbSymbolTable
 70
    17
  0
BLOCK_RECORD
  5
1F
330
1
100
AcDbSymbolTableRecord
100
AcDbBlockTableRecord
  2
*Model_Space
340
22
 70
     0
280
     1
281
     0
  0
BLOCK_RECORD
  5
50
330
1
100
AcDbSymbolTableRecord
100
AcDbBlockTableRecord
  2
*Paper_Space
340
51
 70
     0
280
     1
281
     0
  0
BLOCK_RECORD
  5
55
330
1
100
AcDbSymbolTableRecord
100
AcDbBlockTableRecord
  2
*Paper_Space0
340
56
 70
     0
280
     1
281
     0
  0
BLOCK_RECORD
  5
1A432
330
1
100
AcDbSymbolTableRecord
100
AcDbBlockTableRecord
  2
*D1
340
0
 70
     0
280
     1
281
     0
  0
BLOCK_RECORD
  5
1A452
330
1
100
AcDbSymbolTableRecord
100
AcDbBlockTableRecord
  2
*D2
340
0
 70
     0
280
     1
281
     0
  0
BLOCK_RECORD
  5
1A45E
330
1
100
AcDbSymbolTableRecord
100
AcDbBlockTableRecord
  2
*D3
340
0
 70
     0
280
     1
281
     0
  0
BLOCK_RECORD
  5
1A478
330
1
100
AcDbSymbolTableRecord
100
AcDbBlockTableRecord
  2
*D4
340
0
 70
     0
280
     1
281
     0
  0
BLOCK_RECORD
  5
1A480
330
1
100
AcDbSymbolTableRecord
100
AcDbBlockTableRecord
  2
*D5
340
0
 70
     0
280
     1
281
     0
  0
BLOCK_RECORD
  5
1A49D
330
1
100
AcDbSymbolTableRecord
100
AcDbBlockTableRecord
  2
*D6
340
0
 70
     0
280
     1
281
     0
  0
BLOCK_RECORD
  5
1A4CD
330
1
100
AcDbSymbolTableRecord
100
AcDbBlockTableRecord
  2
*D7
340
0
 70
     0
280
     1
281
     0
  0
BLOCK_RECORD
  5
1A4F5
330
1
100
AcDbSymbolTableRecord
100
AcDbBlockTableRecord
  2
*D8
340
0
 70
     0
280
     1
281
     0
  0
BLOCK_RECORD
  5
1A50D
330
1
100
AcDbSymbolTableRecord
100
AcDbBlockTableRecord
  2
*D9
340
0
 70
     0
280
     1
281
     0
  0
BLOCK_RECORD
  5
1A537
330
1
100
AcDbSymbolTableRecord
100
AcDbBlockTableRecord
  2
*D10
340
0
 70
     0
280
     1
281
     0
  0
BLOCK_RECORD
  5
1B8EA
330
1
100
AcDbSymbolTableRecord
100
AcDbBlockTableRecord
  2
SE13
340
0
102
{BLKREFS
331
1B97C
331
1C9B4
331
1D193
331
1D561
331
233B1
331
233C6
331
1DA80
331
1DC7F
331
1DD9A
331
1DFCF
331
1E253
331
1E3B8
331
1E744
331
20E3C
331
2130B
331
21321
331
21463
331
21DD6
102
}
 70
     0
280
     1
281
     0
  0
BLOCK_RECORD
  5
1F0DC
330
1
100
AcDbSymbolTableRecord
100
AcDbBlockTableRecord
  2
*D12
340
0
 70
     0
280
     1
281
     0
  0
BLOCK_RECORD
  5
1F0F6
330
1
100
AcDbSymbolTableRecord
100
AcDbBlockTableRecord
  2
*D13
340
0
 70
     0
280
     1
281
     0
  0
BLOCK_RECORD
  5
1F10E
330
1
100
AcDbSymbolTableRecord
100
AcDbBlockTableRecord
  2
*D14
340
0
 70
     0
280
     1
281
     0
  0
BLOCK_RECORD
  5
1F126
330
1
100
AcDbSymbolTableRecord
100
AcDbBlockTableRecord
  2
*D15
340
0
 70
     0
280
     1
281
     0
  0
BLOCK_RECORD
  5
1F142
330
1
100
AcDbSymbolTableRecord
100
AcDbBlockTableRecord
  2
*D16
340
0
 70
     0
280
     1
281
     0
  0
ENDTAB
  0
ENDSEC
  0
SECTION
  2
BLOCKS
  0
BLOCK
  5
20
330
1F
100
AcDbEntity
  8
0
100
AcDbBlockBegin
  2
*Model_Space
 70
     0
 10
0.0
 20
0.0
 30
0.0
  3
*Model_Space
  1

  0
ENDBLK
  5
21
330
1F
100
AcDbEntity
  8
0
100
AcDbBlockEnd
  0
BLOCK
  5
52
330
50
100
AcDbEntity
 67
     1
  8
0
100
AcDbBlockBegin
  2
*Paper_Space
 70
     0
 10
0.0
 20
0.0
 30
0.0
  3
*Paper_Space
  1

  0
ENDBLK
  5
53
330
50
100
AcDbEntity
 67
     1
  8
0
100
AcDbBlockEnd
  0
BLOCK
  5
57
330
55
100
AcDbEntity
 67
     1
  8
0
100
AcDbBlockBegin
  2
*Paper_Space0
 70
     0
 10
0.0
 20
0.0
 30
0.0
  3
*Paper_Space0
  1

  0
ENDBLK
  5
58
330
55
100
AcDbEntity
 67
     1
  8
0
100
AcDbBlockEnd
  0
BLOCK
  5
1A438
330
1A432
100
AcDbEntity
  8
0
100
AcDbBlockBegin
  2
*D1
 70
     1
 10
0.0
 20
0.0
 30
0.0
  3
*D1
  1

  0
LINE
  5
251D0
330
1A432
100
AcDbEntity
  8
DIM
 62
     0
440
 16777216
370
    -2
100
AcDbLine
 10
-26785.43451412775
 20
597.8870731612659
 30
0.0
 11
-26927.46659049267
 21
483.0219331292282
 31
0.0
  0
MTEXT
  5
251D1
330
1A432
100
AcDbEntity
  8
DIM
 62
     0
440
 16777216
100
AcDbMText
 10
-26860.73752186455
 20
553.7067441647959
 30
0.0
 40
20.0
 41
0.0
 46
0.0
 71
     5
 72
     1
  1
4-R25{\Ftxt|c134; [1"]}
 11
0.7775478633116184
 21
0.6288237592994851
 31
0.0
 73
     1
 44
1.0
  0
SOLID
  5
251D2
330
1A432
100
AcDbEntity
  8
DIM
 62
     0
440
 16777216
100
AcDbTrace
 10
-26928.5146300915
 20
484.3178462347496
 30
0.0
 11
-26926.41855089384
 21
481.7260200237087
 31
0.0
 12
-26935.24206912579
 22
476.7336955362334
 32
0.0
 13
-26935.24206912579
 23
476.7336955362334
 33
0.0
  0
POINT
  5
251D3
330
1A432
100
AcDbEntity
  8
Defpoints
 62
     0
440
 16777216
100
AcDbPoint
 10
-26935.24206912579
 20
476.7336955362334
 30
0.0
  0
POINT
  5
251D4
330
1A432
100
AcDbEntity
  8
Defpoints
 62
     0
440
 16777216
100
AcDbPoint
 10
-26914.87031510702
 20
493.20887802988
 30
0.0
  0
ENDBLK
  5
1A439
330
1A432
100
AcDbEntity
  8
0
100
AcDbBlockEnd
  0
BLOCK
  5
1A45C
330
1A452
100
AcDbEntity
  8
0
100
AcDbBlockBegin
  2
*D2
 70
     1
 10
0.0
 20
0.0
 30
0.0
  3
*D2
  1

  0
LINE
  5
251DE
330
1A452
100
AcDbEntity
  8
DIM
 62
     0
440
 16777216
370
    -2
100
AcDbLine
 10
-26433.27031510703
 20
467.0088780298786
 30
0.0
 11
-26302.40869102317
 21
467.0088780298786
 31
0.0
  0
LINE
  5
251DF
330
1A452
100
AcDbEntity
  8
DIM
 62
     0
440
 16777216
370
    -2
100
AcDbLine
 10
-26433.27031510703
 20
873.0088780298769
 30
0.0
 11
-26302.40869102317
 21
873.0088780298771
 31
0.0
  0
LINE
  5
251E0
330
1A452
100
AcDbEntity
  8
DIM
 62
     0
440
 16777216
370
    -2
100
AcDbLine
 10
-26303.65869102317
 20
477.0088780298785
 30
0.0
 11
-26303.65869102317
 21
863.0088780298772
 31
0.0
  0
SOLID
  5
251E1
330
1A452
100
AcDbEntity
  8
DIM
 62
     0
440
 16777216
100
AcDbTrace
 10
-26305.32535768983
 20
477.0088780298785
 30
0.0
 11
-26301.9920243565
 21
477.0088780298785
 31
0.0
 12
-26303.65869102317
 22
467.0088780298786
 32
0.0
 13
-26303.65869102317
 23
467.0088780298786
 33
0.0
  0
SOLID
  5
251E2
330
1A452
100
AcDbEntity
  8
DIM
 62
     0
440
 16777216
100
AcDbTrace
 10
-26305.32535768983
 20
863.0088780298772
 30
0.0
 11
-26301.9920243565
 21
863.0088780298772
 31
0.0
 12
-26303.65869102317
 22
873.0088780298771
 32
0.0
 13
-26303.65869102317
 23
873.0088780298771
 33
0.0
  0
MTEXT
  5
251E3
330
1A452
100
AcDbEntity
  8
DIM
 62
     0
440
 16777216
100
AcDbMText
 10
-26316.65869102316
 20
670.008878029885
 30
0.0
 40
20.0
 41
0.0
 46
0.0
 71
     5
 72
     1
  1
406{\Ftxt|c134; [16"]}
 11
0.0000000000000001
 21
1.0
 31
0.0
 73
     1
 44
1.0
  0
POINT
  5
251E4
330
1A452
100
AcDbEntity
  8
Defpoints
 62
     0
440
 16777216
100
AcDbPoint
 10
-26434.27031510703
 20
467.0088780298786
 30
0.0
  0
POINT
  5
251E5
330
1A452
100
AcDbEntity
  8
Defpoints
 62
     0
440
 16777216
100
AcDbPoint
 10
-26434.27031510703
 20
873.0088780298769
 30
0.0
  0
POINT
  5
251E6
330
1A452
100
AcDbEntity
  8
Defpoints
 62
     0
440
 16777216
100
AcDbPoint
 10
-26303.65869102317
 20
873.0088780298771
 30
0.0
  0
ENDBLK
  5
1A45D
330
1A452
100
AcDbEntity
  8
0
100
AcDbBlockEnd
  0
BLOCK
  5
1A468
330
1A45E
100
AcDbEntity
  8
0
100
AcDbBlockBegin
  2
*D3
 70
     1
 10
0.0
 20
0.0
 30
0.0
  3
*D3
  1

  0
LINE
  5
25202
330
1A45E
100
AcDbEntity
  8
DIM
 62
     0
440
 16777216
370
    -2
100
AcDbLine
 10
-26941.07031510702
 20
492.2088780298772
 30
0.0
 11
-26941.07031510702
 21
365.2565472468532
 31
0.0
  0
LINE
  5
25203
330
1A45E
100
AcDbEntity
  8
DIM
 62
     0
440
 16777216
370
    -2
100
AcDbLine
 10
-26408.07031510702
 20
492.2088780298772
 30
0.0
 11
-26408.07031510702
 21
365.2565472468532
 31
0.0
  0
LINE
  5
25204
330
1A45E
100
AcDbEntity
  8
DIM
 62
     0
440
 16777216
370
    -2
100
AcDbLine
 10
-26931.07031510701
 20
366.5065472468532
 30
0.0
 11
-26418.07031510702
 21
366.5065472468532
 31
0.0
  0
SOLID
  5
25205
330
1A45E
100
AcDbEntity
  8
DIM
 62
     0
440
 16777216
100
AcDbTrace
 10
-26931.07031510701
 20
368.1732139135199
 30
0.0
 11
-26931.07031510701
 21
364.8398805801865
 31
0.0
 12
-26941.07031510702
 22
366.5065472468532
 32
0.0
 13
-26941.07031510702
 23
366.5065472468532
 33
0.0
  0
SOLID
  5
25206
330
1A45E
100
AcDbEntity
  8
DIM
 62
     0
440
 16777216
100
AcDbTrace
 10
-26418.07031510702
 20
368.1732139135199
 30
0.0
 11
-26418.07031510702
 21
364.8398805801865
 31
0.0
 12
-26408.07031510702
 22
366.5065472468532
 32
0.0
 13
-26408.07031510702
 23
366.5065472468532
 33
0.0
  0
MTEXT
  5
25207
330
1A45E
100
AcDbEntity
  8
DIM
 62
     0
440
 16777216
100
AcDbMText
 10
-26674.57031510702
 20
379.5065472468532
 30
0.0
 40
20.0
 41
0.0
 46
0.0
 71
     5
 72
     1
  1
533{\Ftxt|c134; [21"]}
 73
     1
 44
1.0
  0
POINT
  5
25208
330
1A45E
100
AcDbEntity
  8
Defpoints
 62
     0
440
 16777216
100
AcDbPoint
 10
-26941.07031510702
 20
493.2088780298772
 30
0.0
  0
POINT
  5
25209
330
1A45E
100
AcDbEntity
  8
Defpoints
 62
     0
440
 16777216
100
AcDbPoint
 10
-26408.07031510702
 20
493.2088780298772
 30
0.0
  0
POINT
  5
2520A
330
1A45E
100
AcDbEntity
  8
Defpoints
 62
     0
440
 16777216
100
AcDbPoint
 10
-26408.07031510702
 20
366.5065472468532
 30
0.0
  0
ENDBLK
  5
1A469
330
1A45E
100
AcDbEntity
  8
0
100
AcDbBlockEnd
  0
BLOCK
  5
1A47E
330
1A478
100
AcDbEntity
  8
0
100
AcDbBlockBegin
  2
*D4
 70
     1
 10
0.0
 20
0.0
 30
0.0
  3
*D4
  1

  0
LINE
  5
25142
330
1A478
100
AcDbEntity
  8
DIM
 62
     0
440
 16777216
370
    -2
100
AcDbLine
 10
-26839.23955583
 20
1165.905093842799
 30
0.0
 11
-26919.78266706586
 21
1096.993503870944
 31
0.0
  0
MTEXT
  5
25143
330
1A478
100
AcDbEntity
  8
DIM
 62
     0
440
 16777216
100
AcDbMText
 10
-26884.43765783108
 20
1141.052899261647
 30
0.0
 40
15.0
 41
0.0
 46
0.0
 71
     5
 72
     1
  1
R25{\Ftxt|c134; [1"]}
 11
0.7598406720363798
 21
0.650109339357083
 31
0.0
 73
     1
 44
1.0
  0
SOLID
  5
25144
330
1A478
100
AcDbEntity
  8
DIM
 62
     0
440
 16777216
100
AcDbTrace
 10
-26920.32442484866
 20
1097.626704430973
 30
0.0
 11
-26919.24090928306
 21
1096.360303310914
 31
0.0
 12
-26923.58187042604
 22
1093.742957174159
 32
0.0
 13
-26923.58187042604
 23
1093.742957174159
 33
0.0
  0
POINT
  5
25145
330
1A478
100
AcDbEntity
  8
Defpoints
 62
     0
440
 16777216
100
AcDbPoint
 10
-26923.58187042604
 20
1093.742957174159
 30
0.0
  0
POINT
  5
25146
330
1A478
100
AcDbEntity
  8
Defpoints
 62
     0
440
 16777216
100
AcDbPoint
 10
-26904.58585362516
 20
1109.995690658066
 30
0.0
  0
ENDBLK
  5
1A47F
330
1A478
100
AcDbEntity
  8
0
100
AcDbBlockEnd
  0
BLOCK
  5
1A48A
330
1A480
100
AcDbEntity
  8
0
100
AcDbBlockBegin
  2
*D5
 70
     1
 10
0.0
 20
0.0
 30
0.0
  3
*D5
  1

  0
LINE
  5
2512A
330
1A480
100
AcDbEntity
  8
DIM
 62
     0
440
 16777216
370
    -2
100
AcDbLine
 10
-26969.57031510704
 20
1305.548834808183
 30
0.0
 11
-27050.62573907648
 21
1305.548834808183
 31
0.0
  0
LINE
  5
2512B
330
1A480
100
AcDbEntity
  8
DIM
 62
     0
440
 16777216
370
    -2
100
AcDbLine
 10
-26732.44094440977
 20
1077.548834808183
 30
0.0
 11
-27050.62573907648
 21
1077.548834808183
 31
0.0
  0
LINE
  5
2512C
330
1A480
100
AcDbEntity
  8
DIM
 62
     0
440
 16777216
370
    -2
100
AcDbLine
 10
-27049.37573907648
 20
1295.548834808183
 30
0.0
 11
-27049.37573907648
 21
1087.548834808183
 31
0.0
  0
SOLID
  5
2512D
330
1A480
100
AcDbEntity
  8
DIM
 62
     0
440
 16777216
100
AcDbTrace
 10
-27051.04240574315
 20
1295.548834808183
 30
0.0
 11
-27047.70907240981
 21
1295.548834808183
 31
0.0
 12
-27049.37573907648
 22
1305.548834808183
 32
0.0
 13
-27049.37573907648
 23
1305.548834808183
 33
0.0
  0
SOLID
  5
2512E
330
1A480
100
AcDbEntity
  8
DIM
 62
     0
440
 16777216
100
AcDbTrace
 10
-27051.04240574315
 20
1087.548834808183
 30
0.0
 11
-27047.70907240981
 21
1087.548834808183
 31
0.0
 12
-27049.37573907648
 22
1077.548834808183
 32
0.0
 13
-27049.37573907648
 23
1077.548834808183
 33
0.0
  0
MTEXT
  5
2512F
330
1A480
100
AcDbEntity
  8
DIM
 62
     0
440
 16777216
100
AcDbMText
 10
-27062.37573907647
 20
1191.54883480819
 30
0.0
 40
20.0
 41
0.0
 46
0.0
 71
     5
 72
     1
  1
228{\Ftxt|c134; [9"]}
 11
0.0000000000000001
 21
1.0
 31
0.0
 73
     1
 44
1.0
  0
POINT
  5
25130
330
1A480
100
AcDbEntity
  8
Defpoints
 62
     0
440
 16777216
100
AcDbPoint
 10
-26968.57031510703
 20
1305.548834808183
 30
0.0
  0
POINT
  5
25131
330
1A480
100
AcDbEntity
  8
Defpoints
 62
     0
440
 16777216
100
AcDbPoint
 10
-26731.44094440977
 20
1077.548834808183
 30
0.0
  0
POINT
  5
25132
330
1A480
100
AcDbEntity
  8
Defpoints
 62
     0
440
 16777216
100
AcDbPoint
 10
-27049.37573907648
 20
1077.548834808183
 30
0.0
  0
ENDBLK
  5
1A48B
330
1A480
100
AcDbEntity
  8
0
100
AcDbBlockEnd
  0
BLOCK
  5
1A4A7
330
1A49D
100
AcDbEntity
  8
0
100
AcDbBlockBegin
  2
*D6
 70
     1
 10
0.0
 20
0.0
 30
0.0
  3
*D6
  1

  0
LINE
  5
251C2
330
1A49D
100
AcDbEntity
  8
DIM
 62
     0
440
 16777216
370
    -2
100
AcDbLine
 10
-26613.57031510703
 20
745.0088780298731
 30
0.0
 11
-26563.04592239424
 21
745.0088780298731
 31
0.0
  0
LINE
  5
251C3
330
1A49D
100
AcDbEntity
  8
DIM
 62
     0
440
 16777216
370
    -2
100
AcDbLine
 10
-26673.57031510703
 20
670.0088780298756
 30
0.0
 11
-26563.04592239424
 21
670.0088780298756
 31
0.0
  0
LINE
  5
251C4
330
1A49D
100
AcDbEntity
  8
DIM
 62
     0
440
 16777216
370
    -2
100
AcDbLine
 10
-26564.29592239424
 20
735.0088780298731
 30
0.0
 11
-26564.29592239424
 21
680.0088780298756
 31
0.0
  0
SOLID
  5
251C5
330
1A49D
100
AcDbEntity
  8
DIM
 62
     0
440
 16777216
100
AcDbTrace
 10
-26565.96258906091
 20
735.0088780298731
 30
0.0
 11
-26562.62925572757
 21
735.0088780298731
 31
0.0
 12
-26564.29592239424
 22
745.0088780298731
 32
0.0
 13
-26564.29592239424
 23
745.0088780298731
 33
0.0
  0
SOLID
  5
251C6
330
1A49D
100
AcDbEntity
  8
DIM
 62
     0
440
 16777216
100
AcDbTrace
 10
-26565.96258906091
 20
680.0088780298756
 30
0.0
 11
-26562.62925572757
 21
680.0088780298756
 31
0.0
 12
-26564.29592239424
 22
670.0088780298756
 32
0.0
 13
-26564.29592239424
 23
670.0088780298756
 33
0.0
  0
MTEXT
  5
251C7
330
1A49D
100
AcDbEntity
  8
DIM
 62
     0
440
 16777216
100
AcDbMText
 10
-26593.9625890609
 20
707.5088780298817
 30
0.0
 40
20.0
 41
5.274797649995889
 46
0.0
 71
     5
 72
     1
  1
75{\Ftxt|c134; [3"]}
 11
0.0000000000000001
 21
1.0
 31
0.0
 73
     1
 44
1.0
  0
POINT
  5
251C8
330
1A49D
100
AcDbEntity
  8
Defpoints
 62
     0
440
 16777216
100
AcDbPoint
 10
-26614.57031510703
 20
745.0088780298731
 30
0.0
  0
POINT
  5
251C9
330
1A49D
100
AcDbEntity
  8
Defpoints
 62
     0
440
 16777216
100
AcDbPoint
 10
-26674.57031510704
 20
670.0088780298756
 30
0.0
  0
POINT
  5
251CA
330
1A49D
100
AcDbEntity
  8
Defpoints
 62
     0
440
 16777216
100
AcDbPoint
 10
-26564.29592239424
 20
670.0088780298756
 30
0.0
  0
ENDBLK
  5
1A4A8
330
1A49D
100
AcDbEntity
  8
0
100
AcDbBlockEnd
  0
BLOCK
  5
1A4D3
330
1A4CD
100
AcDbEntity
  8
0
100
AcDbBlockBegin
  2
*D7
 70
     1
 10
0.0
 20
0.0
 30
0.0
  3
*D7
  1

  0
LINE
  5
25138
330
1A4CD
100
AcDbEntity
  8
DIM
 62
     0
440
 16777216
370
    -2
100
AcDbLine
 10
-27014.88304463687
 20
1153.869611716189
 30
0.0
 11
-26947.39275315765
 21
1294.936381604493
 31
0.0
  0
MTEXT
  5
25139
330
1A4CD
100
AcDbEntity
  8
DIM
 62
     0
440
 16777216
100
AcDbMText
 10
-26996.5434129194
 20
1222.324723672211
 30
0.0
 40
20.0
 41
0.0
 46
0.0
 71
     5
 72
     1
  1
R4{\Ftxt|c134; [.16"]}
 11
0.4315781864898037
 21
0.9020755339472255
 31
0.0
 73
     1
 44
1.0
  0
SOLID
  5
2513A
330
1A4CD
100
AcDbEntity
  8
DIM
 62
     0
440
 16777216
100
AcDbTrace
 10
-26948.8962123809
 20
1295.655678581977
 30
0.0
 11
-26945.8892939344
 21
1294.217084627009
 31
0.0
 12
-26943.07697129275
 22
1303.957136943965
 32
0.0
 13
-26943.07697129275
 23
1303.957136943965
 33
0.0
  0
POINT
  5
2513B
330
1A4CD
100
AcDbEntity
  8
Defpoints
 62
     0
440
 16777216
100
AcDbPoint
 10
-26943.07697129275
 20
1303.957136943965
 30
0.0
  0
POINT
  5
2513C
330
1A4CD
100
AcDbEntity
  8
Defpoints
 62
     0
440
 16777216
100
AcDbPoint
 10
-26944.8032840387
 20
1300.348834808193
 30
0.0
  0
ENDBLK
  5
1A4D4
330
1A4CD
100
AcDbEntity
  8
0
100
AcDbBlockEnd
  0
BLOCK
  5
1A4FF
330
1A4F5
100
AcDbEntity
  8
0
100
AcDbBlockBegin
  2
*D8
 70
     1
 10
0.0
 20
0.0
 30
0.0
  3
*D8
  1

  0
LINE
  5
25214
330
1A4F5
100
AcDbEntity
  8
DIM
 62
     0
440
 16777216
370
    -2
100
AcDbLine
 10
-26380.57031510702
 20
490.508878029876
 30
0.0
 11
-26380.57031510702
 21
286.7338308559629
 31
0.0
  0
LINE
  5
25215
330
1A4F5
100
AcDbEntity
  8
DIM
 62
     0
440
 16777216
370
    -2
100
AcDbLine
 10
-26968.57031510702
 20
490.508878029876
 30
0.0
 11
-26968.57031510702
 21
286.7338308559629
 31
0.0
  0
LINE
  5
25216
330
1A4F5
100
AcDbEntity
  8
DIM
 62
     0
440
 16777216
370
    -2
100
AcDbLine
 10
-26390.57031510702
 20
287.9838308559629
 30
0.0
 11
-26958.57031510702
 21
287.9838308559629
 31
0.0
  0
SOLID
  5
25217
330
1A4F5
100
AcDbEntity
  8
DIM
 62
     0
440
 16777216
100
AcDbTrace
 10
-26390.57031510702
 20
289.6504975226296
 30
0.0
 11
-26390.57031510702
 21
286.3171641892962
 31
0.0
 12
-26380.57031510702
 22
287.9838308559629
 32
0.0
 13
-26380.57031510702
 23
287.9838308559629
 33
0.0
  0
SOLID
  5
25218
330
1A4F5
100
AcDbEntity
  8
DIM
 62
     0
440
 16777216
100
AcDbTrace
 10
-26958.57031510702
 20
289.6504975226296
 30
0.0
 11
-26958.57031510702
 21
286.3171641892962
 31
0.0
 12
-26968.57031510702
 22
287.9838308559629
 32
0.0
 13
-26968.57031510702
 23
287.9838308559629
 33
0.0
  0
MTEXT
  5
25219
330
1A4F5
100
AcDbEntity
  8
DIM
 62
     0
440
 16777216
100
AcDbMText
 10
-26674.57031510702
 20
300.9838308559629
 30
0.0
 40
20.0
 41
0.0
 46
0.0
 71
     5
 72
     1
  1
588{\Ftxt|c134; [23.15"]}
 73
     1
 44
1.0
  0
POINT
  5
2521A
330
1A4F5
100
AcDbEntity
  8
Defpoints
 62
     0
440
 16777216
100
AcDbPoint
 10
-26380.57031510702
 20
491.508878029876
 30
0.0
  0
POINT
  5
2521B
330
1A4F5
100
AcDbEntity
  8
Defpoints
 62
     0
440
 16777216
100
AcDbPoint
 10
-26968.57031510702
 20
491.508878029876
 30
0.0
  0
POINT
  5
2521C
330
1A4F5
100
AcDbEntity
  8
Defpoints
 62
     0
440
 16777216
100
AcDbPoint
 10
-26968.57031510702
 20
287.9838308559629
 30
0.0
  0
ENDBLK
  5
1A500
330
1A4F5
100
AcDbEntity
  8
0
100
AcDbBlockEnd
  0
BLOCK
  5
1A517
330
1A50D
100
AcDbEntity
  8
0
100
AcDbBlockBegin
  2
*D9
 70
     1
 10
0.0
 20
0.0
 30
0.0
  3
*D9
  1

  0
LINE
  5
251F0
330
1A50D
100
AcDbEntity
  8
DIM
 62
     0
440
 16777216
370
    -2
100
AcDbLine
 10
-26431.57031510703
 20
439.5088780298768
 30
0.0
 11
-26223.47169398545
 21
439.5088780298769
 31
0.0
  0
LINE
  5
251F1
330
1A50D
100
AcDbEntity
  8
DIM
 62
     0
440
 16777216
370
    -2
100
AcDbLine
 10
-26431.57031510703
 20
900.5088780298741
 30
0.0
 11
-26223.47169398545
 21
900.5088780298743
 31
0.0
  0
LINE
  5
251F2
330
1A50D
100
AcDbEntity
  8
DIM
 62
     0
440
 16777216
370
    -2
100
AcDbLine
 10
-26224.72169398545
 20
449.5088780298768
 30
0.0
 11
-26224.72169398545
 21
890.5088780298742
 31
0.0
  0
SOLID
  5
251F3
330
1A50D
100
AcDbEntity
  8
DIM
 62
     0
440
 16777216
100
AcDbTrace
 10
-26226.38836065211
 20
449.5088780298768
 30
0.0
 11
-26223.05502731878
 21
449.5088780298768
 31
0.0
 12
-26224.72169398545
 22
439.5088780298769
 32
0.0
 13
-26224.72169398545
 23
439.5088780298769
 33
0.0
  0
SOLID
  5
251F4
330
1A50D
100
AcDbEntity
  8
DIM
 62
     0
440
 16777216
100
AcDbTrace
 10
-26226.38836065211
 20
890.5088780298742
 30
0.0
 11
-26223.05502731878
 21
890.5088780298742
 31
0.0
 12
-26224.72169398545
 22
900.5088780298743
 32
0.0
 13
-26224.72169398545
 23
900.5088780298743
 33
0.0
  0
MTEXT
  5
251F5
330
1A50D
100
AcDbEntity
  8
DIM
 62
     0
440
 16777216
100
AcDbMText
 10
-26237.72169398544
 20
670.0088780298828
 30
0.0
 40
20.0
 41
0.0
 46
0.0
 71
     5
 72
     1
  1
461{\Ftxt|c134; [18.15"]}
 11
0.0000000000000001
 21
1.0
 31
0.0
 73
     1
 44
1.0
  0
POINT
  5
251F6
330
1A50D
100
AcDbEntity
  8
Defpoints
 62
     0
440
 16777216
100
AcDbPoint
 10
-26432.57031510704
 20
439.5088780298768
 30
0.0
  0
POINT
  5
251F7
330
1A50D
100
AcDbEntity
  8
Defpoints
 62
     0
440
 16777216
100
AcDbPoint
 10
-26432.57031510703
 20
900.5088780298741
 30
0.0
  0
POINT
  5
251F8
330
1A50D
100
AcDbEntity
  8
Defpoints
 62
     0
440
 16777216
100
AcDbPoint
 10
-26224.72169398545
 20
900.5088780298743
 30
0.0
  0
ENDBLK
  5
1A518
330
1A50D
100
AcDbEntity
  8
0
100
AcDbBlockEnd
  0
BLOCK
  5
1A53E
330
1A537
100
AcDbEntity
  8
0
100
AcDbBlockBegin
  2
*D10
 70
     1
 10
0.0
 20
0.0
 30
0.0
  3
*D10
  1

  0
LINE
  5
251B3
330
1A537
100
AcDbEntity
  8
DIM
 62
     0
440
 16777216
370
    -2
100
AcDbLine
 10
-27095.72358181651
 20
1024.782958574236
 30
0.0
 11
-26960.76462227939
 21
891.9929350341863
 31
0.0
  0
MTEXT
  5
251B4
330
1A537
100
AcDbEntity
  8
DIM
 62
     0
440
 16777216
100
AcDbMText
 10
-27022.69053422224
 20
971.16127387296
 30
0.0
 40
20.0
 41
0.0
 46
0.0
 71
     5
 72
     1
  1
4-R52{\Ftxt|c134; [2"]}
 11
0.712811406005956
 21
-0.7013557581340672
 31
0.0
 73
     1
 44
1.0
  0
LINE
  5
251B5
330
1A537
100
AcDbEntity
  8
DIM
 62
     0
440
 16777216
370
    -2
100
AcDbLine
 10
-26916.57031510702
 20
848.5088780298791
 30
0.0
 11
-26953.63650821933
 21
884.9793774528443
 31
0.0
  0
SOLID
  5
251B6
330
1A537
100
AcDbEntity
  8
DIM
 62
     0
440
 16777216
100
AcDbTrace
 10
-26959.59569601583
 20
893.1809540441973
 30
0.0
 11
-26961.93354854294
 21
890.8049160241754
 31
0.0
 12
-26953.63650821933
 22
884.9793774528443
 32
0.0
 13
-26953.63650821933
 23
884.9793774528443
 33
0.0
  0
POINT
  5
251B7
330
1A537
100
AcDbEntity
  8
Defpoints
 62
     0
440
 16777216
100
AcDbPoint
 10
-26953.63650821933
 20
884.9793774528443
 30
0.0
  0
POINT
  5
251B8
330
1A537
100
AcDbEntity
  8
Defpoints
 62
     0
440
 16777216
100
AcDbPoint
 10
-26916.57031510702
 20
848.5088780298791
 30
0.0
  0
ENDBLK
  5
1A53F
330
1A537
100
AcDbEntity
  8
0
100
AcDbBlockEnd
  0
BLOCK
  5
1B8EB
330
1B8EA
100
AcDbEntity
  8
DEFAULT
 62
     1
 48
0.0
370
     0
100
AcDbBlockBegin
  2
SE13
 70
     0
 10
0.0
 20
0.0
 30
0.0
  3
SE13
  1

  0
TEXT
  5
1B8EC
330
1B8EA
100
AcDbEntity
  8
0
  6
Continuous
 62
   136
370
     0
100
AcDbText
 10
531.075280003713
 20
16.1647734594651
 30
0.0
 40
3.5
  1
 
  7
arial_ttf
 11
531.075280003713
 21
19.6647734594651
 31
0.0
100
AcDbText
 73
     3
  0
ENDBLK
  5
1B8ED
330
1B8EA
100
AcDbEntity
  8
0
 62
   136
370
     0
100
AcDbBlockEnd
  0
BLOCK
  5
1F0E7
330
1F0DC
100
AcDbEntity
  8
0
100
AcDbBlockBegin
  2
*D12
 70
     1
 10
0.0
 20
0.0
 30
0.0
  3
*D12
  1

  0
LINE
  5
2517C
330
1F0DC
100
AcDbEntity
  8
DIM
 62
     0
440
 16777216
370
    -2
100
AcDbLine
 10
-26721.74643771058
 20
1069.348834808182
 30
0.0
 11
-26721.74643771058
 21
993.2287275548443
 31
0.0
  0
LINE
  5
2517D
330
1F0DC
100
AcDbEntity
  8
DIM
 62
     0
440
 16777216
370
    -2
100
AcDbLine
 10
-26627.39419250346
 20
1069.348834808184
 30
0.0
 11
-26627.39419250346
 21
993.2287275548443
 31
0.0
  0
LINE
  5
2517E
330
1F0DC
100
AcDbEntity
  8
DIM
 62
     0
440
 16777216
370
    -2
100
AcDbLine
 10
-26711.74643771058
 20
994.4787275548442
 30
0.0
 11
-26637.39419250346
 21
994.4787275548442
 31
0.0
  0
SOLID
  5
2517F
330
1F0DC
100
AcDbEntity
  8
DIM
 62
     0
440
 16777216
100
AcDbTrace
 10
-26711.74643771058
 20
996.1453942215108
 30
0.0
 11
-26711.74643771058
 21
992.8120608881776
 31
0.0
 12
-26721.74643771058
 22
994.4787275548442
 32
0.0
 13
-26721.74643771058
 23
994.4787275548442
 33
0.0
  0
SOLID
  5
25180
330
1F0DC
100
AcDbEntity
  8
DIM
 62
     0
440
 16777216
100
AcDbTrace
 10
-26637.39419250346
 20
996.1453942215108
 30
0.0
 11
-26637.39419250346
 21
992.8120608881776
 31
0.0
 12
-26627.39419250346
 22
994.4787275548442
 32
0.0
 13
-26627.39419250346
 23
994.4787275548442
 33
0.0
  0
MTEXT
  5
25181
330
1F0DC
100
AcDbEntity
  8
DIM
 62
     0
440
 16777216
100
AcDbMText
 10
-26674.57031510702
 20
1024.145394221511
 30
0.0
 40
20.0
 41
5.274797649995889
 46
0.0
 71
     5
 72
     1
  1
%%C90{\Ftxt|c134; [3.5"]}
 73
     1
 44
1.0
  0
POINT
  5
25182
330
1F0DC
100
AcDbEntity
  8
Defpoints
 62
     0
440
 16777216
100
AcDbPoint
 10
-26721.74643771058
 20
1070.348834808182
 30
0.0
  0
POINT
  5
25183
330
1F0DC
100
AcDbEntity
  8
Defpoints
 62
     0
440
 16777216
100
AcDbPoint
 10
-26627.39419250346
 20
1070.348834808183
 30
0.0
  0
POINT
  5
25184
330
1F0DC
100
AcDbEntity
  8
Defpoints
 62
     0
440
 16777216
100
AcDbPoint
 10
-26627.39419250346
 20
994.4787275548442
 30
0.0
  0
ENDBLK
  5
1F0E8
330
1F0DC
100
AcDbEntity
  8
0
100
AcDbBlockEnd
  0
BLOCK
  5
1F100
330
1F0F6
100
AcDbEntity
  8
0
100
AcDbBlockBegin
  2
*D13
 70
     1
 10
0.0
 20
0.0
 30
0.0
  3
*D13
  1

  0
LINE
  5
251A3
330
1F0F6
100
AcDbEntity
  8
DIM
 62
     0
440
 16777216
370
    -2
100
AcDbLine
 10
-26731.57031510701
 20
1075.548834808182
 30
0.0
 11
-26731.57031510701
 21
1113.613399567431
 31
0.0
  0
LINE
  5
251A4
330
1F0F6
100
AcDbEntity
  8
DIM
 62
     0
440
 16777216
370
    -2
100
AcDbLine
 10
-26617.57031510702
 20
1075.548834808182
 30
0.0
 11
-26617.57031510702
 21
1113.613399567431
 31
0.0
  0
LINE
  5
251A5
330
1F0F6
100
AcDbEntity
  8
DIM
 62
     0
440
 16777216
370
    -2
100
AcDbLine
 10
-26721.57031510701
 20
1112.363399567432
 30
0.0
 11
-26627.57031510702
 21
1112.363399567432
 31
0.0
  0
LINE
  5
251A6
330
1F0F6
100
AcDbEntity
  8
DIM
 62
     0
440
 16777216
370
    -2
100
AcDbLine
 10
-26617.57031510702
 20
1112.363399567432
 30
0.0
 11
-26434.90364844036
 21
1112.363399567432
 31
0.0
  0
SOLID
  5
251A7
330
1F0F6
100
AcDbEntity
  8
DIM
 62
     0
440
 16777216
100
AcDbTrace
 10
-26721.57031510701
 20
1114.030066234098
 30
0.0
 11
-26721.57031510701
 21
1110.696732900765
 31
0.0
 12
-26731.57031510701
 22
1112.363399567432
 32
0.0
 13
-26731.57031510701
 23
1112.363399567432
 33
0.0
  0
SOLID
  5
251A8
330
1F0F6
100
AcDbEntity
  8
DIM
 62
     0
440
 16777216
100
AcDbTrace
 10
-26627.57031510702
 20
1114.030066234098
 30
0.0
 11
-26627.57031510702
 21
1110.696732900765
 31
0.0
 12
-26617.57031510702
 22
1112.363399567432
 32
0.0
 13
-26617.57031510702
 23
1112.363399567432
 33
0.0
  0
MTEXT
  5
251A9
330
1F0F6
100
AcDbEntity
  8
DIM
 62
     0
440
 16777216
100
AcDbMText
 10
-26521.23698177369
 20
1125.363399567432
 30
0.0
 40
20.0
 41
0.0
 46
0.0
 71
     5
 72
     1
  1
%%C114{\Ftxt|c134; [4.5"]}
 73
     1
 44
1.0
  0
POINT
  5
251AA
330
1F0F6
100
AcDbEntity
  8
Defpoints
 62
     0
440
 16777216
100
AcDbPoint
 10
-26731.57031510701
 20
1074.548834808182
 30
0.0
  0
POINT
  5
251AB
330
1F0F6
100
AcDbEntity
  8
Defpoints
 62
     0
440
 16777216
100
AcDbPoint
 10
-26617.57031510702
 20
1074.548834808181
 30
0.0
  0
POINT
  5
251AC
330
1F0F6
100
AcDbEntity
  8
Defpoints
 62
     0
440
 16777216
100
AcDbPoint
 10
-26617.57031510702
 20
1112.363399567432
 30
0.0
  0
ENDBLK
  5
1F101
330
1F0F6
100
AcDbEntity
  8
0
100
AcDbBlockEnd
  0
BLOCK
  5
1F118
330
1F10E
100
AcDbEntity
  8
0
100
AcDbBlockBegin
  2
*D14
 70
     1
 10
0.0
 20
0.0
 30
0.0
  3
*D14
  1

  0
LINE
  5
2518F
330
1F10E
100
AcDbEntity
  8
DIM
 62
     0
440
 16777216
370
    -2
100
AcDbLine
 10
-26734.57031510694
 20
1078.54883480818
 30
0.0
 11
-26734.57031510694
 21
1158.786631684517
 31
0.0
  0
LINE
  5
25190
330
1F10E
100
AcDbEntity
  8
DIM
 62
     0
440
 16777216
370
    -2
100
AcDbLine
 10
-26614.57031510702
 20
1078.548834808182
 30
0.0
 11
-26614.57031510702
 21
1158.786631684517
 31
0.0
  0
LINE
  5
25191
330
1F10E
100
AcDbEntity
  8
DIM
 62
     0
440
 16777216
370
    -2
100
AcDbLine
 10
-26724.57031510695
 20
1157.536631684517
 30
0.0
 11
-26624.57031510702
 21
1157.536631684517
 31
0.0
  0
LINE
  5
25192
330
1F10E
100
AcDbEntity
  8
DIM
 62
     0
440
 16777216
370
    -2
100
AcDbLine
 10
-26614.57031510702
 20
1157.536631684517
 30
0.0
 11
-26428.57031510702
 21
1157.536631684517
 31
0.0
  0
SOLID
  5
25193
330
1F10E
100
AcDbEntity
  8
DIM
 62
     0
440
 16777216
100
AcDbTrace
 10
-26724.57031510695
 20
1159.203298351184
 30
0.0
 11
-26724.57031510695
 21
1155.86996501785
 31
0.0
 12
-26734.57031510694
 22
1157.536631684517
 32
0.0
 13
-26734.57031510694
 23
1157.536631684517
 33
0.0
  0
SOLID
  5
25194
330
1F10E
100
AcDbEntity
  8
DIM
 62
     0
440
 16777216
100
AcDbTrace
 10
-26624.57031510702
 20
1159.203298351184
 30
0.0
 11
-26624.57031510702
 21
1155.86996501785
 31
0.0
 12
-26614.57031510702
 22
1157.536631684517
 32
0.0
 13
-26614.57031510702
 23
1157.536631684517
 33
0.0
  0
MTEXT
  5
25195
330
1F10E
100
AcDbEntity
  8
DIM
 62
     0
440
 16777216
100
AcDbMText
 10
-26516.57031510702
 20
1170.536631684517
 30
0.0
 40
20.0
 41
0.0
 46
0.0
 71
     5
 72
     1
  1
%%C120{\Ftxt|c134; [4.7"]}
 73
     1
 44
1.0
  0
POINT
  5
25196
330
1F10E
100
AcDbEntity
  8
Defpoints
 62
     0
440
 16777216
100
AcDbPoint
 10
-26734.57031510694
 20
1077.54883480818
 30
0.0
  0
POINT
  5
25197
330
1F10E
100
AcDbEntity
  8
Defpoints
 62
     0
440
 16777216
100
AcDbPoint
 10
-26614.57031510702
 20
1077.548834808182
 30
0.0
  0
POINT
  5
25198
330
1F10E
100
AcDbEntity
  8
Defpoints
 62
     0
440
 16777216
100
AcDbPoint
 10
-26614.57031510702
 20
1157.536631684517
 30
0.0
  0
ENDBLK
  5
1F119
330
1F10E
100
AcDbEntity
  8
0
100
AcDbBlockEnd
  0
BLOCK
  5
1F132
330
1F126
100
AcDbEntity
  8
0
100
AcDbBlockBegin
  2
*D15
 70
     1
 10
0.0
 20
0.0
 30
0.0
  3
*D15
  1

  0
LINE
  5
25168
330
1F126
100
AcDbEntity
  8
DIM
 62
     0
440
 16777216
370
    -2
100
AcDbLine
 10
-26735.57031510703
 20
1077.548834808183
 30
0.0
 11
-26807.02587318784
 21
1077.548834808183
 31
0.0
  0
LINE
  5
25169
330
1F126
100
AcDbEntity
  8
DIM
 62
     0
440
 16777216
370
    -2
100
AcDbLine
 10
-26722.57031510703
 20
1071.548834808183
 30
0.0
 11
-26807.02587318784
 21
1071.548834808183
 31
0.0
  0
LINE
  5
2516A
330
1F126
100
AcDbEntity
  8
DIM
 62
     0
440
 16777216
370
    -2
100
AcDbLine
 10
-26805.77587318784
 20
1087.548834808183
 30
0.0
 11
-26805.77587318784
 21
1097.548834808183
 31
0.0
  0
LINE
  5
2516B
330
1F126
100
AcDbEntity
  8
DIM
 62
     0
440
 16777216
370
    -2
100
AcDbLine
 10
-26805.77587318784
 20
1061.548834808183
 30
0.0
 11
-26805.77587318784
 21
925.5488348081831
 31
0.0
  0
LINE
  5
2516C
330
1F126
100
AcDbEntity
  8
DIM
 62
     0
440
 16777216
370
    -2
100
AcDbLine
 10
-26805.77587318784
 20
1077.548834808183
 30
0.0
 11
-26805.77587318784
 21
1071.548834808183
 31
0.0
  0
SOLID
  5
2516D
330
1F126
100
AcDbEntity
  8
DIM
 62
     0
440
 16777216
100
AcDbTrace
 10
-26807.44253985451
 20
1087.548834808183
 30
0.0
 11
-26804.10920652117
 21
1087.548834808183
 31
0.0
 12
-26805.77587318784
 22
1077.548834808183
 32
0.0
 13
-26805.77587318784
 23
1077.548834808183
 33
0.0
  0
SOLID
  5
2516E
330
1F126
100
AcDbEntity
  8
DIM
 62
     0
440
 16777216
100
AcDbTrace
 10
-26807.44253985451
 20
1061.548834808183
 30
0.0
 11
-26804.10920652117
 21
1061.548834808183
 31
0.0
 12
-26805.77587318784
 22
1071.548834808183
 32
0.0
 13
-26805.77587318784
 23
1071.548834808183
 33
0.0
  0
MTEXT
  5
2516F
330
1F126
100
AcDbEntity
  8
DIM
 62
     0
440
 16777216
100
AcDbMText
 10
-26818.77587318783
 20
988.5488348081903
 30
0.0
 40
20.0
 41
0.0
 46
0.0
 71
     5
 72
     1
  1
6{\Ftxt|c134; [.24"]}
 11
0.0000000000000001
 21
1.0
 31
0.0
 73
     1
 44
1.0
  0
POINT
  5
25170
330
1F126
100
AcDbEntity
  8
Defpoints
 62
     0
440
 16777216
100
AcDbPoint
 10
-26734.57031510703
 20
1077.548834808183
 30
0.0
  0
POINT
  5
25171
330
1F126
100
AcDbEntity
  8
Defpoints
 62
     0
440
 16777216
100
AcDbPoint
 10
-26721.57031510704
 20
1071.548834808183
 30
0.0
  0
POINT
  5
25172
330
1F126
100
AcDbEntity
  8
Defpoints
 62
     0
440
 16777216
100
AcDbPoint
 10
-26805.77587318784
 20
1071.548834808183
 30
0.0
  0
ENDBLK
  5
1F133
330
1F126
100
AcDbEntity
  8
0
100
AcDbBlockEnd
  0
BLOCK
  5
1F14E
330
1F142
100
AcDbEntity
  8
0
100
AcDbBlockBegin
  2
*D16
 70
     1
 10
0.0
 20
0.0
 30
0.0
  3
*D16
  1

  0
LINE
  5
25152
330
1F142
100
AcDbEntity
  8
DIM
 62
     0
440
 16777216
370
    -2
100
AcDbLine
 10
-26735.57031510703
 20
1077.548834808183
 30
0.0
 11
-26756.61534430416
 21
1077.548834808183
 31
0.0
  0
LINE
  5
25153
330
1F142
100
AcDbEntity
  8
DIM
 62
     0
440
 16777216
370
    -2
100
AcDbLine
 10
-26732.57031510703
 20
1074.548834808183
 30
0.0
 11
-26756.61534430416
 21
1074.548834808183
 31
0.0
  0
LINE
  5
25154
330
1F142
100
AcDbEntity
  8
DIM
 62
     0
440
 16777216
370
    -2
100
AcDbLine
 10
-26755.36534430416
 20
1087.548834808183
 30
0.0
 11
-26755.36534430416
 21
1097.548834808183
 31
0.0
  0
LINE
  5
25155
330
1F142
100
AcDbEntity
  8
DIM
 62
     0
440
 16777216
370
    -2
100
AcDbLine
 10
-26755.36534430416
 20
1064.548834808183
 30
0.0
 11
-26755.36534430416
 21
935.2155014748497
 31
0.0
  0
LINE
  5
25156
330
1F142
100
AcDbEntity
  8
DIM
 62
     0
440
 16777216
370
    -2
100
AcDbLine
 10
-26755.36534430416
 20
1077.548834808183
 30
0.0
 11
-26755.36534430416
 21
1074.548834808183
 31
0.0
  0
SOLID
  5
25157
330
1F142
100
AcDbEntity
  8
DIM
 62
     0
440
 16777216
100
AcDbTrace
 10
-26757.03201097082
 20
1087.548834808183
 30
0.0
 11
-26753.69867763749
 21
1087.548834808183
 31
0.0
 12
-26755.36534430416
 22
1077.548834808183
 32
0.0
 13
-26755.36534430416
 23
1077.548834808183
 33
0.0
  0
SOLID
  5
25158
330
1F142
100
AcDbEntity
  8
DIM
 62
     0
440
 16777216
100
AcDbTrace
 10
-26757.03201097082
 20
1064.548834808183
 30
0.0
 11
-26753.69867763749
 21
1064.548834808183
 31
0.0
 12
-26755.36534430416
 22
1074.548834808183
 32
0.0
 13
-26755.36534430416
 23
1074.548834808183
 33
0.0
  0
MTEXT
  5
25159
330
1F142
100
AcDbEntity
  8
DIM
 62
     0
440
 16777216
100
AcDbMText
 10
-26768.36534430415
 20
994.8821681415237
 30
0.0
 40
20.0
 41
0.0
 46
0.0
 71
     5
 72
     1
  1
3{\Ftxt|c134; [.12"]}
 11
0.0000000000000001
 21
1.0
 31
0.0
 73
     1
 44
1.0
  0
POINT
  5
2515A
330
1F142
100
AcDbEntity
  8
Defpoints
 62
     0
440
 16777216
100
AcDbPoint
 10
-26734.57031510703
 20
1077.548834808183
 30
0.0
  0
POINT
  5
2515B
330
1F142
100
AcDbEntity
  8
Defpoints
 62
     0
440
 16777216
100
AcDbPoint
 10
-26731.57031510703
 20
1074.548834808183
 30
0.0
  0
POINT
  5
2515C
330
1F142
100
AcDbEntity
  8
Defpoints
 62
     0
440
 16777216
100
AcDbPoint
 10
-26755.36534430416
 20
1074.548834808183
 30
0.0
  0
ENDBLK
  5
1F14F
330
1F142
100
AcDbEntity
  8
0
100
AcDbBlockEnd
  0
ENDSEC
  0
SECTION
  2
ENTITIES
  0
LINE
  5
1A3CA
330
1F
100
AcDbEntity
  8
base
 62
     0
100
AcDbLine
 10
-26404.33734617529
 20
1304.348834808182
 30
0.0
 11
-26387.56737138186
 21
1304.348834808183
 31
0.0
  0
ARC
  5
1A3CB
330
1F
100
AcDbEntity
  8
base
 62
     0
100
AcDbCircle
 10
-26404.33734617529
 20
1300.348834808183
 30
0.0
 40
5.2
100
AcDbArc
 50
90.0
 51
176.9999999999966
  0
ARC
  5
1A3CC
330
1F
100
AcDbEntity
  8
base
 62
     0
100
AcDbCircle
 10
-26404.33734617529
 20
1300.348834808183
 30
0.0
 40
4.0
100
AcDbArc
 50
90.0
 51
176.9999999999966
  0
LINE
  5
1A3CD
330
1F
100
AcDbEntity
  8
base
 62
     0
100
AcDbLine
 10
-26380.57031510701
 20
1304.348834808183
 30
0.0
 11
-26404.33734617529
 21
1304.348834808183
 31
0.0
  0
LINE
  5
1A3CE
330
1F
100
AcDbEntity
  8
base
 62
     0
100
AcDbLine
 10
-26409.53021975602
 20
1300.620981780647
 30
0.0
 11
-26419.58903822003
 21
1108.687291751992
 31
0.0
  0
LINE
  5
1A3CF
330
1F
100
AcDbEntity
  8
base
 62
     0
100
AcDbLine
 10
-26408.33186431432
 20
1300.558178633156
 30
0.0
 11
-26418.39068277832
 21
1108.6244886045
 31
0.0
  0
LINE
  5
1A3D0
330
1F
100
AcDbEntity
  8
base
 62
     0
100
AcDbLine
 10
-26968.57031510702
 20
1305.548834808182
 30
0.0
 11
-26380.57031510701
 21
1305.548834808182
 31
0.0
  0
LINE
  5
1A3D1
330
1F
100
AcDbEntity
  8
base
 62
     0
100
AcDbLine
 10
-26968.57031510702
 20
1304.348834808182
 30
0.0
 11
-26944.80328403874
 21
1304.348834808183
 31
0.0
  0
LINE
  5
1A3D2
330
1F
100
AcDbEntity
  8
base
 62
     0
100
AcDbLine
 10
-26940.80876589972
 20
1300.558178633156
 30
0.0
 11
-26930.74994743573
 21
1108.6244886045
 31
0.0
  0
LINE
  5
1A3D3
330
1F
100
AcDbEntity
  8
base
 62
     0
100
AcDbLine
 10
-26939.61041045802
 20
1300.620981780647
 30
0.0
 11
-26929.55159199402
 21
1108.687291751994
 31
0.0
  0
ARC
  5
1A3D4
102
{ACAD_REACTORS
330
1A3DC
102
}
330
1F
100
AcDbEntity
  8
base
 62
     0
100
AcDbCircle
 10
-26944.80328403874
 20
1300.348834808183
 30
0.0
 40
4.0
100
AcDbArc
 50
3.000000000003378
 51
90.0
  0
ARC
  5
1A3D5
330
1F
100
AcDbEntity
  8
base
 62
     0
100
AcDbCircle
 10
-26944.80328403874
 20
1300.348834808183
 30
0.0
 40
5.2
100
AcDbArc
 50
3.000000000003378
 51
90.0
  0
LINE
  5
1A3D6
330
1F
100
AcDbEntity
  8
DIM
 62
     0
100
AcDbLine
 10
-26940.80876589972
 20
1300.558178633154
 30
0.0
 11
-26940.80876589972
 21
1284.562030706152
 31
0.0
  0
DIMENSION
  5
1A3DA
102
{ACAD_XDICTIONARY
360
1A3DB
102
}
102
{ACAD_REACTORS
330
1A3DC
102
}
330
1F
100
AcDbEntity
  8
DIM
 62
     0
100
AcDbDimension
280
     0
  2
*D7
 10
-26944.8032840387
 20
1300.348834808193
 30
0.0
 11
-26984.81643097808
 21
1216.714207247844
 31
0.0
 70
   164
  1
<>{\Ftxt|c134; [.16"]}
 71
     5
 42
3.99999999998181
 73
     0
 74
     0
 75
     0
  3
ISO-25
100
AcDbRadialDimension
 15
-26943.07697129275
 25
1303.957136943965
 35
0.0
 40
0.0
1001
ACAD
1000
DSTYLE
1002
{
1070
    41
1040
10.0
1070
   140
1040
20.0
1070
   141
1040
0.5
1070
   147
1040
3.0
1070
   179
1070
     2
1002
}
  0
LINE
  5
1A3DD
330
1F
100
AcDbEntity
  8
DIM
  6
CENTER
 62
     0
100
AcDbLine
 10
-26614.57031510702
 20
745.0088780298728
 30
0.0
 11
-26734.57031510702
 21
745.0088780298728
 31
0.0
  0
CIRCLE
  5
1A3DE
330
1F
100
AcDbEntity
  8
base
 62
     0
100
AcDbCircle
 10
-26674.57031510702
 20
745.0088780298728
 30
0.0
 40
47.0
  0
LINE
  5
1A3DF
102
{ACAD_REACTORS
330
1A3F4
330
1F124
330
1F140
330
1F15C
102
}
330
1F
100
AcDbEntity
  8
base
 62
     0
100
AcDbLine
 10
-26734.57031510702
 20
1077.548834808182
 30
0.0
 11
-26614.57031510702
 21
1077.548834808182
 31
0.0
  0
LINE
  5
1A3E0
330
1F
100
AcDbEntity
  8
DIM
  6
CENTER
 62
     0
100
AcDbLine
 10
-26674.57031510702
 20
1332.386778186756
 30
0.0
 11
-26674.57031510702
 21
1063.526175398504
 31
0.0
  0
LINE
  5
1A3E1
102
{ACAD_REACTORS
330
1F124
102
}
330
1F
100
AcDbEntity
  8
base
 62
     0
100
AcDbLine
 10
-26905.67633830929
 20
1085.01948511852
 30
0.0
 11
-26734.57031510694
 21
1077.54883480818
 31
0.0
  0
LINE
  5
1A3E2
330
1F
100
AcDbEntity
  8
base
 62
     0
100
AcDbLine
 10
-26905.72868157413
 20
1083.82062725262
 30
0.0
 11
-26735.08886869834
 21
1076.370332124732
 31
0.0
  0
LINE
  5
1A3E3
102
{ACAD_REACTORS
330
1F10C
330
1F15C
102
}
330
1F
100
AcDbEntity
  8
base
 62
     0
100
AcDbLine
 10
-26731.57031510701
 20
1074.548834808182
 30
0.0
 11
-26617.57031510702
 21
1074.548834808181
 31
0.0
  0
LINE
  5
1A3E4
102
{ACAD_REACTORS
330
1F0F4
102
}
330
1F
100
AcDbEntity
  8
base
 62
     0
100
AcDbLine
 10
-26721.74643771058
 20
1070.348834808182
 30
0.0
 11
-26627.39419250346
 21
1070.348834808183
 31
0.0
  0
LINE
  5
1A3E5
102
{ACAD_REACTORS
330
1F140
102
}
330
1F
100
AcDbEntity
  8
base
 62
     0
100
AcDbLine
 10
-26721.57031510702
 20
1071.548834808182
 30
0.0
 11
-26627.57031510702
 21
1071.548834808182
 31
0.0
  0
LINE
  5
1A3E6
102
{ACAD_REACTORS
330
1F10C
102
}
330
1F
100
AcDbEntity
  8
base
 62
     0
100
AcDbLine
 10
-26721.57031510702
 20
1071.548834808182
 30
0.0
 11
-26731.57031510701
 21
1074.548834808182
 31
0.0
  0
LINE
  5
1A3E7
330
1F
100
AcDbEntity
  8
base
 62
     0
100
AcDbLine
 10
-26731.57031510702
 20
1074.548834808182
 30
0.0
 11
-26734.57031510702
 21
1077.548834808182
 31
0.0
  0
LINE
  5
1A3E8
330
1F
100
AcDbEntity
  8
base
 62
     0
100
AcDbLine
 10
-26732.20491438384
 20
1073.486377810159
 30
0.0
 11
-26735.08886869834
 21
1076.370332124666
 31
0.0
  0
LINE
  5
1A3E9
330
1F
100
AcDbEntity
  8
base
 62
     0
100
AcDbLine
 10
-26721.74643771058
 20
1070.348834808182
 30
0.0
 11
-26732.20491438384
 21
1073.486377810159
 31
0.0
  0
LINE
  5
1A3EA
330
1F
100
AcDbEntity
  8
base
 62
     0
100
AcDbLine
 10
-26627.39419250346
 20
1070.348834808182
 30
0.0
 11
-26616.9357158302
 21
1073.486377810159
 31
0.0
  0
LINE
  5
1A3EB
330
1F
100
AcDbEntity
  8
base
 62
     0
100
AcDbLine
 10
-26616.9357158302
 20
1073.486377810159
 30
0.0
 11
-26614.0517615157
 21
1076.370332124666
 31
0.0
  0
LINE
  5
1A3EC
330
1F
100
AcDbEntity
  8
base
 62
     0
100
AcDbLine
 10
-26617.57031510702
 20
1074.548834808182
 30
0.0
 11
-26614.57031510702
 21
1077.548834808182
 31
0.0
  0
LINE
  5
1A3ED
330
1F
100
AcDbEntity
  8
base
 62
     0
100
AcDbLine
 10
-26627.57031510702
 20
1071.548834808182
 30
0.0
 11
-26617.57031510703
 21
1074.548834808182
 31
0.0
  0
LINE
  5
1A3EE
330
1F
100
AcDbEntity
  8
base
 62
     0
100
AcDbLine
 10
-26443.41194863992
 20
1083.82062725262
 30
0.0
 11
-26614.0517615157
 21
1076.370332124732
 31
0.0
  0
LINE
  5
1A3EF
330
1F
100
AcDbEntity
  8
base
 62
     0
100
AcDbLine
 10
-26443.46429190476
 20
1085.01948511852
 30
0.0
 11
-26614.5703151071
 21
1077.54883480818
 31
0.0
  0
DIMENSION
  5
1A3F2
102
{ACAD_XDICTIONARY
360
1A3F3
102
}
102
{ACAD_REACTORS
330
1A3F4
102
}
330
1F
100
AcDbEntity
  8
DIM
 62
     0
100
AcDbDimension
280
     0
  2
*D5
 10
-27049.37573907648
 20
1077.548834808183
 30
0.0
 11
-27062.37573907647
 21
1191.54883480819
 31
0.0
 70
    32
  1
<>{\Ftxt|c134; [9"]}
 71
     5
 42
228.0
 73
     0
 74
     0
 75
     0
  3
ISO-25
100
AcDbAlignedDimension
 13
-26968.57031510702
 23
1305.548834808182
 33
0.0
 14
-26731.44094440975
 24
1077.548834808182
 34
0.0
 50
90.0
100
AcDbRotatedDimension
1001
ACAD
1000
DSTYLE
1002
{
1070
    41
1040
10.0
1070
   140
1040
20.0
1070
   141
1040
0.5
1070
   147
1040
3.0
1070
   179
1070
     2
1002
}
  0
ARC
  5
1A3FB
330
1F
100
AcDbEntity
  8
base
 62
     0
100
AcDbCircle
 10
-26914.87031510702
 20
846.8088780298712
 30
0.0
 40
26.20000000000073
100
AcDbArc
 50
89.99999999999204
 51
179.999999999997
  0
LINE
  5
1A3FC
330
1F
100
AcDbEntity
  8
base
 62
     0
100
AcDbLine
 10
-26914.87031510702
 20
873.0088780298729
 30
0.0
 11
-26434.27031510702
 21
873.0088780298729
 31
0.0
  0
ARC
  5
1A3FD
330
1F
100
AcDbEntity
  8
base
 62
     0
100
AcDbCircle
 10
-26434.27031510702
 20
846.8088780298721
 30
0.0
 40
26.20000000000073
100
AcDbArc
 50
0.0000000000019889
 51
90.0
  0
ARC
  5
1A3FE
102
{ACAD_REACTORS
330
1A404
102
}
330
1F
100
AcDbEntity
  8
base
 62
     0
100
AcDbCircle
 10
-26904.58585362515
 20
1109.995690658066
 30
0.0
 40
25.0
100
AcDbArc
 50
182.9999999999998
 51
267.5000000000001
  0
ARC
  5
1A3FF
330
1F
100
AcDbEntity
  8
base
 62
     0
100
AcDbCircle
 10
-26444.55477658889
 20
1109.995690658066
 30
0.0
 40
25.0
100
AcDbArc
 50
272.5
 51
357.0000000000001
  0
ARC
  5
1A400
330
1F
100
AcDbEntity
  8
base
 62
     0
100
AcDbCircle
 10
-26444.55477658889
 20
1109.995690658066
 30
0.0
 40
26.2
100
AcDbArc
 50
272.5
 51
357.0000000000001
  0
ARC
  5
1A401
330
1F
100
AcDbEntity
  8
base
 62
     0
100
AcDbCircle
 10
-26904.58585362515
 20
1109.995690658066
 30
0.0
 40
26.2
100
AcDbArc
 50
182.9999999999998
 51
267.5000000000001
  0
DIMENSION
  5
1A402
102
{ACAD_XDICTIONARY
360
1A403
102
}
102
{ACAD_REACTORS
330
1A404
102
}
330
1F
100
AcDbEntity
  8
DIM
 62
     0
100
AcDbDimension
280
     0
  2
*D4
 10
-26904.58585362516
 20
1109.995690658066
 30
0.0
 11
-26877.61150976784
 21
1133.074572205267
 31
0.0
 70
   164
  1
<>{\Ftxt|c134; [1"]}
 71
     5
 42
24.99999999996726
 73
     0
 74
     0
 75
     0
  3
ISO-25
100
AcDbRadialDimension
 15
-26923.58187042604
 25
1093.742957174159
 35
0.0
 40
0.0
1001
ACAD
1000
DSTYLE
1002
{
1070
    41
1040
5.0
1070
   140
1040
15.0
1070
   141
1040
0.5
1070
   147
1040
3.0
1070
   179
1070
     2
1070
   279
1070
     1
1070
   288
1070
     1
1002
}
  0
LINE
  5
1A405
330
1F
100
AcDbEntity
  8
DIM
  6
CENTER
 62
     0
100
AcDbLine
 10
-26968.57031510702
 20
670.0088780298728
 30
0.0
 11
-26380.57031510701
 21
670.008878029873
 31
0.0
  0
LINE
  5
1A406
102
{ACAD_REACTORS
330
1A40D
102
}
330
1F
100
AcDbEntity
  8
DIM
  6
CENTER
 62
     0
100
AcDbLine
 10
-26674.57031510702
 20
900.5088780298738
 30
0.0
 11
-26674.57031510702
 21
439.508878029877
 31
0.0
  0
CIRCLE
  5
1A407
102
{ACAD_REACTORS
330
1A40D
102
}
330
1F
100
AcDbEntity
  8
base
 62
     0
100
AcDbCircle
 10
-26674.57031510702
 20
745.0088780298728
 30
0.0
 40
60.0
  0
CIRCLE
  5
1A408
330
1F
100
AcDbEntity
  8
base
 62
     0
100
AcDbCircle
 10
-26674.57031510702
 20
745.0088780298728
 30
0.0
 40
57.0
  0
DIMENSION
  5
1A409
330
1F
100
AcDbEntity
  8
DIM
 62
     0
100
AcDbDimension
280
     0
  2
*D2
 10
-26303.65869102317
 20
873.0088780298771
 30
0.0
 11
-26316.65869102316
 21
670.008878029885
 31
0.0
 70
    32
  1
<>{\Ftxt|c134; [16"]}
 71
     5
 42
405.9999999999983
 73
     0
 74
     0
 75
     0
  3
ISO-25
100
AcDbAlignedDimension
 13
-26434.27031510702
 23
467.0088780298783
 33
0.0
 14
-26434.27031510702
 24
873.0088780298766
 34
0.0
 50
90.0
100
AcDbRotatedDimension
1001
ACAD
1000
DSTYLE
1002
{
1070
    41
1040
10.0
1070
   140
1040
20.0
1070
   141
1040
0.5
1070
   147
1040
3.0
1070
   179
1070
     2
1002
}
  0
DIMENSION
  5
1A40B
102
{ACAD_XDICTIONARY
360
1A40C
102
}
102
{ACAD_REACTORS
330
1A40D
102
}
330
1F
100
AcDbEntity
  8
DIM
 62
     0
100
AcDbDimension
280
     0
  2
*D6
 10
-26564.29592239424
 20
670.0088780298756
 30
0.0
 11
-26593.9625890609
 21
707.5088780298817
 31
0.0
 70
    32
  1
<>{\Ftxt|c134; [3"]}
 71
     5
 42
74.9999999999975
 73
     0
 74
     0
 75
     0
  3
ISO-25
100
AcDbAlignedDimension
 13
-26614.57031510702
 23
745.0088780298728
 33
0.0
 14
-26674.57031510702
 24
670.0088780298754
 34
0.0
 50
90.0
100
AcDbRotatedDimension
1001
ACAD
1000
DSTYLE
1002
{
1070
    41
1040
10.0
1070
   140
1040
20.0
1070
   141
1040
0.5
1070
   147
1040
3.0
1070
   179
1070
     2
1002
}
  0
DIMENSION
  5
1A40E
330
1F
100
AcDbEntity
  8
DIM
 62
     0
100
AcDbDimension
280
     0
  2
*D1
 10
-26914.87031510702
 20
493.20887802988
 30
0.0
 11
-26852.56281299365
 21
543.5986219417445
 31
0.0
 70
   164
  1
4-R25{\Ftxt|c134; [1"]}
 71
     5
 42
26.20000000000073
 73
     0
 74
     0
 75
     0
  3
ISO-25
100
AcDbRadialDimension
 15
-26935.24206912579
 25
476.7336955362334
 35
0.0
 40
0.0
1001
ACAD
1000
DSTYLE
1002
{
1070
    41
1040
10.0
1070
   140
1040
20.0
1070
   141
1040
0.5
1070
   147
1040
3.0
1070
   179
1070
     2
1070
   279
1070
     1
1070
   288
1070
     1
1002
}
  0
ARC
  5
1A419
330
1F
100
AcDbEntity
  8
base
 62
     0
100
AcDbCircle
 10
-26914.87031510702
 20
493.2088780298768
 30
0.0
 40
26.20000000000028
100
AcDbArc
 50
180.0000000000089
 51
270.000000000008
  0
LINE
  5
1A41A
330
1F
100
AcDbEntity
  8
base
 62
     0
100
AcDbLine
 10
-26941.07031510702
 20
493.2088780298727
 30
0.0
 11
-26941.07031510702
 21
846.808878029873
 31
0.0
  0
LINE
  5
1A41B
330
1F
100
AcDbEntity
  8
base
 62
     0
100
AcDbLine
 10
-26408.07031510702
 20
846.808878029873
 30
0.0
 11
-26408.07031510702
 21
493.2088780298727
 31
0.0
  0
ARC
  5
1A41C
330
1F
100
AcDbEntity
  8
base
 62
     0
100
AcDbCircle
 10
-26434.27031510702
 20
493.208878029875
 30
0.0
 40
26.19999999999709
100
AcDbArc
 50
269.9999999999921
 51
359.999999999995
  0
LINE
  5
1A41D
330
1F
100
AcDbEntity
  8
base
 62
     0
100
AcDbLine
 10
-26434.27031510702
 20
467.0088780298756
 30
0.0
 11
-26914.87031510702
 21
467.0088780298765
 31
0.0
  0
DIMENSION
  5
1A41E
330
1F
100
AcDbEntity
  8
DIM
 62
     0
100
AcDbDimension
280
     0
  2
*D3
 10
-26408.07031510702
 20
366.5065472468532
 30
0.0
 11
-26674.57031510702
 21
379.5065472468532
 31
0.0
 70
    32
  1
<>{\Ftxt|c134; [21"]}
 71
     5
 42
532.9999999999963
 73
     0
 74
     0
 75
     0
  3
ISO-25
100
AcDbAlignedDimension
 13
-26941.07031510702
 23
493.2088780298772
 33
0.0
 14
-26408.07031510702
 24
493.2088780298772
 34
0.0
100
AcDbRotatedDimension
1001
ACAD
1000
DSTYLE
1002
{
1070
    41
1040
10.0
1070
   140
1040
20.0
1070
   141
1040
0.5
1070
   147
1040
3.0
1070
   179
1070
     2
1002
}
  0
LINE
  5
1A4D5
330
1F
100
AcDbEntity
  8
base
 62
     0
100
AcDbLine
 10
-26432.57031510702
 20
439.5088780298766
 30
0.0
 11
-26916.57031510702
 21
439.5088780298775
 31
0.0
  0
LINE
  5
1A4D6
102
{ACAD_REACTORS
330
1A50B
102
}
330
1F
100
AcDbEntity
  8
base
 62
     0
100
AcDbLine
 10
-26380.57031510701
 20
848.5088780298736
 30
0.0
 11
-26380.57031510702
 21
491.508878029876
 31
0.0
  0
LINE
  5
1A4D9
102
{ACAD_REACTORS
330
1A50B
102
}
330
1F
100
AcDbEntity
  8
base
 62
     0
100
AcDbLine
 10
-26968.57031510702
 20
491.508878029877
 30
0.0
 11
-26968.57031510702
 21
848.5088780298731
 31
0.0
  0
LINE
  5
1A4DB
330
1F
100
AcDbEntity
  8
base
 62
     0
100
AcDbLine
 10
-26916.57031510702
 20
900.5088780298736
 30
0.0
 11
-26432.57031510701
 21
900.5088780298736
 31
0.0
  0
ARC
  5
1A4DD
102
{ACAD_REACTORS
330
1A547
102
}
330
1F
100
AcDbEntity
  8
base
 62
     0
100
AcDbCircle
 10
-26916.57031510702
 20
848.5088780298736
 30
0.0
 40
52.0
100
AcDbArc
 50
90.0
 51
180.0000000000006
  0
ARC
  5
1A4DE
102
{ACAD_REACTORS
330
1A523
102
}
330
1F
100
AcDbEntity
  8
base
 62
     0
100
AcDbCircle
 10
-26432.57031510701
 20
848.5088780298736
 30
0.0
 40
52.0
100
AcDbArc
 50
0.0
 51
90.0
  0
ARC
  5
1A4DF
102
{ACAD_REACTORS
330
1A523
102
}
330
1F
100
AcDbEntity
  8
base
 62
     0
100
AcDbCircle
 10
-26432.57031510702
 20
491.5088780298765
 30
0.0
 40
52.0
100
AcDbArc
 50
269.9999999999999
 51
359.9999999999994
  0
ARC
  5
1A4E0
330
1F
100
AcDbEntity
  8
base
 62
     0
100
AcDbCircle
 10
-26916.57031510702
 20
491.5088780298774
 30
0.0
 40
52.0
100
AcDbArc
 50
180.0000000000006
 51
269.9999999999999
  0
DIMENSION
  5
1A4F4
102
{ACAD_XDICTIONARY
360
1A501
102
}
102
{ACAD_REACTORS
330
1A50B
102
}
330
1F
100
AcDbEntity
  8
DIM
 62
     0
100
AcDbDimension
280
     0
  2
*D8
 10
-26968.57031510702
 20
287.9838308559629
 30
0.0
 11
-26674.57031510702
 21
300.9838308559629
 31
0.0
 70
    32
  1
<>{\Ftxt|c134; [23.15"]}
 71
     5
 42
588.0
 73
     0
 74
     0
 75
     0
  3
ISO-25
100
AcDbAlignedDimension
 13
-26380.57031510702
 23
491.508878029876
 33
0.0
 14
-26968.57031510702
 24
491.508878029876
 34
0.0
100
AcDbRotatedDimension
1001
ACAD
1000
DSTYLE
1002
{
1070
    41
1040
10.0
1070
   140
1040
20.0
1070
   141
1040
0.5
1070
   147
1040
3.0
1070
   179
1070
     2
1002
}
  0
DIMENSION
  5
1A50C
102
{ACAD_XDICTIONARY
360
1A519
102
}
102
{ACAD_REACTORS
330
1A523
102
}
330
1F
100
AcDbEntity
  8
DIM
 62
     0
100
AcDbDimension
280
     0
  2
*D9
 10
-26224.72169398545
 20
900.5088780298743
 30
0.0
 11
-26237.72169398544
 21
670.0088780298828
 31
0.0
 70
    32
  1
<>{\Ftxt|c134; [18.15"]}
 71
     5
 42
460.9999999999972
 73
     0
 74
     0
 75
     0
  3
ISO-25
100
AcDbAlignedDimension
 13
-26432.57031510702
 23
439.5088780298766
 33
0.0
 14
-26432.57031510701
 24
900.5088780298736
 34
0.0
 50
90.0
100
AcDbRotatedDimension
1001
ACAD
1000
DSTYLE
1002
{
1070
    41
1040
10.0
1070
   140
1040
20.0
1070
   141
1040
0.5
1070
   147
1040
3.0
1070
   179
1070
     2
1002
}
  0
DIMENSION
  5
1A536
102
{ACAD_XDICTIONARY
360
1A540
102
}
102
{ACAD_REACTORS
330
1A547
102
}
330
1F
100
AcDbEntity
  8
DIM
 62
     0
100
AcDbDimension
280
     0
  2
*D10
 10
-26916.57031510702
 20
848.5088780298791
 30
0.0
 11
-27022.69053422224
 21
971.16127387296
 31
0.0
 70
    36
  1
4-<>{\Ftxt|c134; [2"]}
 71
     5
 42
51.99999999999272
 73
     0
 74
     0
 75
     0
  3
ISO-25
100
AcDbRadialDimension
 15
-26953.63650821933
 25
884.9793774528443
 35
0.0
 40
0.0
1001
ACAD
1000
DSTYLE
1002
{
1070
    41
1040
10.0
1070
   140
1040
20.0
1070
   141
1040
0.5
1070
   147
1040
3.0
1070
   179
1070
     2
1002
}
  0
LWPOLYLINE
  5
1AA25
330
1F
100
AcDbEntity
  8
模芯1
100
AcDbPolyline
 90
        8
 70
     1
 43
0.0
 10
-25773.09151497249
 20
-7661.120976879136
 42
0.4129154315678313
 10
-25747.14275025554
 20
-7635.185158272237
 42
0.0012332916250333
 10
-25747.14275025558
 20
-7296.315120519285
 42
0.4129154315674841
 10
-25773.0915149725
 20
-7270.379301912374
 42
0.0009837738515823
 10
-26238.97605995907
 20
-7270.379301912374
 42
0.4129154315675241
 10
-26264.92482467602
 20
-7296.315120519257
 42
0.0012332916250334
 10
-26264.92482467604
 20
-7635.185158272213
 42
0.4129154315679754
 10
-26238.97605995911
 20
-7661.120976879158
 42
0.0009837738515813
  0
CIRCLE
  5
1AA26
330
1F
100
AcDbEntity
  8
模芯1
100
AcDbCircle
 10
-26006.03378746479
 20
-7390.750139395283
 30
0.0
 40
45.0
  0
CIRCLE
  5
1AA27
330
1F
100
AcDbEntity
  8
模芯1
100
AcDbCircle
 10
-26006.03378746578
 20
-7390.750139395281
 30
0.0
 40
30.0
  0
LINE
  5
1AA28
330
1F
100
AcDbEntity
  8
模芯1DIM
  6
CENTER
100
AcDbLine
 10
-26051.0337874648
 20
-7390.750139395281
 30
0.0
 11
-25961.0337874648
 21
-7390.750139395281
 31
0.0
  0
LINE
  5
1AA33
330
1F
100
AcDbEntity
  8
模芯1DIM
  6
CENTER
100
AcDbLine
 10
-26006.03378746479
 20
-7268.750139395769
 30
0.0
 11
-26006.03378746479
 21
-7662.750139395739
 31
0.0
  0
CIRCLE
  5
1AA34
330
1F
100
AcDbEntity
  8
模芯1
  6
ACAD_ISO02W100
100
AcDbCircle
 10
-26246.03378745602
 20
-7465.750139395281
 30
0.0
 40
7.0
  0
ARC
  5
1AA35
330
1F
100
AcDbEntity
  8
模芯1
  6
ACAD_ISO02W100
100
AcDbCircle
 10
-26246.03378745602
 20
-7465.750139395281
 30
0.0
 40
8.0
100
AcDbArc
 50
180.0
 51
90.0
  0
LINE
  5
1AA36
330
1F
100
AcDbEntity
  8
模芯1DIM
  6
CENTER
100
AcDbLine
 10
-26246.03378745602
 20
-7457.750139395281
 30
0.0
 11
-26246.03378745602
 21
-7473.750139395281
 31
0.0
  0
LINE
  5
1AA37
330
1F
100
AcDbEntity
  8
模芯1DIM
  6
CENTER
100
AcDbLine
 10
-25766.03378745601
 20
-7457.750139395281
 30
0.0
 11
-25766.03378745601
 21
-7473.750139395281
 31
0.0
  0
ARC
  5
1AA38
330
1F
100
AcDbEntity
  8
模芯1
  6
ACAD_ISO02W100
100
AcDbCircle
 10
-25766.03378745601
 20
-7465.750139395281
 30
0.0
 40
8.0
100
AcDbArc
 50
90.0
 51
0.0
  0
CIRCLE
  5
1AA39
330
1F
100
AcDbEntity
  8
模芯1
  6
ACAD_ISO02W100
100
AcDbCircle
 10
-25766.03378745601
 20
-7465.750139395281
 30
0.0
 40
7.0
  0
LINE
  5
1AA3A
330
1F
100
AcDbEntity
  8
模芯1DIM
  6
CENTER
100
AcDbLine
 10
-25864.03378745601
 20
-7640.750139395281
 30
0.0
 11
-25848.03378745601
 21
-7640.750139395281
 31
0.0
  0
LINE
  5
1AA3B
330
1F
100
AcDbEntity
  8
模芯1DIM
  6
CENTER
100
AcDbLine
 10
-25856.03378745601
 20
-7648.750139395281
 30
0.0
 11
-25856.03378745601
 21
-7632.750139395281
 31
0.0
  0
ARC
  5
1AA3C
330
1F
100
AcDbEntity
  8
模芯1
  6
ACAD_ISO02W100
100
AcDbCircle
 10
-25856.03378745601
 20
-7640.750139395281
 30
0.0
 40
8.0
100
AcDbArc
 50
0.0
 51
270.0
  0
CIRCLE
  5
1AA3D
330
1F
100
AcDbEntity
  8
模芯1
  6
ACAD_ISO02W100
100
AcDbCircle
 10
-25856.03378745601
 20
-7640.750139395281
 30
0.0
 40
7.0
  0
CIRCLE
  5
1AA3E
330
1F
100
AcDbEntity
  8
模芯1
  6
ACAD_ISO02W100
100
AcDbCircle
 10
-26156.03378745602
 20
-7640.750139395281
 30
0.0
 40
7.0
  0
ARC
  5
1AA3F
330
1F
100
AcDbEntity
  8
模芯1
  6
ACAD_ISO02W100
100
AcDbCircle
 10
-26156.03378745602
 20
-7640.750139395281
 30
0.0
 40
8.0
100
AcDbArc
 50
0.0
 51
270.0
  0
LINE
  5
1AA40
330
1F
100
AcDbEntity
  8
模芯1DIM
  6
CENTER
100
AcDbLine
 10
-26164.03378745602
 20
-7640.750139395281
 30
0.0
 11
-26148.03378745601
 21
-7640.750139395281
 31
0.0
  0
LINE
  5
1AA41
330
1F
100
AcDbEntity
  8
模芯1DIM
  6
CENTER
100
AcDbLine
 10
-26156.03378745602
 20
-7648.750139395281
 30
0.0
 11
-26156.03378745602
 21
-7632.750139395281
 31
0.0
  0
CIRCLE
  5
1AA42
330
1F
100
AcDbEntity
  8
模芯1
  6
ACAD_ISO02W100
100
AcDbCircle
 10
-25856.03378745601
 20
-7290.750139395282
 30
0.0
 40
7.0
  0
ARC
  5
1AA43
330
1F
100
AcDbEntity
  8
模芯1
  6
ACAD_ISO02W100
100
AcDbCircle
 10
-25856.03378745601
 20
-7290.750139395282
 30
0.0
 40
8.0
100
AcDbArc
 50
90.0
 51
0.0
  0
LINE
  5
1AA44
330
1F
100
AcDbEntity
  8
模芯1DIM
  6
CENTER
100
AcDbLine
 10
-25856.03378745601
 20
-7282.750139395282
 30
0.0
 11
-25856.03378745601
 21
-7298.750139395281
 31
0.0
  0
LINE
  5
1AA45
330
1F
100
AcDbEntity
  8
模芯1DIM
  6
CENTER
100
AcDbLine
 10
-25864.03378745601
 20
-7290.750139395282
 30
0.0
 11
-25848.03378745601
 21
-7290.750139395282
 31
0.0
  0
LINE
  5
1AA46
330
1F
100
AcDbEntity
  8
模芯1DIM
  6
CENTER
100
AcDbLine
 10
-26164.03378745602
 20
-7290.750139395282
 30
0.0
 11
-26148.03378745601
 21
-7290.750139395282
 31
0.0
  0
LINE
  5
1AA47
330
1F
100
AcDbEntity
  8
模芯1DIM
  6
CENTER
100
AcDbLine
 10
-26156.03378745602
 20
-7282.750139395282
 30
0.0
 11
-26156.03378745602
 21
-7298.750139395281
 31
0.0
  0
ARC
  5
1AA48
330
1F
100
AcDbEntity
  8
模芯1
  6
ACAD_ISO02W100
100
AcDbCircle
 10
-26156.03378745602
 20
-7290.750139395282
 30
0.0
 40
8.0
100
AcDbArc
 50
90.0
 51
0.0
  0
CIRCLE
  5
1AA49
330
1F
100
AcDbEntity
  8
模芯1
  6
ACAD_ISO02W100
100
AcDbCircle
 10
-26156.03378745602
 20
-7290.750139395282
 30
0.0
 40
7.0
  0
LINE
  5
1AA4A
330
1F
100
AcDbEntity
  8
模芯1DIM
  6
CENTER
100
AcDbLine
 10
-26266.53378746578
 20
-7465.750139395281
 30
0.0
 11
-25745.53378746578
 21
-7465.750139395281
 31
0.0
  0
ARC
  5
1AA55
330
1F
100
AcDbEntity
  8
模芯1
  6
ACAD_ISO02W100
100
AcDbCircle
 10
-26196.41655294037
 20
-7592.596976416345
 30
0.0
 40
20.0
100
AcDbArc
 50
180.1059079084788
 51
269.9078110837887
  0
ARC
  5
1AA56
330
1F
100
AcDbEntity
  8
模芯1
  6
ACAD_ISO02W100
100
AcDbCircle
 10
-25815.6510219912
 20
-7592.596976416368
 30
0.0
 40
20.0
100
AcDbArc
 50
270.0921889160654
 51
359.8940920914535
  0
ARC
  5
1AA57
330
1F
100
AcDbEntity
  8
模芯1
  6
ACAD_ISO02W100
100
AcDbCircle
 10
-25815.65102199124
 20
-7338.903302375111
 30
0.0
 40
20.0
100
AcDbArc
 50
0.1059079085672456
 51
89.90781108380955
  0
ARC
  5
1AA58
330
1F
100
AcDbEntity
  8
模芯1
  6
ACAD_ISO02W100
100
AcDbCircle
 10
-26196.41655294032
 20
-7338.903302375118
 30
0.0
 40
20.0
100
AcDbArc
 50
90.09218891624259
 51
179.8940920913649
  0
ARC
  5
1AA59
330
1F
100
AcDbEntity
  8
模芯1
  6
ACAD_ISO02W100
100
AcDbCircle
 10
-26006.03378745964
 20
110730.949860711
 30
0.0
 40
118343.7000001067
100
AcDbArc
 50
269.9078110838258
 51
270.0921889161681
  0
ARC
  5
1AA5A
330
1F
100
AcDbEntity
  8
模芯1
  6
ACAD_ISO02W100
100
AcDbCircle
 10
42427.16621252768
 20
-7465.750139410193
 30
0.0
 40
68643.69999999345
100
AcDbArc
 50
179.8940920914293
 51
180.1059079085465
  0
ARC
  5
1AA5B
330
1F
100
AcDbEntity
  8
模芯1
  6
ACAD_ISO02W100
100
AcDbCircle
 10
-26006.03378746168
 20
-125662.4501393976
 30
0.0
 40
118343.7000000019
100
AcDbArc
 50
89.9078110838308
 51
90.09218891617317
  0
ARC
  5
1AA5C
330
1F
100
AcDbEntity
  8
模芯1
  6
ACAD_ISO02W100
100
AcDbCircle
 10
-94439.2337874604
 20
-7465.750139405944
 30
0.0
 40
68643.69999999462
100
AcDbArc
 50
359.8940920914499
 51
0.105907908567147
  0
LWPOLYLINE
  5
1AA5D
330
1F
100
AcDbEntity
  8
模芯1
100
AcDbPolyline
 90
        8
 70
     1
 43
0.0
 10
-25771.69466513773
 20
-7662.518223009827
 42
0.4129060462956645
 10
-25745.74620787992
 20
-7636.582932746215
 42
0.0012434405009673
 10
-25745.74620787997
 20
-7294.917346045342
 42
0.412906046295542
 10
-25771.69466513776
 20
-7268.982055781672
 42
0.0009896614087011
 10
-26240.3729097937
 20
-7268.982055781674
 42
0.4129060462955814
 10
-26266.32136705163
 20
-7294.917346045268
 42
0.0012434405009675
 10
-26266.32136705164
 20
-7636.582932746185
 42
0.4129060462958682
 10
-26240.37290979386
 20
-7662.518223009853
 42
0.0009896614087008
  0
LWPOLYLINE
  5
1AA63
330
1F
100
AcDbEntity
  8
模芯1
100
AcDbPolyline
 90
       11
 70
     0
 43
0.0
 10
-25191.53099338423
 20
-7435.750139395226
 10
-25191.53099338423
 20
-7345.750139395358
 10
-25197.17964587757
 20
-7292.006800898256
 42
0.378853266415255
 10
-25221.60526023859
 20
-7269.623839725889
 10
-25271.53099338422
 20
-7268.750139395841
 10
-25421.53099338424
 20
-7268.750139395841
 10
-25421.53099338424
 20
-7662.750139395827
 10
-25271.53099338415
 20
-7662.750139395822
 10
-25223.13335160562
 20
-7661.9031806647
 42
0.3989465281761219
 10
-25198.58601395334
 20
-7637.779495328214
 10
-25191.53099338423
 20
-7435.750139395342
  0
LWPOLYLINE
  5
1AA66
330
1F
100
AcDbEntity
  8
模芯1
100
AcDbPolyline
 90
       11
 70
     0
 43
0.0
 10
-26266.53378746676
 20
-6516.568261143672
 10
-26265.67979663336
 20
-6467.76878494949
 42
-0.3989465281761263
 10
-26241.55611129688
 20
-6443.221447297211
 10
-26051.0337874658
 20
-6436.568261143674
 10
-25961.03378746578
 20
-6436.568261143671
 10
-25770.51146362844
 20
-6443.221447297428
 42
-0.3989465281761263
 10
-25746.38777829196
 20
-6467.768784949709
 10
-25745.53378745856
 20
-6516.568261143731
 10
-25745.53378745856
 20
-6666.568261143672
 10
-26266.53378746676
 20
-6666.568261143672
 10
-26266.53378746676
 20
-6516.56826114382
  0
LINE
  5
1AA67
330
1F
100
AcDbEntity
  8
模芯2
100
AcDbLine
 10
-24728.55367779059
 20
-6436.568261143671
 30
0.0
 11
-25022.7189297227
 21
-6445.8127766116
 31
0.0
  0
LINE
  5
1AA68
330
1F
100
AcDbEntity
  8
模芯2
100
AcDbLine
 10
-24713.55367779059
 20
-6436.568261143671
 30
0.0
 11
-24713.55367779059
 21
-6486.568261143671
 31
0.0
  0
ARC
  5
1AA69
330
1F
100
AcDbEntity
  8
模芯2
100
AcDbCircle
 10
-24986.55128186524
 20
-6506.568261143673
 30
0.0
 40
20.0
100
AcDbArc
 50
89.99999999998959
 51
179.9999999999935
  0
LINE
  5
1AA6A
330
1F
100
AcDbEntity
  8
模芯2
100
AcDbLine
 10
-24986.55128186524
 20
-6486.568261143671
 30
0.0
 11
-24683.55367779059
 21
-6486.568261143671
 31
0.0
  0
LINE
  5
1AA6B
330
1F
100
AcDbEntity
  8
模芯2
100
AcDbLine
 10
-25006.55128186524
 20
-6506.568261143671
 30
0.0
 11
-25006.55128186524
 21
-6686.568261143671
 31
0.0
  0
LINE
  5
1AA6C
330
1F
100
AcDbEntity
  8
模芯2
100
AcDbLine
 10
-25056.55367779059
 20
-6651.568261143672
 30
0.0
 11
-25046.89859135503
 21
-6469.47671871867
 31
0.0
  0
LINE
  5
1AA6D
330
1F
100
AcDbEntity
  8
模芯2
100
AcDbLine
 10
-25056.55367779059
 20
-6686.568261143671
 30
0.0
 11
-24683.55367779059
 21
-6686.568261143671
 31
0.0
  0
LINE
  5
1AA6E
330
1F
100
AcDbEntity
  8
模芯2
100
AcDbLine
 10
-24728.55367779058
 20
-6436.568261143671
 30
0.0
 11
-24683.55367779059
 21
-6436.568261143671
 31
0.0
  0
LINE
  5
1AA6F
330
1F
100
AcDbEntity
  8
模芯2
100
AcDbLine
 10
-25056.55367779059
 20
-6651.568261143673
 30
0.0
 11
-25056.55367779059
 21
-6686.568261143671
 31
0.0
  0
ARC
  5
1AA70
330
1F
100
AcDbEntity
  8
模芯2
 62
     1
100
AcDbCircle
 10
-25461.07251440604
 20
-6470.561260102693
 30
0.0
 40
25.0
100
AcDbArc
 50
92.49999999998747
 51
176.8585461500251
  0
LINE
  5
1AA71
330
1F
100
AcDbEntity
  8
模芯2
100
AcDbLine
 10
-25462.16299909017
 20
-6445.585054563192
 30
0.0
 11
-25255.64447661087
 21
-6436.568261143671
 31
0.0
  0
LINE
  5
1AA72
330
1F
100
AcDbEntity
  8
模芯2
100
AcDbLine
 10
-25496.04447661087
 20
-6651.568261143615
 30
0.0
 11
-25496.04447661087
 21
-6686.568261143671
 31
0.0
  0
LINE
  5
1AA73
330
1F
100
AcDbEntity
  8
模芯2
100
AcDbLine
 10
-25255.64447661086
 20
-6436.568261143671
 30
0.0
 11
-25210.64447661087
 21
-6436.568261143671
 31
0.0
  0
LINE
  5
1AA74
330
1F
100
AcDbEntity
  8
模芯2
100
AcDbLine
 10
-25496.04447661087
 20
-6686.568261143671
 30
0.0
 11
-25210.64447661087
 21
-6686.568261143671
 31
0.0
  0
LINE
  5
1AA75
330
1F
100
AcDbEntity
  8
模芯2
100
AcDbLine
 10
-25496.04447661087
 20
-6651.568261143672
 30
0.0
 11
-25486.03494647172
 21
-6469.19122894746
 31
0.0
  0
LINE
  5
1AA76
330
1F
100
AcDbEntity
  8
模芯2
100
AcDbLine
 10
-25446.04208068552
 20
-6506.568261143671
 30
0.0
 11
-25446.04208068552
 21
-6686.568261143671
 31
0.0
  0
LINE
  5
1AA77
330
1F
100
AcDbEntity
  8
模芯2
100
AcDbLine
 10
-25426.04208068552
 20
-6486.568261143671
 30
0.0
 11
-25210.64447661087
 21
-6486.568261143671
 31
0.0
  0
ARC
  5
1AA78
330
1F
100
AcDbEntity
  8
模芯2
100
AcDbCircle
 10
-25426.04208068552
 20
-6506.568261143673
 30
0.0
 40
20.0
100
AcDbArc
 50
89.99999999998959
 51
179.9999999999935
  0
LINE
  5
1AA79
330
1F
100
AcDbEntity
  8
模芯2
100
AcDbLine
 10
-25240.64447661087
 20
-6436.568261143671
 30
0.0
 11
-25240.64447661087
 21
-6486.568261143671
 31
0.0
  0
CIRCLE
  5
1AA7E
330
1F
100
AcDbEntity
  8
模芯2
100
AcDbCircle
 10
-26006.03378746578
 20
-7390.750139395281
 30
0.0
 40
30.0
  0
ARC
  5
1AA84
330
1F
100
AcDbEntity
  8
模芯2
100
AcDbCircle
 10
-25225.24552767033
 20
-7634.800287607139
 30
0.0
 40
25.0
100
AcDbArc
 50
272.503430472068
 51
357.5000000000386
  0
LINE
  5
1AA85
330
1F
100
AcDbEntity
  8
模芯2
100
AcDbLine
 10
-25406.53099338423
 20
-7667.750139394986
 30
0.0
 11
-25224.15354758699
 21
-7659.776427811293
 31
0.0
  0
LINE
  5
1AA86
330
1F
100
AcDbEntity
  8
模芯2
100
AcDbLine
 10
-25200.26932213078
 20
-7635.890772291258
 30
0.0
 11
-25191.53099338424
 21
-7435.750139395263
 31
0.0
  0
LINE
  5
1AA87
330
1F
100
AcDbEntity
  8
模芯2
100
AcDbLine
 10
-25197.81100671376
 20
-7294.603535267315
 30
0.0
 11
-25191.53099338424
 21
-7345.750139395267
 31
0.0
  0
LINE
  5
1AA88
330
1F
100
AcDbEntity
  8
模芯2
100
AcDbLine
 10
-25406.53099338423
 20
-7263.750139394989
 30
0.0
 11
-25222.48154736976
 21
-7271.796952383528
 31
0.0
  0
LINE
  5
1AA89
330
1F
100
AcDbEntity
  8
模芯2
100
AcDbLine
 10
-25191.53099338423
 20
-7435.75013939527
 30
0.0
 11
-25191.53099338424
 21
-7345.750139395313
 31
0.0
  0
LINE
  5
1AA8A
330
1F
100
AcDbEntity
  8
模芯2
100
AcDbLine
 10
-25441.53099338424
 20
-7667.750139394986
 30
0.0
 11
-25441.53099338424
 21
-7263.750139394989
 31
0.0
  0
LINE
  5
1AA8B
330
1F
100
AcDbEntity
  8
模芯2
100
AcDbLine
 10
-25406.53099338425
 20
-7667.750139394986
 30
0.0
 11
-25441.53099338424
 21
-7667.750139394986
 31
0.0
  0
LINE
  5
1AA8C
330
1F
100
AcDbEntity
  8
模芯2
100
AcDbLine
 10
-25406.53099338424
 20
-7263.750139394987
 30
0.0
 11
-25441.53099338424
 21
-7263.750139394989
 31
0.0
  0
CIRCLE
  5
1AA91
330
1F
100
AcDbEntity
  8
模芯2
100
AcDbCircle
 10
-26006.03378747456
 20
-7390.750139395281
 30
0.0
 40
45.0
  0
LWPOLYLINE
  5
1AA93
330
1F
100
AcDbEntity
  8
模芯2
100
AcDbPolyline
 90
        8
 70
     1
 43
0.0
 10
-25770.50852849771
 20
-7658.115860610884
 42
0.4128980021948311
 10
-25750.14917649918
 20
-7637.766988175886
 42
0.001252139113937
 10
-25750.14917649919
 20
-7293.733290614024
 42
0.4128980021943619
 10
-25770.50852849771
 20
-7273.384418179026
 42
0.0009947076805747
 10
-26241.55904645135
 20
-7273.384418179055
 42
0.412898002194284
 10
-26261.91839844994
 20
-7293.733290614027
 42
0.0012521391139374
 10
-26261.91839844996
 20
-7637.766988175858
 42
0.4128980021945842
 10
-26241.55904645143
 20
-7658.11586061089
 42
0.0009947076805746
  0
ARC
  5
1AA9B
330
1F
100
AcDbEntity
  8
模芯2
  6
ACAD_ISO02W100
100
AcDbCircle
 10
-26246.03378746578
 20
-7465.750139395281
 30
0.0
 40
8.0
100
AcDbArc
 50
180.0
 51
90.0
  0
CIRCLE
  5
1AA9C
330
1F
100
AcDbEntity
  8
模芯2
  6
ACAD_ISO02W100
100
AcDbCircle
 10
-26246.03378746578
 20
-7465.750139395281
 30
0.0
 40
7.0
  0
CIRCLE
  5
1AA9D
330
1F
100
AcDbEntity
  8
模芯2
  6
ACAD_ISO02W100
100
AcDbCircle
 10
-25856.03378746578
 20
-7640.750139395281
 30
0.0
 40
7.0
  0
ARC
  5
1AA9E
330
1F
100
AcDbEntity
  8
模芯2
  6
ACAD_ISO02W100
100
AcDbCircle
 10
-25856.03378746578
 20
-7640.750139395281
 30
0.0
 40
8.0
100
AcDbArc
 50
0.0
 51
270.0
  0
ARC
  5
1AA9F
330
1F
100
AcDbEntity
  8
模芯2
  6
ACAD_ISO02W100
100
AcDbCircle
 10
-26156.03378746578
 20
-7640.750139395281
 30
0.0
 40
8.0
100
AcDbArc
 50
0.0
 51
270.0
  0
CIRCLE
  5
1AAA0
330
1F
100
AcDbEntity
  8
模芯2
  6
ACAD_ISO02W100
100
AcDbCircle
 10
-26156.03378746578
 20
-7640.750139395281
 30
0.0
 40
7.0
  0
CIRCLE
  5
1AAA1
330
1F
100
AcDbEntity
  8
模芯2
  6
ACAD_ISO02W100
100
AcDbCircle
 10
-26156.03378746578
 20
-7290.750139395282
 30
0.0
 40
7.0
  0
ARC
  5
1AAA2
330
1F
100
AcDbEntity
  8
模芯2
  6
ACAD_ISO02W100
100
AcDbCircle
 10
-26156.03378746578
 20
-7290.750139395282
 30
0.0
 40
8.0
100
AcDbArc
 50
90.0
 51
0.0
  0
ARC
  5
1AAA3
330
1F
100
AcDbEntity
  8
模芯2
  6
ACAD_ISO02W100
100
AcDbCircle
 10
-25856.03378746578
 20
-7290.750139395282
 30
0.0
 40
8.0
100
AcDbArc
 50
90.0
 51
0.0
  0
CIRCLE
  5
1AAA4
330
1F
100
AcDbEntity
  8
模芯2
  6
ACAD_ISO02W100
100
AcDbCircle
 10
-25856.03378746578
 20
-7290.750139395282
 30
0.0
 40
7.0
  0
CIRCLE
  5
1AAA5
330
1F
100
AcDbEntity
  8
模芯2
  6
ACAD_ISO02W100
100
AcDbCircle
 10
-25766.03378746578
 20
-7465.750139395281
 30
0.0
 40
7.0
  0
ARC
  5
1AAA6
330
1F
100
AcDbEntity
  8
模芯2
  6
ACAD_ISO02W100
100
AcDbCircle
 10
-25766.03378746578
 20
-7465.750139395281
 30
0.0
 40
8.0
100
AcDbArc
 50
90.0
 51
0.0
  0
ARC
  5
1AAAC
330
1F
100
AcDbEntity
  8
模芯2
  6
ACAD_ISO02W100
100
AcDbCircle
 10
-26201.40715341951
 20
-7597.588848101587
 30
0.0
 40
20.0
100
AcDbArc
 50
180.1100677446878
 51
269.9053984842414
  0
ARC
  5
1AAAD
330
1F
100
AcDbEntity
  8
模芯2
  6
ACAD_ISO02W100
100
AcDbCircle
 10
-25810.66042152963
 20
-7597.588848101557
 30
0.0
 40
20.0
100
AcDbArc
 50
270.0946015157169
 51
359.8899322552889
  0
ARC
  5
1AAAE
330
1F
100
AcDbEntity
  8
模芯2
  6
ACAD_ISO02W100
100
AcDbCircle
 10
-25810.66042152964
 20
-7333.911430688364
 30
0.0
 40
20.0
100
AcDbArc
 50
0.1100677447164549
 51
89.90539848416855
  0
ARC
  5
1AAAF
330
1F
100
AcDbEntity
  8
模芯2
  6
ACAD_ISO02W100
100
AcDbCircle
 10
-26201.40715341948
 20
-7333.911430688357
 30
0.0
 40
20.0
100
AcDbArc
 50
90.09460151577938
 51
179.8899322552941
  0
ARC
  5
1AAB5
330
1F
100
AcDbEntity
  8
模芯2
  6
ACAD_ISO02W100
100
AcDbCircle
 10
-26006.03378748081
 20
110730.9498606467
 30
0.0
 40
118348.7000000416
100
AcDbArc
 50
269.9053984841912
 51
270.0946015158148
  0
ARC
  5
1AAB6
330
1F
100
AcDbEntity
  8
模芯2
  6
ACAD_ISO02W100
100
AcDbCircle
 10
42427.16621252325
 20
-7465.750139397432
 30
0.0
 40
68648.69999999782
100
AcDbArc
 50
179.8899322552869
 51
180.110067744709
  0
ARC
  5
1AAB7
330
1F
100
AcDbEntity
  8
模芯2
  6
ACAD_ISO02W100
100
AcDbCircle
 10
-26006.03378747281
 20
-125662.4501393979
 30
0.0
 40
118348.7000000029
100
AcDbArc
 50
89.90539848418903
 51
90.09460151581265
  0
ARC
  5
1AAB8
330
1F
100
AcDbEntity
  8
模芯2
  6
ACAD_ISO02W100
100
AcDbCircle
 10
-94439.23378748921
 20
-7465.750139399883
 30
0.0
 40
68648.70000001465
100
AcDbArc
 50
359.8899322552931
 51
0.1100677447151401
  0
LWPOLYLINE
  5
1AAB9
330
1F
100
AcDbEntity
  8
模芯2
100
AcDbPolyline
 90
        8
 70
     1
 43
0.0
 10
-25765.71051571428
 20
-7667.506237500614
 42
0.4128658296462259
 10
-25740.76134301476
 20
-7642.570635377008
 42
0.0012869296568199
 10
-25740.76134301479
 20
-7288.929643412976
 42
0.4128658296463435
 10
-25765.71051571431
 20
-7263.994041289305
 42
0.0010148908699759
 10
-26246.35705923474
 20
-7263.994041289341
 42
0.4128658296463856
 10
-26271.30623193434
 20
-7288.929643412906
 42
0.0012869296568205
 10
-26271.30623193435
 20
-7642.570635377002
 42
0.4128658296467575
 10
-26246.35705923482
 20
-7667.506237500628
 42
0.0010148908699759
  0
LWPOLYLINE
  5
1AACA
330
1F
100
AcDbEntity
  8
模芯2
100
AcDbPolyline
 90
       10
 70
     1
 43
0.0
 10
-25740.53378747457
 20
-6686.568261143671
 10
-26271.53378747455
 20
-6686.568261143671
 10
-26271.53378747455
 20
-6651.568261143672
 10
-26263.53808159006
 20
-6468.687754211072
 42
-0.3888615000953663
 10
-26239.65242607004
 20
-6444.803528754871
 10
-26051.03378747457
 20
-6436.568261143671
 10
-25961.03378745701
 20
-6436.568261143671
 10
-25772.41514886151
 20
-6444.803528754871
 42
-0.3888615000953662
 10
-25748.52949334149
 20
-6468.687754211072
 10
-25740.53378747457
 20
-6651.568260741871
  0
ARC
  5
1AACB
330
1F
100
AcDbEntity
  8
模芯2
100
AcDbCircle
 10
-25223.61720665644
 20
-7297.772138195849
 30
0.0
 40
26.0
100
AcDbArc
 50
7.000000000000022
 51
87.49656952793007
  0
ARC
  5
1AACC
330
1F
100
AcDbEntity
  8
模芯2
100
AcDbCircle
 10
-25021.93366074575
 20
-6470.800440620743
 30
0.0
 40
25.0
100
AcDbArc
 50
91.80000000000001
 51
176.9648335185291
  0
LINE
  5
1AC44
330
1F
100
AcDbEntity
  8
模芯1
100
AcDbLine
 10
-25488.14447661087
 20
-6516.568261143672
 30
0.0
 11
-25487.0988780868
 21
-6476.73593641725
 31
0.0
  0
LINE
  5
1AC45
330
1F
100
AcDbEntity
  8
模芯1
100
AcDbLine
 10
-25255.64447661087
 20
-6436.568261143669
 30
0.0
 11
-25458.73157307533
 21
-6447.56706512924
 31
0.0
  0
LINE
  5
1AC46
330
1F
100
AcDbEntity
  8
模芯1
100
AcDbLine
 10
-25488.14447661087
 20
-6666.56826114367
 30
0.0
 11
-25488.14447661087
 21
-6516.568261143786
 31
0.0
  0
LINE
  5
1AC47
330
1F
100
AcDbEntity
  8
模芯1
100
AcDbLine
 10
-25255.6444766109
 20
-6436.568261143669
 30
0.0
 11
-25210.64447661087
 21
-6436.568261143671
 31
0.0
  0
LINE
  5
1AC48
330
1F
100
AcDbEntity
  8
模芯1
100
AcDbLine
 10
-25488.14447661087
 20
-6666.56826114367
 30
0.0
 11
-25210.64447661087
 21
-6666.56826114367
 31
0.0
  0
LINE
  5
1AC49
330
1F
100
AcDbEntity
  8
模芯1
100
AcDbLine
 10
-25438.14447661087
 20
-6666.56826114367
 30
0.0
 11
-25438.14447661087
 21
-6506.568261143669
 31
0.0
  0
LINE
  5
1AC4A
330
1F
100
AcDbEntity
  8
模芯1
100
AcDbLine
 10
-25418.14447661087
 20
-6486.56826114367
 30
0.0
 11
-25210.64447661087
 21
-6486.56826114367
 31
0.0
  0
ARC
  5
1AC4B
330
1F
100
AcDbEntity
  8
模芯1
100
AcDbCircle
 10
-25418.14447661087
 20
-6506.568261143669
 30
0.0
 40
20.0
100
AcDbArc
 50
90.0
 51
180.0
  0
LINE
  5
1AC4C
330
1F
100
AcDbEntity
  8
模芯1DIM
  6
CENTER
100
AcDbLine
 10
-25210.64447661087
 20
-6418.062993960723
 30
0.0
 11
-25210.64447661087
 21
-6682.91121787174
 31
0.0
  0
LINE
  5
1AC4D
330
1F
100
AcDbEntity
  8
模芯1
100
AcDbLine
 10
-25240.64447661185
 20
-6436.568261143669
 30
0.0
 11
-25240.64447661185
 21
-6486.56826114367
 31
0.0
  0
ARC
  5
1AC58
330
1F
100
AcDbEntity
  8
模芯1
100
AcDbCircle
 10
-25457.10920868579
 20
-6477.523165239026
 30
0.0
 40
30.0
100
AcDbArc
 50
93.09999999999963
 51
178.4963310982949
  0
INSERT
  5
1B97C
330
1F
100
AcDbEntity
  8
0
 62
     0
 48
0.0
100
AcDbBlockReference
  2
SE13
 10
-14478.50897179628
 20
-6190.45170380189
 30
0.0
 41
12.09599999999773
 42
12.09599999999591
 43
12.096
  0
INSERT
  5
1C9B4
330
1F
100
AcDbEntity
  8
0
 62
     0
 48
0.0
100
AcDbBlockReference
  2
SE13
 10
-13938.54641514559
 20
-10957.48929775781
 30
0.0
 41
12.09599999999773
 42
12.09599999999591
 43
12.096
  0
INSERT
  5
1D193
330
1F
100
AcDbEntity
  8
0
 62
     0
 48
0.0
100
AcDbBlockReference
  2
SE13
 10
-19561.64580276085
 20
-19780.45514081844
 30
0.0
 41
12.09599999999773
 42
12.09599999999591
 43
12.096
  0
INSERT
  5
1D561
330
1F
100
AcDbEntity
  8
0
 62
     0
 48
0.0
100
AcDbBlockReference
  2
SE13
 10
-20760.09525100796
 20
-19034.17774726345
 30
0.0
 41
7.741439999998547
 42
7.741439999997384
 43
7.741439999999998
  0
INSERT
  5
1DA80
330
1F
100
AcDbEntity
  8
0
 62
     0
 48
0.0
100
AcDbBlockReference
  2
SE13
 10
-15528.80015274956
 20
-19780.45514081844
 30
0.0
 41
12.09599999999773
 42
12.09599999999591
 43
12.096
  0
INSERT
  5
1DC7F
330
1F
100
AcDbEntity
  8
0
 62
     0
 48
0.0
100
AcDbBlockReference
  2
SE13
 10
-10179.3424983642
 20
-19165.24353673869
 30
0.0
 41
7.741439999998547
 42
7.741439999997384
 43
7.741439999999998
  0
INSERT
  5
1DD9A
330
1F
100
AcDbEntity
  8
0
 62
     0
 48
0.0
100
AcDbBlockReference
  2
SE13
 10
-7331.76214845078
 20
-19165.24353673869
 30
0.0
 41
7.741439999998547
 42
7.741439999997384
 43
7.741439999999998
  0
INSERT
  5
1DFCF
330
1F
100
AcDbEntity
  8
0
 62
     0
 48
0.0
100
AcDbBlockReference
  2
SE13
 10
-4440.419283337862
 20
-19203.44726658303
 30
0.0
 41
7.741439999998547
 42
7.741439999997384
 43
7.741439999999998
  0
INSERT
  5
1E253
330
1F
100
AcDbEntity
  8
0
 62
     0
 48
0.0
100
AcDbBlockReference
  2
SE13
 10
-1462.740200287091
 20
-19165.24353673869
 30
0.0
 41
7.741439999998547
 42
7.741439999997384
 43
7.741439999999998
  0
INSERT
  5
1E3B8
330
1F
100
AcDbEntity
  8
0
 62
     0
 48
0.0
100
AcDbBlockReference
  2
SE13
 10
1952.905495861361
 20
-18999.69293554743
 30
0.0
 41
6.193151999998838
 42
6.193151999998838
 43
6.193151999999999
  0
INSERT
  5
1E744
330
1F
100
AcDbEntity
  8
0
 62
     0
 48
0.0
100
AcDbBlockReference
  2
SE13
 10
-23265.5210052064
 20
-21563.49064676143
 30
0.0
 41
6.193151999998838
 42
6.193151999998838
 43
6.193151999999999
  0
LINE
  5
1F0D0
330
1F
100
AcDbEntity
  8
base
 62
     0
100
AcDbLine
 10
-26380.57031510701
 20
1305.548834808182
 30
0.0
 11
-26380.57031510701
 21
1304.348834808183
 31
0.0
  0
LINE
  5
1F0D1
330
1F
100
AcDbEntity
  8
base
 62
     0
100
AcDbLine
 10
-26968.57031510702
 20
1305.548834808182
 30
0.0
 11
-26968.57031510702
 21
1304.348834808182
 31
0.0
  0
DIMENSION
  5
1F0DB
102
{ACAD_XDICTIONARY
360
1F0E9
102
}
102
{ACAD_REACTORS
330
1F0F4
102
}
330
1F
100
AcDbEntity
  8
DIM
 62
     0
100
AcDbDimension
280
     0
  2
*D12
 10
-26627.39419250346
 20
994.4787275548442
 30
0.0
 11
-26674.57031510702
 21
1024.145394221511
 31
0.0
 70
    32
  1
%%C90{\Ftxt|c134; [3.5"]}
 71
     5
 42
94.35224520712655
 73
     0
 74
     0
 75
     0
  3
ISO-25
100
AcDbAlignedDimension
 13
-26721.74643771058
 23
1070.348834808182
 33
0.0
 14
-26627.39419250346
 24
1070.348834808183
 34
0.0
100
AcDbRotatedDimension
1001
ACAD
1000
DSTYLE
1002
{
1070
    41
1040
10.0
1070
   140
1040
20.0
1070
   141
1040
0.5
1070
   147
1040
3.0
1070
   179
1070
     2
1002
}
  0
DIMENSION
  5
1F0F5
102
{ACAD_XDICTIONARY
360
1F102
102
}
102
{ACAD_REACTORS
330
1F10C
102
}
330
1F
100
AcDbEntity
  8
DIM
 62
     0
100
AcDbDimension
280
     0
  2
*D13
 10
-26617.57031510702
 20
1112.363399567432
 30
0.0
 11
-26521.23698177369
 21
1112.363399567432
 31
0.0
 70
   160
  1
%%C<>{\Ftxt|c134; [4.5"]}
 71
     5
 42
113.9999999999891
 73
     0
 74
     0
 75
     0
  3
ISO-25
100
AcDbAlignedDimension
 13
-26731.57031510701
 23
1074.548834808182
 33
0.0
 14
-26617.57031510702
 24
1074.548834808181
 34
0.0
100
AcDbRotatedDimension
1001
ACAD
1000
DSTYLE
1002
{
1070
    41
1040
10.0
1070
   140
1040
20.0
1070
   141
1040
0.5
1070
   147
1040
3.0
1070
   179
1070
     2
1002
}
  0
DIMENSION
  5
1F10D
102
{ACAD_XDICTIONARY
360
1F11A
102
}
102
{ACAD_REACTORS
330
1F124
102
}
330
1F
100
AcDbEntity
  8
DIM
 62
     0
100
AcDbDimension
280
     0
  2
*D14
 10
-26614.57031510702
 20
1157.536631684517
 30
0.0
 11
-26516.57031510702
 21
1157.536631684517
 31
0.0
 70
   160
  1
%%C<>{\Ftxt|c134; [4.7"]}
 71
     5
 42
119.9999999999236
 73
     0
 74
     0
 75
     0
  3
ISO-25
100
AcDbAlignedDimension
 13
-26734.57031510694
 23
1077.54883480818
 33
0.0
 14
-26614.57031510702
 24
1077.548834808182
 34
0.0
100
AcDbRotatedDimension
1001
ACAD
1000
DSTYLE
1002
{
1070
    41
1040
10.0
1070
   140
1040
20.0
1070
   141
1040
0.5
1070
   147
1040
3.0
1070
   179
1070
     2
1002
}
  0
DIMENSION
  5
1F125
102
{ACAD_XDICTIONARY
360
1F134
102
}
102
{ACAD_REACTORS
330
1F140
102
}
330
1F
100
AcDbEntity
  8
DIM
 62
     0
100
AcDbDimension
280
     0
  2
*D15
 10
-26805.77587318784
 20
1071.548834808183
 30
0.0
 11
-26818.77587318783
 21
988.5488348081903
 31
0.0
 70
    32
  1
<>{\Ftxt|c134; [.24"]}
 71
     5
 42
6.0
 73
     0
 74
     0
 75
     0
  3
ISO-25
100
AcDbAlignedDimension
 13
-26734.57031510702
 23
1077.548834808182
 33
0.0
 14
-26721.57031510702
 24
1071.548834808182
 34
0.0
 50
90.0
100
AcDbRotatedDimension
1001
ACAD
1000
DSTYLE
1002
{
1070
    41
1040
10.0
1070
   140
1040
20.0
1070
   141
1040
0.5
1070
   147
1040
3.0
1070
   179
1070
     2
1002
}
  0
DIMENSION
  5
1F141
102
{ACAD_XDICTIONARY
360
1F150
102
}
102
{ACAD_REACTORS
330
1F15C
102
}
330
1F
100
AcDbEntity
  8
DIM
 62
     0
100
AcDbDimension
280
     0
  2
*D16
 10
-26755.36534430416
 20
1074.548834808183
 30
0.0
 11
-26768.36534430415
 21
994.8821681415237
 31
0.0
 70
    32
  1
<>{\Ftxt|c134; [.12"]}
 71
     5
 42
3.0
 73
     0
 74
     0
 75
     0
  3
ISO-25
100
AcDbAlignedDimension
 13
-26734.57031510702
 23
1077.548834808182
 33
0.0
 14
-26731.57031510701
 24
1074.548834808182
 34
0.0
 50
90.0
100
AcDbRotatedDimension
1001
ACAD
1000
DSTYLE
1002
{
1070
    41
1040
10.0
1070
   140
1040
20.0
1070
   141
1040
0.5
1070
   147
1040
3.0
1070
   179
1070
     2
1002
}
  0
INSERT
  5
20E3C
330
1F
100
AcDbEntity
  8
0
 62
     0
 48
0.0
100
AcDbBlockReference
  2
SE13
 10
10405.38832901916
 20
-5949.700804825255
 30
0.0
 41
12.09599999999773
 42
12.09599999999591
 43
12.096
  0
INSERT
  5
2130B
330
1F
100
AcDbEntity
  8
0
 62
     0
 48
0.0
100
AcDbBlockReference
  2
SE13
 10
14863.32314039065
 20
-5949.700804825255
 30
0.0
 41
12.09599999999773
 42
12.09599999999591
 43
12.096
  0
INSERT
  5
21321
330
1F
100
AcDbEntity
  8
0
 62
     0
 48
0.0
100
AcDbBlockReference
  2
SE13
 10
14863.32314039065
 20
-9852.075079915834
 30
0.0
 41
12.09599999999773
 42
12.09599999999591
 43
12.096
  0
INSERT
  5
21463
330
1F
100
AcDbEntity
  8
0
 62
     0
 48
0.0
100
AcDbBlockReference
  2
SE13
 10
10405.38832901916
 20
-9852.075079915834
 30
0.0
 41
12.09599999999773
 42
12.09599999999591
 43
12.096
  0
INSERT
  5
21DD6
330
1F
100
AcDbEntity
  8
0
 62
     0
 48
0.0
100
AcDbBlockReference
  2
SE13
 10
6532.914677821652
 20
-5949.700804825255
 30
0.0
 41
12.09599999999773
 42
12.09599999999591
 43
12.096
  0
INSERT
  5
233B1
330
1F
100
AcDbEntity
  8
0
 62
     0
 48
0.0
100
AcDbBlockReference
  2
SE13
 10
-25174.4718372876
 20
1051.360392608771
 30
0.0
 41
2.903040000001055
 42
2.903039999999236
 43
2.903039999999999
  0
INSERT
  5
233C6
330
1F
100
AcDbEntity
  8
0
 62
     0
 48
0.0
100
AcDbBlockReference
  2
SE13
 10
-26048.41714159981
 20
-121.4722647873495
 30
0.0
 41
4.838400000000547
 42
4.838399999998728
 43
4.838400000000547
  0
ENDSEC
  0
SECTION
  2
OBJECTS
  0
DICTIONARY
  5
C
330
0
100
AcDbDictionary
281
     1
  3
ACAD_CIP_PREVIOUS_PRODUCT_INFO
350
250ED
  3
ACAD_COLOR
350
6B
  3
ACAD_DETAILVIEWSTYLE
350
250E7
  3
ACAD_GROUP
350
D
  3
ACAD_LAYOUT
350
1A
  3
ACAD_MATERIAL
350
6A
  3
ACAD_MLEADERSTYLE
350
250E3
  3
ACAD_MLINESTYLE
350
17
  3
ACAD_PLOTSETTINGS
350
19
  3
ACAD_PLOTSTYLENAME
350
E
  3
ACAD_SCALELIST
350
250D1
  3
ACAD_SECTIONVIEWSTYLE
350
250E5
  3
ACAD_TABLESTYLE
350
250B1
  3
ACAD_VISUALSTYLE
350
250A0
  3
AcadDim
350
1E754
  3
ACDB_RECOMPOSE_DATA
350
2521F
  3
AcDbVariableDictionary
350
5E
  3
ASE_INDEX_DICTIONARY
350
236C8
  3
lxx_dict
350
24D88
  0
DICTIONARY
  5
25102
330
2
100
AcDbDictionary
280
     1
281
     1
  3
ACAD_LAYERSTATES
360
25103
  0
DICTIONARY
  5
250F1
330
10
100
AcDbDictionary
280
     1
281
     1
  3
ADSK_XREC_LAYER_RECONCILED
360
250F2
  0
DICTIONARY
  5
250F3
330
84
100
AcDbDictionary
280
     1
281
     1
  3
ADSK_XREC_LAYER_RECONCILED
360
250F4
  0
DICTIONARY
  5
250F5
330
2D93
100
AcDbDictionary
280
     1
281
     1
  3
ADSK_XREC_LAYER_RECONCILED
360
250F6
  0
DICTIONARY
  5
250F7
330
6409
100
AcDbDictionary
280
     1
281
     1
  3
ADSK_XREC_LAYER_RECONCILED
360
250F8
  0
DICTIONARY
  5
250F9
330
640F
100
AcDbDictionary
280
     1
281
     1
  3
ADSK_XREC_LAYER_RECONCILED
360
250FA
  0
DICTIONARY
  5
250FB
330
F778
100
AcDbDictionary
280
     1
281
     1
  3
ADSK_XREC_LAYER_RECONCILED
360
250FC
  0
DICTIONARY
  5
250FD
330
1B8EE
100
AcDbDictionary
280
     1
281
     1
  3
ADSK_XREC_LAYER_RECONCILED
360
250FE
  0
DICTIONARY
  5
1A3DB
330
1A3DA
100
AcDbDictionary
280
     1
281
     1
  3
ACAD_DIMASSOC
360
1A3DC
  0
DICTIONARY
  5
1A3F3
330
1A3F2
100
AcDbDictionary
280
     1
281
     1
  3
ACAD_DIMASSOC
360
1A3F4
  0
DICTIONARY
  5
1A403
330
1A402
100
AcDbDictionary
280
     1
281
     1
  3
ACAD_DIMASSOC
360
1A404
  0
DICTIONARY
  5
1A40C
330
1A40B
100
AcDbDictionary
280
     1
281
     1
  3
ACAD_DIMASSOC
360
1A40D
  0
DICTIONARY
  5
1A501
330
1A4F4
100
AcDbDictionary
280
     1
281
     1
  3
ACAD_DIMASSOC
360
1A50B
  0
DICTIONARY
  5
1A519
330
1A50C
100
AcDbDictionary
280
     1
281
     1
  3
ACAD_DIMASSOC
360
1A523
  0
DICTIONARY
  5
1A540
330
1A536
100
AcDbDictionary
280
     1
281
     1
  3
ACAD_DIMASSOC
360
1A547
  0
DICTIONARY
  5
1F0E9
330
1F0DB
100
AcDbDictionary
280
     1
281
     1
  3
ACAD_DIMASSOC
360
1F0F4
  0
DICTIONARY
  5
1F102
330
1F0F5
100
AcDbDictionary
280
     1
281
     1
  3
ACAD_DIMASSOC
360
1F10C
  0
DICTIONARY
  5
1F11A
330
1F10D
100
AcDbDictionary
280
     1
281
     1
  3
ACAD_DIMASSOC
360
1F124
  0
DICTIONARY
  5
1F134
330
1F125
100
AcDbDictionary
280
     1
281
     1
  3
ACAD_DIMASSOC
360
1F140
  0
DICTIONARY
  5
1F150
330
1F141
100
AcDbDictionary
280
     1
281
     1
  3
ACAD_DIMASSOC
360
1F15C
  0
XRECORD
  5
250ED
102
{ACAD_REACTORS
330
C
102
}
330
C
100
AcDbXrecord
280
     1
300
ACDLT
300
2018
300

  0
DICTIONARY
  5
6B
102
{ACAD_REACTORS
330
C
102
}
330
C
100
AcDbDictionary
281
     1
  0
DICTIONARY
  5
250E7
102
{ACAD_REACTORS
330
C
102
}
330
C
100
AcDbDictionary
281
     1
  3
Metric50
350
250E8
  0
DICTIONARY
  5
D
102
{ACAD_REACTORS
330
C
102
}
330
C
100
AcDbDictionary
281
     1
  0
DICTIONARY
  5
1A
102
{ACAD_REACTORS
330
C
102
}
330
C
100
AcDbDictionary
281
     1
  3
Layout1
350
51
  3
Layout2
350
56
  3
Model
350
22
  0
DICTIONARY
  5
6A
102
{ACAD_REACTORS
330
C
102
}
330
C
100
AcDbDictionary
281
     1
  3
ByBlock
350
2509E
  3
ByLayer
350
2509D
  3
Global
350
2509F
  0
DICTIONARY
  5
250E3
102
{ACAD_REACTORS
330
C
102
}
330
C
100
AcDbDictionary
281
     1
  3
Standard
350
250E4
  0
DICTIONARY
  5
17
102
{ACAD_REACTORS
330
C
102
}
330
C
100
AcDbDictionary
281
     1
  3
Standard
350
18
  0
DICTIONARY
  5
19
102
{ACAD_REACTORS
330
C
102
}
330
C
100
AcDbDictionary
281
     1
  0
ACDBDICTIONARYWDFLT
  5
E
102
{ACAD_REACTORS
330
C
102
}
330
C
100
AcDbDictionary
281
     1
  3
Normal
350
F
100
AcDbDictionaryWithDefault
340
F
  0
DICTIONARY
  5
250D1
102
{ACAD_REACTORS
330
C
102
}
330
C
100
AcDbDictionary
281
     1
  3
A0
350
250D2
  3
A1
350
250D3
  3
A2
350
250D4
  3
A3
350
250D5
  3
A4
350
250D6
  3
A5
350
250D7
  3
A6
350
250D8
  3
A7
350
250D9
  3
A8
350
250DA
  3
A9
350
250DB
  3
B0
350
250DC
  3
B1
350
250DD
  3
B2
350
250DE
  3
B3
350
250DF
  3
B4
350
250E0
  3
B5
350
250E1
  3
B6
350
250E2
  0
DICTIONARY
  5
250E5
102
{ACAD_REACTORS
330
C
102
}
330
C
100
AcDbDictionary
281
     1
  3
Metric50
350
250E6
  0
DICTIONARY
  5
250B1
102
{ACAD_REACTORS
330
C
102
}
330
C
100
AcDbDictionary
281
     1
  3
Standard
350
250B2
  0
DICTIONARY
  5
250A0
102
{ACAD_REACTORS
330
C
102
}
330
C
100
AcDbDictionary
281
     1
  3
2dWireframe
350
250A6
  3
3D Hidden
350
250A8
  3
3dWireframe
350
250A7
  3
Basic
350
250A5
  3
Brighten
350
250AC
  3
ColorChange
350
250B0
  3
Conceptual
350
250A9
  3
Dim
350
250AB
  3
EdgeColorOff
350
250D0
  3
Facepattern
350
250AF
  3
Flat
350
250A1
  3
FlatWithEdges
350
250A2
  3
Gouraud
350
250A3
  3
GouraudWithEdges
350
250A4
  3
Hidden
350
250C8
  3
JitterOff
350
250CE
  3
Linepattern
350
250AE
  3
OverhangOff
350
250CF
  3
Realistic
350
250AA
  3
Shaded
350
250CD
  3
Shaded with edges
350
250CC
  3
Shades of Gray
350
250C9
  3
Sketchy
350
250CA
  3
Thicken
350
250AD
  3
Wireframe
350
250C7
  3
X-Ray
350
250CB
  0
XRECORD
  5
1E754
102
{ACAD_REACTORS
330
C
102
}
330
C
100
AcDbXrecord
280
     1
 90
   990106
  3

 60
     0
 61
     0
 62
     1
 63
     3
 64
     0
 65
     0
 66
     0
 67
     3
 68
     1
 69
     0
 70
     0
 71
     0
 72
     0
 40
0.0
170
     0
340
0
  0
XRECORD
  5
2521F
102
{ACAD_REACTORS
330
C
102
}
330
C
100
AcDbXrecord
280
     1
 90
        1
330
250B2
  0
DICTIONARY
  5
5E
102
{ACAD_REACTORS
330
C
102
}
330
C
100
AcDbDictionary
281
     1
  3
CANNOSCALE
350
25112
  3
CMLEADERSTYLE
350
2510E
  3
CTABLESTYLE
350
250C5
  3
CVIEWDETAILSTYLE
350
2510F
  3
CVIEWSECTIONSTYLE
350
25110
  3
DIMASSOC
350
5F
  3
HIDETEXT
350
63
  3
LAYEREVAL
350
25114
  3
LAYERNOTIFY
350
25115
  3
LIGHTINGUNITS
350
25113
  3
MSLTSCALE
350
25111
  3
PROJECTNAME
350
1CF
  0
DICTIONARY
  5
236C8
102
{ACAD_REACTORS
330
C
102
}
330
C
100
AcDbDictionary
281
     1
  3
ASEBlockHierarchyIndexRecord
350
236C9
1001
DCO15
1040
1648297358.375
  0
DICTIONARY
  5
24D88
102
{ACAD_REACTORS
330
C
102
}
330
C
100
AcDbDictionary
281
     1
  3
lxx_dimth
350
24D89
  0
DICTIONARY
  5
25103
102
{ACAD_REACTORS
330
25102
102
}
330
25102
100
AcDbDictionary
281
     1
  0
XRECORD
  5
250F2
102
{ACAD_REACTORS
330
250F1
102
}
330
250F1
100
AcDbXrecord
280
     1
290
     1
  0
XRECORD
  5
250F4
102
{ACAD_REACTORS
330
250F3
102
}
330
250F3
100
AcDbXrecord
280
     1
290
     1
  0
XRECORD
  5
250F6
102
{ACAD_REACTORS
330
250F5
102
}
330
250F5
100
AcDbXrecord
280
     1
290
     1
  0
XRECORD
  5
250F8
102
{ACAD_REACTORS
330
250F7
102
}
330
250F7
100
AcDbXrecord
280
     1
290
     1
  0
XRECORD
  5
250FA
102
{ACAD_REACTORS
330
250F9
102
}
330
250F9
100
AcDbXrecord
280
     1
290
     1
  0
XRECORD
  5
250FC
102
{ACAD_REACTORS
330
250FB
102
}
330
250FB
100
AcDbXrecord
280
     1
290
     1
  0
XRECORD
  5
250FE
102
{ACAD_REACTORS
330
250FD
102
}
330
250FD
100
AcDbXrecord
280
     1
290
     1
  0
DIMASSOC
  5
1A3DC
102
{ACAD_REACTORS
330
1A3DB
102
}
330
1A3DB
100
AcDbDimAssoc
330
1A3DA
 90
        2
 70
     0
 71
     0
  1
AcDbOsnapPointRef
 72
     3
331
1A3D4
 73
     2
 91
        0
 40
0.0
 10
0.0
 20
0.0
 30
0.0
 75
     0
  0
DIMASSOC
  5
1A3F4
102
{ACAD_REACTORS
330
1A3F3
102
}
330
1A3F3
100
AcDbDimAssoc
330
1A3F2
 90
        2
 70
     0
 71
     0
  1
AcDbOsnapPointRef
 72
    10
331
1A3DF
 73
     2
 91
        0
 40
0.0260780891438731
 10
0.0
 20
0.0
 30
0.0
 75
     0
  0
DIMASSOC
  5
1A404
102
{ACAD_REACTORS
330
1A403
102
}
330
1A403
100
AcDbDimAssoc
330
1A402
 90
        2
 70
     0
 71
     0
  1
AcDbOsnapPointRef
 72
     3
331
1A3FE
 73
     2
 91
        0
 40
0.0
 10
0.0
 20
0.0
 30
0.0
 75
     0
  0
DIMASSOC
  5
1A40D
102
{ACAD_REACTORS
330
1A40C
102
}
330
1A40C
100
AcDbDimAssoc
330
1A40B
 90
        3
 70
     0
 71
     0
  1
AcDbOsnapPointRef
 72
     5
331
1A407
 73
     2
 91
        0
 40
0.0
 10
0.0
 20
0.0
 30
0.0
 75
     0
  1
AcDbOsnapPointRef
 72
     2
331
1A406
 73
     2
 91
        0
 40
0.5
 10
0.0
 20
0.0
 30
0.0
 75
     0
  0
DIMASSOC
  5
1A50B
102
{ACAD_REACTORS
330
1A501
102
}
330
1A501
100
AcDbDimAssoc
330
1A4F4
 90
        3
 70
     0
 71
     0
  1
AcDbOsnapPointRef
 72
     1
331
1A4D6
 73
     2
 91
        0
 40
1.0
 10
0.0
 20
0.0
 30
2.000000000000000E+50
 75
     0
  1
AcDbOsnapPointRef
 72
     8
331
1A4D9
 73
     2
 91
        0
 40
-0.0000000000000025
 10
0.0
 20
0.0
 30
0.0
 75
     1
  1
AcDbOsnapPointRef
 72
     1
331
1A4D6
 73
     2
 91
        0
 40
1.0
 10
0.0
 20
0.0
 30
2.000000000000000E+50
 75
     0
  0
DIMASSOC
  5
1A523
102
{ACAD_REACTORS
330
1A519
102
}
330
1A519
100
AcDbDimAssoc
330
1A50C
 90
        3
 70
     0
 71
     0
  1
AcDbOsnapPointRef
 72
    13
331
1A4DF
 73
     2
 91
        0
 40
4.712388980384689
 10
0.0
 20
0.0
 30
2.000000000000000E+50
 75
     0
  1
AcDbOsnapPointRef
 72
     1
331
1A4DE
 73
     2
 91
        0
 40
1.570796326794896
 10
0.0
 20
0.0
 30
2.000000000000000E+50
 75
     0
  0
DIMASSOC
  5
1A547
102
{ACAD_REACTORS
330
1A540
102
}
330
1A540
100
AcDbDimAssoc
330
1A536
 90
        2
 70
     0
 71
     0
  1
AcDbOsnapPointRef
 72
     3
331
1A4DD
 73
     2
 91
        0
 40
0.0
 10
0.0
 20
0.0
 30
0.0
 75
     0
  0
DIMASSOC
  5
1F0F4
102
{ACAD_REACTORS
330
1F0E9
102
}
330
1F0E9
100
AcDbDimAssoc
330
1F0DB
 90
        3
 70
     0
 71
     0
  1
AcDbOsnapPointRef
 72
    13
331
1A3E4
 73
     2
 91
        0
 40
0.0
 10
0.0
 20
0.0
 30
2.000000000000000E+50
 75
     0
  1
AcDbOsnapPointRef
 72
     1
331
1A3E4
 73
     2
 91
        0
 40
1.0
 10
0.0
 20
0.0
 30
2.000000000000000E+50
 75
     0
  0
DIMASSOC
  5
1F10C
102
{ACAD_REACTORS
330
1F102
102
}
330
1F102
100
AcDbDimAssoc
330
1F0F5
 90
        3
 70
     0
 71
     0
  1
AcDbOsnapPointRef
 72
     1
331
1A3E6
 73
     2
 91
        0
 40
1.0
 10
0.0
 20
0.0
 30
2.000000000000000E+50
 75
     0
  1
AcDbOsnapPointRef
 72
     1
331
1A3E3
 73
     2
 91
        0
 40
0.9999999999999998
 10
0.0
 20
0.0
 30
2.000000000000000E+50
 75
     0
  0
DIMASSOC
  5
1F124
102
{ACAD_REACTORS
330
1F11A
102
}
330
1F11A
100
AcDbDimAssoc
330
1F10D
 90
        3
 70
     0
 71
     0
  1
AcDbOsnapPointRef
 72
     1
331
1A3E1
 73
     2
 91
        0
 40
1.0
 10
0.0
 20
0.0
 30
2.000000000000000E+50
 75
     0
  1
AcDbOsnapPointRef
 72
     1
331
1A3DF
 73
     2
 91
        0
 40
1.0
 10
0.0
 20
0.0
 30
2.000000000000000E+50
 75
     0
  0
DIMASSOC
  5
1F140
102
{ACAD_REACTORS
330
1F134
102
}
330
1F134
100
AcDbDimAssoc
330
1F125
 90
        3
 70
     0
 71
     0
  1
AcDbOsnapPointRef
 72
    13
331
1A3DF
 73
     2
 91
        0
 40
0.0
 10
0.0
 20
0.0
 30
2.000000000000000E+50
 75
     0
  1
AcDbOsnapPointRef
 72
    13
331
1A3E5
 73
     2
 91
        0
 40
0.0
 10
0.0
 20
0.0
 30
2.000000000000000E+50
 75
     0
  0
DIMASSOC
  5
1F15C
102
{ACAD_REACTORS
330
1F150
102
}
330
1F150
100
AcDbDimAssoc
330
1F141
 90
        3
 70
     0
 71
     0
  1
AcDbOsnapPointRef
 72
    13
331
1A3DF
 73
     2
 91
        0
 40
0.0
 10
0.0
 20
0.0
 30
2.000000000000000E+50
 75
     0
  1
AcDbOsnapPointRef
 72
    13
331
1A3E3
 73
     2
 91
        0
 40
0.0
 10
0.0
 20
0.0
 30
2.000000000000000E+50
 75
     0
  0
ACDBDETAILVIEWSTYLE
  5
250E8
102
{ACAD_REACTORS
330
250E7
102
}
330
250E7
100
AcDbModelDocViewStyle
 70
     0
  3
Metric50
290
     0
300
Metric50
 90
        0
100
AcDbDetailViewStyle
 70
     0
 71
     0
 90
        3
 71
     1
340
11
 62
   256
 40
5.0
340
0
 62
   256
 40
5.0
300

 40
0.0
280
     1
 71
     2
340
16
 90
       25
 62
   256
 71
     3
340
11
 62
   256
 40
5.0
 90
        0
 40
15.0
 90
        1
300
%<\AcVar ViewDetailId>% (%<\AcVar ViewScale \f "%sn">%)
 71
     4
340
16
 90
       25
 62
   256
340
16
 90
       25
 62
   256
280
     0
  0
LAYOUT
  5
51
102
{ACAD_REACTORS
330
1A
102
}
330
1A
100
AcDbPlotSettings
  1

  2
None
  4

  6

 40
0.0
 41
0.0
 42
0.0
 43
0.0
 44
0.0
 45
0.0
 46
0.0
 47
0.0
 48
0.0
 49
0.0
140
0.0
141
0.0
142
1.0
143
1.0
 70
   688
 72
     0
 73
     0
 74
     5
  7

 75
    16
147
1.0
 76
     0
 77
     2
 78
   300
148
0.0
149
0.0
100
AcDbLayout
  1
Layout1
 70
     1
 71
     1
 10
0.0
 20
0.0
 11
12.0
 21
9.0
 12
0.0
 22
0.0
 32
0.0
 14
0.0
 24
0.0
 34
0.0
 15
0.0
 25
0.0
 35
0.0
146
0.0
 13
0.0
 23
0.0
 33
0.0
 16
1.0
 26
0.0
 36
0.0
 17
0.0
 27
1.0
 37
0.0
 76
     0
330
50
  0
LAYOUT
  5
56
102
{ACAD_REACTORS
330
1A
102
}
330
1A
100
AcDbPlotSettings
  1

  2
None
  4

  6

 40
0.0
 41
0.0
 42
0.0
 43
0.0
 44
0.0
 45
0.0
 46
0.0
 47
0.0
 48
0.0
 49
0.0
140
0.0
141
0.0
142
1.0
143
1.0
 70
   688
 72
     0
 73
     0
 74
     5
  7

 75
    16
147
1.0
 76
     0
 77
     2
 78
   300
148
0.0
149
0.0
100
AcDbLayout
  1
Layout2
 70
     1
 71
     2
 10
0.0
 20
0.0
 11
12.0
 21
9.0
 12
0.0
 22
0.0
 32
0.0
 14
0.0
 24
0.0
 34
0.0
 15
0.0
 25
0.0
 35
0.0
146
0.0
 13
0.0
 23
0.0
 33
0.0
 16
1.0
 26
0.0
 36
0.0
 17
0.0
 27
1.0
 37
0.0
 76
     0
330
55
  0
LAYOUT
  5
22
102
{ACAD_REACTORS
330
1A
102
}
330
1A
100
AcDbPlotSettings
  1

  2
Canon iP1100 series
  4
A4
  6

 40
4.180416584014892
 41
5.831417560577392
 42
4.180404663085937
 43
3.757080078125
 44
209.9733276367187
 45
296.9683227539062
 46
8.599999999999999
 47
0.0
 48
-27182.34673720091
 49
7097.009593590694
140
-26187.89478915549
141
8646.739279123355
142
1.0
143
5.392618235853578
 70
 11956
 72
     1
 73
     0
 74
     4
  7

 75
     0
147
0.1854386786276395
 76
     0
 77
     2
 78
   300
148
27182.34673720091
149
-7097.009593590694
100
AcDbLayout
  1
Model
 70
     1
 71
     0
 10
0.0
 20
0.0
 11
12.0
 21
9.0
 12
0.0
 22
0.0
 32
0.0
 14
0.0
 24
0.0
 34
0.0
 15
0.0
 25
0.0
 35
0.0
146
0.0
 13
0.0
 23
0.0
 33
0.0
 16
1.0
 26
0.0
 36
0.0
 17
0.0
 27
1.0
 37
0.0
 76
     0
330
1F
331
2509B
  0
MATERIAL
  5
2509E
102
{ACAD_REACTORS
330
6A
102
}
330
6A
100
AcDbMaterial
  1
ByBlock
 73
     1
 78
     1
172
     1
176
     1
270
     1
274
     1
 94
       63
  0
MATERIAL
  5
2509D
102
{ACAD_REACTORS
330
6A
102
}
330
6A
100
AcDbMaterial
  1
ByLayer
 73
     1
 78
     1
172
     1
176
     1
270
     1
274
     1
 94
       63
  0
MATERIAL
  5
2509F
102
{ACAD_REACTORS
330
6A
102
}
330
6A
100
AcDbMaterial
  1
Global
 73
     1
 78
     1
172
     1
176
     1
270
     1
274
     1
 94
       63
  0
MLEADERSTYLE
  5
250E4
102
{ACAD_REACTORS
330
250E3
102
}
330
250E3
100
AcDbMLeaderStyle
179
     2
170
     2
171
     1
172
     0
 90
        2
 40
0.0
 41
0.0
173
     1
 91
-1056964608
340
14
 92
       -2
290
     1
 42
2.0
291
     1
 43
0.36
  3
Standard
 44
4.0
300

342
11
174
     1
178
     6
175
     1
176
     0
 93
-1056964608
 45
4.0
292
     0
297
     0
 46
4.0
 94
-1056964608
 47
1.0
 49
1.0
140
1.0
293
     1
141
0.0
294
     1
177
     0
142
1.0
295
     1
296
     0
143
0.125
271
     0
272
     9
273
     9
298
     1
  0
MLINESTYLE
  5
18
102
{ACAD_REACTORS
330
17
102
}
330
17
100
AcDbMlineStyle
  2
STANDARD
 70
     0
  3

 62
   256
 51
90.0
 52
90.0
 71
     2
 49
0.5
 62
   256
  6
BYLAYER
 49
-0.5
 62
   256
  6
BYLAYER
  0
ACDBPLACEHOLDER
  5
F
102
{ACAD_REACTORS
330
E
102
}
330
E
  0
SCALE
  5
250D2
102
{ACAD_REACTORS
330
250D1
102
}
330
250D1
100
AcDbScale
 70
     0
300
1:1
140
1.0
141
1.0
290
     1
  0
SCALE
  5
250D3
102
{ACAD_REACTORS
330
250D1
102
}
330
250D1
100
AcDbScale
 70
     0
300
1:2
140
1.0
141
2.0
290
     0
  0
SCALE
  5
250D4
102
{ACAD_REACTORS
330
250D1
102
}
330
250D1
100
AcDbScale
 70
     0
300
1:4
140
1.0
141
4.0
290
     0
  0
SCALE
  5
250D5
102
{ACAD_REACTORS
330
250D1
102
}
330
250D1
100
AcDbScale
 70
     0
300
1:5
140
1.0
141
5.0
290
     0
  0
SCALE
  5
250D6
102
{ACAD_REACTORS
330
250D1
102
}
330
250D1
100
AcDbScale
 70
     0
300
1:8
140
1.0
141
8.0
290
     0
  0
SCALE
  5
250D7
102
{ACAD_REACTORS
330
250D1
102
}
330
250D1
100
AcDbScale
 70
     0
300
1:10
140
1.0
141
10.0
290
     0
  0
SCALE
  5
250D8
102
{ACAD_REACTORS
330
250D1
102
}
330
250D1
100
AcDbScale
 70
     0
300
1:16
140
1.0
141
16.0
290
     0
  0
SCALE
  5
250D9
102
{ACAD_REACTORS
330
250D1
102
}
330
250D1
100
AcDbScale
 70
     0
300
1:20
140
1.0
141
20.0
290
     0
  0
SCALE
  5
250DA
102
{ACAD_REACTORS
330
250D1
102
}
330
250D1
100
AcDbScale
 70
     0
300
1:30
140
1.0
141
30.0
290
     0
  0
SCALE
  5
250DB
102
{ACAD_REACTORS
330
250D1
102
}
330
250D1
100
AcDbScale
 70
     0
300
1:40
140
1.0
141
40.0
290
     0
  0
SCALE
  5
250DC
102
{ACAD_REACTORS
330
250D1
102
}
330
250D1
100
AcDbScale
 70
     0
300
1:50
140
1.0
141
50.0
290
     0
  0
SCALE
  5
250DD
102
{ACAD_REACTORS
330
250D1
102
}
330
250D1
100
AcDbScale
 70
     0
300
1:100
140
1.0
141
100.0
290
     0
  0
SCALE
  5
250DE
102
{ACAD_REACTORS
330
250D1
102
}
330
250D1
100
AcDbScale
 70
     0
300
2:1
140
2.0
141
1.0
290
     0
  0
SCALE
  5
250DF
102
{ACAD_REACTORS
330
250D1
102
}
330
250D1
100
AcDbScale
 70
     0
300
4:1
140
4.0
141
1.0
290
     0
  0
SCALE
  5
250E0
102
{ACAD_REACTORS
330
250D1
102
}
330
250D1
100
AcDbScale
 70
     0
300
8:1
140
8.0
141
1.0
290
     0
  0
SCALE
  5
250E1
102
{ACAD_REACTORS
330
250D1
102
}
330
250D1
100
AcDbScale
 70
     0
300
10:1
140
10.0
141
1.0
290
     0
  0
SCALE
  5
250E2
102
{ACAD_REACTORS
330
250D1
102
}
330
250D1
100
AcDbScale
 70
     0
300
100:1
140
100.0
141
1.0
290
     0
  0
ACDBSECTIONVIEWSTYLE
  5
250E6
102
{ACAD_REACTORS
330
250E5
102
}
330
250E5
100
AcDbModelDocViewStyle
 70
     0
  3
Metric50
290
     0
300
Metric50
 90
        0
100
AcDbSectionViewStyle
 70
     0
 71
     0
 90
      102
 71
     1
340
11
 62
   256
 40
5.0
340
0
340
0
 62
   256
 40
5.0
300
I, O, Q, S, X, Z
 40
10.0
 90
        0
 40
2.5
 90
        0
 71
     2
340
16
 90
       25
 62
   256
340
16
 90
       50
 62
   256
 40
5.0
 40
2.5
 40
5.0
 71
     3
340
11
 62
   256
 40
5.0
 90
        0
 40
15.0
 90
        1
300
%<\AcVar ViewSectionStartId>%-%<\AcVar ViewSectionEndId>% (%<\AcVar ViewScale \f "%sn">%)
 71
     4
 62
   256
 62
   257
300
ANSI31
 40
1.0
 90
        0
290
     0
290
     0
 90
        6
 40
0.0
 40
1.570796326794896
 40
0.2617993877991494
 40
1.308996938995747
 40
-0.2617993877991494
 40
1.832595714594046
  0
TABLESTYLE
  5
250B2
102
{ACAD_XDICTIONARY
360
2521D
102
}
102
{ACAD_REACTORS
330
250B1
102
}
330
250B1
100
AcDbTableStyle
280
     0
  3
Standard
 70
     0
 71
     0
 40
1.5
 41
1.5
280
     0
281
     0
  7
Standard
140
4.5
170
     2
 62
     0
 63
     7
283
     0
 90
      512
 91
        0
  1

274
    -2
284
     1
 64
     0
275
    -2
285
     1
 65
     0
276
    -2
286
     1
 66
     0
277
    -2
287
     1
 67
     0
278
    -2
288
     1
 68
     0
279
    -2
289
     1
 69
     0
  7
Standard
140
6.0
170
     5
 62
     0
 63
     7
283
     0
 90
      512
 91
        0
  1

274
    -2
284
     1
 64
     0
275
    -2
285
     1
 65
     0
276
    -2
286
     1
 66
     0
277
    -2
287
     1
 67
     0
278
    -2
288
     1
 68
     0
279
    -2
289
     1
 69
     0
  7
Standard
140
4.5
170
     5
 62
     0
 63
     7
283
     0
 90
      512
 91
        0
  1

274
    -2
284
     1
 64
     0
275
    -2
285
     1
 65
     0
276
    -2
286
     1
 66
     0
277
    -2
287
     1
 67
     0
278
    -2
288
     1
 68
     0
279
    -2
289
     1
 69
     0
  0
VISUALSTYLE
  5
250A6
102
{ACAD_REACTORS
330
250A0
102
}
330
250A0
100
AcDbVisualStyle
  2
2dWireframe
 70
     4
177
     3
291
     0
 70
    58
 90
        0
176
     1
 90
        2
176
     1
 90
        0
176
     1
 90
        0
176
     1
 40
0.6
176
     1
 40
30.0
176
     1
 62
     7
420
 16777215
176
     1
 90
        1
176
     1
 90
        4
176
     1
 62
     7
176
     1
 62
   257
176
     1
 90
        1
176
     1
 90
        1
176
     1
 40
1.0
176
     1
 90
        0
176
     1
 62
   257
176
     1
 40
1.0
176
     1
 90
        1
176
     1
 90
        6
176
     1
 90
        2
176
     1
 62
     7
176
     1
 90
        5
176
     1
 90
        0
176
     1
 90
        0
176
     1
290
     0
176
     1
 90
        1
176
     1
 40
0.0
176
     1
 90
        0
176
     1
290
     1
176
     1
290
     1
176
     1
290
     0
176
     1
290
     0
176
     1
290
     0
176
     1
290
     0
176
     1
290
     0
176
     1
290
     0
176
     1
290
     0
176
     1
 90
       50
176
     1
 40
0.0
176
     1
 40
1.0
176
     1
 90
        0
176
     1
 62
    18
420
        0
176
     1
 90
       50
176
     1
 90
        3
176
     1
 62
     5
420
      255
176
     1
290
     0
176
     1
 90
       50
176
     1
 90
       50
176
     1
 90
       50
176
     1
290
     0
176
     1
 90
       50
176
     1
 62
   256
176
     0
 40
1.0
176
     0
 90
        2
176
     1
  1
strokes_ogs.tif
176
     1
290
     0
176
     1
 40
1.0
176
     1
 40
1.0
176
     1
  0
VISUALSTYLE
  5
250A8
102
{ACAD_REACTORS
330
250A0
102
}
330
250A0
100
AcDbVisualStyle
  2
3D Hidden
 70
     6
177
     3
291
     0
 70
    58
 90
        1
176
     1
 90
        2
176
     1
 90
        2
176
     1
 90
        0
176
     1
 40
0.6
176
     1
 40
30.0
176
     1
 62
     7
420
 16777215
176
     1
 90
        2
176
     1
 90
        2
176
     1
 62
     7
176
     1
 62
   257
176
     1
 90
        2
176
     1
 90
        1
176
     1
 40
40.0
176
     1
 90
        0
176
     1
 62
   257
176
     1
 40
1.0
176
     1
 90
        1
176
     1
 90
        6
176
     1
 90
        2
176
     1
 62
     7
176
     1
 90
        3
176
     1
 90
        0
176
     1
 90
        0
176
     1
290
     0
176
     1
 90
        1
176
     1
 40
0.0
176
     1
 90
        0
176
     1
290
     0
176
     1
290
     1
176
     1
290
     1
176
     1
290
     0
176
     1
290
     0
176
     1
290
     0
176
     1
290
     0
176
     1
290
     0
176
     1
290
     0
176
     1
 90
       50
176
     1
 40
0.0
176
     1
 40
1.0
176
     1
 90
        0
176
     1
 62
    18
420
        0
176
     1
 90
       50
176
     1
 90
        3
176
     1
 62
     5
420
      255
176
     1
290
     0
176
     1
 90
       50
176
     1
 90
       50
176
     1
 90
       50
176
     1
290
     0
176
     1
 90
       50
176
     1
 62
   256
176
     0
 40
1.0
176
     0
 90
        2
176
     1
  1
strokes_ogs.tif
176
     1
290
     0
176
     1
 40
1.0
176
     1
 40
1.0
176
     1
  0
VISUALSTYLE
  5
250A7
102
{ACAD_REACTORS
330
250A0
102
}
330
250A0
100
AcDbVisualStyle
  2
3dWireframe
 70
     5
177
     3
291
     0
 70
    58
 90
        0
176
     1
 90
        2
176
     1
 90
        0
176
     1
 90
        0
176
     1
 40
0.6
176
     1
 40
30.0
176
     1
 62
     7
420
 16777215
176
     1
 90
        1
176
     1
 90
        4
176
     1
 62
     7
176
     1
 62
   257
176
     1
 90
        1
176
     1
 90
        1
176
     1
 40
1.0
176
     1
 90
        0
176
     1
 62
   257
176
     1
 40
1.0
176
     1
 90
        1
176
     1
 90
        6
176
     1
 90
        2
176
     1
 62
     7
176
     1
 90
        5
176
     1
 90
        0
176
     1
 90
        0
176
     1
290
     0
176
     1
 90
        1
176
     1
 40
0.0
176
     1
 90
        0
176
     1
290
     0
176
     1
290
     1
176
     1
290
     1
176
     1
290
     0
176
     1
290
     0
176
     1
290
     0
176
     1
290
     0
176
     1
290
     0
176
     1
290
     0
176
     1
 90
       50
176
     1
 40
0.0
176
     1
 40
1.0
176
     1
 90
        0
176
     1
 62
    18
420
        0
176
     1
 90
       50
176
     1
 90
        3
176
     1
 62
     5
420
      255
176
     1
290
     0
176
     1
 90
       50
176
     1
 90
       50
176
     1
 90
       50
176
     1
290
     0
176
     1
 90
       50
176
     1
 62
   256
176
     0
 40
1.0
176
     0
 90
        2
176
     1
  1
strokes_ogs.tif
176
     1
290
     0
176
     1
 40
1.0
176
     1
 40
1.0
176
     1
  0
VISUALSTYLE
  5
250A5
102
{ACAD_REACTORS
330
250A0
102
}
330
250A0
100
AcDbVisualStyle
  2
Basic
 70
     7
177
     3
291
     1
 70
    58
 90
        1
176
     1
 90
        0
176
     1
 90
        1
176
     1
 90
        0
176
     1
 40
0.6
176
     1
 40
30.0
176
     1
 62
     7
420
 16777215
176
     1
 90
        0
176
     1
 90
        4
176
     1
 62
     7
176
     1
 62
   257
176
     1
 90
        1
176
     1
 90
        1
176
     1
 40
1.0
176
     1
 90
        8
176
     1
 62
     7
176
     1
 40
1.0
176
     1
 90
        1
176
     1
 90
        6
176
     1
 90
        2
176
     1
 62
     7
176
     1
 90
        5
176
     1
 90
        0
176
     1
 90
        0
176
     1
290
     0
176
     1
 90
        1
176
     1
 40
0.0
176
     1
 90
        0
176
     1
290
     0
176
     1
290
     1
176
     1
290
     1
176
     1
290
     0
176
     1
290
     0
176
     1
290
     0
176
     1
290
     0
176
     1
290
     0
176
     1
290
     0
176
     1
 90
       50
176
     1
 40
0.0
176
     1
 40
1.0
176
     1
 90
        0
176
     1
 62
    18
420
        0
176
     1
 90
       50
176
     1
 90
        3
176
     1
 62
     5
420
      255
176
     1
290
     0
176
     1
 90
       50
176
     1
 90
       50
176
     1
 90
       50
176
     1
290
     0
176
     1
 90
       50
176
     1
 62
   256
176
     0
 40
1.0
176
     0
 90
        2
176
     1
  1
strokes_ogs.tif
176
     1
290
     0
176
     1
 40
1.0
176
     1
 40
1.0
176
     1
  0
VISUALSTYLE
  5
250AC
102
{ACAD_REACTORS
330
250A0
102
}
330
250A0
100
AcDbVisualStyle
  2
Brighten
 70
    12
177
     3
291
     1
 70
    58
 90
        2
176
     1
 90
        2
176
     1
 90
        0
176
     1
 90
        0
176
     1
 40
0.6
176
     1
 40
30.0
176
     1
 62
     7
420
 16777215
176
     1
 90
        1
176
     1
 90
        4
176
     1
 62
     7
176
     1
 62
   257
176
     1
 90
        1
176
     1
 90
        1
176
     1
 40
1.0
176
     1
 90
        8
176
     1
 62
     7
176
     1
 40
1.0
176
     1
 90
        1
176
     1
 90
        6
176
     1
 90
        2
176
     1
 62
     7
176
     1
 90
        5
176
     1
 90
        0
176
     1
 90
        0
176
     1
290
     0
176
     1
 90
        1
176
     1
 40
50.0
176
     1
 90
        0
176
     1
290
     0
176
     1
290
     1
176
     1
290
     1
176
     1
290
     0
176
     1
290
     0
176
     1
290
     0
176
     1
290
     0
176
     1
290
     0
176
     1
290
     0
176
     1
 90
       50
176
     1
 40
0.0
176
     1
 40
1.0
176
     1
 90
        0
176
     1
 62
    18
420
        0
176
     1
 90
       50
176
     1
 90
        3
176
     1
 62
     5
420
      255
176
     1
290
     0
176
     1
 90
       50
176
     1
 90
       50
176
     1
 90
       50
176
     1
290
     0
176
     1
 90
       50
176
     1
 62
   256
176
     0
 40
1.0
176
     0
 90
        2
176
     1
  1
strokes_ogs.tif
176
     1
290
     0
176
     1
 40
1.0
176
     1
 40
1.0
176
     1
  0
VISUALSTYLE
  5
250B0
102
{ACAD_REACTORS
330
250A0
102
}
330
250A0
100
AcDbVisualStyle
  2
ColorChange
 70
    16
177
     3
291
     1
 70
    58
 90
        2
176
     1
 90
        2
176
     1
 90
        3
176
     1
 90
        0
176
     1
 40
0.6
176
     1
 40
30.0
176
     1
 62
     8
420
  8421504
176
     1
 90
        1
176
     1
 90
        4
176
     1
 62
     7
176
     1
 62
   257
176
     1
 90
        1
176
     1
 90
        1
176
     1
 40
1.0
176
     1
 90
        8
176
     1
 62
     8
420
  8421504
176
     1
 40
1.0
176
     1
 90
        1
176
     1
 90
        6
176
     1
 90
        2
176
     1
 62
     7
176
     1
 90
        5
176
     1
 90
        0
176
     1
 90
        0
176
     1
290
     0
176
     1
 90
        1
176
     1
 40
0.0
176
     1
 90
        0
176
     1
290
     0
176
     1
290
     1
176
     1
290
     1
176
     1
290
     0
176
     1
290
     0
176
     1
290
     0
176
     1
290
     0
176
     1
290
     0
176
     1
290
     0
176
     1
 90
       50
176
     1
 40
0.0
176
     1
 40
1.0
176
     1
 90
        0
176
     1
 62
    18
420
        0
176
     1
 90
       50
176
     1
 90
        3
176
     1
 62
     5
420
      255
176
     1
290
     0
176
     1
 90
       50
176
     1
 90
       50
176
     1
 90
       50
176
     1
290
     0
176
     1
 90
       50
176
     1
 62
   256
176
     0
 40
1.0
176
     0
 90
        2
176
     1
  1
strokes_ogs.tif
176
     1
290
     0
176
     1
 40
1.0
176
     1
 40
1.0
176
     1
  0
VISUALSTYLE
  5
250A9
102
{ACAD_REACTORS
330
250A0
102
}
330
250A0
100
AcDbVisualStyle
  2
Conceptual
 70
     9
177
     3
291
     0
 70
    58
 90
        3
176
     1
 90
        2
176
     1
 90
        0
176
     1
 90
        0
176
     1
 40
0.6
176
     1
 40
30.0
176
     1
 62
     7
420
 16777215
176
     1
 90
        2
176
     1
 90
        2
176
     1
 62
     7
176
     1
 62
   257
176
     1
 90
        1
176
     1
 90
        1
176
     1
 40
40.0
176
     1
 90
        8
176
     1
 62
     7
176
     1
 40
1.0
176
     1
 90
        1
176
     1
 90
        6
176
     1
 90
        2
176
     1
 62
     7
176
     1
 90
        3
176
     1
 90
        0
176
     1
 90
        0
176
     1
290
     0
176
     1
 90
        1
176
     1
 40
0.0
176
     1
 90
        0
176
     1
290
     0
176
     1
290
     1
176
     1
290
     1
176
     1
290
     0
176
     1
290
     0
176
     1
290
     0
176
     1
290
     0
176
     1
290
     0
176
     1
290
     0
176
     1
 90
       50
176
     1
 40
0.0
176
     1
 40
1.0
176
     1
 90
        0
176
     1
 62
    18
420
        0
176
     1
 90
       50
176
     1
 90
        3
176
     1
 62
     5
420
      255
176
     1
290
     0
176
     1
 90
       50
176
     1
 90
       50
176
     1
 90
       50
176
     1
290
     0
176
     1
 90
       50
176
     1
 62
   256
176
     0
 40
1.0
176
     0
 90
        2
176
     1
  1
strokes_ogs.tif
176
     1
290
     0
176
     1
 40
1.0
176
     1
 40
1.0
176
     1
  0
VISUALSTYLE
  5
250AB
102
{ACAD_REACTORS
330
250A0
102
}
330
250A0
100
AcDbVisualStyle
  2
Dim
 70
    11
177
     3
291
     1
 70
    58
 90
        2
176
     1
 90
        2
176
     1
 90
        0
176
     1
 90
        0
176
     1
 40
0.6
176
     1
 40
30.0
176
     1
 62
     7
420
 16777215
176
     1
 90
        1
176
     1
 90
        4
176
     1
 62
     7
176
     1
 62
   257
176
     1
 90
        1
176
     1
 90
        1
176
     1
 40
1.0
176
     1
 90
        8
176
     1
 62
     7
176
     1
 40
1.0
176
     1
 90
        1
176
     1
 90
        6
176
     1
 90
        2
176
     1
 62
     7
176
     1
 90
        5
176
     1
 90
        0
176
     1
 90
        0
176
     1
290
     0
176
     1
 90
        1
176
     1
 40
-50.0
176
     1
 90
        0
176
     1
290
     0
176
     1
290
     1
176
     1
290
     1
176
     1
290
     0
176
     1
290
     0
176
     1
290
     0
176
     1
290
     0
176
     1
290
     0
176
     1
290
     0
176
     1
 90
       50
176
     1
 40
0.0
176
     1
 40
1.0
176
     1
 90
        0
176
     1
 62
    18
420
        0
176
     1
 90
       50
176
     1
 90
        3
176
     1
 62
     5
420
      255
176
     1
290
     0
176
     1
 90
       50
176
     1
 90
       50
176
     1
 90
       50
176
     1
290
     0
176
     1
 90
       50
176
     1
 62
   256
176
     0
 40
1.0
176
     0
 90
        2
176
     1
  1
strokes_ogs.tif
176
     1
290
     0
176
     1
 40
1.0
176
     1
 40
1.0
176
     1
  0
VISUALSTYLE
  5
250D0
102
{ACAD_REACTORS
330
250A0
102
}
330
250A0
100
AcDbVisualStyle
  2
EdgeColorOff
 70
    22
177
     3
291
     1
 70
    58
 90
        2
176
     0
 90
        2
176
     0
 90
        0
176
     0
 90
        0
176
     0
 40
0.6
176
     0
 40
30.0
176
     0
 62
     7
420
 16777215
176
     0
 90
        1
176
     0
 90
        4
176
     0
 62
     7
176
     0
 62
   257
176
     0
 90
        1
176
     0
 90
        1
176
     0
 40
1.0
176
     0
 90
        8
176
     2
 62
     7
176
     0
 40
1.0
176
     0
 90
        1
176
     0
 90
        6
176
     0
 90
        2
176
     0
 62
     7
176
     0
 90
        5
176
     0
 90
        0
176
     0
 90
        0
176
     0
290
     0
176
     0
 90
        1
176
     0
 40
0.0
176
     0
 90
        0
176
     0
290
     0
176
     0
290
     1
176
     0
290
     1
176
     0
290
     0
176
     0
290
     0
176
     0
290
     0
176
     0
290
     0
176
     0
290
     0
176
     0
290
     0
176
     0
 90
       50
176
     0
 40
0.0
176
     0
 40
1.0
176
     0
 90
        0
176
     0
 62
    18
420
        0
176
     0
 90
       50
176
     0
 90
        3
176
     0
 62
     5
420
      255
176
     0
290
     0
176
     0
 90
       50
176
     0
 90
       50
176
     0
 90
       50
176
     0
290
     0
176
     0
 90
       50
176
     0
 62
   256
176
     0
 40
1.0
176
     0
 90
        2
176
     0
  1
strokes_ogs.tif
176
     0
290
     0
176
     0
 40
1.0
176
     0
 40
1.0
176
     0
  0
VISUALSTYLE
  5
250AF
102
{ACAD_REACTORS
330
250A0
102
}
330
250A0
100
AcDbVisualStyle
  2
Facepattern
 70
    15
177
     3
291
     1
 70
    58
 90
        2
176
     1
 90
        2
176
     1
 90
        0
176
     1
 90
        0
176
     1
 40
0.6
176
     1
 40
30.0
176
     1
 62
     7
420
 16777215
176
     1
 90
        1
176
     1
 90
        4
176
     1
 62
     7
176
     1
 62
   257
176
     1
 90
        1
176
     1
 90
        1
176
     1
 40
1.0
176
     1
 90
        8
176
     1
 62
     7
176
     1
 40
1.0
176
     1
 90
        1
176
     1
 90
        6
176
     1
 90
        2
176
     1
 62
     7
176
     1
 90
        5
176
     1
 90
        0
176
     1
 90
        0
176
     1
290
     0
176
     1
 90
        1
176
     1
 40
0.0
176
     1
 90
        0
176
     1
290
     0
176
     1
290
     1
176
     1
290
     1
176
     1
290
     0
176
     1
290
     0
176
     1
290
     0
176
     1
290
     0
176
     1
290
     0
176
     1
290
     0
176
     1
 90
       50
176
     1
 40
0.0
176
     1
 40
1.0
176
     1
 90
        0
176
     1
 62
    18
420
        0
176
     1
 90
       50
176
     1
 90
        3
176
     1
 62
     5
420
      255
176
     1
290
     0
176
     1
 90
       50
176
     1
 90
       50
176
     1
 90
       50
176
     1
290
     0
176
     1
 90
       50
176
     1
 62
   256
176
     0
 40
1.0
176
     0
 90
        2
176
     1
  1
strokes_ogs.tif
176
     1
290
     0
176
     1
 40
1.0
176
     1
 40
1.0
176
     1
  0
VISUALSTYLE
  5
250A1
102
{ACAD_REACTORS
330
250A0
102
}
330
250A0
100
AcDbVisualStyle
  2
Flat
 70
     0
177
     3
291
     1
 70
    58
 90
        2
176
     1
 90
        1
176
     1
 90
        1
176
     1
 90
        2
176
     1
 40
0.6
176
     1
 40
30.0
176
     1
 62
     7
420
 16777215
176
     1
 90
        0
176
     1
 90
        4
176
     1
 62
     7
176
     1
 62
   257
176
     1
 90
        1
176
     1
 90
        1
176
     1
 40
1.0
176
     1
 90
        8
176
     1
 62
     7
176
     1
 40
1.0
176
     1
 90
        1
176
     1
 90
        6
176
     1
 90
        2
176
     1
 62
     7
176
     1
 90
        5
176
     1
 90
        0
176
     1
 90
        0
176
     1
290
     0
176
     1
 90
       13
176
     1
 40
0.0
176
     1
 90
        0
176
     1
290
     0
176
     1
290
     1
176
     1
290
     1
176
     1
290
     0
176
     1
290
     0
176
     1
290
     0
176
     1
290
     0
176
     1
290
     0
176
     1
290
     0
176
     1
 90
       50
176
     1
 40
0.0
176
     1
 40
1.0
176
     1
 90
        0
176
     1
 62
    18
420
        0
176
     1
 90
       50
176
     1
 90
        3
176
     1
 62
     5
420
      255
176
     1
290
     0
176
     1
 90
       50
176
     1
 90
       50
176
     1
 90
       50
176
     1
290
     0
176
     1
 90
       50
176
     1
 62
   256
176
     0
 40
1.0
176
     0
 90
        2
176
     1
  1
strokes_ogs.tif
176
     1
290
     0
176
     1
 40
1.0
176
     1
 40
1.0
176
     1
  0
VISUALSTYLE
  5
250A2
102
{ACAD_REACTORS
330
250A0
102
}
330
250A0
100
AcDbVisualStyle
  2
FlatWithEdges
 70
     1
177
     3
291
     1
 70
    58
 90
        2
176
     1
 90
        1
176
     1
 90
        1
176
     1
 90
        2
176
     1
 40
0.6
176
     1
 40
30.0
176
     1
 62
     7
420
 16777215
176
     1
 90
        1
176
     1
 90
        4
176
     1
 62
     7
176
     1
 62
   257
176
     1
 90
        1
176
     1
 90
        1
176
     1
 40
1.0
176
     1
 90
        0
176
     1
 62
   257
176
     1
 40
1.0
176
     1
 90
        1
176
     1
 90
        6
176
     1
 90
        2
176
     1
 62
     7
176
     1
 90
        5
176
     1
 90
        0
176
     1
 90
        0
176
     1
290
     0
176
     1
 90
       13
176
     1
 40
0.0
176
     1
 90
        0
176
     1
290
     0
176
     1
290
     1
176
     1
290
     1
176
     1
290
     0
176
     1
290
     0
176
     1
290
     0
176
     1
290
     0
176
     1
290
     0
176
     1
290
     0
176
     1
 90
       50
176
     1
 40
0.0
176
     1
 40
1.0
176
     1
 90
        0
176
     1
 62
    18
420
        0
176
     1
 90
       50
176
     1
 90
        3
176
     1
 62
     5
420
      255
176
     1
290
     0
176
     1
 90
       50
176
     1
 90
       50
176
     1
 90
       50
176
     1
290
     0
176
     1
 90
       50
176
     1
 62
   256
176
     0
 40
1.0
176
     0
 90
        2
176
     1
  1
strokes_ogs.tif
176
     1
290
     0
176
     1
 40
1.0
176
     1
 40
1.0
176
     1
  0
VISUALSTYLE
  5
250A3
102
{ACAD_REACTORS
330
250A0
102
}
330
250A0
100
AcDbVisualStyle
  2
Gouraud
 70
     2
177
     3
291
     1
 70
    58
 90
        2
176
     1
 90
        2
176
     1
 90
        1
176
     1
 90
        2
176
     1
 40
0.6
176
     1
 40
30.0
176
     1
 62
     7
420
 16777215
176
     1
 90
        0
176
     1
 90
        4
176
     1
 62
     7
176
     1
 62
   257
176
     1
 90
        1
176
     1
 90
        1
176
     1
 40
1.0
176
     1
 90
        0
176
     1
 62
     7
176
     1
 40
1.0
176
     1
 90
        1
176
     1
 90
        6
176
     1
 90
        2
176
     1
 62
     7
176
     1
 90
        5
176
     1
 90
        0
176
     1
 90
        0
176
     1
290
     0
176
     1
 90
       13
176
     1
 40
0.0
176
     1
 90
        0
176
     1
290
     0
176
     1
290
     1
176
     1
290
     1
176
     1
290
     0
176
     1
290
     0
176
     1
290
     0
176
     1
290
     0
176
     1
290
     0
176
     1
290
     0
176
     1
 90
       50
176
     1
 40
0.0
176
     1
 40
1.0
176
     1
 90
        0
176
     1
 62
    18
420
        0
176
     1
 90
       50
176
     1
 90
        3
176
     1
 62
     5
420
      255
176
     1
290
     0
176
     1
 90
       50
176
     1
 90
       50
176
     1
 90
       50
176
     1
290
     0
176
     1
 90
       50
176
     1
 62
   256
176
     0
 40
1.0
176
     0
 90
        2
176
     1
  1
strokes_ogs.tif
176
     1
290
     0
176
     1
 40
1.0
176
     1
 40
1.0
176
     1
  0
VISUALSTYLE
  5
250A4
102
{ACAD_REACTORS
330
250A0
102
}
330
250A0
100
AcDbVisualStyle
  2
GouraudWithEdges
 70
     3
177
     3
291
     1
 70
    58
 90
        2
176
     1
 90
        2
176
     1
 90
        1
176
     1
 90
        2
176
     1
 40
0.6
176
     1
 40
30.0
176
     1
 62
     7
420
 16777215
176
     1
 90
        1
176
     1
 90
        4
176
     1
 62
     7
176
     1
 62
   257
176
     1
 90
        1
176
     1
 90
        1
176
     1
 40
1.0
176
     1
 90
        0
176
     1
 62
   257
176
     1
 40
1.0
176
     1
 90
        1
176
     1
 90
        6
176
     1
 90
        2
176
     1
 62
     7
176
     1
 90
        5
176
     1
 90
        0
176
     1
 90
        0
176
     1
290
     0
176
     1
 90
       13
176
     1
 40
0.0
176
     1
 90
        0
176
     1
290
     0
176
     1
290
     1
176
     1
290
     1
176
     1
290
     0
176
     1
290
     0
176
     1
290
     0
176
     1
290
     0
176
     1
290
     0
176
     1
290
     0
176
     1
 90
       50
176
     1
 40
0.0
176
     1
 40
1.0
176
     1
 90
        0
176
     1
 62
    18
420
        0
176
     1
 90
       50
176
     1
 90
        3
176
     1
 62
     5
420
      255
176
     1
290
     0
176
     1
 90
       50
176
     1
 90
       50
176
     1
 90
       50
176
     1
290
     0
176
     1
 90
       50
176
     1
 62
   256
176
     0
 40
1.0
176
     0
 90
        2
176
     1
  1
strokes_ogs.tif
176
     1
290
     0
176
     1
 40
1.0
176
     1
 40
1.0
176
     1
  0
VISUALSTYLE
  5
250C8
102
{ACAD_REACTORS
330
250A0
102
}
330
250A0
100
AcDbVisualStyle
  2
Hidden
 70
     6
177
     3
291
     0
 70
    58
 90
        1
176
     1
 90
        2
176
     1
 90
        2
176
     1
 90
        0
176
     1
 40
0.6
176
     1
 40
30.0
176
     1
 62
     7
420
 16777215
176
     1
 90
        2
176
     1
 90
        2
176
     1
 62
     7
176
     1
 62
   257
176
     1
 90
        2
176
     1
 90
        1
176
     1
 40
40.0
176
     1
 90
        0
176
     1
 62
   257
176
     1
 40
1.0
176
     1
 90
        1
176
     1
 90
        6
176
     1
 90
        2
176
     1
 62
     7
176
     1
 90
        3
176
     1
 90
        0
176
     1
 90
        0
176
     1
290
     0
176
     1
 90
        1
176
     1
 40
0.0
176
     1
 90
        0
176
     1
290
     0
176
     1
290
     1
176
     1
290
     1
176
     1
290
     0
176
     1
290
     0
176
     1
290
     0
176
     1
290
     0
176
     1
290
     0
176
     1
290
     0
176
     1
 90
       50
176
     1
 40
0.0
176
     1
 40
1.0
176
     1
 90
        0
176
     1
 62
    18
420
        0
176
     1
 90
       50
176
     1
 90
        3
176
     1
 62
     5
420
      255
176
     1
290
     0
176
     1
 90
       50
176
     1
 90
       50
176
     1
 90
       50
176
     1
290
     0
176
     1
 90
       50
176
     1
 62
   256
176
     0
 40
1.0
176
     0
 90
        2
176
     1
  1
strokes_ogs.tif
176
     1
290
     0
176
     1
 40
1.0
176
     1
 40
1.0
176
     1
  0
VISUALSTYLE
  5
250CE
102
{ACAD_REACTORS
330
250A0
102
}
330
250A0
100
AcDbVisualStyle
  2
JitterOff
 70
    20
177
     3
291
     1
 70
    58
 90
        2
176
     0
 90
        2
176
     0
 90
        0
176
     0
 90
        0
176
     0
 40
0.6
176
     0
 40
30.0
176
     0
 62
     7
420
 16777215
176
     0
 90
        1
176
     0
 90
        4
176
     0
 62
     7
176
     0
 62
   257
176
     0
 90
        1
176
     0
 90
        1
176
     0
 40
1.0
176
     0
 90
       10
176
     2
 62
     7
176
     0
 40
1.0
176
     0
 90
        1
176
     0
 90
        6
176
     0
 90
        2
176
     0
 62
     7
176
     0
 90
        5
176
     0
 90
        0
176
     0
 90
        0
176
     0
290
     0
176
     0
 90
        1
176
     0
 40
0.0
176
     0
 90
        0
176
     0
290
     0
176
     0
290
     1
176
     0
290
     1
176
     0
290
     0
176
     0
290
     0
176
     0
290
     0
176
     0
290
     0
176
     0
290
     0
176
     0
290
     0
176
     0
 90
       50
176
     0
 40
0.0
176
     0
 40
1.0
176
     0
 90
        0
176
     0
 62
    18
420
        0
176
     0
 90
       50
176
     0
 90
        3
176
     0
 62
     5
420
      255
176
     0
290
     0
176
     0
 90
       50
176
     0
 90
       50
176
     0
 90
       50
176
     0
290
     0
176
     0
 90
       50
176
     0
 62
   256
176
     0
 40
1.0
176
     0
 90
        2
176
     0
  1
strokes_ogs.tif
176
     0
290
     0
176
     0
 40
1.0
176
     0
 40
1.0
176
     0
  0
VISUALSTYLE
  5
250AE
102
{ACAD_REACTORS
330
250A0
102
}
330
250A0
100
AcDbVisualStyle
  2
Linepattern
 70
    14
177
     3
291
     1
 70
    58
 90
        2
176
     1
 90
        2
176
     1
 90
        0
176
     1
 90
        0
176
     1
 40
0.6
176
     1
 40
30.0
176
     1
 62
     7
420
 16777215
176
     1
 90
        1
176
     1
 90
        4
176
     1
 62
     7
176
     1
 62
   257
176
     1
 90
        7
176
     1
 90
        7
176
     1
 40
1.0
176
     1
 90
        8
176
     1
 62
     7
176
     1
 40
1.0
176
     1
 90
        1
176
     1
 90
        6
176
     1
 90
        2
176
     1
 62
     7
176
     1
 90
        5
176
     1
 90
        0
176
     1
 90
        0
176
     1
290
     0
176
     1
 90
        1
176
     1
 40
0.0
176
     1
 90
        0
176
     1
290
     0
176
     1
290
     1
176
     1
290
     1
176
     1
290
     0
176
     1
290
     0
176
     1
290
     0
176
     1
290
     0
176
     1
290
     0
176
     1
290
     0
176
     1
 90
       50
176
     1
 40
0.0
176
     1
 40
1.0
176
     1
 90
        0
176
     1
 62
    18
420
        0
176
     1
 90
       50
176
     1
 90
        3
176
     1
 62
     5
420
      255
176
     1
290
     0
176
     1
 90
       50
176
     1
 90
       50
176
     1
 90
       50
176
     1
290
     0
176
     1
 90
       50
176
     1
 62
   256
176
     0
 40
1.0
176
     0
 90
        2
176
     1
  1
strokes_ogs.tif
176
     1
290
     0
176
     1
 40
1.0
176
     1
 40
1.0
176
     1
  0
VISUALSTYLE
  5
250CF
102
{ACAD_REACTORS
330
250A0
102
}
330
250A0
100
AcDbVisualStyle
  2
OverhangOff
 70
    21
177
     3
291
     1
 70
    58
 90
        2
176
     0
 90
        2
176
     0
 90
        0
176
     0
 90
        0
176
     0
 40
0.6
176
     0
 40
30.0
176
     0
 62
     7
420
 16777215
176
     0
 90
        1
176
     0
 90
        4
176
     0
 62
     7
176
     0
 62
   257
176
     0
 90
        1
176
     0
 90
        1
176
     0
 40
1.0
176
     0
 90
        9
176
     2
 62
     7
176
     0
 40
1.0
176
     0
 90
        1
176
     0
 90
        6
176
     0
 90
        2
176
     0
 62
     7
176
     0
 90
        5
176
     0
 90
        0
176
     0
 90
        0
176
     0
290
     0
176
     0
 90
        1
176
     0
 40
0.0
176
     0
 90
        0
176
     0
290
     0
176
     0
290
     1
176
     0
290
     1
176
     0
290
     0
176
     0
290
     0
176
     0
290
     0
176
     0
290
     0
176
     0
290
     0
176
     0
290
     0
176
     0
 90
       50
176
     0
 40
0.0
176
     0
 40
1.0
176
     0
 90
        0
176
     0
 62
    18
420
        0
176
     0
 90
       50
176
     0
 90
        3
176
     0
 62
     5
420
      255
176
     0
290
     0
176
     0
 90
       50
176
     0
 90
       50
176
     0
 90
       50
176
     0
290
     0
176
     0
 90
       50
176
     0
 62
   256
176
     0
 40
1.0
176
     0
 90
        2
176
     0
  1
strokes_ogs.tif
176
     0
290
     0
176
     0
 40
1.0
176
     0
 40
1.0
176
     0
  0
VISUALSTYLE
  5
250AA
102
{ACAD_REACTORS
330
250A0
102
}
330
250A0
100
AcDbVisualStyle
  2
Realistic
 70
     8
177
     3
291
     0
 70
    58
 90
        2
176
     1
 90
        2
176
     1
 90
        0
176
     1
 90
        0
176
     1
 40
0.6
176
     1
 40
30.0
176
     1
 62
     7
420
 16777215
176
     1
 90
        1
176
     1
 90
        0
176
     1
 62
     7
176
     1
 62
   257
176
     1
 90
        1
176
     1
 90
        1
176
     1
 40
1.0
176
     1
 90
        8
176
     1
 62
     8
420
  7895160
176
     1
 40
1.0
176
     1
 90
        1
176
     1
 90
        6
176
     1
 90
        2
176
     1
 62
     7
176
     1
 90
        5
176
     1
 90
        0
176
     1
 90
        0
176
     1
290
     0
176
     1
 90
       13
176
     1
 40
0.0
176
     1
 90
        0
176
     1
290
     0
176
     1
290
     1
176
     1
290
     1
176
     1
290
     0
176
     1
290
     0
176
     1
290
     0
176
     1
290
     0
176
     1
290
     0
176
     1
290
     0
176
     1
 90
       50
176
     1
 40
0.0
176
     1
 40
1.0
176
     1
 90
        0
176
     1
 62
    18
420
        0
176
     1
 90
       50
176
     1
 90
        3
176
     1
 62
     5
420
      255
176
     1
290
     0
176
     1
 90
       50
176
     1
 90
       50
176
     1
 90
       50
176
     1
290
     0
176
     1
 90
       50
176
     1
 62
   256
176
     0
 40
1.0
176
     0
 90
        2
176
     1
  1
strokes_ogs.tif
176
     1
290
     0
176
     1
 40
1.0
176
     1
 40
1.0
176
     1
  0
VISUALSTYLE
  5
250CD
102
{ACAD_REACTORS
330
250A0
102
}
330
250A0
100
AcDbVisualStyle
  2
Shaded
 70
    27
177
     3
291
     0
 70
    58
 90
        2
176
     1
 90
        2
176
     1
 90
        1
176
     1
 90
        2
176
     1
 40
0.6
176
     1
 40
30.0
176
     1
 62
     7
420
 16777215
176
     1
 90
        0
176
     1
 90
        4
176
     1
 62
     7
176
     1
 62
   257
176
     1
 90
        1
176
     1
 90
        1
176
     1
 40
1.0
176
     1
 90
        8
176
     1
 62
   257
176
     1
 40
1.0
176
     1
 90
        1
176
     1
 90
        6
176
     1
 90
        2
176
     1
 62
     8
420
  7895160
176
     1
 90
        3
176
     1
 90
        0
176
     1
 90
        0
176
     1
290
     0
176
     1
 90
        5
176
     1
 40
0.0
176
     1
 90
        0
176
     1
290
     0
176
     1
290
     1
176
     1
290
     1
176
     1
290
     0
176
     1
290
     0
176
     1
290
     0
176
     1
290
     0
176
     1
290
     0
176
     1
290
     0
176
     1
 90
       50
176
     1
 40
0.0
176
     1
 40
1.0
176
     1
 90
        0
176
     1
 62
    18
420
        0
176
     1
 90
       50
176
     1
 90
        3
176
     1
 62
     5
420
      255
176
     1
290
     0
176
     1
 90
       50
176
     1
 90
       50
176
     1
 90
       50
176
     1
290
     0
176
     1
 90
       50
176
     1
 62
   256
176
     0
 40
1.0
176
     0
 90
        2
176
     1
  1
strokes_ogs.tif
176
     1
290
     0
176
     1
 40
1.0
176
     1
 40
1.0
176
     1
  0
VISUALSTYLE
  5
250CC
102
{ACAD_REACTORS
330
250A0
102
}
330
250A0
100
AcDbVisualStyle
  2
Shaded with edges
 70
    26
177
     3
291
     0
 70
    58
 90
        2
176
     1
 90
        2
176
     1
 90
        1
176
     1
 90
        2
176
     1
 40
0.6
176
     1
 40
30.0
176
     1
 62
     7
420
 16777215
176
     1
 90
        1
176
     1
 90
        2
176
     1
 62
     7
176
     1
 62
   257
176
     1
 90
        2
176
     1
 90
        1
176
     1
 40
1.0
176
     1
 90
        8
176
     1
 62
   257
176
     1
 40
1.0
176
     1
 90
        1
176
     1
 90
        6
176
     1
 90
        2
176
     1
 62
     7
176
     1
 90
        3
176
     1
 90
        0
176
     1
 90
        0
176
     1
290
     0
176
     1
 90
        5
176
     1
 40
0.0
176
     1
 90
        0
176
     1
290
     0
176
     1
290
     1
176
     1
290
     1
176
     1
290
     0
176
     1
290
     0
176
     1
290
     0
176
     1
290
     0
176
     1
290
     0
176
     1
290
     0
176
     1
 90
       50
176
     1
 40
0.0
176
     1
 40
1.0
176
     1
 90
        0
176
     1
 62
    18
420
        0
176
     1
 90
       50
176
     1
 90
        3
176
     1
 62
     5
420
      255
176
     1
290
     0
176
     1
 90
       50
176
     1
 90
       50
176
     1
 90
       50
176
     1
290
     0
176
     1
 90
       50
176
     1
 62
   256
176
     0
 40
1.0
176
     0
 90
        2
176
     1
  1
strokes_ogs.tif
176
     1
290
     0
176
     1
 40
1.0
176
     1
 40
1.0
176
     1
  0
VISUALSTYLE
  5
250C9
102
{ACAD_REACTORS
330
250A0
102
}
330
250A0
100
AcDbVisualStyle
  2
Shades of Gray
 70
    23
177
     3
291
     0
 70
    58
 90
        2
176
     1
 90
        2
176
     1
 90
        3
176
     1
 90
        0
176
     1
 40
0.6
176
     1
 40
30.0
176
     1
 62
     7
420
 16777215
176
     1
 90
        2
176
     1
 90
        2
176
     1
 62
     7
176
     1
 62
     7
176
     1
 90
        1
176
     1
 90
        1
176
     1
 40
40.0
176
     1
 90
        8
176
     1
 62
     7
176
     1
 40
1.0
176
     1
 90
        1
176
     1
 90
        6
176
     1
 90
        2
176
     1
 62
     7
176
     1
 90
        3
176
     1
 90
        0
176
     1
 90
        0
176
     1
290
     0
176
     1
 90
        1
176
     1
 40
0.0
176
     1
 90
        0
176
     1
290
     0
176
     1
290
     1
176
     1
290
     1
176
     1
290
     0
176
     1
290
     0
176
     1
290
     0
176
     1
290
     0
176
     1
290
     0
176
     1
290
     0
176
     1
 90
       50
176
     1
 40
0.0
176
     1
 40
1.0
176
     1
 90
        0
176
     1
 62
    18
420
        0
176
     1
 90
       50
176
     1
 90
        3
176
     1
 62
     5
420
      255
176
     1
290
     0
176
     1
 90
       50
176
     1
 90
       50
176
     1
 90
       50
176
     1
290
     0
176
     1
 90
       50
176
     1
 62
   256
176
     0
 40
1.0
176
     0
 90
        2
176
     1
  1
strokes_ogs.tif
176
     1
290
     0
176
     1
 40
1.0
176
     1
 40
1.0
176
     1
  0
VISUALSTYLE
  5
250CA
102
{ACAD_REACTORS
330
250A0
102
}
330
250A0
100
AcDbVisualStyle
  2
Sketchy
 70
    24
177
     3
291
     0
 70
    58
 90
        1
176
     1
 90
        2
176
     1
 90
        2
176
     1
 90
        0
176
     1
 40
0.6
176
     1
 40
30.0
176
     1
 62
     7
420
 16777215
176
     1
 90
        2
176
     1
 90
        2
176
     1
 62
     7
176
     1
 62
     7
176
     1
 90
        1
176
     1
 90
        1
176
     1
 40
40.0
176
     1
 90
       11
176
     1
 62
     7
176
     1
 40
1.0
176
     1
 90
        1
176
     1
 90
        6
176
     1
 90
        2
176
     1
 62
     7
176
     1
 90
        6
176
     1
 90
        0
176
     1
 90
        0
176
     1
290
     0
176
     1
 90
        1
176
     1
 40
0.0
176
     1
 90
        0
176
     1
290
     0
176
     1
290
     1
176
     1
290
     1
176
     1
290
     0
176
     1
290
     0
176
     1
290
     0
176
     1
290
     0
176
     1
290
     0
176
     1
290
     0
176
     1
 90
       50
176
     1
 40
0.0
176
     1
 40
1.0
176
     1
 90
        0
176
     1
 62
    18
420
        0
176
     1
 90
       50
176
     1
 90
        3
176
     1
 62
     5
420
      255
176
     1
290
     0
176
     1
 90
       50
176
     1
 90
       50
176
     1
 90
       50
176
     1
290
     0
176
     1
 90
       50
176
     1
 62
   256
176
     0
 40
1.0
176
     0
 90
        2
176
     1
  1
strokes_ogs.tif
176
     1
290
     0
176
     1
 40
1.0
176
     1
 40
1.0
176
     1
  0
VISUALSTYLE
  5
250AD
102
{ACAD_REACTORS
330
250A0
102
}
330
250A0
100
AcDbVisualStyle
  2
Thicken
 70
    13
177
     3
291
     1
 70
    58
 90
        2
176
     1
 90
        2
176
     1
 90
        0
176
     1
 90
        0
176
     1
 40
0.6
176
     1
 40
30.0
176
     1
 62
     7
420
 16777215
176
     1
 90
        1
176
     1
 90
        4
176
     1
 62
     7
176
     1
 62
   257
176
     1
 90
        1
176
     1
 90
        1
176
     1
 40
1.0
176
     1
 90
       12
176
     1
 62
     7
176
     1
 40
1.0
176
     1
 90
        1
176
     1
 90
        6
176
     1
 90
        2
176
     1
 62
     7
176
     1
 90
        5
176
     1
 90
        0
176
     1
 90
        0
176
     1
290
     0
176
     1
 90
        1
176
     1
 40
0.0
176
     1
 90
        0
176
     1
290
     0
176
     1
290
     1
176
     1
290
     1
176
     1
290
     0
176
     1
290
     0
176
     1
290
     0
176
     1
290
     0
176
     1
290
     0
176
     1
290
     0
176
     1
 90
       50
176
     1
 40
0.0
176
     1
 40
1.0
176
     1
 90
        0
176
     1
 62
    18
420
        0
176
     1
 90
       50
176
     1
 90
        3
176
     1
 62
     5
420
      255
176
     1
290
     0
176
     1
 90
       50
176
     1
 90
       50
176
     1
 90
       50
176
     1
290
     0
176
     1
 90
       50
176
     1
 62
   256
176
     0
 40
1.0
176
     0
 90
        2
176
     1
  1
strokes_ogs.tif
176
     1
290
     0
176
     1
 40
1.0
176
     1
 40
1.0
176
     1
  0
VISUALSTYLE
  5
250C7
102
{ACAD_REACTORS
330
250A0
102
}
330
250A0
100
AcDbVisualStyle
  2
Wireframe
 70
     5
177
     3
291
     0
 70
    58
 90
        0
176
     1
 90
        2
176
     1
 90
        0
176
     1
 90
        0
176
     1
 40
0.6
176
     1
 40
30.0
176
     1
 62
     7
420
 16777215
176
     1
 90
        1
176
     1
 90
        4
176
     1
 62
     7
176
     1
 62
   257
176
     1
 90
        1
176
     1
 90
        1
176
     1
 40
1.0
176
     1
 90
        0
176
     1
 62
   257
176
     1
 40
1.0
176
     1
 90
        1
176
     1
 90
        6
176
     1
 90
        2
176
     1
 62
     7
176
     1
 90
        3
176
     1
 90
        0
176
     1
 90
        0
176
     1
290
     0
176
     1
 90
        1
176
     1
 40
0.0
176
     1
 90
        0
176
     1
290
     0
176
     1
290
     1
176
     1
290
     1
176
     1
290
     0
176
     1
290
     0
176
     1
290
     0
176
     1
290
     0
176
     1
290
     0
176
     1
290
     0
176
     1
 90
       50
176
     1
 40
0.0
176
     1
 40
1.0
176
     1
 90
        0
176
     1
 62
    18
420
        0
176
     1
 90
       50
176
     1
 90
        3
176
     1
 62
     5
420
      255
176
     1
290
     0
176
     1
 90
       50
176
     1
 90
       50
176
     1
 90
       50
176
     1
290
     0
176
     1
 90
       50
176
     1
 62
   256
176
     0
 40
1.0
176
     0
 90
        2
176
     1
  1
strokes_ogs.tif
176
     1
290
     0
176
     1
 40
1.0
176
     1
 40
1.0
176
     1
  0
VISUALSTYLE
  5
250CB
102
{ACAD_REACTORS
330
250A0
102
}
330
250A0
100
AcDbVisualStyle
  2
X-Ray
 70
    25
177
     3
291
     0
 70
    58
 90
        2
176
     1
 90
        2
176
     1
 90
        1
176
     1
 90
        1
176
     1
 40
0.5
176
     1
 40
30.0
176
     1
 62
     7
420
 16777215
176
     1
 90
        1
176
     1
 90
        0
176
     1
 62
     7
176
     1
 62
   257
176
     1
 90
        1
176
     1
 90
        1
176
     1
 40
1.0
176
     1
 90
        8
176
     1
 62
     7
176
     1
 40
1.0
176
     1
 90
        1
176
     1
 90
        6
176
     1
 90
        2
176
     1
 62
     7
176
     1
 90
        3
176
     1
 90
        0
176
     1
 90
        0
176
     1
290
     0
176
     1
 90
       13
176
     1
 40
0.0
176
     1
 90
        0
176
     1
290
     0
176
     1
290
     1
176
     1
290
     1
176
     1
290
     0
176
     1
290
     0
176
     1
290
     0
176
     1
290
     0
176
     1
290
     0
176
     1
290
     0
176
     1
 90
       50
176
     1
 40
0.0
176
     1
 40
1.0
176
     1
 90
        0
176
     1
 62
    18
420
        0
176
     1
 90
       50
176
     1
 90
        3
176
     1
 62
     5
420
      255
176
     1
290
     0
176
     1
 90
       50
176
     1
 90
       50
176
     1
 90
       50
176
     1
290
     0
176
     1
 90
       50
176
     1
 62
   256
176
     0
 40
1.0
176
     0
 90
        2
176
     1
  1
strokes_ogs.tif
176
     1
290
     0
176
     1
 40
1.0
176
     1
 40
1.0
176
     1
  0
DICTIONARYVAR
  5
25112
102
{ACAD_REACTORS
330
5E
102
}
330
5E
100
DictionaryVariables
280
     0
  1
1:1
  0
DICTIONARYVAR
  5
2510E
102
{ACAD_REACTORS
330
5E
102
}
330
5E
100
DictionaryVariables
280
     0
  1
STANDARD
  0
DICTIONARYVAR
  5
250C5
102
{ACAD_REACTORS
330
5E
102
}
330
5E
100
DictionaryVariables
280
     0
  1
STANDARD
  0
DICTIONARYVAR
  5
2510F
102
{ACAD_REACTORS
330
5E
102
}
330
5E
100
DictionaryVariables
280
     0
  1
Metric50
  0
DICTIONARYVAR
  5
25110
102
{ACAD_REACTORS
330
5E
102
}
330
5E
100
DictionaryVariables
280
     0
  1
Metric50
  0
DICTIONARYVAR
  5
5F
102
{ACAD_REACTORS
330
5E
102
}
330
5E
100
DictionaryVariables
280
     0
  1
2
  0
DICTIONARYVAR
  5
63
102
{ACAD_REACTORS
330
5E
102
}
330
5E
100
DictionaryVariables
280
     0
  1
1
  0
DICTIONARYVAR
  5
25114
102
{ACAD_REACTORS
330
5E
102
}
330
5E
100
DictionaryVariables
280
     0
  1
1
  0
DICTIONARYVAR
  5
25115
102
{ACAD_REACTORS
330
5E
102
}
330
5E
100
DictionaryVariables
280
     0
  1
15
  0
DICTIONARYVAR
  5
25113
102
{ACAD_REACTORS
330
5E
102
}
330
5E
100
DictionaryVariables
280
     0
  1
0
  0
DICTIONARYVAR
  5
25111
102
{ACAD_REACTORS
330
5E
102
}
330
5E
100
DictionaryVariables
280
     0
  1
0
  0
DICTIONARYVAR
  5
1CF
102
{ACAD_REACTORS
330
5E
102
}
330
5E
100
DictionaryVariables
280
     0
  1

  0
XRECORD
  5
236C9
102
{ACAD_REACTORS
330
236C8
102
}
330
236C8
100
AcDbXrecord
280
     1
330
233B1
330
233C6
330
1C9B4
330
1B97C
330
1D193
330
1D561
330
1DA80
330
1DC7F
330
1DD9A
330
1DFCF
330
1E253
330
1E3B8
330
1E744
330
20E3C
330
2130B
330
21321
330
21463
330
21DD6
330
0
330
0
330
0
330
0
  0
ACAD_PROXY_OBJECT
  5
24D89
102
{ACAD_REACTORS
330
24D88
102
}
330
24D88
100
AcDbProxyObject
 90
      499
 91
      505
 71
    31
 97
       55
 70
     0
162
                 0
161
               224
310
00013FFFD0C4040800000000000004402826564C4F2D52202E20302900
 94
        0
  0
DICTIONARY
  5
2521D
330
250B2
100
AcDbDictionary
280
     1
281
     1
  3
ACAD_ROUNDTRIP_2008_TABLESTYLE_CELLSTYLEMAP
360
2521E
  0
CELLSTYLEMAP
  5
2521E
102
{ACAD_REACTORS
330
2521D
102
}
330
2521D
100
AcDbCellStyleMap
 90
        3
300
CELLSTYLE
  1
TABLEFORMAT_BEGIN
 90
        5
170
     1
 91
        0
 92
    32768
 62
   257
 93
        1
300
CONTENTFORMAT
  1
CONTENTFORMAT_BEGIN
 90
        0
 91
        0
 92
      512
 93
        0
300

 40
0.0
140
1.0
 94
        5
 62
     0
340
11
144
6.0
309
CONTENTFORMAT_END
171
     1
301
MARGIN
  1
CELLMARGIN_BEGIN
 40
1.5
 40
1.5
 40
1.5
 40
1.5
 40
0.18
 40
0.18
309
CELLMARGIN_END
 94
        6
 95
        1
302
GRIDFORMAT
  1
GRIDFORMAT_BEGIN
 90
        0
 91
        1
 62
     0
 92
       -2
340
0
 93
        0
 40
0.045
309
GRIDFORMAT_END
 95
        2
302
GRIDFORMAT
  1
GRIDFORMAT_BEGIN
 90
        0
 91
        1
 62
     0
 92
       -2
340
0
 93
        0
 40
0.045
309
GRIDFORMAT_END
 95
        4
302
GRIDFORMAT
  1
GRIDFORMAT_BEGIN
 90
        0
 91
        1
 62
     0
 92
       -2
340
0
 93
        0
 40
0.045
309
GRIDFORMAT_END
 95
        8
302
GRIDFORMAT
  1
GRIDFORMAT_BEGIN
 90
        0
 91
        1
 62
     0
 92
       -2
340
0
 93
        0
 40
0.045
309
GRIDFORMAT_END
 95
       16
302
GRIDFORMAT
  1
GRIDFORMAT_BEGIN
 90
        0
 91
        1
 62
     0
 92
       -2
340
0
 93
        0
 40
0.045
309
GRIDFORMAT_END
 95
       32
302
GRIDFORMAT
  1
GRIDFORMAT_BEGIN
 90
        0
 91
        1
 62
     0
 92
       -2
340
0
 93
        0
 40
0.045
309
GRIDFORMAT_END
309
TABLEFORMAT_END
  1
CELLSTYLE_BEGIN
 90
        1
 91
        1
300
_TITLE
309
CELLSTYLE_END
300
CELLSTYLE
  1
TABLEFORMAT_BEGIN
 90
        5
170
     1
 91
        0
 92
        0
 62
   257
 93
        1
300
CONTENTFORMAT
  1
CONTENTFORMAT_BEGIN
 90
        0
 91
        0
 92
      512
 93
        0
300

 40
0.0
140
1.0
 94
        5
 62
     0
340
11
144
4.5
309
CONTENTFORMAT_END
171
     1
301
MARGIN
  1
CELLMARGIN_BEGIN
 40
1.5
 40
1.5
 40
1.5
 40
1.5
 40
0.18
 40
0.18
309
CELLMARGIN_END
 94
        6
 95
        1
302
GRIDFORMAT
  1
GRIDFORMAT_BEGIN
 90
        0
 91
        1
 62
     0
 92
       -2
340
0
 93
        0
 40
0.045
309
GRIDFORMAT_END
 95
        2
302
GRIDFORMAT
  1
GRIDFORMAT_BEGIN
 90
        0
 91
        1
 62
     0
 92
       -2
340
0
 93
        0
 40
0.045
309
GRIDFORMAT_END
 95
        4
302
GRIDFORMAT
  1
GRIDFORMAT_BEGIN
 90
        0
 91
        1
 62
     0
 92
       -2
340
0
 93
        0
 40
0.045
309
GRIDFORMAT_END
 95
        8
302
GRIDFORMAT
  1
GRIDFORMAT_BEGIN
 90
        0
 91
        1
 62
     0
 92
       -2
340
0
 93
        0
 40
0.045
309
GRIDFORMAT_END
 95
       16
302
GRIDFORMAT
  1
GRIDFORMAT_BEGIN
 90
        0
 91
        1
 62
     0
 92
       -2
340
0
 93
        0
 40
0.045
309
GRIDFORMAT_END
 95
       32
302
GRIDFORMAT
  1
GRIDFORMAT_BEGIN
 90
        0
 91
        1
 62
     0
 92
       -2
340
0
 93
        0
 40
0.045
309
GRIDFORMAT_END
309
TABLEFORMAT_END
  1
CELLSTYLE_BEGIN
 90
        2
 91
        1
300
_HEADER
309
CELLSTYLE_END
300
CELLSTYLE
  1
TABLEFORMAT_BEGIN
 90
        5
170
     1
 91
        0
 92
        0
 62
   257
 93
        1
300
CONTENTFORMAT
  1
CONTENTFORMAT_BEGIN
 90
        0
 91
        0
 92
      512
 93
        0
300

 40
0.0
140
1.0
 94
        2
 62
     0
340
11
144
4.5
309
CONTENTFORMAT_END
171
     1
301
MARGIN
  1
CELLMARGIN_BEGIN
 40
1.5
 40
1.5
 40
1.5
 40
1.5
 40
0.18
 40
0.18
309
CELLMARGIN_END
 94
        6
 95
        1
302
GRIDFORMAT
  1
GRIDFORMAT_BEGIN
 90
        0
 91
        1
 62
     0
 92
       -2
340
0
 93
        0
 40
0.045
309
GRIDFORMAT_END
 95
        2
302
GRIDFORMAT
  1
GRIDFORMAT_BEGIN
 90
        0
 91
        1
 62
     0
 92
       -2
340
0
 93
        0
 40
0.045
309
GRIDFORMAT_END
 95
        4
302
GRIDFORMAT
  1
GRIDFORMAT_BEGIN
 90
        0
 91
        1
 62
     0
 92
       -2
340
0
 93
        0
 40
0.045
309
GRIDFORMAT_END
 95
        8
302
GRIDFORMAT
  1
GRIDFORMAT_BEGIN
 90
        0
 91
        1
 62
     0
 92
       -2
340
0
 93
        0
 40
0.045
309
GRIDFORMAT_END
 95
       16
302
GRIDFORMAT
  1
GRIDFORMAT_BEGIN
 90
        0
 91
        1
 62
     0
 92
       -2
340
0
 93
        0
 40
0.045
309
GRIDFORMAT_END
 95
       32
302
GRIDFORMAT
  1
GRIDFORMAT_BEGIN
 90
        0
 91
        1
 62
     0
 92
       -2
340
0
 93
        0
 40
0.045
309
GRIDFORMAT_END
309
TABLEFORMAT_END
  1
CELLSTYLE_BEGIN
 90
        3
 91
        2
300
_DATA
309
CELLSTYLE_END
  0
ENDSEC
  0
SECTION
  2
ACDSDATA
 70
     2
 71
     8
  0
ACDSSCHEMA
 90
        0
  1
AcDb_Thumbnail_Schema
  2
AcDbDs::ID
280
    10
 91
        8
  2
Thumbnail_Data
280
    15
 91
        0
101
ACDSRECORD
 95
        0
 90
        1
  2
AcDbDs::TreatedAsObjectData
280
     1
291
     1
101
ACDSRECORD
 95
        0
 90
        2
  2
AcDbDs::Legacy
280
     1
291
     1
101
ACDSRECORD
  1
AcDbDs::ID
 90
        3
  2
AcDs:Indexable
280
     1
291
     1
101
ACDSRECORD
  1
AcDbDs::ID
 90
        4
  2
AcDbDs::HandleAttribute
280
     7
282
     1
  0
ACDSSCHEMA
 90
        1
  1
AcDbDs::TreatedAsObjectDataSchema
  2
AcDbDs::TreatedAsObjectData
280
     1
 91
        0
  0
ACDSSCHEMA
 90
        2
  1
AcDbDs::LegacySchema
  2
AcDbDs::Legacy
280
     1
 91
        0
  0
ACDSSCHEMA
 90
        3
  1
AcDbDs::IndexedPropertySchema
  2
AcDs:Indexable
280
     1
 91
        0
  0
ACDSSCHEMA
 90
        4
  1
AcDbDs::HandleAttributeSchema
  2
AcDbDs::HandleAttribute
280
     7
 91
        1
284
     1
  0
ACDSRECORD
 90
        0
  2
AcDbDs::ID
280
    10
320
22
  2
Thumbnail_Data
280
    15
 94
     1391
310
89504E470D0A1A0A0000000D49484452000001000000007108030000000DA58D8400000300504C5445212830000000C8C8C80000000000000000000000000000000000000000000000000000330000660000990000CC0000FF0033000033330033660033990033CC0033FF0066000066330066660066990066CC0066FF0099
310
000099330099660099990099CC0099FF00CC0000CC3300CC6600CC9900CCCC00CCFF00FF0000FF3300FF6600FF9900FFCC00FFFF3300003300333300663300993300CC3300FF3333003333333333663333993333CC3333FF3366003366333366663366993366CC3366FF3399003399333399663399993399CC3399FF33CC00
310
33CC3333CC6633CC9933CCCC33CCFF33FF0033FF3333FF6633FF9933FFCC33FFFF6600006600336600666600996600CC6600FF6633006633336633666633996633CC6633FF6666006666336666666666996666CC6666FF6699006699336699666699996699CC6699FF66CC0066CC3366CC6666CC9966CCCC66CCFF66FF0066
310
FF3366FF6666FF9966FFCC66FFFF9900009900339900669900999900CC9900FF9933009933339933669933999933CC9933FF9966009966339966669966999966CC9966FF9999009999339999669999999999CC9999FF99CC0099CC3399CC6699CC9999CCCC99CCFF99FF0099FF3399FF6699FF9999FFCC99FFFFCC0000CC00
310
33CC0066CC0099CC00CCCC00FFCC3300CC3333CC3366CC3399CC33CCCC33FFCC6600CC6633CC6666CC6699CC66CCCC66FFCC9900CC9933CC9966CC9999CC99CCCC99FFCCCC00CCCC33CCCC66CCCC99CCCCCCCCCCFFCCFF00CCFF33CCFF66CCFF99CCFFCCCCFFFFFF0000FF0033FF0066FF0099FF00CCFF00FFFF3300FF3333
310
FF3366FF3399FF33CCFF33FFFF6600FF6633FF6666FF6699FF66CCFF66FFFF9900FF9933FF9966FF9999FF99CCFF99FFFFCC00FFCC33FFCC66FFCC99FFCCCCFFCCFFFFFF00FFFF33FFFF66FFFF99FFFFCCFFFFFF0000000D0D0D1A1A1A2828283535354343435050505D5D5D6B6B6B787878868686939393A1A1A1AEAEAEBB
310
BBBBC9C9C9D6D6D6E4E4E4F1F1F1FFFFFF000000000000000000000000000000000000000000000000000000000000B21171F60000022A4944415478DAEDDDDB7283300C0450FDFFFFEE7B67424B717D0976DC36DA5D5E9A9940060E42BE2068C4DA825F5D7D6183BF5E0C70F9F8F2921DE042317F4241100106383F18401A
310
00A10C0088031C095011E068C63F5B7369809006382F845980E90DDE16200C70E778AACEBF1800820FA0DCD7C67E8F877F8C003F864418A6483E806A7C5F023C7A8CCC1150CF6F1400C7F7E08E802A075CC70BFC3900E249B01A258E9320287300BEAF74B40186F3A1F900B64C03270618AD02DC39DDBC008F83C6CA41E507
310
00BE3A45C200D211D01A38CA02A0EA011B400A40B5197CEBDFDFBA839327973002E4015AD3005A00FBAF82744970B740BE5660B340C26610210E10881D2573CFEE33BF7347686986ABDE2633C05244830720B6148C22710E5898E5C6E5D63101C07CC50B1B4018C0000698ED21F0038C26C404008EF9D09E003FC05914D316
310
50004068039C5FF49E8EE28F805171805E04403B07284640D10A08024439D5250850F404D1CB01E70AE01C0CA1B7258AA7AE7203BC360D4C1E014F87C3F200E755024F8818C000063080019203401B00683E3C2803D07B764E05A07513400D403909B6ABC2A500E65E0DC61801D200EA1522DA35425800B86C440110DA6572
310
8B95A2FD372E24CC01CAB5C258DAEDEE2D550318C0003400F7CAE40CC000B0D4E811016CFB2D0318C00006200278F2FE0803B000A8FE878994BF6F000318E0C51DFCED254504D46F0A45F917CBA7D80024978023E0D6114ED5D41880F012908F80FFCC011F9EF3BED7DD6B7A340000000049454E44AE426082
  0
ENDSEC
  0
EOF
