  0
SECTION
  2
HEADER
  9
$ACADVER
  1
AC1015
  9
$ACADMAINTVER
 70
    20
  9
$DWGCODEPAGE
  3
ANSI_950
  9
$INSBASE
 10
0.0
 20
0.0
 30
0.0
  9
$EXTMIN
 10
-32.15321691647953
 20
3.841734807608574
 30
0.0
  9
$EXTMAX
 10
77.28659693199924
 20
23.52680854638145
 30
0.0
  9
$LIMMIN
 10
0.0
 20
0.0
  9
$LIMMAX
 10
12.0
 20
9.0
  9
$ORTHOMODE
 70
     0
  9
$REGENMODE
 70
     1
  9
$FILLMODE
 70
     1
  9
$QTEXTMODE
 70
     0
  9
$MIRRTEXT
 70
     0
  9
$LTSCALE
 40
1.0
  9
$ATTMODE
 70
     1
  9
$TEXTSIZE
 40
0.2
  9
$TRACEWID
 40
0.05
  9
$TEXTSTYLE
  7
Standard
  9
$CLAYER
  8
CENTER LINE
  9
$CELTYPE
  6
ByLayer
  9
$CECOLOR
 62
   256
  9
$CELTSCALE
 40
1.0
  9
$DISPSILH
 70
     0
  9
$DIMSCALE
 40
1.0
  9
$DIMASZ
 40
0.18
  9
$DIMEXO
 40
0.0625
  9
$DIMDLI
 40
0.38
  9
$DIMRND
 40
0.0
  9
$DIMDLE
 40
0.0
  9
$DIMEXE
 40
0.18
  9
$DIMTP
 40
0.0
  9
$DIMTM
 40
0.0
  9
$DIMTXT
 40
0.7300000000000001
  9
$DIMCEN
 40
0.24
  9
$DIMTSZ
 40
0.0
  9
$DIMTOL
 70
     0
  9
$DIMLIM
 70
     0
  9
$DIMTIH
 70
     1
  9
$DIMTOH
 70
     1
  9
$DIMSE1
 70
     0
  9
$DIMSE2
 70
     0
  9
$DIMTAD
 70
     0
  9
$DIMZIN
 70
     0
  9
$DIMBLK
  1
ArchTick
  9
$DIMASO
 70
     1
  9
$DIMSHO
 70
     1
  9
$DIMPOST
  1

  9
$DIMAPOST
  1

  9
$DIMALT
 70
     0
  9
$DIMALTD
 70
     2
  9
$DIMALTF
 40
25.4
  9
$DIMLFAC
 40
1.0
  9
$DIMTOFL
 70
     0
  9
$DIMTVP
 40
0.0
  9
$DIMTIX
 70
     0
  9
$DIMSOXD
 70
     0
  9
$DIMSAH
 70
     0
  9
$DIMBLK1
  1

  9
$DIMBLK2
  1

  9
$DIMSTYLE
  2
Standard
  9
$DIMCLRD
 70
     0
  9
$DIMCLRE
 70
     0
  9
$DIMCLRT
 70
     0
  9
$DIMTFAC
 40
1.0
  9
$DIMGAP
 40
0.09
  9
$DIMJUST
 70
     0
  9
$DIMSD1
 70
     0
  9
$DIMSD2
 70
     0
  9
$DIMTOLJ
 70
     1
  9
$DIMTZIN
 70
     0
  9
$DIMALTZ
 70
     0
  9
$DIMALTTZ
 70
     0
  9
$DIMUPT
 70
     0
  9
$DIMDEC
 70
     2
  9
$DIMTDEC
 70
     2
  9
$DIMALTU
 70
     2
  9
$DIMALTTD
 70
     2
  9
$DIMTXSTY
  7
Standard
  9
$DIMAUNIT
 70
     0
  9
$DIMADEC
 70
     0
  9
$DIMALTRND
 40
0.0
  9
$DIMAZIN
 70
     0
  9
$DIMDSEP
 70
    46
  9
$DIMATFIT
 70
     3
  9
$DIMFRAC
 70
     0
  9
$DIMLDRBLK
  1
ArchTick
  9
$DIMLUNIT
 70
     2
  9
$DIMLWD
 70
    -2
  9
$DIMLWE
 70
    -2
  9
$DIMTMOVE
 70
     0
  9
$LUNITS
 70
     2
  9
$LUPREC
 70
     2
  9
$SKETCHINC
 40
0.1
  9
$FILLETRAD
 40
2.95
  9
$AUNITS
 70
     0
  9
$AUPREC
 70
     0
  9
$MENU
  1
.
  9
$ELEVATION
 40
0.0
  9
$PELEVATION
 40
0.0
  9
$THICKNESS
 40
0.0
  9
$LIMCHECK
 70
     0
  9
$CHAMFERA
 40
0.0
  9
$CHAMFERB
 40
0.0
  9
$CHAMFERC
 40
0.0
  9
$CHAMFERD
 40
0.0
  9
$SKPOLY
 70
     0
  9
$TDCREATE
 40
2453775.509896007
  9
$TDUCREATE
 40
2453775.843229340
  9
$TDUPDATE
 40
2453775.598117940
  9
$TDUUPDATE
 40
2453775.931451273
  9
$TDINDWG
 40
0.0882277199
  9
$TDUSRTIMER
 40
0.0882235648
  9
$USRTIMER
 70
     1
  9
$ANGBASE
 50
0.0
  9
$ANGDIR
 70
     0
  9
$PDMODE
 70
     0
  9
$PDSIZE
 40
0.0
  9
$PLINEWID
 40
0.0
  9
$SPLFRAME
 70
     0
  9
$SPLINETYPE
 70
     6
  9
$SPLINESEGS
 70
     8
  9
$HANDSEED
  5
898
  9
$SURFTAB1
 70
     6
  9
$SURFTAB2
 70
     6
  9
$SURFTYPE
 70
     6
  9
$SURFU
 70
     6
  9
$SURFV
 70
     6
  9
$UCSBASE
  2

  9
$UCSNAME
  2

  9
$UCSORG
 10
0.0
 20
0.0
 30
0.0
  9
$UCSXDIR
 10
1.0
 20
0.0
 30
0.0
  9
$UCSYDIR
 10
0.0
 20
1.0
 30
0.0
  9
$UCSORTHOREF
  2

  9
$UCSORTHOVIEW
 70
     0
  9
$UCSORGTOP
 10
0.0
 20
0.0
 30
0.0
  9
$UCSORGBOTTOM
 10
0.0
 20
0.0
 30
0.0
  9
$UCSORGLEFT
 10
0.0
 20
0.0
 30
0.0
  9
$UCSORGRIGHT
 10
0.0
 20
0.0
 30
0.0
  9
$UCSORGFRONT
 10
0.0
 20
0.0
 30
0.0
  9
$UCSORGBACK
 10
0.0
 20
0.0
 30
0.0
  9
$PUCSBASE
  2

  9
$PUCSNAME
  2

  9
$PUCSORG
 10
0.0
 20
0.0
 30
0.0
  9
$PUCSXDIR
 10
1.0
 20
0.0
 30
0.0
  9
$PUCSYDIR
 10
0.0
 20
1.0
 30
0.0
  9
$PUCSORTHOREF
  2

  9
$PUCSORTHOVIEW
 70
     0
  9
$PUCSORGTOP
 10
0.0
 20
0.0
 30
0.0
  9
$PUCSORGBOTTOM
 10
0.0
 20
0.0
 30
0.0
  9
$PUCSORGLEFT
 10
0.0
 20
0.0
 30
0.0
  9
$PUCSORGRIGHT
 10
0.0
 20
0.0
 30
0.0
  9
$PUCSORGFRONT
 10
0.0
 20
0.0
 30
0.0
  9
$PUCSORGBACK
 10
0.0
 20
0.0
 30
0.0
  9
$USERI1
 70
     0
  9
$USERI2
 70
     0
  9
$USERI3
 70
     0
  9
$USERI4
 70
     0
  9
$USERI5
 70
     0
  9
$USERR1
 40
0.0
  9
$USERR2
 40
0.0
  9
$USERR3
 40
0.0
  9
$USERR4
 40
0.0
  9
$USERR5
 40
0.0
  9
$WORLDVIEW
 70
     1
  9
$SHADEDGE
 70
     3
  9
$SHADEDIF
 70
    70
  9
$TILEMODE
 70
     1
  9
$MAXACTVP
 70
    64
  9
$PINSBASE
 10
0.0
 20
0.0
 30
0.0
  9
$PLIMCHECK
 70
     0
  9
$PEXTMIN
 10
0.0
 20
0.0
 30
0.0
  9
$PEXTMAX
 10
0.0
 20
0.0
 30
0.0
  9
$PLIMMIN
 10
0.0
 20
0.0
  9
$PLIMMAX
 10
12.0
 20
9.0
  9
$UNITMODE
 70
     0
  9
$VISRETAIN
 70
     1
  9
$PLINEGEN
 70
     0
  9
$PSLTSCALE
 70
     1
  9
$TREEDEPTH
 70
  3020
  9
$CMLSTYLE
  2
Standard
  9
$CMLJUST
 70
     0
  9
$CMLSCALE
 40
1.0
  9
$PROXYGRAPHICS
 70
     1
  9
$MEASUREMENT
 70
     0
  9
$CELWEIGHT
370
    -1
  9
$ENDCAPS
280
     0
  9
$JOINSTYLE
280
     0
  9
$LWDISPLAY
290
     0
  9
$INSUNITS
 70
     1
  9
$HYPERLINKBASE
  1

  9
$STYLESHEET
  1

  9
$XEDIT
290
     1
  9
$CEPSNTYPE
380
     0
  9
$PSTYLEMODE
290
     1
  9
$FINGERPRINTGUID
  2
{58B76AAE-E157-484F-8C7A-8422CBF0196F}
  9
$VERSIONGUID
  2
{3DB88EA9-E991-405E-B4C7-9E45D55F0D0E}
  9
$EXTNAMES
290
     1
  9
$PSVPSCALE
 40
0.0
  9
$OLESTARTUP
290
     0
  0
ENDSEC
  0
SECTION
  2
CLASSES
  0
CLASS
  1
ACDBDICTIONARYWDFLT
  2
AcDbDictionaryWithDefault
  3
ObjectDBX Classes
 90
        0
280
     0
281
     0
  0
CLASS
  1
ACDBPLACEHOLDER
  2
AcDbPlaceHolder
  3
ObjectDBX Classes
 90
        0
280
     0
281
     0
  0
CLASS
  1
LAYOUT
  2
AcDbLayout
  3
ObjectDBX Classes
 90
        0
280
     0
281
     0
  0
CLASS
  1
DICTIONARYVAR
  2
AcDbDictionaryVar
  3
ObjectDBX Classes
 90
        0
280
     0
281
     0
  0
CLASS
  1
TABLESTYLE
  2
AcDbTableStyle
  3
ObjectDBX Classes
 90
     2047
280
     0
281
     0
  0
CLASS
  1
SORTENTSTABLE
  2
AcDbSortentsTable
  3
ObjectDBX Classes
 90
        0
280
     0
281
     0
  0
CLASS
  1
DIMASSOC
  2
AcDbDimAssoc
  3
"AcDbDimAssoc|Product Desc:     AcDim ARX App For Dimension|Company:          Autodesk, Inc.|WEB Address:      www.autodesk.com"
 90
        0
280
     0
281
     0
  0
CLASS
  1
ACAD_EVALUATION_GRAPH
  2
AcDbEvalGraph
  3
ObjectDBX Classes
 90
     1153
280
     0
281
     0
  0
CLASS
  1
ACAECUSTOBJ
  2
AcAeEditorObj
  3
AcAeEditorObj
 90
     1024
280
     0
281
     0
  0
ENDSEC
  0
SECTION
  2
TABLES
  0
TABLE
  2
VPORT
  5
8
330
0
100
AcDbSymbolTable
 70
     5
  0
VPORT
  5
890
330
8
100
AcDbSymbolTableRecord
100
AcDbViewportTableRecord
  2
*Active
 70
     0
 10
0.0
 20
0.0
 11
1.0
 21
1.0
 12
22.92704449896012
 22
15.21939676687751
 13
0.0
 23
0.0
 14
0.5
 24
0.5
 15
0.5
 25
0.5
 16
0.0
 26
0.0
 36
1.0
 17
0.0
 27
0.0
 37
0.0
 40
71.81642613259517
 41
1.861702127659574
 42
50.0
 43
0.0
 44
0.0
 50
0.0
 51
0.0
 71
     0
 72
  1000
 73
     1
 74
     3
 75
     0
 76
     0
 77
     0
 78
     0
281
     0
 65
     1
110
0.0
120
0.0
130
0.0
111
1.0
121
0.0
131
0.0
112
0.0
122
1.0
132
0.0
 79
     0
146
0.0
  0
ENDTAB
  0
TABLE
  2
LTYPE
  5
5
330
0
100
AcDbSymbolTable
 70
     3
  0
LTYPE
  5
14
330
5
100
AcDbSymbolTableRecord
100
AcDbLinetypeTableRecord
  2
ByBlock
 70
     0
  3

 72
    65
 73
     0
 40
0.0
  0
LTYPE
  5
15
330
5
100
AcDbSymbolTableRecord
100
AcDbLinetypeTableRecord
  2
ByLayer
 70
     0
  3

 72
    65
 73
     0
 40
0.0
  0
LTYPE
  5
16
330
5
100
AcDbSymbolTableRecord
100
AcDbLinetypeTableRecord
  2
Continuous
 70
     0
  3
Solid line
 72
    65
 73
     0
 40
0.0
  0
LTYPE
  5
7D1
330
5
100
AcDbSymbolTableRecord
100
AcDbLinetypeTableRecord
  2
CENTER
 70
     0
  3
Center ____ _ ____ _ ____ _ ____ _ ____ _ ____
 72
    65
 73
     4
 40
2.0
 49
1.25
 74
     0
 49
-0.25
 74
     0
 49
0.25
 74
     0
 49
-0.25
 74
     0
  0
ENDTAB
  0
TABLE
  2
LAYER
  5
2
102
{ACAD_XDICTIONARY
360
D6
102
}
330
0
100
AcDbSymbolTable
 70
     8
  0
LAYER
  5
10
330
2
100
AcDbSymbolTableRecord
100
AcDbLayerTableRecord
  2
0
 70
     0
 62
     7
  6
Continuous
370
    -3
390
F
  0
LAYER
  5
D0
330
2
100
AcDbSymbolTableRecord
100
AcDbLayerTableRecord
  2
flush
 70
     0
 62
   180
  6
Continuous
370
    -3
390
F
1001
AcAecLayerStandard
1000

1000

  0
LAYER
  5
D2
330
2
100
AcDbSymbolTableRecord
100
AcDbLayerTableRecord
  2
positive
 70
     0
 62
    70
  6
Continuous
370
    -3
390
F
1001
AcAecLayerStandard
1000

1000

  0
LAYER
  5
D3
330
2
100
AcDbSymbolTableRecord
100
AcDbLayerTableRecord
  2
negative
 70
     0
 62
   120
  6
Continuous
370
    -3
390
F
1001
AcAecLayerStandard
1000

1000

  0
LAYER
  5
D4
330
2
100
AcDbSymbolTableRecord
100
AcDbLayerTableRecord
  2
dim
 70
     0
 62
    30
  6
Continuous
370
    -3
390
F
1001
AcAecLayerStandard
1000

1000

  0
LAYER
  5
D5
330
2
100
AcDbSymbolTableRecord
100
AcDbLayerTableRecord
  2
text
 70
     0
 62
    52
  6
Continuous
370
    -3
390
F
1001
AcAecLayerStandard
1000

1000

  0
LAYER
  5
68B
330
2
100
AcDbSymbolTableRecord
100
AcDbLayerTableRecord
  2
Defpoints
 70
     0
 62
     7
  6
Continuous
290
     0
370
    -3
390
F
  0
LAYER
  5
7CE
330
2
100
AcDbSymbolTableRecord
100
AcDbLayerTableRecord
  2
CENTER LINE
 70
     0
 62
     7
  6
CENTER
370
    -3
390
F
1001
AcAecLayerStandard
1000

1000

  0
ENDTAB
  0
TABLE
  2
STYLE
  5
3
330
0
100
AcDbSymbolTable
 70
     2
  0
STYLE
  5
11
330
3
100
AcDbSymbolTableRecord
100
AcDbTextStyleTableRecord
  2
Standard
 70
     0
 40
0.0
 41
1.0
 50
0.0
 71
     0
 42
0.2
  3
txt
  4

  0
STYLE
  5
7D0
330
3
100
AcDbSymbolTableRecord
100
AcDbTextStyleTableRecord
  2

 70
     1
 40
0.0
 41
1.0
 50
0.0
 71
     0
 42
0.2
  3
ltypeshp.shx
  4

  0
ENDTAB
  0
TABLE
  2
VIEW
  5
6
330
0
100
AcDbSymbolTable
 70
     0
  0
ENDTAB
  0
TABLE
  2
UCS
  5
7
330
0
100
AcDbSymbolTable
 70
     0
  0
ENDTAB
  0
TABLE
  2
APPID
  5
9
330
0
100
AcDbSymbolTable
 70
    12
  0
APPID
  5
12
330
9
100
AcDbSymbolTableRecord
100
AcDbRegAppTableRecord
  2
ACAD
 70
     0
  0
APPID
  5
8C
330
9
100
AcDbSymbolTableRecord
100
AcDbRegAppTableRecord
  2
ACAD_EXEMPT_FROM_CAD_STANDARDS
 70
     0
  0
APPID
  5
D1
330
9
100
AcDbSymbolTableRecord
100
AcDbRegAppTableRecord
  2
AcAecLayerStandard
 70
     0
  0
APPID
  5
DC
330
9
100
AcDbSymbolTableRecord
100
AcDbRegAppTableRecord
  2
ACAD_DSTYLE_DIMTEXT_FILL
 70
     0
  0
APPID
  5
DD
330
9
100
AcDbSymbolTableRecord
100
AcDbRegAppTableRecord
  2
ACAD_DSTYLE_DIMEXT_LENGTH
 70
     0
  0
APPID
  5
DE
330
9
100
AcDbSymbolTableRecord
100
AcDbRegAppTableRecord
  2
ACAD_DSTYLE_DIMEXT_ENABLED
 70
     0
  0
APPID
  5
DF
330
9
100
AcDbSymbolTableRecord
100
AcDbRegAppTableRecord
  2
ACAD_DSTYLE_DIM_LINETYPE
 70
     0
  0
APPID
  5
E0
330
9
100
AcDbSymbolTableRecord
100
AcDbRegAppTableRecord
  2
ACAD_DSTYLE_DIM_EXT1_LINETYPE
 70
     0
  0
APPID
  5
E1
330
9
100
AcDbSymbolTableRecord
100
AcDbRegAppTableRecord
  2
ACAD_DSTYLE_DIM_EXT2_LINETYPE
 70
     0
  0
APPID
  5
19D
330
9
100
AcDbSymbolTableRecord
100
AcDbRegAppTableRecord
  2
ACAD_DSTYLE_DIMJOGGED_JOGANGLE_SYMBOL
 70
     0
  0
APPID
  5
655
330
9
100
AcDbSymbolTableRecord
100
AcDbRegAppTableRecord
  2
ACAD_DSTYLE_DIMARC_LENGTH_SYMBOL
 70
     0
  0
APPID
  5
819
330
9
100
AcDbSymbolTableRecord
100
AcDbRegAppTableRecord
  2
ACAUTHENVIRON
 70
     0
  0
ENDTAB
  0
TABLE
  2
DIMSTYLE
  5
A
330
0
100
AcDbSymbolTable
 70
     2
100
AcDbDimStyleTable
 71
     1
340
27
  0
DIMSTYLE
105
27
102
{ACAD_REACTORS
330
68A
330
6A5
330
6BF
330
6D9
330
6F4
330
70E
330
764
330
774
330
784
330
794
330
7AA
330
7BC
102
}
330
A
100
AcDbSymbolTableRecord
100
AcDbDimStyleTableRecord
  2
Standard
 70
     0
140
0.7300000000000001
141
0.24
271
     2
272
     2
340
11
341
25E
342
25E
1001
ACAD_DSTYLE_DIMEXT_LENGTH
1070
   378
1040
0.18
1001
ACAD_DSTYLE_DIMEXT_ENABLED
1070
   383
1070
     0
1001
ACAD_DSTYLE_DIMARC_LENGTH_SYMBOL
1070
   379
1070
     0
1001
ACAD_DSTYLE_DIMJOGGED_JOGANGLE_SYMBOL
1070
   384
1040
0.7853981633974483
  0
ENDTAB
  0
TABLE
  2
BLOCK_RECORD
  5
1
330
0
100
AcDbSymbolTable
 70
    21
  0
BLOCK_RECORD
  5
1F
102
{ACAD_XDICTIONARY
360
B2
102
}
330
1
100
AcDbSymbolTableRecord
100
AcDbBlockTableRecord
  2
*Model_Space
340
22
  0
BLOCK_RECORD
  5
58
330
1
100
AcDbSymbolTableRecord
100
AcDbBlockTableRecord
  2
*Paper_Space
340
59
  0
BLOCK_RECORD
  5
5D
330
1
100
AcDbSymbolTableRecord
100
AcDbBlockTableRecord
  2
*Paper_Space0
340
5E
  0
BLOCK_RECORD
  5
25E
330
1
100
AcDbSymbolTableRecord
100
AcDbBlockTableRecord
  2
_ArchTick
340
0
102
{BLKREFS
331
7EE
331
7EF
331
7F8
331
7F9
331
800
331
806
331
82C
331
82D
331
836
331
837
331
83F
331
845
331
866
331
867
331
870
331
871
331
878
331
87D
102
}
  0
BLOCK_RECORD
  5
68C
330
1
100
AcDbSymbolTableRecord
100
AcDbBlockTableRecord
  2
*D3
340
0
  0
BLOCK_RECORD
  5
6A6
330
1
100
AcDbSymbolTableRecord
100
AcDbBlockTableRecord
  2
*D4
340
0
  0
BLOCK_RECORD
  5
6C0
330
1
100
AcDbSymbolTableRecord
100
AcDbBlockTableRecord
  2
*D5
340
0
  0
BLOCK_RECORD
  5
6DA
330
1
100
AcDbSymbolTableRecord
100
AcDbBlockTableRecord
  2
*D6
340
0
  0
BLOCK_RECORD
  5
6F5
330
1
100
AcDbSymbolTableRecord
100
AcDbBlockTableRecord
  2
*D7
340
0
  0
BLOCK_RECORD
  5
70F
330
1
100
AcDbSymbolTableRecord
100
AcDbBlockTableRecord
  2
*D8
340
0
  0
BLOCK_RECORD
  5
765
330
1
100
AcDbSymbolTableRecord
100
AcDbBlockTableRecord
  2
*D9
340
0
  0
BLOCK_RECORD
  5
775
330
1
100
AcDbSymbolTableRecord
100
AcDbBlockTableRecord
  2
*D10
340
0
  0
BLOCK_RECORD
  5
785
330
1
100
AcDbSymbolTableRecord
100
AcDbBlockTableRecord
  2
*D11
340
0
  0
BLOCK_RECORD
  5
795
330
1
100
AcDbSymbolTableRecord
100
AcDbBlockTableRecord
  2
*D12
340
0
  0
BLOCK_RECORD
  5
7AB
330
1
100
AcDbSymbolTableRecord
100
AcDbBlockTableRecord
  2
*D13
340
0
  0
BLOCK_RECORD
  5
7BD
330
1
100
AcDbSymbolTableRecord
100
AcDbBlockTableRecord
  2
*D14
340
0
  0
BLOCK_RECORD
  5
7DD
330
1
100
AcDbSymbolTableRecord
100
AcDbBlockTableRecord
  2
BLUE
340
0
310
2800000020000000200000000100080000000000000400000000000000000000000000000000000000000000000080000080000000808000800000008000800080800000C0C0C000C0DCC000F0CAA6000020400000206000002080000020A0000020C0000020E00000400000004020000040400000406000004080000040A0
310
000040C0000040E00000600000006020000060400000606000006080000060A0000060C0000060E00000800000008020000080400000806000008080000080A0000080C0000080E00000A0000000A0200000A0400000A0600000A0800000A0A00000A0C00000A0E00000C0000000C0200000C0400000C0600000C0800000C0
310
A00000C0C00000C0E00000E0000000E0200000E0400000E0600000E0800000E0A00000E0C00000E0E00040000000400020004000400040006000400080004000A0004000C0004000E00040200000402020004020400040206000402080004020A0004020C0004020E000404000004040200040404000404060004040800040
310
40A0004040C0004040E00040600000406020004060400040606000406080004060A0004060C0004060E00040800000408020004080400040806000408080004080A0004080C0004080E00040A0000040A0200040A0400040A0600040A0800040A0A00040A0C00040A0E00040C0000040C0200040C0400040C0600040C08000
310
40C0A00040C0C00040C0E00040E0000040E0200040E0400040E0600040E0800040E0A00040E0C00040E0E00080000000800020008000400080006000800080008000A0008000C0008000E00080200000802020008020400080206000802080008020A0008020C0008020E00080400000804020008040400080406000804080
310
008040A0008040C0008040E00080600000806020008060400080606000806080008060A0008060C0008060E00080800000808020008080400080806000808080008080A0008080C0008080E00080A0000080A0200080A0400080A0600080A0800080A0A00080A0C00080A0E00080C0000080C0200080C0400080C0600080C0
310
800080C0A00080C0C00080C0E00080E0000080E0200080E0400080E0600080E0800080E0A00080E0C00080E0E000C0000000C0002000C0004000C0006000C0008000C000A000C000C000C000E000C0200000C0202000C0204000C0206000C0208000C020A000C020C000C020E000C0400000C0402000C0404000C0406000C0
310
408000C040A000C040C000C040E000C0600000C0602000C0604000C0606000C0608000C060A000C060C000C060E000C0800000C0802000C0804000C0806000C0808000C080A000C080C000C080E000C0A00000C0A02000C0A04000C0A06000C0A08000C0A0A000C0A0C000C0A0E000C0C00000C0C02000C0C04000C0C06000
310
C0C08000C0C0A000F0FBFF00A4A0A000808080000000FF0000FF000000FFFF00FF000000FF00FF00FFFF0000FFFFFF0000000000000000000000000000000000000000000000000000000000000000000000000000000000000000000000000000000000000000000000000000000000000000000000000000000000000000
310
00000000000000000000000000000000000000000000000000000000000000000000000000000000000000000000000000000000000000000000000000000000000000000000000000000000000000000000000000000000000000000000000000000000000000000000000000000000000000000000000000000000000000
310
000000000000000000000000000000000000000000000000000000000000000000000000000000000000000000000000000000000000FCFCFCFCFCFCFCFCFCFCFCFCFCFCFCFCFCFCFCFCFCFCFCFC00000000000000FC000000000000000000000000000000000000000000000000FC0000000000FC00000000000000000000
310
00000000000000000000000000000000FC000000FC00000000000000000000000000000000000000000000000000000000FC0000FC00000000000000000000000000000000000000000000000000000000FC0000FC00000000000000000000000000000000000000000000000000000000FC0000FC00000000000000000000
310
000000000000000000000000000000000000FC0000FC00000000000000000000000000000000000000000000000000000000FC0000FC00000000000000000000000000000000000000000000000000000000FC0000FC00000000000000000000000000000000000000000000000000000000FC0000FC000000000000000000
310
00000000000000000000000000000000000000FC0000FC00000000000000000000000000000000000000000000000000000000FC0000FC00000000000000000000000000000000000000000000000000000000FC000000FC0000000000000000000000000000000000000000000000000000FC0000000000FC000000000000
310
000000000000000000000000000000000000FC00000000000000FCFCFCFCFCFCFCFCFCFCFCFCFCFCFCFCFCFCFCFCFCFCFCFC0000000000000000000000000000000000000000000000000000000000000000000000000000000000000000000000000000000000000000000000000000000000000000000000000000000000
310
00000000000000000000000000000000000000000000000000000000000000000000000000000000000000000000000000000000000000000000000000000000000000000000000000000000000000000000000000000000000000000000000000000000000000000000000000000000000000000000000000000000000000
310
0000000000000000000000000000000000000000000000000000000000000000000000000000000000000000000000000000000000000000
102
{BLKREFS
331
80B
102
}
1001
ACAD
1000
DesignCenter Data
1002
{
1070
     1
1070
     1
1002
}
  0
BLOCK_RECORD
  5
81D
330
1
100
AcDbSymbolTableRecord
100
AcDbBlockTableRecord
  2
CAYAN
340
0
310
2800000020000000200000000100080000000000000400000000000000000000000000000000000000000000000080000080000000808000800000008000800080800000C0C0C000C0DCC000F0CAA6000020400000206000002080000020A0000020C0000020E00000400000004020000040400000406000004080000040A0
310
000040C0000040E00000600000006020000060400000606000006080000060A0000060C0000060E00000800000008020000080400000806000008080000080A0000080C0000080E00000A0000000A0200000A0400000A0600000A0800000A0A00000A0C00000A0E00000C0000000C0200000C0400000C0600000C0800000C0
310
A00000C0C00000C0E00000E0000000E0200000E0400000E0600000E0800000E0A00000E0C00000E0E00040000000400020004000400040006000400080004000A0004000C0004000E00040200000402020004020400040206000402080004020A0004020C0004020E000404000004040200040404000404060004040800040
310
40A0004040C0004040E00040600000406020004060400040606000406080004060A0004060C0004060E00040800000408020004080400040806000408080004080A0004080C0004080E00040A0000040A0200040A0400040A0600040A0800040A0A00040A0C00040A0E00040C0000040C0200040C0400040C0600040C08000
310
40C0A00040C0C00040C0E00040E0000040E0200040E0400040E0600040E0800040E0A00040E0C00040E0E00080000000800020008000400080006000800080008000A0008000C0008000E00080200000802020008020400080206000802080008020A0008020C0008020E00080400000804020008040400080406000804080
310
008040A0008040C0008040E00080600000806020008060400080606000806080008060A0008060C0008060E00080800000808020008080400080806000808080008080A0008080C0008080E00080A0000080A0200080A0400080A0600080A0800080A0A00080A0C00080A0E00080C0000080C0200080C0400080C0600080C0
310
800080C0A00080C0C00080C0E00080E0000080E0200080E0400080E0600080E0800080E0A00080E0C00080E0E000C0000000C0002000C0004000C0006000C0008000C000A000C000C000C000E000C0200000C0202000C0204000C0206000C0208000C020A000C020C000C020E000C0400000C0402000C0404000C0406000C0
310
408000C040A000C040C000C040E000C0600000C0602000C0604000C0606000C0608000C060A000C060C000C060E000C0800000C0802000C0804000C0806000C0808000C080A000C080C000C080E000C0A00000C0A02000C0A04000C0A06000C0A08000C0A0A000C0A0C000C0A0E000C0C00000C0C02000C0C04000C0C06000
310
C0C08000C0C0A000F0FBFF00A4A0A000808080000000FF0000FF000000FFFF00FF000000FF00FF00FFFF0000FFFFFF0000000000000000000000000000000000000000000000000000000000000000000000000000000000000000000000000000000000000000000000000000000000000000000000000000000000000000
310
00000000000000000000000000000000000000000000000000000000000000000000000000000000000000000000000000000000000000000000000000000000000000000000000000000000000000000000000000000000000000000000000000000000000000000000000000000000000000000000000000000000000000
310
000000000000000000000000000000000000000000000000000000000000000000000000000000000000000000000000000000000000F0F0F0F0F0F0F0F0F0F0F0F0F0F0F0F0F0F0F0F0F0F0F0F000000000000000F0000000000000000000000000000000000000000000000000F00000000000F000000000000000000000
310
00000000000000000000000000000000F0000000F000000000000000000000000000000000000000000000000000000000F00000F000000000000000000000000000000000000000000000000000000000F00000F000000000000000000000000000000000000000000000000000000000F00000F000000000000000000000
310
000000000000000000000000000000000000F00000F000000000000000000000000000000000000000000000000000000000F00000F000000000000000000000000000000000000000000000000000000000F00000F000000000000000000000000000000000000000000000000000000000F00000F0000000000000000000
310
00000000000000000000000000000000000000F00000F000000000000000000000000000000000000000000000000000000000F00000F000000000000000000000000000000000000000000000000000000000F0000000F00000000000000000000000000000000000000000000000000000F00000000000F0000000000000
310
000000000000000000000000000000000000F000000000000000F0F0F0F0F0F0F0F0F0F0F0F0F0F0F0F0F0F0F0F0F0F0F0F00000000000000000000000000000000000000000000000000000000000000000000000000000000000000000000000000000000000000000000000000000000000000000000000000000000000
310
00000000000000000000000000000000000000000000000000000000000000000000000000000000000000000000000000000000000000000000000000000000000000000000000000000000000000000000000000000000000000000000000000000000000000000000000000000000000000000000000000000000000000
310
0000000000000000000000000000000000000000000000000000000000000000000000000000000000000000000000000000000000000000
102
{BLKREFS
331
848
102
}
1001
ACAD
1000
DesignCenter Data
1002
{
1070
     1
1070
     1
1002
}
  0
BLOCK_RECORD
  5
857
330
1
100
AcDbSymbolTableRecord
100
AcDbBlockTableRecord
  2
GREEN
340
0
310
2800000020000000200000000100080000000000000400000000000000000000000000000000000000000000000080000080000000808000800000008000800080800000C0C0C000C0DCC000F0CAA6000020400000206000002080000020A0000020C0000020E00000400000004020000040400000406000004080000040A0
310
000040C0000040E00000600000006020000060400000606000006080000060A0000060C0000060E00000800000008020000080400000806000008080000080A0000080C0000080E00000A0000000A0200000A0400000A0600000A0800000A0A00000A0C00000A0E00000C0000000C0200000C0400000C0600000C0800000C0
310
A00000C0C00000C0E00000E0000000E0200000E0400000E0600000E0800000E0A00000E0C00000E0E00040000000400020004000400040006000400080004000A0004000C0004000E00040200000402020004020400040206000402080004020A0004020C0004020E000404000004040200040404000404060004040800040
310
40A0004040C0004040E00040600000406020004060400040606000406080004060A0004060C0004060E00040800000408020004080400040806000408080004080A0004080C0004080E00040A0000040A0200040A0400040A0600040A0800040A0A00040A0C00040A0E00040C0000040C0200040C0400040C0600040C08000
310
40C0A00040C0C00040C0E00040E0000040E0200040E0400040E0600040E0800040E0A00040E0C00040E0E00080000000800020008000400080006000800080008000A0008000C0008000E00080200000802020008020400080206000802080008020A0008020C0008020E00080400000804020008040400080406000804080
310
008040A0008040C0008040E00080600000806020008060400080606000806080008060A0008060C0008060E00080800000808020008080400080806000808080008080A0008080C0008080E00080A0000080A0200080A0400080A0600080A0800080A0A00080A0C00080A0E00080C0000080C0200080C0400080C0600080C0
310
800080C0A00080C0C00080C0E00080E0000080E0200080E0400080E0600080E0800080E0A00080E0C00080E0E000C0000000C0002000C0004000C0006000C0008000C000A000C000C000C000E000C0200000C0202000C0204000C0206000C0208000C020A000C020C000C020E000C0400000C0402000C0404000C0406000C0
310
408000C040A000C040C000C040E000C0600000C0602000C0604000C0606000C0608000C060A000C060C000C060E000C0800000C0802000C0804000C0806000C0808000C080A000C080C000C080E000C0A00000C0A02000C0A04000C0A06000C0A08000C0A0A000C0A0C000C0A0E000C0C00000C0C02000C0C04000C0C06000
310
C0C08000C0C0A000F0FBFF00A4A0A000808080000000FF0000FF000000FFFF00FF000000FF00FF00FFFF0000FFFFFF0000000000000000000000000000000000000000000000000000000000000000000000000000000000000000000000000000000000000000000000000000000000000000000000000000000000000000
310
00000000000000000000000000000000000000000000000000000000000000000000000000000000000000000000000000000000000000000000000000000000000000000000000000000000000000000000000000000000000000000000000000000000000000000000000000000000000000000000000000000000000000
310
0000000000000000000000000000000000000000000000000000000000000000000000000000000000000000000000000000000000003C3C3C3C3C3C3C3C3C3C3C3C3C3C3C3C3C3C3C3C3C3C3C3C0000000000003C3C0000000000000000000000000000000000000000000000003C3C0000003C0000000000000000000000
310
00000000000000000000000000000000003C00003C000000000000000000000000000000000000000000000000000000003C00003C000000000000000000000000000000000000000000000000000000003C00003C000000000000000000000000000000000000000000000000000000003C00003C00000000000000000000
310
0000000000000000000000000000000000003C00003C000000000000000000000000000000000000000000000000000000003C00003C000000000000000000000000000000000000000000000000000000003C00003C000000000000000000000000000000000000000000000000000000003C00003C000000000000000000
310
000000000000000000000000000000000000003C00003C000000000000000000000000000000000000000000000000000000003C00003C000000000000000000000000000000000000000000000000000000003C00003C000000000000000000000000000000000000000000000000000000003C0000003C3C000000000000
310
0000000000000000000000000000000000003C3C0000000000003C3C3C3C3C3C3C3C3C3C3C3C3C3C3C3C3C3C3C3C3C3C3C3C0000000000000000000000000000000000000000000000000000000000000000000000000000000000000000000000000000000000000000000000000000000000000000000000000000000000
310
00000000000000000000000000000000000000000000000000000000000000000000000000000000000000000000000000000000000000000000000000000000000000000000000000000000000000000000000000000000000000000000000000000000000000000000000000000000000000000000000000000000000000
310
0000000000000000000000000000000000000000000000000000000000000000000000000000000000000000000000000000000000000000
102
{BLKREFS
331
880
102
}
1001
ACAD
1000
DesignCenter Data
1002
{
1070
     1
1070
     1
1002
}
  0
ENDTAB
  0
ENDSEC
  0
SECTION
  2
BLOCKS
  0
BLOCK
  5
20
330
1F
100
AcDbEntity
  8
0
100
AcDbBlockBegin
  2
*Model_Space
 70
     0
 10
0.0
 20
0.0
 30
0.0
  3
*Model_Space
  1

  0
ENDBLK
  5
21
330
1F
100
AcDbEntity
  8
0
100
AcDbBlockEnd
  0
BLOCK
  5
5A
330
58
100
AcDbEntity
 67
     1
  8
0
100
AcDbBlockBegin
  2
*Paper_Space
 70
     0
 10
0.0
 20
0.0
 30
0.0
  3
*Paper_Space
  1

  0
ENDBLK
  5
5B
330
58
100
AcDbEntity
 67
     1
  8
0
100
AcDbBlockEnd
  0
BLOCK
  5
5F
330
5D
100
AcDbEntity
 67
     1
  8
0
100
AcDbBlockBegin
  2
*Paper_Space0
 70
     0
 10
0.0
 20
0.0
 30
0.0
  3
*Paper_Space0
  1

  0
ENDBLK
  5
60
330
5D
100
AcDbEntity
 67
     1
  8
0
100
AcDbBlockEnd
  0
BLOCK
  5
260
330
25E
100
AcDbEntity
  8
0
100
AcDbBlockBegin
  2
_ArchTick
 70
     0
 10
0.0
 20
0.0
 30
0.0
  3
_ArchTick
  1

  0
LWPOLYLINE
  5
25F
330
25E
100
AcDbEntity
  8
0
  6
ByBlock
 62
     0
100
AcDbPolyline
 90
        2
 70
     0
 43
0.15
 10
-0.5
 20
-0.5
 10
0.5
 20
0.5
  0
ENDBLK
  5
261
330
25E
100
AcDbEntity
  8
0
100
AcDbBlockEnd
  0
BLOCK
  5
697
330
68C
100
AcDbEntity
  8
0
100
AcDbBlockBegin
  2
*D3
 70
     1
 10
0.0
 20
0.0
 30
0.0
  3
*D3
  1

  0
LINE
  5
862
330
68C
100
AcDbEntity
  8
dim
 62
     0
370
    -2
100
AcDbLine
 10
-12.56048975116675
 20
23.42726260483543
 30
0.0
 11
-31.05571691647952
 21
23.42726260483543
 31
0.0
  0
LINE
  5
863
330
68C
100
AcDbEntity
  8
dim
 62
     0
370
    -2
100
AcDbLine
 10
-12.56048975116676
 20
6.92726260483543
 30
0.0
 11
-31.05571691647952
 21
6.927262604835435
 31
0.0
  0
LINE
  5
864
330
68C
100
AcDbEntity
  8
dim
 62
     0
370
    -2
100
AcDbLine
 10
-30.87571691647952
 20
23.42726260483543
 30
0.0
 11
-30.87571691647952
 21
15.63226260483543
 31
0.0
  0
LINE
  5
865
330
68C
100
AcDbEntity
  8
dim
 62
     0
370
    -2
100
AcDbLine
 10
-30.87571691647952
 20
6.927262604835435
 30
0.0
 11
-30.87571691647952
 21
14.72226260483543
 31
0.0
  0
INSERT
  5
866
330
68C
100
AcDbEntity
  8
dim
 62
     0
370
    -2
100
AcDbBlockReference
  2
_ArchTick
 10
-30.87571691647952
 20
23.42726260483543
 30
0.0
 41
0.18
 42
0.18
 43
0.18
 50
90.0
  0
INSERT
  5
867
330
68C
100
AcDbEntity
  8
dim
 62
     0
370
    -2
100
AcDbBlockReference
  2
_ArchTick
 10
-30.87571691647952
 20
6.927262604835435
 30
0.0
 41
0.18
 42
0.18
 43
0.18
 50
270.0
  0
MTEXT
  5
868
330
68C
100
AcDbEntity
  8
dim
 62
     0
100
AcDbMText
 10
-30.87571691647952
 20
15.17726260483543
 30
0.0
 40
0.7300000000000001
 41
0.0
 71
     5
 72
     1
  1
\A1;16.50
 73
     1
 44
1.0
1001
ACAD
1000
MTEXTBEGIN
1070
    73
1070
     1
1070
    44
1040
1.0
1070
    74
1070
     0
1000
MTEXTEND
  0
POINT
  5
869
330
68C
100
AcDbEntity
  8
Defpoints
 62
     0
100
AcDbPoint
 10
-12.49798975116675
 20
23.42726260483543
 30
0.0
  0
POINT
  5
86A
330
68C
100
AcDbEntity
  8
Defpoints
 62
     0
100
AcDbPoint
 10
-12.49798975116676
 20
6.92726260483543
 30
0.0
  0
POINT
  5
86B
330
68C
100
AcDbEntity
  8
Defpoints
 62
     0
100
AcDbPoint
 10
-30.87571691647952
 20
6.927262604835435
 30
0.0
  0
ENDBLK
  5
698
330
68C
100
AcDbEntity
  8
0
100
AcDbBlockEnd
  0
BLOCK
  5
6B1
330
6A6
100
AcDbEntity
  8
0
100
AcDbBlockBegin
  2
*D4
 70
     1
 10
0.0
 20
0.0
 30
0.0
  3
*D4
  1

  0
LINE
  5
86C
330
6A6
100
AcDbEntity
  8
dim
 62
     0
370
    -2
100
AcDbLine
 10
-27.38798975116676
 20
15.11476260483543
 30
0.0
 11
-27.38798975116676
 21
4.026734807608576
 31
0.0
  0
LINE
  5
86D
330
6A6
100
AcDbEntity
  8
dim
 62
     0
370
    -2
100
AcDbLine
 10
2.392010248833243
 20
15.11476260483543
 30
0.0
 11
2.392010248833242
 21
4.026734807608576
 31
0.0
  0
LINE
  5
86E
330
6A6
100
AcDbEntity
  8
dim
 62
     0
370
    -2
100
AcDbLine
 10
-27.38798975116676
 20
4.206734807608576
 30
0.0
 11
-14.04798975116676
 21
4.206734807608576
 31
0.0
  0
LINE
  5
86F
330
6A6
100
AcDbEntity
  8
dim
 62
     0
370
    -2
100
AcDbLine
 10
2.392010248833242
 20
4.206734807608576
 30
0.0
 11
-10.94798975116676
 21
4.206734807608576
 31
0.0
  0
INSERT
  5
870
330
6A6
100
AcDbEntity
  8
dim
 62
     0
370
    -2
100
AcDbBlockReference
  2
_ArchTick
 10
-27.38798975116676
 20
4.206734807608576
 30
0.0
 41
0.18
 42
0.18
 43
0.18
 50
180.0
  0
INSERT
  5
871
330
6A6
100
AcDbEntity
  8
dim
 62
     0
370
    -2
100
AcDbBlockReference
  2
_ArchTick
 10
2.392010248833242
 20
4.206734807608576
 30
0.0
 41
0.18
 42
0.18
 43
0.18
  0
MTEXT
  5
872
330
6A6
100
AcDbEntity
  8
dim
 62
     0
100
AcDbMText
 10
-12.49798975116676
 20
4.206734807608576
 30
0.0
 40
0.7300000000000001
 41
0.0
 71
     5
 72
     1
  1
\A1;29.78
 73
     1
 44
1.0
1001
ACAD
1000
MTEXTBEGIN
1070
    73
1070
     1
1070
    44
1040
1.0
1070
    74
1070
     0
1000
MTEXTEND
  0
POINT
  5
873
330
6A6
100
AcDbEntity
  8
Defpoints
 62
     0
100
AcDbPoint
 10
-27.38798975116676
 20
15.17726260483543
 30
0.0
  0
POINT
  5
874
330
6A6
100
AcDbEntity
  8
Defpoints
 62
     0
100
AcDbPoint
 10
2.392010248833243
 20
15.17726260483543
 30
0.0
  0
POINT
  5
875
330
6A6
100
AcDbEntity
  8
Defpoints
 62
     0
100
AcDbPoint
 10
2.392010248833242
 20
4.206734807608576
 30
0.0
  0
ENDBLK
  5
6B2
330
6A6
100
AcDbEntity
  8
0
100
AcDbBlockEnd
  0
BLOCK
  5
6CB
330
6C0
100
AcDbEntity
  8
0
100
AcDbBlockBegin
  2
*D5
 70
     1
 10
0.0
 20
0.0
 30
0.0
  3
*D5
  1

  0
LINE
  5
7F4
330
6C0
100
AcDbEntity
  8
dim
 62
     0
370
    -2
100
AcDbLine
 10
25.24337176204088
 20
23.14726260483543
 30
0.0
 11
8.898254712367288
 21
23.14726260483543
 31
0.0
  0
LINE
  5
7F5
330
6C0
100
AcDbEntity
  8
dim
 62
     0
370
    -2
100
AcDbLine
 10
25.24337176204087
 20
7.207262604835425
 30
0.0
 11
8.898254712367281
 21
7.207262604835429
 31
0.0
  0
LINE
  5
7F6
330
6C0
100
AcDbEntity
  8
dim
 62
     0
370
    -2
100
AcDbLine
 10
9.078254712367286
 20
23.14726260483543
 30
0.0
 11
9.078254712367284
 21
15.63226260483543
 31
0.0
  0
LINE
  5
7F7
330
6C0
100
AcDbEntity
  8
dim
 62
     0
370
    -2
100
AcDbLine
 10
9.078254712367282
 20
7.207262604835429
 30
0.0
 11
9.078254712367284
 21
14.72226260483543
 31
0.0
  0
INSERT
  5
7F8
330
6C0
100
AcDbEntity
  8
dim
 62
     0
370
    -2
100
AcDbBlockReference
  2
_ArchTick
 10
9.078254712367286
 20
23.14726260483543
 30
0.0
 41
0.18
 42
0.18
 43
0.18
 50
90.0
  0
INSERT
  5
7F9
330
6C0
100
AcDbEntity
  8
dim
 62
     0
370
    -2
100
AcDbBlockReference
  2
_ArchTick
 10
9.078254712367282
 20
7.207262604835429
 30
0.0
 41
0.18
 42
0.18
 43
0.18
 50
270.0
  0
MTEXT
  5
7FA
330
6C0
100
AcDbEntity
  8
dim
 62
     0
100
AcDbMText
 10
9.078254712367282
 20
15.17726260483543
 30
0.0
 40
0.7300000000000001
 41
0.0
 71
     5
 72
     1
  1
\A1;15.94
 73
     1
 44
1.0
1001
ACAD
1000
MTEXTBEGIN
1070
    73
1070
     1
1070
    44
1040
1.0
1070
    74
1070
     0
1000
MTEXTEND
  0
POINT
  5
7FB
330
6C0
100
AcDbEntity
  8
Defpoints
 62
     0
100
AcDbPoint
 10
25.30587176204088
 20
23.14726260483543
 30
0.0
  0
POINT
  5
7FC
330
6C0
100
AcDbEntity
  8
Defpoints
 62
     0
100
AcDbPoint
 10
25.30587176204087
 20
7.207262604835425
 30
0.0
  0
POINT
  5
7FD
330
6C0
100
AcDbEntity
  8
Defpoints
 62
     0
100
AcDbPoint
 10
9.078254712367282
 20
7.207262604835429
 30
0.0
  0
ENDBLK
  5
6CC
330
6C0
100
AcDbEntity
  8
0
100
AcDbBlockEnd
  0
BLOCK
  5
6E5
330
6DA
100
AcDbEntity
  8
0
100
AcDbBlockBegin
  2
*D6
 70
     1
 10
0.0
 20
0.0
 30
0.0
  3
*D6
  1

  0
LINE
  5
7EA
330
6DA
100
AcDbEntity
  8
dim
 62
     0
370
    -2
100
AcDbLine
 10
11.32587176204087
 20
15.11476260483543
 30
0.0
 11
11.32587176204087
 21
4.579052046880661
 31
0.0
  0
LINE
  5
7EB
330
6DA
100
AcDbEntity
  8
dim
 62
     0
370
    -2
100
AcDbLine
 10
40.54587176204086
 20
15.11476260483543
 30
0.0
 11
40.54587176204086
 21
4.579052046880661
 31
0.0
  0
LINE
  5
7EC
330
6DA
100
AcDbEntity
  8
dim
 62
     0
370
    -2
100
AcDbLine
 10
11.32587176204087
 20
4.759052046880661
 30
0.0
 11
24.38587176204087
 21
4.759052046880661
 31
0.0
  0
LINE
  5
7ED
330
6DA
100
AcDbEntity
  8
dim
 62
     0
370
    -2
100
AcDbLine
 10
40.54587176204086
 20
4.759052046880661
 30
0.0
 11
27.48587176204087
 21
4.759052046880661
 31
0.0
  0
INSERT
  5
7EE
330
6DA
100
AcDbEntity
  8
dim
 62
     0
370
    -2
100
AcDbBlockReference
  2
_ArchTick
 10
11.32587176204087
 20
4.759052046880661
 30
0.0
 41
0.18
 42
0.18
 43
0.18
 50
180.0
  0
INSERT
  5
7EF
330
6DA
100
AcDbEntity
  8
dim
 62
     0
370
    -2
100
AcDbBlockReference
  2
_ArchTick
 10
40.54587176204086
 20
4.759052046880661
 30
0.0
 41
0.18
 42
0.18
 43
0.18
  0
MTEXT
  5
7F0
330
6DA
100
AcDbEntity
  8
dim
 62
     0
100
AcDbMText
 10
25.93587176204087
 20
4.759052046880661
 30
0.0
 40
0.7300000000000001
 41
0.0
 71
     5
 72
     1
  1
\A1;29.22
 73
     1
 44
1.0
1001
ACAD
1000
MTEXTBEGIN
1070
    73
1070
     1
1070
    44
1040
1.0
1070
    74
1070
     0
1000
MTEXTEND
  0
POINT
  5
7F1
330
6DA
100
AcDbEntity
  8
Defpoints
 62
     0
100
AcDbPoint
 10
11.32587176204087
 20
15.17726260483543
 30
0.0
  0
POINT
  5
7F2
330
6DA
100
AcDbEntity
  8
Defpoints
 62
     0
100
AcDbPoint
 10
40.54587176204086
 20
15.17726260483543
 30
0.0
  0
POINT
  5
7F3
330
6DA
100
AcDbEntity
  8
Defpoints
 62
     0
100
AcDbPoint
 10
40.54587176204086
 20
4.759052046880661
 30
0.0
  0
ENDBLK
  5
6E6
330
6DA
100
AcDbEntity
  8
0
100
AcDbBlockEnd
  0
BLOCK
  5
700
330
6F5
100
AcDbEntity
  8
0
100
AcDbBlockBegin
  2
*D7
 70
     1
 10
0.0
 20
0.0
 30
0.0
  3
*D7
  1

  0
LINE
  5
832
330
6F5
100
AcDbEntity
  8
dim
 62
     0
370
    -2
100
AcDbLine
 10
62.6540969319992
 20
22.86726260483542
 30
0.0
 11
45.71772891743734
 21
22.86726260483543
 31
0.0
  0
LINE
  5
833
330
6F5
100
AcDbEntity
  8
dim
 62
     0
370
    -2
100
AcDbLine
 10
62.6540969319992
 20
7.487262604835424
 30
0.0
 11
45.71772891743733
 21
7.48726260483543
 31
0.0
  0
LINE
  5
834
330
6F5
100
AcDbEntity
  8
dim
 62
     0
370
    -2
100
AcDbLine
 10
45.89772891743733
 20
22.86726260483543
 30
0.0
 11
45.89772891743733
 21
15.63226260483543
 31
0.0
  0
LINE
  5
835
330
6F5
100
AcDbEntity
  8
dim
 62
     0
370
    -2
100
AcDbLine
 10
45.89772891743733
 20
7.48726260483543
 30
0.0
 11
45.89772891743733
 21
14.72226260483543
 31
0.0
  0
INSERT
  5
836
330
6F5
100
AcDbEntity
  8
dim
 62
     0
370
    -2
100
AcDbBlockReference
  2
_ArchTick
 10
45.89772891743733
 20
22.86726260483543
 30
0.0
 41
0.18
 42
0.18
 43
0.18
 50
90.0
  0
INSERT
  5
837
330
6F5
100
AcDbEntity
  8
dim
 62
     0
370
    -2
100
AcDbBlockReference
  2
_ArchTick
 10
45.89772891743733
 20
7.48726260483543
 30
0.0
 41
0.18
 42
0.18
 43
0.18
 50
270.0
  0
MTEXT
  5
838
330
6F5
100
AcDbEntity
  8
dim
 62
     0
100
AcDbMText
 10
45.89772891743733
 20
15.17726260483543
 30
0.0
 40
0.7300000000000001
 41
0.0
 71
     5
 72
     1
  1
\A1;15.38
 73
     1
 44
1.0
1001
ACAD
1000
MTEXTBEGIN
1070
    73
1070
     1
1070
    44
1040
1.0
1070
    74
1070
     0
1000
MTEXTEND
  0
POINT
  5
839
330
6F5
100
AcDbEntity
  8
Defpoints
 62
     0
100
AcDbPoint
 10
62.71659693199921
 20
22.86726260483542
 30
0.0
  0
POINT
  5
83A
330
6F5
100
AcDbEntity
  8
Defpoints
 62
     0
100
AcDbPoint
 10
62.71659693199921
 20
7.487262604835424
 30
0.0
  0
POINT
  5
83B
330
6F5
100
AcDbEntity
  8
Defpoints
 62
     0
100
AcDbPoint
 10
45.89772891743733
 20
7.48726260483543
 30
0.0
  0
ENDBLK
  5
701
330
6F5
100
AcDbEntity
  8
0
100
AcDbBlockEnd
  0
BLOCK
  5
71A
330
70F
100
AcDbEntity
  8
0
100
AcDbBlockBegin
  2
*D8
 70
     1
 10
0.0
 20
0.0
 30
0.0
  3
*D8
  1

  0
LINE
  5
828
330
70F
100
AcDbEntity
  8
dim
 62
     0
370
    -2
100
AcDbLine
 10
48.38659693199922
 20
15.11476260483542
 30
0.0
 11
48.38659693199922
 21
4.242345339271253
 31
0.0
  0
LINE
  5
829
330
70F
100
AcDbEntity
  8
dim
 62
     0
370
    -2
100
AcDbLine
 10
77.0465969319992
 20
15.11476260483542
 30
0.0
 11
77.0465969319992
 21
4.242345339271253
 31
0.0
  0
LINE
  5
82A
330
70F
100
AcDbEntity
  8
dim
 62
     0
370
    -2
100
AcDbLine
 10
48.38659693199922
 20
4.422345339271252
 30
0.0
 11
61.1665969319992
 21
4.422345339271252
 31
0.0
  0
LINE
  5
82B
330
70F
100
AcDbEntity
  8
dim
 62
     0
370
    -2
100
AcDbLine
 10
77.0465969319992
 20
4.422345339271252
 30
0.0
 11
64.2665969319992
 21
4.422345339271252
 31
0.0
  0
INSERT
  5
82C
330
70F
100
AcDbEntity
  8
dim
 62
     0
370
    -2
100
AcDbBlockReference
  2
_ArchTick
 10
48.38659693199922
 20
4.422345339271252
 30
0.0
 41
0.18
 42
0.18
 43
0.18
 50
180.0
  0
INSERT
  5
82D
330
70F
100
AcDbEntity
  8
dim
 62
     0
370
    -2
100
AcDbBlockReference
  2
_ArchTick
 10
77.0465969319992
 20
4.422345339271252
 30
0.0
 41
0.18
 42
0.18
 43
0.18
  0
MTEXT
  5
82E
330
70F
100
AcDbEntity
  8
dim
 62
     0
100
AcDbMText
 10
62.71659693199921
 20
4.422345339271252
 30
0.0
 40
0.7300000000000001
 41
0.0
 71
     5
 72
     1
  1
\A1;28.66
 73
     1
 44
1.0
1001
ACAD
1000
MTEXTBEGIN
1070
    73
1070
     1
1070
    44
1040
1.0
1070
    74
1070
     0
1000
MTEXTEND
  0
POINT
  5
82F
330
70F
100
AcDbEntity
  8
Defpoints
 62
     0
100
AcDbPoint
 10
48.38659693199922
 20
15.17726260483542
 30
0.0
  0
POINT
  5
830
330
70F
100
AcDbEntity
  8
Defpoints
 62
     0
100
AcDbPoint
 10
77.0465969319992
 20
15.17726260483542
 30
0.0
  0
POINT
  5
831
330
70F
100
AcDbEntity
  8
Defpoints
 62
     0
100
AcDbPoint
 10
77.0465969319992
 20
4.422345339271252
 30
0.0
  0
ENDBLK
  5
71B
330
70F
100
AcDbEntity
  8
0
100
AcDbBlockEnd
  0
BLOCK
  5
76B
330
765
100
AcDbEntity
  8
0
100
AcDbBlockBegin
  2
*D9
 70
     1
 10
0.0
 20
0.0
 30
0.0
  3
*D9
  1

  0
LINE
  5
876
330
765
100
AcDbEntity
  8
dim
 62
     0
370
    -2
100
AcDbLine
 10
-25.40297537436021
 20
20.47726260483543
 30
0.0
 11
-27.38798975116675
 21
20.47726260483543
 31
0.0
  0
MTEXT
  5
877
330
765
100
AcDbEntity
  8
dim
 62
     0
100
AcDbMText
 10
-23.85297537436021
 20
20.47726260483543
 30
0.0
 40
0.7300000000000001
 41
0.0
 71
     5
 72
     1
  1
\A1;R2.95
 73
     1
 44
1.0
1001
ACAD
1000
MTEXTBEGIN
1070
    73
1070
     1
1070
    44
1040
1.0
1070
    74
1070
     0
1000
MTEXTEND
  0
INSERT
  5
878
330
765
100
AcDbEntity
  8
dim
 62
     0
370
    -2
100
AcDbBlockReference
  2
_ArchTick
 10
-27.38798975116675
 20
20.47726260483543
 30
0.0
 41
0.18
 42
0.18
 43
0.18
 50
180.0
  0
POINT
  5
879
330
765
100
AcDbEntity
  8
Defpoints
 62
     0
100
AcDbPoint
 10
-27.38798975116675
 20
20.47726260483543
 30
0.0
  0
POINT
  5
87A
330
765
100
AcDbEntity
  8
Defpoints
 62
     0
100
AcDbPoint
 10
-24.43798975116675
 20
20.47726260483545
 30
0.0
  0
ENDBLK
  5
76C
330
765
100
AcDbEntity
  8
0
100
AcDbBlockEnd
  0
BLOCK
  5
77B
330
775
100
AcDbEntity
  8
0
100
AcDbBlockBegin
  2
*D10
 70
     1
 10
0.0
 20
0.0
 30
0.0
  3
*D10
  1

  0
LINE
  5
87B
330
775
100
AcDbEntity
  8
dim
 62
     0
370
    -2
100
AcDbLine
 10
-0.5579897511667565
 20
9.877262604835424
 30
0.0
 11
2.392010248833243
 21
9.877262604835429
 31
0.0
  0
MTEXT
  5
87C
330
775
100
AcDbEntity
  8
dim
 62
     0
100
AcDbMText
 10
-2.107989751166756
 20
9.877262604835426
 30
0.0
 40
0.7300000000000001
 41
0.0
 71
     5
 72
     1
  1
\A1;R2.95
 73
     1
 44
1.0
1001
ACAD
1000
MTEXTBEGIN
1070
    73
1070
     1
1070
    44
1040
1.0
1070
    74
1070
     0
1000
MTEXTEND
  0
INSERT
  5
87D
330
775
100
AcDbEntity
  8
dim
 62
     0
370
    -2
100
AcDbBlockReference
  2
_ArchTick
 10
2.392010248833243
 20
9.877262604835429
 30
0.0
 41
0.18
 42
0.18
 43
0.18
 50
0.0000000000001018
  0
POINT
  5
87E
330
775
100
AcDbEntity
  8
Defpoints
 62
     0
100
AcDbPoint
 10
2.392010248833243
 20
9.877262604835429
 30
0.0
  0
POINT
  5
87F
330
775
100
AcDbEntity
  8
Defpoints
 62
     0
100
AcDbPoint
 10
-0.5579897511667584
 20
9.877262604835422
 30
0.0
  0
ENDBLK
  5
77C
330
775
100
AcDbEntity
  8
0
100
AcDbBlockEnd
  0
BLOCK
  5
78B
330
785
100
AcDbEntity
  8
0
100
AcDbBlockBegin
  2
*D11
 70
     1
 10
0.0
 20
0.0
 30
0.0
  3
*D11
  1

  0
LINE
  5
7FE
330
785
100
AcDbEntity
  8
dim
 62
     0
370
    -2
100
AcDbLine
 10
14.27587176204087
 20
10.15726260483543
 30
0.0
 11
17.22587176204087
 21
10.15726260483543
 31
0.0
  0
MTEXT
  5
7FF
330
785
100
AcDbEntity
  8
dim
 62
     0
100
AcDbMText
 10
12.72587176204087
 20
10.15726260483543
 30
0.0
 40
0.7300000000000001
 41
0.0
 71
     5
 72
     1
  1
\A1;R2.95
 73
     1
 44
1.0
1001
ACAD
1000
MTEXTBEGIN
1070
    73
1070
     1
1070
    44
1040
1.0
1070
    74
1070
     0
1000
MTEXTEND
  0
INSERT
  5
800
330
785
100
AcDbEntity
  8
dim
 62
     0
370
    -2
100
AcDbBlockReference
  2
_ArchTick
 10
17.22587176204087
 20
10.15726260483543
 30
0.0
 41
0.18
 42
0.18
 43
0.18
 50
359.9999999999999
  0
POINT
  5
801
330
785
100
AcDbEntity
  8
Defpoints
 62
     0
100
AcDbPoint
 10
17.22587176204087
 20
10.15726260483543
 30
0.0
  0
POINT
  5
802
330
785
100
AcDbEntity
  8
Defpoints
 62
     0
100
AcDbPoint
 10
14.27587176204088
 20
10.15726260483543
 30
0.0
  0
ENDBLK
  5
78C
330
785
100
AcDbEntity
  8
0
100
AcDbBlockEnd
  0
BLOCK
  5
79E
330
795
100
AcDbEntity
  8
0
100
AcDbBlockBegin
  2
*D12
 70
     1
 10
0.0
 20
0.0
 30
0.0
  3
*D12
  1

  0
LINE
  5
803
330
795
100
AcDbEntity
  8
dim
 62
     0
370
    -2
100
AcDbLine
 10
40.11639520776834
 20
22.53778605056291
 30
0.0
 11
39.93639520776835
 21
22.5377860505629
 31
0.0
  0
LINE
  5
804
330
795
100
AcDbEntity
  8
dim
 62
     0
370
    -2
100
AcDbLine
 10
39.93639520776835
 20
22.5377860505629
 30
0.0
 11
39.68183676654119
 21
22.28322760933575
 31
0.0
  0
MTEXT
  5
805
330
795
100
AcDbEntity
  8
dim
 62
     0
100
AcDbMText
 10
41.66639520776834
 20
22.5377860505629
 30
0.0
 40
0.7300000000000001
 41
0.0
 71
     5
 72
     1
  1
\A1;R2.95
 73
     1
 44
1.0
1001
ACAD
1000
MTEXTBEGIN
1070
    73
1070
     1
1070
    44
1040
1.0
1070
    74
1070
     0
1000
MTEXTEND
  0
INSERT
  5
806
330
795
100
AcDbEntity
  8
dim
 62
     0
370
    -2
100
AcDbBlockReference
  2
_ArchTick
 10
39.68183676654119
 20
22.28322760933575
 30
0.0
 41
0.18
 42
0.18
 43
0.18
 50
224.9999999999997
  0
LINE
  5
807
330
795
100
AcDbEntity
  8
dim
 62
     0
370
    -2
100
AcDbLine
 10
37.35587176204086
 20
20.19726260483544
 30
0.0
 11
37.83587176204086
 21
20.19726260483544
 31
0.0
  0
LINE
  5
808
330
795
100
AcDbEntity
  8
dim
 62
     0
370
    -2
100
AcDbLine
 10
37.59587176204086
 20
19.95726260483545
 30
0.0
 11
37.59587176204086
 21
20.43726260483545
 31
0.0
  0
POINT
  5
809
330
795
100
AcDbEntity
  8
Defpoints
 62
     0
100
AcDbPoint
 10
39.68183676654119
 20
22.28322760933575
 30
0.0
  0
POINT
  5
80A
330
795
100
AcDbEntity
  8
Defpoints
 62
     0
100
AcDbPoint
 10
37.59587176204087
 20
20.19726260483545
 30
0.0
  0
ENDBLK
  5
79F
330
795
100
AcDbEntity
  8
0
100
AcDbBlockEnd
  0
BLOCK
  5
7B2
330
7AB
100
AcDbEntity
  8
0
100
AcDbBlockBegin
  2
*D13
 70
     1
 10
0.0
 20
0.0
 30
0.0
  3
*D13
  1

  0
LINE
  5
83C
330
7AB
100
AcDbEntity
  8
dim
 62
     0
370
    -2
100
AcDbLine
 10
50.62600531005769
 20
20.35144406316637
 30
0.0
 11
50.44600531005769
 21
20.35144406316637
 31
0.0
  0
LINE
  5
83D
330
7AB
100
AcDbEntity
  8
dim
 62
     0
370
    -2
100
AcDbLine
 10
50.44600531005769
 20
20.35144406316637
 30
0.0
 11
48.68493269903723
 21
21.21000263888331
 31
0.0
  0
MTEXT
  5
83E
330
7AB
100
AcDbEntity
  8
dim
 62
     0
100
AcDbMText
 10
52.17600531005769
 20
20.35144406316637
 30
0.0
 40
0.7300000000000001
 41
0.0
 71
     5
 72
     1
  1
\A1;R2.95
 73
     1
 44
1.0
1001
ACAD
1000
MTEXTBEGIN
1070
    73
1070
     1
1070
    44
1040
1.0
1070
    74
1070
     0
1000
MTEXTEND
  0
INSERT
  5
83F
330
7AB
100
AcDbEntity
  8
dim
 62
     0
370
    -2
100
AcDbBlockReference
  2
_ArchTick
 10
48.68493269903723
 20
21.21000263888331
 30
0.0
 41
0.18
 42
0.18
 43
0.18
 50
154.0098285508563
  0
POINT
  5
840
330
7AB
100
AcDbEntity
  8
Defpoints
 62
     0
100
AcDbPoint
 10
48.68493269903723
 20
21.21000263888331
 30
0.0
  0
POINT
  5
841
330
7AB
100
AcDbEntity
  8
Defpoints
 62
     0
100
AcDbPoint
 10
51.33659693199921
 20
19.91726260483541
 30
0.0
  0
ENDBLK
  5
7B3
330
7AB
100
AcDbEntity
  8
0
100
AcDbBlockEnd
  0
BLOCK
  5
7C4
330
7BD
100
AcDbEntity
  8
0
100
AcDbBlockBegin
  2
*D14
 70
     1
 10
0.0
 20
0.0
 30
0.0
  3
*D14
  1

  0
LINE
  5
842
330
7BD
100
AcDbEntity
  8
dim
 62
     0
370
    -2
100
AcDbLine
 10
74.2765969319992
 20
11.9754523176564
 30
0.0
 11
74.0965969319992
 21
11.9754523176564
 31
0.0
  0
LINE
  5
843
330
7BD
100
AcDbEntity
  8
dim
 62
     0
370
    -2
100
AcDbLine
 10
74.0965969319992
 20
11.9754523176564
 30
0.0
 11
74.0965969319992
 21
7.487262604835425
 31
0.0
  0
MTEXT
  5
844
330
7BD
100
AcDbEntity
  8
dim
 62
     0
100
AcDbMText
 10
75.82659693199921
 20
11.97545231765641
 30
0.0
 40
0.7300000000000001
 41
0.0
 71
     5
 72
     1
  1
\A1;R2.95
 73
     1
 44
1.0
1001
ACAD
1000
MTEXTBEGIN
1070
    73
1070
     1
1070
    44
1040
1.0
1070
    74
1070
     0
1000
MTEXTEND
  0
INSERT
  5
845
330
7BD
100
AcDbEntity
  8
dim
 62
     0
370
    -2
100
AcDbBlockReference
  2
_ArchTick
 10
74.0965969319992
 20
7.487262604835425
 30
0.0
 41
0.18
 42
0.18
 43
0.18
 50
270.0
  0
POINT
  5
846
330
7BD
100
AcDbEntity
  8
Defpoints
 62
     0
100
AcDbPoint
 10
74.0965969319992
 20
7.487262604835425
 30
0.0
  0
POINT
  5
847
330
7BD
100
AcDbEntity
  8
Defpoints
 62
     0
100
AcDbPoint
 10
74.09659693199921
 20
10.43726260483544
 30
0.0
  0
ENDBLK
  5
7C5
330
7BD
100
AcDbEntity
  8
0
100
AcDbBlockEnd
  0
BLOCK
  5
7DE
330
7DD
100
AcDbEntity
  8
0
100
AcDbBlockBegin
  2
BLUE
 70
     0
 10
0.0
 20
0.0
 30
0.0
  3
BLUE
  1

  0
LINE
  5
7E0
330
7DD
100
AcDbEntity
  8
flush
100
AcDbLine
 10
14.27587176204087
 20
23.14726260483543
 30
0.0
 11
25.30587176204088
 21
23.14726260483543
 31
0.0
  0
ARC
  5
7E1
330
7DD
100
AcDbEntity
  8
flush
100
AcDbCircle
 10
14.27587176204087
 20
20.19726260483543
 30
0.0
 40
2.95
100
AcDbArc
 50
90.0
 51
180.0
  0
LINE
  5
7E2
102
{ACAD_REACTORS
330
6F2
102
}
330
7DD
100
AcDbEntity
  8
flush
100
AcDbLine
 10
11.32587176204087
 20
20.19726260483543
 30
0.0
 11
11.32587176204087
 21
10.15726260483543
 31
0.0
  0
LINE
  5
7E3
102
{ACAD_REACTORS
330
6D8
102
}
330
7DD
100
AcDbEntity
  8
flush
100
AcDbLine
 10
14.27587176204087
 20
7.207262604835428
 30
0.0
 11
25.30587176204087
 21
7.207262604835426
 31
0.0
  0
ARC
  5
7E4
102
{ACAD_REACTORS
330
793
102
}
330
7DD
100
AcDbEntity
  8
flush
100
AcDbCircle
 10
14.27587176204087
 20
10.15726260483543
 30
0.0
 40
2.95
100
AcDbArc
 50
180.0
 51
270.0
  0
LINE
  5
7E5
102
{ACAD_REACTORS
330
6D8
102
}
330
7DD
100
AcDbEntity
  8
flush
100
AcDbLine
 10
25.30587176204088
 20
23.14726260483543
 30
0.0
 11
37.59587176204087
 21
23.14726260483543
 31
0.0
  0
LINE
  5
7E6
102
{ACAD_REACTORS
330
6F2
102
}
330
7DD
100
AcDbEntity
  8
flush
100
AcDbLine
 10
40.54587176204087
 20
20.19726260483543
 30
0.0
 11
40.54587176204087
 21
10.15726260483543
 31
0.0
  0
ARC
  5
7E7
330
7DD
100
AcDbEntity
  8
flush
100
AcDbCircle
 10
37.59587176204087
 20
10.15726260483543
 30
0.0
 40
2.95
100
AcDbArc
 50
270.0
 51
0.0
  0
ARC
  5
7E8
102
{ACAD_REACTORS
330
7A9
102
}
330
7DD
100
AcDbEntity
  8
flush
100
AcDbCircle
 10
37.59587176204087
 20
20.19726260483543
 30
0.0
 40
2.95
100
AcDbArc
 50
0.0
 51
90.0
  0
LINE
  5
7E9
330
7DD
100
AcDbEntity
  8
flush
100
AcDbLine
 10
25.30587176204087
 20
7.207262604835426
 30
0.0
 11
37.59587176204087
 21
7.207262604835427
 31
0.0
  0
ENDBLK
  5
7DF
330
7DD
100
AcDbEntity
  8
0
100
AcDbBlockEnd
  0
BLOCK
  5
81E
330
81D
100
AcDbEntity
  8
0
100
AcDbBlockBegin
  2
CAYAN
 70
     0
 10
0.0
 20
0.0
 30
0.0
  3
CAYAN
  1

  0
LINE
  5
820
102
{ACAD_REACTORS
330
727
102
}
330
81D
100
AcDbEntity
  8
negative
100
AcDbLine
 10
48.38659693199922
 20
19.91726260483542
 30
0.0
 11
48.38659693199922
 21
10.43726260483542
 31
0.0
  0
LINE
  5
821
102
{ACAD_REACTORS
330
727
102
}
330
81D
100
AcDbEntity
  8
negative
100
AcDbLine
 10
77.0465969319992
 20
19.91726260483542
 30
0.0
 11
77.0465969319992
 21
10.43726260483543
 31
0.0
  0
ARC
  5
822
102
{ACAD_REACTORS
330
7CD
102
}
330
81D
100
AcDbEntity
  8
negative
100
AcDbCircle
 10
74.0965969319992
 20
10.43726260483542
 30
0.0
 40
2.95
100
AcDbArc
 50
270.0
 51
0.0000000000000636
  0
ARC
  5
823
330
81D
100
AcDbEntity
  8
negative
100
AcDbCircle
 10
74.0965969319992
 20
19.91726260483542
 30
0.0
 40
2.95
100
AcDbArc
 50
0.0
 51
90.0
  0
LINE
  5
824
102
{ACAD_REACTORS
330
70D
102
}
330
81D
100
AcDbEntity
  8
negative
100
AcDbLine
 10
51.33659693199922
 20
22.86726260483542
 30
0.0
 11
74.0965969319992
 21
22.86726260483542
 31
0.0
  0
ARC
  5
825
102
{ACAD_REACTORS
330
7BB
102
}
330
81D
100
AcDbEntity
  8
negative
100
AcDbCircle
 10
51.33659693199922
 20
19.91726260483542
 30
0.0
 40
2.95
100
AcDbArc
 50
90.0
 51
180.0
  0
LINE
  5
826
102
{ACAD_REACTORS
330
70D
102
}
330
81D
100
AcDbEntity
  8
negative
100
AcDbLine
 10
51.33659693199922
 20
7.487262604835424
 30
0.0
 11
74.0965969319992
 21
7.487262604835424
 31
0.0
  0
ARC
  5
827
330
81D
100
AcDbEntity
  8
negative
100
AcDbCircle
 10
51.33659693199922
 20
10.43726260483542
 30
0.0
 40
2.95
100
AcDbArc
 50
180.0
 51
270.0
  0
ENDBLK
  5
81F
330
81D
100
AcDbEntity
  8
0
100
AcDbBlockEnd
  0
BLOCK
  5
858
330
857
100
AcDbEntity
  8
0
100
AcDbBlockBegin
  2
GREEN
 70
     0
 10
0.0
 20
0.0
 30
0.0
  3
GREEN
  1

  0
LINE
  5
85A
102
{ACAD_REACTORS
330
6BE
102
}
330
857
100
AcDbEntity
  8
positive
100
AcDbLine
 10
-27.38798975116675
 20
20.47726260483543
 30
0.0
 11
-27.38798975116676
 21
9.877262604835433
 31
0.0
  0
LINE
  5
85B
102
{ACAD_REACTORS
330
6BE
102
}
330
857
100
AcDbEntity
  8
positive
100
AcDbLine
 10
2.392010248833243
 20
20.47726260483543
 30
0.0
 11
2.392010248833243
 21
9.877262604835429
 31
0.0
  0
ARC
  5
85C
102
{ACAD_REACTORS
330
783
102
}
330
857
100
AcDbEntity
  8
positive
100
AcDbCircle
 10
-0.5579897511667565
 20
9.877262604835429
 30
0.0
 40
2.95
100
AcDbArc
 50
270.0
 51
0.0
  0
ARC
  5
85D
330
857
100
AcDbEntity
  8
positive
100
AcDbCircle
 10
-0.5579897511667569
 20
20.47726260483543
 30
0.0
 40
2.95
100
AcDbArc
 50
0.0
 51
90.0
  0
LINE
  5
85E
102
{ACAD_REACTORS
330
6A4
102
}
330
857
100
AcDbEntity
  8
positive
100
AcDbLine
 10
-24.43798975116675
 20
23.42726260483543
 30
0.0
 11
-0.5579897511667569
 21
23.42726260483543
 31
0.0
  0
ARC
  5
85F
102
{ACAD_REACTORS
330
773
102
}
330
857
100
AcDbEntity
  8
positive
100
AcDbCircle
 10
-24.43798975116675
 20
20.47726260483543
 30
0.0
 40
2.95
100
AcDbArc
 50
90.0
 51
180.0
  0
LINE
  5
860
102
{ACAD_REACTORS
330
6A4
102
}
330
857
100
AcDbEntity
  8
positive
100
AcDbLine
 10
-24.43798975116676
 20
6.927262604835431
 30
0.0
 11
-0.5579897511667565
 21
6.927262604835429
 31
0.0
  0
ARC
  5
861
330
857
100
AcDbEntity
  8
positive
100
AcDbCircle
 10
-24.43798975116676
 20
9.877262604835431
 30
0.0
 40
2.95
100
AcDbArc
 50
180.0
 51
270.0
  0
ENDBLK
  5
859
330
857
100
AcDbEntity
  8
0
100
AcDbBlockEnd
  0
ENDSEC
  0
SECTION
  2
ENTITIES
  0
MTEXT
  5
D9
330
1F
100
AcDbEntity
  8
text
100
AcDbMText
 10
13.63419105040367
 20
16.79840912171348
 30
0.0
 40
0.7
 41
24.61251795833611
 71
     1
 72
     5
  1
AS301 FLUSH UNDERMOUNT TEMPLATE
 73
     1
 44
1.0
1001
ACAD
1000
ACAD_MTEXT_DEFINED_HEIGHT_BEGIN
1070
    46
1040
0.0
1000
ACAD_MTEXT_DEFINED_HEIGHT_END
1000
MTEXTBEGIN
1070
    73
1070
     1
1070
    44
1040
1.0
1070
    74
1070
     0
1000
MTEXTEND
  0
MTEXT
  5
DA
330
1F
100
AcDbEntity
  8
text
100
AcDbMText
 10
50.87130700423928
 20
12.90557906475846
 30
0.0
 40
0.7
 41
25.59701869245782
 71
     1
 72
     5
  1
AS301 NEGATIVE REVEAL UNDERMOUNT TEMPLATE
 73
     1
 44
1.0
1001
ACAD
1000
ACAD_MTEXT_DEFINED_HEIGHT_BEGIN
1070
    46
1040
0.0
1000
ACAD_MTEXT_DEFINED_HEIGHT_END
1000
MTEXTBEGIN
1070
    73
1070
     1
1070
    44
1040
1.0
1070
    74
1070
     0
1000
MTEXTEND
  0
MTEXT
  5
DB
330
1F
100
AcDbEntity
  8
text
100
AcDbMText
 10
-25.28681404609034
 20
16.40400146209493
 30
0.0
 40
0.7
 41
25.59701869245784
 71
     1
 72
     5
  1
AS301 POSITIVE REVEAL UNDERMOUNT TEMPLATE
 73
     1
 44
1.0
1001
ACAD
1000
MTEXTBEGIN
1070
    73
1070
     1
1070
    44
1040
1.0
1070
    74
1070
     0
1000
MTEXTEND
  0
DIMENSION
  5
68A
330
1F
100
AcDbEntity
  8
dim
100
AcDbDimension
  2
*D3
 10
-30.87571691647952
 20
6.927262604835435
 30
0.0
 11
-30.87571691647952
 21
15.17726260483543
 31
0.0
 70
    32
 71
     5
 42
16.49999999999999
  3
Standard
100
AcDbAlignedDimension
 13
-12.49798975116675
 23
23.42726260483543
 33
0.0
 14
-12.49798975116676
 24
6.92726260483543
 34
0.0
 50
90.0
100
AcDbRotatedDimension
  0
DIMENSION
  5
6A5
330
1F
100
AcDbEntity
  8
dim
100
AcDbDimension
  2
*D4
 10
2.392010248833242
 20
4.206734807608576
 30
0.0
 11
-12.49798975116676
 21
4.206734807608576
 31
0.0
 70
    32
 71
     5
 42
29.78
  3
Standard
100
AcDbAlignedDimension
 13
-27.38798975116676
 23
15.17726260483543
 33
0.0
 14
2.392010248833243
 24
15.17726260483543
 34
0.0
100
AcDbRotatedDimension
  0
DIMENSION
  5
6BF
330
1F
100
AcDbEntity
  8
dim
100
AcDbDimension
  2
*D5
 10
9.078254712367282
 20
7.207262604835429
 30
0.0
 11
9.078254712367282
 21
15.17726260483543
 31
0.0
 70
    32
 71
     5
 42
15.94
  3
Standard
100
AcDbAlignedDimension
 13
25.30587176204088
 23
23.14726260483543
 33
0.0
 14
25.30587176204087
 24
7.207262604835425
 34
0.0
 50
90.0
100
AcDbRotatedDimension
  0
DIMENSION
  5
6D9
330
1F
100
AcDbEntity
  8
dim
100
AcDbDimension
  2
*D6
 10
40.54587176204086
 20
4.759052046880661
 30
0.0
 11
25.93587176204087
 21
4.759052046880661
 31
0.0
 70
    32
 71
     5
 42
29.21999999999999
  3
Standard
100
AcDbAlignedDimension
 13
11.32587176204087
 23
15.17726260483543
 33
0.0
 14
40.54587176204086
 24
15.17726260483543
 34
0.0
100
AcDbRotatedDimension
  0
DIMENSION
  5
6F4
330
1F
100
AcDbEntity
  8
dim
100
AcDbDimension
  2
*D7
 10
45.89772891743733
 20
7.48726260483543
 30
0.0
 11
45.89772891743733
 21
15.17726260483543
 31
0.0
 70
    32
 71
     5
 42
15.38
  3
Standard
100
AcDbAlignedDimension
 13
62.71659693199921
 23
22.86726260483542
 33
0.0
 14
62.71659693199921
 24
7.487262604835424
 34
0.0
 50
90.0
100
AcDbRotatedDimension
  0
DIMENSION
  5
70E
330
1F
100
AcDbEntity
  8
dim
100
AcDbDimension
  2
*D8
 10
77.0465969319992
 20
4.422345339271252
 30
0.0
 11
62.71659693199921
 21
4.422345339271252
 31
0.0
 70
    32
 71
     5
 42
28.65999999999999
  3
Standard
100
AcDbAlignedDimension
 13
48.38659693199922
 23
15.17726260483542
 33
0.0
 14
77.0465969319992
 24
15.17726260483542
 34
0.0
100
AcDbRotatedDimension
  0
DIMENSION
  5
764
330
1F
100
AcDbEntity
  8
dim
100
AcDbDimension
  2
*D9
 10
-24.43798975116675
 20
20.47726260483545
 30
0.0
 11
-25.40297537436021
 21
20.47726260483543
 31
0.0
 70
   164
 71
     5
 42
2.950000000000002
  3
Standard
100
AcDbRadialDimension
 15
-27.38798975116675
 25
20.47726260483543
 35
0.0
 40
0.0
1001
ACAD
1000
DSTYLE
1002
{
1070
   279
1070
     1
1070
   288
1070
     1
1002
}
  0
DIMENSION
  5
774
330
1F
100
AcDbEntity
  8
dim
100
AcDbDimension
  2
*D10
 10
-0.5579897511667584
 20
9.877262604835422
 30
0.0
 11
-0.5579897511667565
 21
9.877262604835424
 31
0.0
 70
   164
 71
     5
 42
2.950000000000002
  3
Standard
100
AcDbRadialDimension
 15
2.392010248833243
 25
9.877262604835429
 35
0.0
 40
0.0
1001
ACAD
1000
DSTYLE
1002
{
1070
   288
1070
     1
1002
}
  0
DIMENSION
  5
784
330
1F
100
AcDbEntity
  8
dim
100
AcDbDimension
  2
*D11
 10
14.27587176204088
 20
10.15726260483543
 30
0.0
 11
14.27587176204087
 21
10.15726260483543
 31
0.0
 70
   164
 71
     5
 42
2.949999999999992
  3
Standard
100
AcDbRadialDimension
 15
17.22587176204087
 25
10.15726260483543
 35
0.0
 40
0.0
1001
ACAD
1000
DSTYLE
1002
{
1070
   288
1070
     1
1002
}
  0
DIMENSION
  5
794
330
1F
100
AcDbEntity
  8
dim
100
AcDbDimension
  2
*D12
 10
37.59587176204087
 20
20.19726260483545
 30
0.0
 11
41.66639520776834
 21
22.5377860505629
 31
0.0
 70
    36
 71
     5
 42
2.949999999999995
  3
Standard
100
AcDbRadialDimension
 15
39.68183676654119
 25
22.28322760933575
 35
0.0
 40
0.0
1001
ACAD
1000
DSTYLE
1002
{
1070
   288
1070
     1
1002
}
  0
DIMENSION
  5
7AA
330
1F
100
AcDbEntity
  8
dim
100
AcDbDimension
  2
*D13
 10
51.33659693199921
 20
19.91726260483541
 30
0.0
 11
52.17600531005769
 21
20.35144406316637
 31
0.0
 70
   164
 71
     5
 42
2.949999999999995
  3
Standard
100
AcDbRadialDimension
 15
48.68493269903723
 25
21.21000263888331
 35
0.0
 40
0.0
1001
ACAD
1000
DSTYLE
1002
{
1070
   288
1070
     1
1002
}
  0
DIMENSION
  5
7BC
330
1F
100
AcDbEntity
  8
dim
100
AcDbDimension
  2
*D14
 10
74.09659693199921
 20
10.43726260483544
 30
0.0
 11
74.0965969319992
 21
11.97545231765641
 31
0.0
 70
   164
 71
     5
 42
2.950000000000012
  3
Standard
100
AcDbRadialDimension
 15
74.0965969319992
 25
7.487262604835425
 35
0.0
 40
0.0
1001
ACAD
1000
DSTYLE
1002
{
1070
   279
1070
     1
1070
   288
1070
     1
1002
}
  0
LINE
  5
7D5
330
1F
100
AcDbEntity
  8
CENTER LINE
100
AcDbLine
 10
-27.38798975116676
 20
15.17726260483543
 30
0.0
 11
2.392010248833243
 21
15.17726260483543
 31
0.0
  0
LINE
  5
7D7
330
1F
100
AcDbEntity
  8
CENTER LINE
100
AcDbLine
 10
11.32587176204087
 20
15.17726260483543
 30
0.0
 11
40.54587176204086
 21
15.17726260483543
 31
0.0
  0
LINE
  5
7D9
330
1F
100
AcDbEntity
  8
CENTER LINE
100
AcDbLine
 10
-12.49798975116675
 20
6.92726260483543
 30
0.0
 11
-12.49798975116675
 21
23.42726260483543
 31
0.0
  0
LINE
  5
7DA
330
1F
100
AcDbEntity
  8
CENTER LINE
100
AcDbLine
 10
25.93587176204087
 20
23.14726260483543
 30
0.0
 11
25.93587176204088
 21
7.207262604835426
 31
0.0
  0
LINE
  5
7DB
330
1F
100
AcDbEntity
  8
CENTER LINE
100
AcDbLine
 10
48.38659693199922
 20
15.17726260483542
 30
0.0
 11
77.0465969319992
 21
15.17726260483542
 31
0.0
  0
LINE
  5
7DC
330
1F
100
AcDbEntity
  8
CENTER LINE
100
AcDbLine
 10
62.71659693199921
 20
7.487262604835424
 30
0.0
 11
62.71659693199921
 21
22.86726260483542
 31
0.0
  0
INSERT
  5
80B
330
1F
100
AcDbEntity
  8
CENTER LINE
100
AcDbBlockReference
  2
BLUE
 10
0.0
 20
0.0
 30
0.0
  0
INSERT
  5
848
330
1F
100
AcDbEntity
  8
CENTER LINE
100
AcDbBlockReference
  2
CAYAN
 10
0.0
 20
0.0
 30
0.0
  0
INSERT
  5
880
330
1F
100
AcDbEntity
  8
CENTER LINE
100
AcDbBlockReference
  2
GREEN
 10
0.0
 20
0.0
 30
0.0
  0
ENDSEC
  0
SECTION
  2
OBJECTS
  0
DICTIONARY
  5
C
330
0
100
AcDbDictionary
281
     1
  3
ACAD_COLOR
350
73
  3
ACAD_GROUP
350
D
  3
ACAD_LAYOUT
350
1A
  3
ACAD_MATERIAL
350
72
  3
ACAD_MLINESTYLE
350
17
  3
ACAD_PLOTSETTINGS
350
19
  3
ACAD_PLOTSTYLENAME
350
E
  3
ACAD_TABLESTYLE
350
86
  3
ACDBHEADERROUNDTRIPXREC
350
891
  3
AcDbVariableDictionary
350
66
  0
DICTIONARY
  5
D6
330
2
100
AcDbDictionary
280
     1
281
     1
  3
ACAD_LAYERFILTERS
360
7D3
  3
ACLYDICTIONARY
360
7D2
  0
DICTIONARY
  5
B2
330
1F
100
AcDbDictionary
280
     1
281
     1
  3
ACAD_SORTENTS
360
B3
  0
DICTIONARY
  5
73
102
{ACAD_REACTORS
330
C
102
}
330
C
100
AcDbDictionary
281
     1
  0
DICTIONARY
  5
D
102
{ACAD_REACTORS
330
C
102
}
330
C
100
AcDbDictionary
281
     1
  0
DICTIONARY
  5
1A
102
{ACAD_REACTORS
330
C
102
}
330
C
100
AcDbDictionary
281
     1
  3
Layout1
350
59
  3
Layout2
350
5E
  3
Model
350
22
  0
DICTIONARY
  5
72
102
{ACAD_REACTORS
330
C
102
}
330
C
100
AcDbDictionary
281
     1
  0
DICTIONARY
  5
17
102
{ACAD_REACTORS
330
C
102
}
330
C
100
AcDbDictionary
281
     1
  3
Standard
350
18
  0
DICTIONARY
  5
19
102
{ACAD_REACTORS
330
C
102
}
330
C
100
AcDbDictionary
281
     1
  0
ACDBDICTIONARYWDFLT
  5
E
102
{ACAD_REACTORS
330
C
102
}
330
C
100
AcDbDictionary
281
     1
  3
Normal
350
F
100
AcDbDictionaryWithDefault
340
F
  0
DICTIONARY
  5
86
102
{ACAD_REACTORS
330
C
102
}
330
C
100
AcDbDictionary
281
     1
  3
Standard
350
87
  0
DICTIONARY
  5
891
102
{ACAD_REACTORS
330
C
102
}
330
C
100
AcDbDictionary
281
     1
  0
DICTIONARY
  5
66
102
{ACAD_REACTORS
330
C
102
}
330
C
100
AcDbDictionary
281
     1
  3
CTABLESTYLE
350
CE
  3
DIMASSOC
350
67
  3
HIDETEXT
350
6B
  3
PROJECTNAME
350
88F
  0
DICTIONARY
  5
7D3
102
{ACAD_REACTORS
330
D6
102
}
330
D6
100
AcDbDictionary
281
     1
  0
DICTIONARY
  5
7D2
102
{ACAD_REACTORS
330
D6
102
}
330
D6
100
AcDbDictionary
281
     1
1001
ACAD
1000
<All
  0
SORTENTSTABLE
  5
B3
102
{ACAD_REACTORS
330
B2
102
}
330
B2
100
AcDbSortentsTable
330
1F
  0
LAYOUT
  5
59
102
{ACAD_XDICTIONARY
360
894
102
}
102
{ACAD_REACTORS
330
1A
102
}
330
1A
100
AcDbPlotSettings
  1

  2
None
  4

  6

 40
0.0
 41
0.0
 42
0.0
 43
0.0
 44
0.0
 45
0.0
 46
0.0
 47
0.0
 48
0.0
 49
0.0
140
0.0
141
0.0
142
1.0
143
1.0
 70
   688
 72
     0
 73
     0
 74
     5
  7

 75
    16
147
1.0
148
0.0
149
0.0
100
AcDbLayout
  1
Layout1
 70
     1
 71
     1
 10
0.0
 20
0.0
 11
12.0
 21
9.0
 12
0.0
 22
0.0
 32
0.0
 14
0.0
 24
0.0
 34
0.0
 15
0.0
 25
0.0
 35
0.0
146
0.0
 13
0.0
 23
0.0
 33
0.0
 16
1.0
 26
0.0
 36
0.0
 17
0.0
 27
1.0
 37
0.0
 76
     0
330
58
  0
LAYOUT
  5
5E
102
{ACAD_XDICTIONARY
360
896
102
}
102
{ACAD_REACTORS
330
1A
102
}
330
1A
100
AcDbPlotSettings
  1

  2
None
  4

  6

 40
0.0
 41
0.0
 42
0.0
 43
0.0
 44
0.0
 45
0.0
 46
0.0
 47
0.0
 48
0.0
 49
0.0
140
0.0
141
0.0
142
1.0
143
1.0
 70
   688
 72
     0
 73
     0
 74
     5
  7

 75
    16
147
1.0
148
0.0
149
0.0
100
AcDbLayout
  1
Layout2
 70
     1
 71
     2
 10
0.0
 20
0.0
 11
12.0
 21
9.0
 12
0.0
 22
0.0
 32
0.0
 14
0.0
 24
0.0
 34
0.0
 15
0.0
 25
0.0
 35
0.0
146
0.0
 13
0.0
 23
0.0
 33
0.0
 16
1.0
 26
0.0
 36
0.0
 17
0.0
 27
1.0
 37
0.0
 76
     0
330
5D
  0
LAYOUT
  5
22
102
{ACAD_XDICTIONARY
360
892
102
}
102
{ACAD_REACTORS
330
1A
102
}
330
1A
100
AcDbPlotSettings
  1

  2
none_device
  4
ANSI_A_(8.50_x_11.00_Inches)
  6

 40
6.349999904632568
 41
19.04999923706055
 42
6.350006103515625
 43
19.04998779296875
 44
215.8999938964844
 45
279.3999938964844
 46
0.0
 47
0.0
 48
0.0
 49
0.0
140
0.0
141
0.0
142
1.0
143
2.584895464708373
 70
 11952
 72
     0
 73
     1
 74
     0
  7

 75
     0
147
0.3868628397755418
148
0.0
149
0.0
100
AcDbLayout
  1
Model
 70
     1
 71
     0
 10
0.0
 20
0.0
 11
12.0
 21
9.0
 12
0.0
 22
0.0
 32
0.0
 14
0.0
 24
0.0
 34
0.0
 15
0.0
 25
0.0
 35
0.0
146
0.0
 13
0.0
 23
0.0
 33
0.0
 16
1.0
 26
0.0
 36
0.0
 17
0.0
 27
1.0
 37
0.0
 76
     0
330
1F
  0
MLINESTYLE
  5
18
102
{ACAD_REACTORS
330
17
102
}
330
17
100
AcDbMlineStyle
  2
STANDARD
 70
     0
  3

 62
   256
 51
90.0
 52
90.0
 71
     2
 49
0.5
 62
   256
  6
BYLAYER
 49
-0.5
 62
   256
  6
BYLAYER
  0
ACDBPLACEHOLDER
  5
F
102
{ACAD_REACTORS
330
E
102
}
330
E
  0
TABLESTYLE
  5
87
102
{ACAD_REACTORS
330
86
102
}
330
86
100
AcDbTableStyle
  3
Standard
 70
     0
 71
     0
 40
0.06
 41
0.06
280
     0
281
     0
  7
Standard
140
0.18
170
     2
 62
     0
 63
     7
283
     0
274
    -2
284
     1
 64
     0
275
    -2
285
     1
 65
     0
276
    -2
286
     1
 66
     0
277
    -2
287
     1
 67
     0
278
    -2
288
     1
 68
     0
279
    -2
289
     1
 69
     0
  7
Standard
140
0.25
170
     5
 62
     0
 63
     7
283
     0
274
    -2
284
     1
 64
     0
275
    -2
285
     1
 65
     0
276
    -2
286
     1
 66
     0
277
    -2
287
     1
 67
     0
278
    -2
288
     1
 68
     0
279
    -2
289
     1
 69
     0
  7
Standard
140
0.18
170
     5
 62
     0
 63
     7
283
     0
274
    -2
284
     1
 64
     0
275
    -2
285
     1
 65
     0
276
    -2
286
     1
 66
     0
277
    -2
287
     1
 67
     0
278
    -2
288
     1
 68
     0
279
    -2
289
     1
 69
     0
  0
DICTIONARYVAR
  5
CE
102
{ACAD_REACTORS
330
66
102
}
330
66
100
DictionaryVariables
280
     0
  1
STANDARD
  0
DICTIONARYVAR
  5
67
102
{ACAD_REACTORS
330
66
102
}
330
66
100
DictionaryVariables
280
     0
  1
2
  0
DICTIONARYVAR
  5
6B
102
{ACAD_REACTORS
330
66
102
}
330
66
100
DictionaryVariables
280
     0
  1
1
  0
DICTIONARYVAR
  5
88F
102
{ACAD_REACTORS
330
66
102
}
330
66
100
DictionaryVariables
280
     0
  1

  0
DICTIONARY
  5
894
330
59
100
AcDbDictionary
280
     1
281
     1
  3
ACAD_XREC_ROUNDTRIP
360
895
  0
DICTIONARY
  5
896
330
5E
100
AcDbDictionary
280
     1
281
     1
  3
ACAD_XREC_ROUNDTRIP
360
897
  0
DICTIONARY
  5
892
330
22
100
AcDbDictionary
280
     1
281
     1
  3
ACAD_XREC_ROUNDTRIP
360
893
  0
XRECORD
  5
895
102
{ACAD_REACTORS
330
894
102
}
330
894
100
AcDbXrecord
280
     1
102
SHADEPLOT
 70
     0
102
SHADEPLOTRESLEVEL
 70
     2
102
SHADEPLOTCUSTOMDPI
 70
   300
  0
XRECORD
  5
897
102
{ACAD_REACTORS
330
896
102
}
330
896
100
AcDbXrecord
280
     1
102
SHADEPLOT
 70
     0
102
SHADEPLOTRESLEVEL
 70
     2
102
SHADEPLOTCUSTOMDPI
 70
   300
  0
XRECORD
  5
893
102
{ACAD_REACTORS
330
892
102
}
330
892
100
AcDbXrecord
280
     1
102
SHADEPLOT
 70
     0
102
SHADEPLOTRESLEVEL
 70
     2
102
SHADEPLOTCUSTOMDPI
 70
   300
  0
ENDSEC
  0
EOF
