  0
SECTION
  2
HEADER
  9
$ACADVER
  1
AC1032
  9
$ACADMAINTVER
 90
        4
  9
$DWGCODEPAGE
  3
ANSI_1252
  9
$LASTSAVEDBY
  1
Siqi
  9
$REQUIREDVERSIONS
160
                 0
  9
$INSBASE
 10
0.0
 20
0.0
 30
0.0
  9
$EXTMIN
 10
32661.04021976595
 20
2443.871337499895
 30
0.0
  9
$EXTMAX
 10
33824.52675384515
 20
4251.487337501354
 30
0.0
  9
$LIMMIN
 10
0.0
 20
0.0
  9
$LIMMAX
 10
420.0
 20
297.0
  9
$ORTHOMODE
 70
     0
  9
$REGENMODE
 70
     1
  9
$FILLMODE
 70
     1
  9
$QTEXTMODE
 70
     0
  9
$MIRRTEXT
 70
     0
  9
$LTSCALE
 40
1.0
  9
$ATTMODE
 70
     1
  9
$TEXTSIZE
 40
2.5
  9
$TRACEWID
 40
1.0
  9
$TEXTSTYLE
  7
Standard
  9
$CLAYER
  8
0
  9
$CELTYPE
  6
ByLayer
  9
$CECOLOR
 62
   256
  9
$CELTSCALE
 40
1.0
  9
$DISPSILH
 70
     0
  9
$DIMSCALE
 40
1.0
  9
$DIMASZ
 40
8.0
  9
$DIMEXO
 40
1.0
  9
$DIMDLI
 40
3.75
  9
$DIMRND
 40
0.0
  9
$DIMDLE
 40
0.0
  9
$DIMEXE
 40
1.25
  9
$DIMTP
 40
0.0
  9
$DIMTM
 40
0.0
  9
$DIMTXT
 40
15.0
  9
$DIMCEN
 40
0.5
  9
$DIMTSZ
 40
0.0
  9
$DIMTOL
 70
     0
  9
$DIMLIM
 70
     0
  9
$DIMTIH
 70
     0
  9
$DIMTOH
 70
     0
  9
$DIMSE1
 70
     0
  9
$DIMSE2
 70
     0
  9
$DIMTAD
 70
     1
  9
$DIMZIN
 70
     8
  9
$DIMBLK
  1

  9
$DIMASO
 70
     1
  9
$DIMSHO
 70
     1
  9
$DIMPOST
  1

  9
$DIMAPOST
  1

  9
$DIMALT
 70
     0
  9
$DIMALTD
 70
     2
  9
$DIMALTF
 40
0.03937007874
  9
$DIMLFAC
 40
1.0
  9
$DIMTOFL
 70
     1
  9
$DIMTVP
 40
0.0
  9
$DIMTIX
 70
     0
  9
$DIMSOXD
 70
     0
  9
$DIMSAH
 70
     0
  9
$DIMBLK1
  1

  9
$DIMBLK2
  1

  9
$DIMSTYLE
  2
ISO-25
  9
$DIMCLRD
 70
     0
  9
$DIMCLRE
 70
     0
  9
$DIMCLRT
 70
     0
  9
$DIMTFAC
 40
1.0
  9
$DIMGAP
 40
3.0
  9
$DIMJUST
 70
     0
  9
$DIMSD1
 70
     0
  9
$DIMSD2
 70
     0
  9
$DIMTOLJ
 70
     0
  9
$DIMTZIN
 70
     8
  9
$DIMALTZ
 70
     0
  9
$DIMALTTZ
 70
     0
  9
$DIMUPT
 70
     0
  9
$DIMDEC
 70
     2
  9
$DIMTDEC
 70
     2
  9
$DIMALTU
 70
     2
  9
$DIMALTTD
 70
     2
  9
$DIMTXSTY
  7
Standard
  9
$DIMAUNIT
 70
     0
  9
$DIMADEC
 70
     2
  9
$DIMALTRND
 40
0.0
  9
$DIMAZIN
 70
     0
  9
$DIMDSEP
 70
    44
  9
$DIMATFIT
 70
     3
  9
$DIMFRAC
 70
     0
  9
$DIMLDRBLK
  1

  9
$DIMLUNIT
 70
     2
  9
$DIMLWD
 70
    -2
  9
$DIMLWE
 70
    -2
  9
$DIMTMOVE
 70
     0
  9
$DIMFXL
 40
1.0
  9
$DIMFXLON
 70
     0
  9
$DIMJOGANG
 40
0.7853981633974483
  9
$DIMTFILL
 70
     0
  9
$DIMTFILLCLR
 70
     0
  9
$DIMARCSYM
 70
     0
  9
$DIMLTYPE
  6

  9
$DIMLTEX1
  6

  9
$DIMLTEX2
  6

  9
$DIMTXTDIRECTION
 70
     0
  9
$LUNITS
 70
     2
  9
$LUPREC
 70
     4
  9
$SKETCHINC
 40
1.0
  9
$FILLETRAD
 40
0.0
  9
$AUNITS
 70
     0
  9
$AUPREC
 70
     0
  9
$MENU
  1
.
  9
$ELEVATION
 40
0.0
  9
$PELEVATION
 40
0.0
  9
$THICKNESS
 40
0.0
  9
$LIMCHECK
 70
     0
  9
$CHAMFERA
 40
0.0
  9
$CHAMFERB
 40
0.0
  9
$CHAMFERC
 40
0.0
  9
$CHAMFERD
 40
0.0
  9
$SKPOLY
 70
     0
  9
$TDCREATE
 40
2453649.060439815
  9
$TDUCREATE
 40
2453649.352115521
  9
$TDUPDATE
 40
2457976.576747685
  9
$TDUUPDATE
 40
2457976.868414352
  9
$TDINDWG
 40
0.7729889468
  9
$TDUSRTIMER
 40
0.7729842477
  9
$USRTIMER
 70
     1
  9
$ANGBASE
 50
0.0
  9
$ANGDIR
 70
     0
  9
$PDMODE
 70
     0
  9
$PDSIZE
 40
0.0
  9
$PLINEWID
 40
0.0
  9
$SPLFRAME
 70
     0
  9
$SPLINETYPE
 70
     6
  9
$SPLINESEGS
 70
     8
  9
$HANDSEED
  5
651B
  9
$SURFTAB1
 70
     6
  9
$SURFTAB2
 70
     6
  9
$SURFTYPE
 70
     6
  9
$SURFU
 70
     6
  9
$SURFV
 70
     6
  9
$UCSBASE
  2

  9
$UCSNAME
  2

  9
$UCSORG
 10
20135.92273348905
 20
3420.432723209263
 30
0.0
  9
$UCSXDIR
 10
1.0
 20
0.0
 30
0.0
  9
$UCSYDIR
 10
0.0
 20
1.0
 30
0.0
  9
$UCSORTHOREF
  2

  9
$UCSORTHOVIEW
 70
     0
  9
$UCSORGTOP
 10
0.0
 20
0.0
 30
0.0
  9
$UCSORGBOTTOM
 10
0.0
 20
0.0
 30
0.0
  9
$UCSORGLEFT
 10
0.0
 20
0.0
 30
0.0
  9
$UCSORGRIGHT
 10
0.0
 20
0.0
 30
0.0
  9
$UCSORGFRONT
 10
0.0
 20
0.0
 30
0.0
  9
$UCSORGBACK
 10
0.0
 20
0.0
 30
0.0
  9
$PUCSBASE
  2

  9
$PUCSNAME
  2

  9
$PUCSORG
 10
0.0
 20
0.0
 30
0.0
  9
$PUCSXDIR
 10
1.0
 20
0.0
 30
0.0
  9
$PUCSYDIR
 10
0.0
 20
1.0
 30
0.0
  9
$PUCSORTHOREF
  2

  9
$PUCSORTHOVIEW
 70
     0
  9
$PUCSORGTOP
 10
0.0
 20
0.0
 30
0.0
  9
$PUCSORGBOTTOM
 10
0.0
 20
0.0
 30
0.0
  9
$PUCSORGLEFT
 10
0.0
 20
0.0
 30
0.0
  9
$PUCSORGRIGHT
 10
0.0
 20
0.0
 30
0.0
  9
$PUCSORGFRONT
 10
0.0
 20
0.0
 30
0.0
  9
$PUCSORGBACK
 10
0.0
 20
0.0
 30
0.0
  9
$USERI1
 70
     0
  9
$USERI2
 70
     0
  9
$USERI3
 70
     0
  9
$USERI4
 70
     0
  9
$USERI5
 70
     0
  9
$USERR1
 40
0.0
  9
$USERR2
 40
0.0
  9
$USERR3
 40
0.0
  9
$USERR4
 40
0.0
  9
$USERR5
 40
2.5
  9
$WORLDVIEW
 70
     1
  9
$SHADEDGE
 70
     3
  9
$SHADEDIF
 70
    70
  9
$TILEMODE
 70
     1
  9
$MAXACTVP
 70
    64
  9
$PINSBASE
 10
0.0
 20
0.0
 30
0.0
  9
$PLIMCHECK
 70
     0
  9
$PEXTMIN
 10
0.0
 20
0.0
 30
0.0
  9
$PEXTMAX
 10
0.0
 20
0.0
 30
0.0
  9
$PLIMMIN
 10
0.0
 20
0.0
  9
$PLIMMAX
 10
12.0
 20
9.0
  9
$UNITMODE
 70
     0
  9
$VISRETAIN
 70
     1
  9
$PLINEGEN
 70
     0
  9
$PSLTSCALE
 70
     1
  9
$TREEDEPTH
 70
  3020
  9
$CMLSTYLE
  2
Standard
  9
$CMLJUST
 70
     0
  9
$CMLSCALE
 40
20.0
  9
$PROXYGRAPHICS
 70
     1
  9
$MEASUREMENT
 70
     1
  9
$CELWEIGHT
370
    -1
  9
$ENDCAPS
280
     0
  9
$JOINSTYLE
280
     0
  9
$LWDISPLAY
290
     0
  9
$INSUNITS
 70
     4
  9
$HYPERLINKBASE
  1

  9
$STYLESHEET
  1

  9
$XEDIT
290
     1
  9
$CEPSNTYPE
380
     0
  9
$PSTYLEMODE
290
     1
  9
$FINGERPRINTGUID
  2
{FDEAD578-A652-11D2-9A35-0060089B3A3F}
  9
$VERSIONGUID
  2
{22865C1C-27E0-3B48-8B27-B91898F2A037}
  9
$EXTNAMES
290
     1
  9
$PSVPSCALE
 40
0.0
  9
$OLESTARTUP
290
     0
  9
$SORTENTS
280
   127
  9
$INDEXCTL
280
     0
  9
$HIDETEXT
280
     1
  9
$XCLIPFRAME
280
     0
  9
$HALOGAP
280
     0
  9
$OBSCOLOR
 70
   257
  9
$OBSLTYPE
280
     0
  9
$INTERSECTIONDISPLAY
280
     0
  9
$INTERSECTIONCOLOR
 70
   257
  9
$DIMASSOC
280
     2
  9
$PROJECTNAME
  1

  9
$CAMERADISPLAY
290
     0
  9
$LENSLENGTH
 40
50.0
  9
$CAMERAHEIGHT
 40
0.0
  9
$STEPSPERSEC
 40
2.0
  9
$STEPSIZE
 40
6.0
  9
$3DDWFPREC
 40
2.0
  9
$PSOLWIDTH
 40
0.25
  9
$PSOLHEIGHT
 40
4.0
  9
$LOFTANG1
 40
1.570796326794896
  9
$LOFTANG2
 40
1.570796326794896
  9
$LOFTMAG1
 40
0.0
  9
$LOFTMAG2
 40
0.0
  9
$LOFTPARAM
 70
     7
  9
$LOFTNORMALS
280
     1
  9
$LATITUDE
 40
37.795
  9
$LONGITUDE
 40
-122.394
  9
$NORTHDIRECTION
 40
0.0
  9
$TIMEZONE
 70
 -8000
  9
$LIGHTGLYPHDISPLAY
280
     1
  9
$TILEMODELIGHTSYNCH
280
     1
  9
$CMATERIAL
347
6217
  9
$SOLIDHIST
280
     1
  9
$SHOWHIST
280
     1
  9
$DWFFRAME
280
     2
  9
$DGNFRAME
280
     0
  9
$REALWORLDSCALE
290
     1
  9
$INTERFERECOLOR
 62
     1
  9
$INTERFEREOBJVS
345
6224
  9
$INTERFEREVPVS
346
63B5
  9
$CSHADOW
280
     0
  9
$SHADOWPLANELOCATION
 40
0.0
  0
ENDSEC
  0
SECTION
  2
CLASSES
  0
CLASS
  1
ACDBDICTIONARYWDFLT
  2
AcDbDictionaryWithDefault
  3
ObjectDBX Classes
 90
        0
 91
        1
280
     0
281
     0
  0
CLASS
  1
ACDBPLACEHOLDER
  2
AcDbPlaceHolder
  3
ObjectDBX Classes
 90
        0
 91
        1
280
     0
281
     0
  0
CLASS
  1
LAYOUT
  2
AcDbLayout
  3
ObjectDBX Classes
 90
        0
 91
        3
280
     0
281
     0
  0
CLASS
  1
DICTIONARYVAR
  2
AcDbDictionaryVar
  3
ObjectDBX Classes
 90
        0
 91
       28
280
     0
281
     0
  0
CLASS
  1
DIMASSOC
  2
AcDbDimAssoc
  3
"AcDbDimAssoc|Product Desc:     AcDim ARX App For Dimension|Company:          Autodesk, Inc.|WEB Address:      www.autodesk.com"
 90
        0
 91
       16
280
     0
281
     0
  0
CLASS
  1
MATERIAL
  2
AcDbMaterial
  3
ObjectDBX Classes
 90
     1153
 91
        3
280
     0
281
     0
  0
CLASS
  1
VISUALSTYLE
  2
AcDbVisualStyle
  3
ObjectDBX Classes
 90
     4095
 91
       26
280
     0
281
     0
  0
CLASS
  1
TABLESTYLE
  2
AcDbTableStyle
  3
ObjectDBX Classes
 90
     4095
 91
        1
280
     0
281
     0
  0
CLASS
  1
VLO-VL
  2
vlo_VL
  3
VL|AutoLISP based application
 90
      129
 91
        2
280
     0
281
     0
  0
CLASS
  1
SCALE
  2
AcDbScale
  3
ObjectDBX Classes
 90
     1153
 91
       17
280
     0
281
     0
  0
CLASS
  1
MLEADERSTYLE
  2
AcDbMLeaderStyle
  3
ACDB_MLEADERSTYLE_CLASS
 90
     4095
 91
        1
280
     0
281
     0
  0
CLASS
  1
ACDBSECTIONVIEWSTYLE
  2
AcDbSectionViewStyle
  3
ObjectDBX Classes
 90
     1025
 91
        1
280
     0
281
     0
  0
CLASS
  1
ACDBDETAILVIEWSTYLE
  2
AcDbDetailViewStyle
  3
ObjectDBX Classes
 90
     1025
 91
        1
280
     0
281
     0
  0
CLASS
  1
CELLSTYLEMAP
  2
AcDbCellStyleMap
  3
ObjectDBX Classes
 90
     1152
 91
        1
280
     0
281
     0
  0
ENDSEC
  0
SECTION
  2
TABLES
  0
TABLE
  2
VPORT
  5
8
330
0
100
AcDbSymbolTable
 70
     1
  0
VPORT
  5
6215
330
8
100
AcDbSymbolTableRecord
100
AcDbViewportTableRecord
  2
*Active
 70
     0
 10
0.0
 20
0.0
 11
1.0
 21
1.0
 12
33567.33144955463
 22
3295.124230081387
 13
0.0
 23
0.0
 14
10.0
 24
10.0
 15
10.0
 25
10.0
 16
0.0
 26
0.0
 36
1.0
 17
0.0
 27
0.0
 37
0.0
 40
1235.126955737458
 41
1.913595933926302
 42
50.0
 43
0.0
 44
0.0
 50
0.0
 51
0.0
 71
     0
 72
  1000
 73
     1
 74
     3
 75
     0
 76
     0
 77
     0
 78
     0
281
     0
 65
     1
110
20135.92273348905
120
3420.432723209263
130
0.0
111
1.0
121
0.0
131
0.0
112
0.0
122
1.0
132
0.0
 79
     0
146
0.0
348
6220
 60
     3
 61
     5
292
     1
282
     1
141
0.0
142
0.0
 63
   250
421
  3355443
1001
ACAD_NAV_VCDISPLAY
1070
     3
  0
ENDTAB
  0
TABLE
  2
LTYPE
  5
5
330
0
100
AcDbSymbolTable
 70
     4
  0
LTYPE
  5
14
330
5
100
AcDbSymbolTableRecord
100
AcDbLinetypeTableRecord
  2
ByBlock
 70
     0
  3

 72
    65
 73
     0
 40
0.0
  0
LTYPE
  5
15
330
5
100
AcDbSymbolTableRecord
100
AcDbLinetypeTableRecord
  2
ByLayer
 70
     0
  3

 72
    65
 73
     0
 40
0.0
  0
LTYPE
  5
16
330
5
100
AcDbSymbolTableRecord
100
AcDbLinetypeTableRecord
  2
Continuous
 70
     0
  3
Solid line
 72
    65
 73
     0
 40
0.0
  0
LTYPE
  5
8F
330
5
100
AcDbSymbolTableRecord
100
AcDbLinetypeTableRecord
  2
ACAD_ISO02W100
 70
     0
  3
ISO dash __ __ __ __ __ __ __ __ __ __ __ __ __
 72
    65
 73
     2
 40
15.0
 49
12.0
 74
     0
 49
-3.0
 74
     0
  0
LTYPE
  5
2E41
330
5
100
AcDbSymbolTableRecord
100
AcDbLinetypeTableRecord
  2
CENTER
 70
     0
  3
Center ____ _ ____ _ ____ _ ____ _ ____ _ ____
 72
    65
 73
     4
 40
50.8
 49
31.75
 74
     0
 49
-6.349999999999999
 74
     0
 49
6.349999999999999
 74
     0
 49
-6.349999999999999
 74
     0
  0
ENDTAB
  0
TABLE
  2
LAYER
  5
2
330
0
100
AcDbSymbolTable
 70
     4
  0
LAYER
  5
10
102
{ACAD_XDICTIONARY
360
6502
102
}
330
2
100
AcDbSymbolTableRecord
100
AcDbLayerTableRecord
  2
0
 70
     0
 62
     7
  6
Continuous
370
    25
390
F
347
6219
348
0
  0
LAYER
  5
84
102
{ACAD_XDICTIONARY
360
6504
102
}
330
2
100
AcDbSymbolTableRecord
100
AcDbLayerTableRecord
  2
base
 70
     0
 62
     4
  6
Continuous
370
    40
390
F
347
6219
348
0
  0
LAYER
  5
1DA
330
2
100
AcDbSymbolTableRecord
100
AcDbLayerTableRecord
  2
Defpoints
 70
     0
 62
     7
  6
Continuous
290
     0
370
    -3
390
F
347
6219
348
0
  0
LAYER
  5
2D93
102
{ACAD_XDICTIONARY
360
6506
102
}
330
2
100
AcDbSymbolTableRecord
100
AcDbLayerTableRecord
  2
DIM
 70
     0
 62
     7
  6
Continuous
370
     9
390
F
347
6219
348
0
  0
ENDTAB
  0
TABLE
  2
STYLE
  5
3
330
0
100
AcDbSymbolTable
 70
     2
  0
STYLE
  5
11
330
3
100
AcDbSymbolTableRecord
100
AcDbTextStyleTableRecord
  2
Standard
 70
     0
 40
0.0
 41
1.0
 50
0.0
 71
     0
 42
2.5
  3
txt
  4

  0
STYLE
  5
2E40
330
3
100
AcDbSymbolTableRecord
100
AcDbTextStyleTableRecord
  2

 70
     1
 40
0.0
 41
1.0
 50
0.0
 71
     0
 42
2.5
  3
ltypeshp.shx
  4

  0
ENDTAB
  0
TABLE
  2
VIEW
  5
6
330
0
100
AcDbSymbolTable
 70
     0
  0
ENDTAB
  0
TABLE
  2
UCS
  5
7
330
0
100
AcDbSymbolTable
 70
     0
  0
ENDTAB
  0
TABLE
  2
APPID
  5
9
330
0
100
AcDbSymbolTable
 70
     4
  0
APPID
  5
12
330
9
100
AcDbSymbolTableRecord
100
AcDbRegAppTableRecord
  2
ACAD
 70
     0
  0
APPID
  5
63A7
330
9
100
AcDbSymbolTableRecord
100
AcDbRegAppTableRecord
  2
ACAD_EXEMPT_FROM_CAD_STANDARDS
 70
     0
  0
APPID
  5
63DD
330
9
100
AcDbSymbolTableRecord
100
AcDbRegAppTableRecord
  2
AcadAnnoMonitorAlertIconDisabled
 70
     0
  0
APPID
  5
64F9
330
9
100
AcDbSymbolTableRecord
100
AcDbRegAppTableRecord
  2
ACAD_NAV_VCDISPLAY
 70
     0
  0
ENDTAB
  0
TABLE
  2
DIMSTYLE
  5
A
330
0
100
AcDbSymbolTable
 70
     1
100
AcDbDimStyleTable
 71
     1
340
27
  0
DIMSTYLE
105
27
102
{ACAD_REACTORS
330
330D
330
35D1
330
35E9
330
3601
330
373E
330
623D
330
6255
330
626D
330
6285
330
629D
330
62B5
330
62C5
330
62EF
330
630C
330
631C
330
633D
330
635E
330
636E
102
}
330
A
100
AcDbSymbolTableRecord
100
AcDbDimStyleTableRecord
  2
ISO-25
 70
     0
 41
2.0
 42
1.0
 43
3.75
 44
1.25
 73
     0
 74
     0
 77
     1
 78
     8
140
3.0
141
2.5
143
0.03937007874016
147
5.0
171
     3
172
     1
271
     2
272
     2
274
     3
278
    44
283
     0
284
     8
340
11
  0
ENDTAB
  0
TABLE
  2
BLOCK_RECORD
  5
1
330
0
100
AcDbSymbolTable
 70
    19
  0
BLOCK_RECORD
  5
1F
330
1
100
AcDbSymbolTableRecord
100
AcDbBlockTableRecord
  2
*Model_Space
340
22
 70
     0
280
     1
281
     0
  0
BLOCK_RECORD
  5
50
330
1
100
AcDbSymbolTableRecord
100
AcDbBlockTableRecord
  2
*Paper_Space
340
51
 70
     0
280
     1
281
     0
  0
BLOCK_RECORD
  5
55
330
1
100
AcDbSymbolTableRecord
100
AcDbBlockTableRecord
  2
*Paper_Space0
340
56
 70
     0
280
     1
281
     0
  0
BLOCK_RECORD
  5
330E
330
1
100
AcDbSymbolTableRecord
100
AcDbBlockTableRecord
  2
*D1
340
0
 70
     0
280
     1
281
     0
  0
BLOCK_RECORD
  5
35D2
330
1
100
AcDbSymbolTableRecord
100
AcDbBlockTableRecord
  2
*D2
340
0
 70
     0
280
     1
281
     0
  0
BLOCK_RECORD
  5
35EA
330
1
100
AcDbSymbolTableRecord
100
AcDbBlockTableRecord
  2
*D3
340
0
 70
     0
280
     1
281
     0
  0
BLOCK_RECORD
  5
3602
330
1
100
AcDbSymbolTableRecord
100
AcDbBlockTableRecord
  2
*D4
340
0
 70
     0
280
     1
281
     0
  0
BLOCK_RECORD
  5
373F
330
1
100
AcDbSymbolTableRecord
100
AcDbBlockTableRecord
  2
*D5
340
0
 70
     0
280
     1
281
     0
  0
BLOCK_RECORD
  5
623E
330
1
100
AcDbSymbolTableRecord
100
AcDbBlockTableRecord
  2
*D6
340
0
 70
     0
280
     1
281
     0
  0
BLOCK_RECORD
  5
6256
330
1
100
AcDbSymbolTableRecord
100
AcDbBlockTableRecord
  2
*D7
340
0
 70
     0
280
     1
281
     0
  0
BLOCK_RECORD
  5
626E
330
1
100
AcDbSymbolTableRecord
100
AcDbBlockTableRecord
  2
*D8
340
0
 70
     0
280
     1
281
     0
  0
BLOCK_RECORD
  5
6286
330
1
100
AcDbSymbolTableRecord
100
AcDbBlockTableRecord
  2
*D9
340
0
 70
     0
280
     1
281
     0
  0
BLOCK_RECORD
  5
629E
330
1
100
AcDbSymbolTableRecord
100
AcDbBlockTableRecord
  2
*D10
340
0
 70
     0
280
     1
281
     0
  0
BLOCK_RECORD
  5
62B6
330
1
100
AcDbSymbolTableRecord
100
AcDbBlockTableRecord
  2
*D11
340
0
 70
     0
280
     1
281
     0
  0
BLOCK_RECORD
  5
62C6
330
1
100
AcDbSymbolTableRecord
100
AcDbBlockTableRecord
  2
*D12
340
0
 70
     0
280
     1
281
     0
  0
BLOCK_RECORD
  5
62F0
330
1
100
AcDbSymbolTableRecord
100
AcDbBlockTableRecord
  2
*D13
340
0
 70
     0
280
     1
281
     0
  0
BLOCK_RECORD
  5
630F
330
1
100
AcDbSymbolTableRecord
100
AcDbBlockTableRecord
  2
*D14
340
0
 70
     0
280
     1
281
     0
  0
BLOCK_RECORD
  5
631D
330
1
100
AcDbSymbolTableRecord
100
AcDbBlockTableRecord
  2
*D15
340
0
 70
     0
280
     1
281
     0
  0
BLOCK_RECORD
  5
633E
330
1
100
AcDbSymbolTableRecord
100
AcDbBlockTableRecord
  2
*D16
340
0
 70
     0
280
     1
281
     0
  0
BLOCK_RECORD
  5
635F
330
1
100
AcDbSymbolTableRecord
100
AcDbBlockTableRecord
  2
*D17
340
0
 70
     0
280
     1
281
     0
  0
BLOCK_RECORD
  5
636F
330
1
100
AcDbSymbolTableRecord
100
AcDbBlockTableRecord
  2
*D18
340
0
 70
     0
280
     1
281
     0
  0
ENDTAB
  0
ENDSEC
  0
SECTION
  2
BLOCKS
  0
BLOCK
  5
20
330
1F
100
AcDbEntity
  8
0
100
AcDbBlockBegin
  2
*Model_Space
 70
     0
 10
0.0
 20
0.0
 30
0.0
  3
*Model_Space
  1

  0
ENDBLK
  5
21
330
1F
100
AcDbEntity
  8
0
100
AcDbBlockEnd
  0
BLOCK
  5
52
330
50
100
AcDbEntity
 67
     1
  8
0
100
AcDbBlockBegin
  2
*Paper_Space
 70
     0
 10
0.0
 20
0.0
 30
0.0
  3
*Paper_Space
  1

  0
ENDBLK
  5
53
330
50
100
AcDbEntity
 67
     1
  8
0
100
AcDbBlockEnd
  0
BLOCK
  5
57
330
55
100
AcDbEntity
 67
     1
  8
0
100
AcDbBlockBegin
  2
*Paper_Space0
 70
     0
 10
0.0
 20
0.0
 30
0.0
  3
*Paper_Space0
  1

  0
ENDBLK
  5
58
330
55
100
AcDbEntity
 67
     1
  8
0
100
AcDbBlockEnd
  0
BLOCK
  5
331E
330
330E
100
AcDbEntity
  8
0
100
AcDbBlockBegin
  2
*D1
 70
     1
 10
0.0
 20
0.0
 30
0.0
  3
*D1
  1

  0
LINE
  5
6200
330
330E
100
AcDbEntity
  8
DIM
 62
     0
440
 16777216
370
    -2
100
AcDbLine
 10
33524.63353322805
 20
3825.20826994699
 30
0.0
 11
33677.19448454292
 21
3825.20826994699
 31
0.0
  0
LINE
  5
6201
330
330E
100
AcDbEntity
  8
DIM
 62
     0
440
 16777216
370
    -2
100
AcDbLine
 10
33594.3778988902
 20
3827.678717633119
 30
0.0
 11
33677.10093936046
 21
3830.567469861037
 31
0.0
  0
ARC
  5
6202
330
330E
100
AcDbEntity
  8
DIM
 62
     0
440
 16777216
370
    -2
100
AcDbCircle
 10
33523.63353322805
 20
3825.20826994699
 30
0.0
 40
152.3109513148696
100
AcDbArc
 50
353.9784073331654
 51
0.0
  0
LINE
  5
6203
330
330E
100
AcDbEntity
  8
DIM
 62
     0
440
 16777216
370
    -2
100
AcDbLine
 10
33675.1040984847
 20
3809.230355462517
 30
0.0
 11
33668.4427418258
 21
3746.080721041858
 31
0.0
  0
ARC
  5
6204
330
330E
100
AcDbEntity
  8
DIM
 62
     0
440
 16777216
370
    -2
100
AcDbCircle
 10
33523.63353322805
 20
3825.20826994699
 30
0.0
 40
152.3109513148696
100
AcDbArc
 50
353.9804861383689
 51
356.9902430691844
  0
ARC
  5
6205
330
330E
100
AcDbEntity
  8
DIM
 62
     0
440
 16777216
370
    -2
100
AcDbCircle
 10
33523.63353322805
 20
3825.20826994699
 30
0.0
 40
152.3109513148696
100
AcDbArc
 50
5.009756930815735
 51
8.019513861631276
  0
ARC
  5
6206
330
330E
100
AcDbEntity
  8
DIM
 62
     0
440
 16777216
370
    -2
100
AcDbCircle
 10
33523.63353322805
 20
3825.20826994699
 30
0.0
 40
152.3109513148696
100
AcDbArc
 50
0.0
 51
2.000000000000193
  0
SOLID
  5
6207
330
330E
100
AcDbEntity
  8
DIM
 62
     0
440
 16777216
100
AcDbTrace
 10
33674.40151457168
 20
3817.246045292684
 30
0.0
 11
33677.06726148504
 21
3817.176013121165
 31
0.0
 12
33675.94448454292
 22
3825.20826994699
 32
0.0
 13
33675.94448454292
 23
3825.20826994699
 33
0.0
  0
SOLID
  5
6208
330
330E
100
AcDbEntity
  8
DIM
 62
     0
440
 16777216
100
AcDbTrace
 10
33676.69347208282
 20
3838.59039363234
 30
0.0
 11
33674.03179315799
 21
3838.427370896916
 31
0.0
 12
33675.85170082668
 22
3830.523845490159
 32
0.0
 13
33675.85170082668
 23
3830.523845490159
 33
0.0
  0
MTEXT
  5
6209
330
330E
100
AcDbEntity
  8
DIM
 62
     0
440
 16777216
100
AcDbMText
 10
33683.45858872915
 20
3776.422925012159
 30
0.0
 40
15.0
 41
0.0
 46
0.0
 71
     5
 72
     1
  1
2,00°
 11
-0.1049032544708006
 21
-0.9944824318214145
 31
0.0
 73
     1
 44
1.0
  0
POINT
  5
620A
330
330E
100
AcDbEntity
  8
Defpoints
 62
     0
440
 16777216
100
AcDbPoint
 10
33675.90324500939
 20
3828.752386828427
 30
0.0
  0
POINT
  5
620B
330
330E
100
AcDbEntity
  8
Defpoints
 62
     0
440
 16777216
100
AcDbPoint
 10
33523.63353322805
 20
3825.20826994699
 30
0.0
  0
POINT
  5
620C
330
330E
100
AcDbEntity
  8
Defpoints
 62
     0
440
 16777216
100
AcDbPoint
 10
33523.63353322805
 20
3825.20826994699
 30
0.0
  0
POINT
  5
620D
330
330E
100
AcDbEntity
  8
Defpoints
 62
     0
440
 16777216
100
AcDbPoint
 10
33593.37850806318
 20
3827.643818136417
 30
0.0
  0
POINT
  5
620E
330
330E
100
AcDbEntity
  8
Defpoints
 62
     0
440
 16777216
100
AcDbPoint
 10
33403.63353322805
 20
3825.20826994699
 30
0.0
  0
ENDBLK
  5
331F
330
330E
100
AcDbEntity
  8
0
100
AcDbBlockEnd
  0
BLOCK
  5
35DC
330
35D2
100
AcDbEntity
  8
0
100
AcDbBlockBegin
  2
*D2
 70
     1
 10
0.0
 20
0.0
 30
0.0
  3
*D2
  1

  0
LINE
  5
64C8
330
35D2
100
AcDbEntity
  8
DIM
 62
     0
440
 16777216
370
    -2
100
AcDbLine
 10
33350.61510000368
 20
2901.934182731947
 30
0.0
 11
33350.61510000368
 21
2863.086905126838
 31
0.0
  0
LINE
  5
64C9
330
35D2
100
AcDbEntity
  8
DIM
 62
     0
440
 16777216
370
    -2
100
AcDbLine
 10
33526.61510000368
 20
2902.534182731946
 30
0.0
 11
33526.61510000368
 21
2863.086905126838
 31
0.0
  0
LINE
  5
64CA
330
35D2
100
AcDbEntity
  8
DIM
 62
     0
440
 16777216
370
    -2
100
AcDbLine
 10
33358.61510000368
 20
2864.336905126839
 30
0.0
 11
33518.61510000368
 21
2864.336905126839
 31
0.0
  0
SOLID
  5
64CB
330
35D2
100
AcDbEntity
  8
DIM
 62
     0
440
 16777216
100
AcDbTrace
 10
33358.61510000368
 20
2865.670238460172
 30
0.0
 11
33358.61510000368
 21
2863.003571793505
 31
0.0
 12
33350.61510000368
 22
2864.336905126839
 32
0.0
 13
33350.61510000368
 23
2864.336905126839
 33
0.0
  0
SOLID
  5
64CC
330
35D2
100
AcDbEntity
  8
DIM
 62
     0
440
 16777216
100
AcDbTrace
 10
33518.61510000368
 20
2865.670238460172
 30
0.0
 11
33518.61510000368
 21
2863.003571793505
 31
0.0
 12
33526.61510000368
 22
2864.336905126839
 32
0.0
 13
33526.61510000368
 23
2864.336905126839
 33
0.0
  0
MTEXT
  5
64CD
330
35D2
100
AcDbEntity
  8
DIM
 62
     0
440
 16777216
100
AcDbMText
 10
33438.61510000368
 20
2874.836905126839
 30
0.0
 40
15.0
 41
0.0
 46
0.0
 71
     5
 72
     1
  1
%%C90{\Ftxt|c134; [3.5"]}
 73
     1
 44
1.0
  0
POINT
  5
64CE
330
35D2
100
AcDbEntity
  8
Defpoints
 62
     0
440
 16777216
100
AcDbPoint
 10
33350.61510000368
 20
2902.934182731947
 30
0.0
  0
POINT
  5
64CF
330
35D2
100
AcDbEntity
  8
Defpoints
 62
     0
440
 16777216
100
AcDbPoint
 10
33526.61510000368
 20
2903.534182731945
 30
0.0
  0
POINT
  5
64D0
330
35D2
100
AcDbEntity
  8
Defpoints
 62
     0
440
 16777216
100
AcDbPoint
 10
33526.61510000368
 20
2864.336905126839
 30
0.0
  0
ENDBLK
  5
35DD
330
35D2
100
AcDbEntity
  8
0
100
AcDbBlockEnd
  0
BLOCK
  5
35F4
330
35EA
100
AcDbEntity
  8
0
100
AcDbBlockBegin
  2
*D3
 70
     1
 10
0.0
 20
0.0
 30
0.0
  3
*D3
  1

  0
LINE
  5
64B6
330
35EA
100
AcDbEntity
  8
DIM
 62
     0
440
 16777216
370
    -2
100
AcDbLine
 10
33324.72353344562
 20
2906.906522434265
 30
0.0
 11
33324.72353344562
 21
2945.603140803374
 31
0.0
  0
LINE
  5
64B7
330
35EA
100
AcDbEntity
  8
DIM
 62
     0
440
 16777216
370
    -2
100
AcDbLine
 10
33552.52574904544
 20
2906.934182731948
 30
0.0
 11
33552.52574904544
 21
2945.603140803374
 31
0.0
  0
LINE
  5
64B8
330
35EA
100
AcDbEntity
  8
DIM
 62
     0
440
 16777216
370
    -2
100
AcDbLine
 10
33332.72353344562
 20
2944.353140803374
 30
0.0
 11
33544.52574904544
 21
2944.353140803374
 31
0.0
  0
SOLID
  5
64B9
330
35EA
100
AcDbEntity
  8
DIM
 62
     0
440
 16777216
100
AcDbTrace
 10
33332.72353344562
 20
2945.686474136708
 30
0.0
 11
33332.72353344562
 21
2943.019807470041
 31
0.0
 12
33324.72353344562
 22
2944.353140803374
 32
0.0
 13
33324.72353344562
 23
2944.353140803374
 33
0.0
  0
SOLID
  5
64BA
330
35EA
100
AcDbEntity
  8
DIM
 62
     0
440
 16777216
100
AcDbTrace
 10
33544.52574904544
 20
2945.686474136708
 30
0.0
 11
33544.52574904544
 21
2943.019807470041
 31
0.0
 12
33552.52574904544
 22
2944.353140803374
 32
0.0
 13
33552.52574904544
 23
2944.353140803374
 33
0.0
  0
MTEXT
  5
64BB
330
35EA
100
AcDbEntity
  8
DIM
 62
     0
440
 16777216
100
AcDbMText
 10
33438.62464124553
 20
2954.853140803374
 30
0.0
 40
15.0
 41
0.0
 46
0.0
 71
     5
 72
     1
  1
%%C114{\Ftxt|c134; [4.5"]}
 73
     1
 44
1.0
  0
POINT
  5
64BC
330
35EA
100
AcDbEntity
  8
Defpoints
 62
     0
440
 16777216
100
AcDbPoint
 10
33324.72353344562
 20
2905.906522434265
 30
0.0
  0
POINT
  5
64BD
330
35EA
100
AcDbEntity
  8
Defpoints
 62
     0
440
 16777216
100
AcDbPoint
 10
33552.52574904544
 20
2905.934182731947
 30
0.0
  0
POINT
  5
64BE
330
35EA
100
AcDbEntity
  8
Defpoints
 62
     0
440
 16777216
100
AcDbPoint
 10
33552.52574904544
 20
2944.353140803374
 30
0.0
  0
ENDBLK
  5
35F5
330
35EA
100
AcDbEntity
  8
0
100
AcDbBlockEnd
  0
BLOCK
  5
360C
330
3602
100
AcDbEntity
  8
0
100
AcDbBlockBegin
  2
*D4
 70
     1
 10
0.0
 20
0.0
 30
0.0
  3
*D4
  1

  0
LINE
  5
64DA
330
3602
100
AcDbEntity
  8
DIM
 62
     0
440
 16777216
370
    -2
100
AcDbLine
 10
33318.61510000368
 20
2909.532719825631
 30
0.0
 11
33318.61510000368
 21
2821.861004147106
 31
0.0
  0
LINE
  5
64DB
330
3602
100
AcDbEntity
  8
DIM
 62
     0
440
 16777216
370
    -2
100
AcDbLine
 10
33558.61510000368
 20
2909.532719825631
 30
0.0
 11
33558.61510000368
 21
2821.861004147106
 31
0.0
  0
LINE
  5
64DC
330
3602
100
AcDbEntity
  8
DIM
 62
     0
440
 16777216
370
    -2
100
AcDbLine
 10
33326.61510000368
 20
2823.111004147106
 30
0.0
 11
33550.61510000368
 21
2823.111004147106
 31
0.0
  0
SOLID
  5
64DD
330
3602
100
AcDbEntity
  8
DIM
 62
     0
440
 16777216
100
AcDbTrace
 10
33326.61510000368
 20
2824.444337480439
 30
0.0
 11
33326.61510000368
 21
2821.777670813773
 31
0.0
 12
33318.61510000368
 22
2823.111004147106
 32
0.0
 13
33318.61510000368
 23
2823.111004147106
 33
0.0
  0
SOLID
  5
64DE
330
3602
100
AcDbEntity
  8
DIM
 62
     0
440
 16777216
100
AcDbTrace
 10
33550.61510000368
 20
2824.444337480439
 30
0.0
 11
33550.61510000368
 21
2821.777670813773
 31
0.0
 12
33558.61510000368
 22
2823.111004147106
 32
0.0
 13
33558.61510000368
 23
2823.111004147106
 33
0.0
  0
MTEXT
  5
64DF
330
3602
100
AcDbEntity
  8
DIM
 62
     0
440
 16777216
100
AcDbMText
 10
33438.61510000368
 20
2833.611004147106
 30
0.0
 40
15.0
 41
0.0
 46
0.0
 71
     5
 72
     1
  1
%%C120{\Ftxt|c134; [4.72"]}
 73
     1
 44
1.0
  0
POINT
  5
64E0
330
3602
100
AcDbEntity
  8
Defpoints
 62
     0
440
 16777216
100
AcDbPoint
 10
33318.61510000368
 20
2910.53271982563
 30
0.0
  0
POINT
  5
64E1
330
3602
100
AcDbEntity
  8
Defpoints
 62
     0
440
 16777216
100
AcDbPoint
 10
33558.61510000368
 20
2910.53271982563
 30
0.0
  0
POINT
  5
64E2
330
3602
100
AcDbEntity
  8
Defpoints
 62
     0
440
 16777216
100
AcDbPoint
 10
33558.61510000368
 20
2823.111004147106
 30
0.0
  0
ENDBLK
  5
360D
330
3602
100
AcDbEntity
  8
0
100
AcDbBlockEnd
  0
BLOCK
  5
374B
330
373F
100
AcDbEntity
  8
0
100
AcDbBlockBegin
  2
*D5
 70
     1
 10
0.0
 20
0.0
 30
0.0
  3
*D5
  1

  0
LINE
  5
64EE
330
373F
100
AcDbEntity
  8
DIM
 62
     0
440
 16777216
370
    -2
100
AcDbLine
 10
33527.61510000373
 20
2902.934182731948
 30
0.0
 11
33656.56202888221
 21
2902.934182731948
 31
0.0
  0
LINE
  5
64EF
330
373F
100
AcDbEntity
  8
DIM
 62
     0
440
 16777216
370
    -2
100
AcDbLine
 10
33558.32385105421
 20
2912.889091325027
 30
0.0
 11
33656.56202888221
 21
2912.889091325027
 31
0.0
  0
LINE
  5
64F0
330
373F
100
AcDbEntity
  8
DIM
 62
     0
440
 16777216
370
    -2
100
AcDbLine
 10
33655.31202888221
 20
2894.934182731948
 30
0.0
 11
33655.31202888221
 21
2886.934182731948
 31
0.0
  0
LINE
  5
64F1
330
373F
100
AcDbEntity
  8
DIM
 62
     0
440
 16777216
370
    -2
100
AcDbLine
 10
33655.31202888221
 20
2920.889091325026
 30
0.0
 11
33655.31202888221
 21
3009.889091325027
 31
0.0
  0
LINE
  5
64F2
330
373F
100
AcDbEntity
  8
DIM
 62
     0
440
 16777216
370
    -2
100
AcDbLine
 10
33655.31202888221
 20
2902.934182731948
 30
0.0
 11
33655.31202888221
 21
2912.889091325027
 31
0.0
  0
SOLID
  5
64F3
330
373F
100
AcDbEntity
  8
DIM
 62
     0
440
 16777216
100
AcDbTrace
 10
33653.97869554887
 20
2894.934182731948
 30
0.0
 11
33656.64536221555
 21
2894.934182731948
 31
0.0
 12
33655.31202888221
 22
2902.934182731948
 32
0.0
 13
33655.31202888221
 23
2902.934182731948
 33
0.0
  0
SOLID
  5
64F4
330
373F
100
AcDbEntity
  8
DIM
 62
     0
440
 16777216
100
AcDbTrace
 10
33653.97869554887
 20
2920.889091325026
 30
0.0
 11
33656.64536221555
 21
2920.889091325026
 31
0.0
 12
33655.31202888221
 22
2912.889091325027
 32
0.0
 13
33655.31202888221
 23
2912.889091325027
 33
0.0
  0
MTEXT
  5
64F5
330
373F
100
AcDbEntity
  8
DIM
 62
     0
440
 16777216
100
AcDbMText
 10
33644.8120288822
 20
2969.389091325016
 30
0.0
 40
15.0
 41
0.0
 46
0.0
 71
     5
 72
     1
  1
5{\Ftxt|c134; [.2"]}
 11
0.0000000000000001
 21
1.0
 31
0.0
 73
     1
 44
1.0
  0
POINT
  5
64F6
330
373F
100
AcDbEntity
  8
Defpoints
 62
     0
440
 16777216
100
AcDbPoint
 10
33526.61510000373
 20
2902.934182731948
 30
0.0
  0
POINT
  5
64F7
330
373F
100
AcDbEntity
  8
Defpoints
 62
     0
440
 16777216
100
AcDbPoint
 10
33557.32385105421
 20
2912.889091325027
 30
0.0
  0
POINT
  5
64F8
330
373F
100
AcDbEntity
  8
Defpoints
 62
     0
440
 16777216
100
AcDbPoint
 10
33655.31202888221
 20
2912.889091325027
 30
0.0
  0
ENDBLK
  5
374C
330
373F
100
AcDbEntity
  8
0
100
AcDbBlockEnd
  0
BLOCK
  5
6248
330
623E
100
AcDbEntity
  8
0
100
AcDbBlockBegin
  2
*D6
 70
     1
 10
0.0
 20
0.0
 30
0.0
  3
*D6
  1

  0
LINE
  5
6418
330
623E
100
AcDbEntity
  8
0
 62
     0
440
 16777216
370
    -2
100
AcDbLine
 10
32872.63353322805
 20
3443.564235683631
 30
0.0
 11
32872.63353322805
 21
3677.159216771916
 31
0.0
  0
LINE
  5
6419
330
623E
100
AcDbEntity
  8
0
 62
     0
440
 16777216
370
    -2
100
AcDbLine
 10
33666.63353322805
 20
3425.986867924731
 30
0.0
 11
33666.63353322805
 21
3677.159216771916
 31
0.0
  0
LINE
  5
641A
330
623E
100
AcDbEntity
  8
0
 62
     0
440
 16777216
370
    -2
100
AcDbLine
 10
32880.63353322805
 20
3675.909216771916
 30
0.0
 11
33658.63353322805
 21
3675.909216771916
 31
0.0
  0
SOLID
  5
641B
330
623E
100
AcDbEntity
  8
0
 62
     0
440
 16777216
100
AcDbTrace
 10
32880.63353322805
 20
3677.24255010525
 30
0.0
 11
32880.63353322805
 21
3674.575883438583
 31
0.0
 12
32872.63353322805
 22
3675.909216771916
 32
0.0
 13
32872.63353322805
 23
3675.909216771916
 33
0.0
  0
SOLID
  5
641C
330
623E
100
AcDbEntity
  8
0
 62
     0
440
 16777216
100
AcDbTrace
 10
33658.63353322805
 20
3677.24255010525
 30
0.0
 11
33658.63353322805
 21
3674.575883438583
 31
0.0
 12
33666.63353322805
 22
3675.909216771916
 32
0.0
 13
33666.63353322805
 23
3675.909216771916
 33
0.0
  0
MTEXT
  5
641D
330
623E
100
AcDbEntity
  8
0
 62
     0
440
 16777216
100
AcDbMText
 10
33269.63353322805
 20
3686.409216771916
 30
0.0
 40
15.0
 41
0.0
 46
0.0
 71
     5
 72
     1
  1
794{\Ftxt|c134; [31.26"]}
 73
     1
 44
1.0
  0
POINT
  5
641E
330
623E
100
AcDbEntity
  8
Defpoints
 62
     0
440
 16777216
100
AcDbPoint
 10
32872.63353322805
 20
3442.564235683631
 30
0.0
  0
POINT
  5
641F
330
623E
100
AcDbEntity
  8
Defpoints
 62
     0
440
 16777216
100
AcDbPoint
 10
33666.63353322805
 20
3424.986867924731
 30
0.0
  0
POINT
  5
6420
330
623E
100
AcDbEntity
  8
Defpoints
 62
     0
440
 16777216
100
AcDbPoint
 10
33666.63353322805
 20
3675.909216771916
 30
0.0
  0
ENDBLK
  5
6249
330
623E
100
AcDbEntity
  8
0
100
AcDbBlockEnd
  0
BLOCK
  5
6260
330
6256
100
AcDbEntity
  8
0
100
AcDbBlockBegin
  2
*D7
 70
     1
 10
0.0
 20
0.0
 30
0.0
  3
*D7
  1

  0
LINE
  5
644E
330
6256
100
AcDbEntity
  8
0
 62
     0
440
 16777216
370
    -2
100
AcDbLine
 10
33036.23389780047
 20
3565.794837380288
 30
0.0
 11
32753.49286454751
 21
3565.794837380288
 31
0.0
  0
LINE
  5
644F
330
6256
100
AcDbEntity
  8
0
 62
     0
440
 16777216
370
    -2
100
AcDbLine
 10
33036.23389780047
 20
3109.794837380288
 30
0.0
 11
32753.49286454751
 21
3109.794837380288
 31
0.0
  0
LINE
  5
6450
330
6256
100
AcDbEntity
  8
0
 62
     0
440
 16777216
370
    -2
100
AcDbLine
 10
32754.74286454751
 20
3557.794837380289
 30
0.0
 11
32754.74286454751
 21
3117.794837380288
 31
0.0
  0
SOLID
  5
6451
330
6256
100
AcDbEntity
  8
0
 62
     0
440
 16777216
100
AcDbTrace
 10
32753.40953121418
 20
3557.794837380289
 30
0.0
 11
32756.07619788084
 21
3557.794837380289
 31
0.0
 12
32754.74286454751
 22
3565.794837380288
 32
0.0
 13
32754.74286454751
 23
3565.794837380288
 33
0.0
  0
SOLID
  5
6452
330
6256
100
AcDbEntity
  8
0
 62
     0
440
 16777216
100
AcDbTrace
 10
32753.40953121418
 20
3117.794837380288
 30
0.0
 11
32756.07619788084
 21
3117.794837380288
 31
0.0
 12
32754.74286454751
 22
3109.794837380288
 32
0.0
 13
32754.74286454751
 23
3109.794837380288
 33
0.0
  0
MTEXT
  5
6453
330
6256
100
AcDbEntity
  8
0
 62
     0
440
 16777216
100
AcDbMText
 10
32744.2428645475
 20
3337.794837380278
 30
0.0
 40
15.0
 41
0.0
 46
0.0
 71
     5
 72
     1
  1
456{\Ftxt|c134; [17.95"}
 11
0.0000000000000001
 21
1.0
 31
0.0
 73
     1
 44
1.0
  0
POINT
  5
6454
330
6256
100
AcDbEntity
  8
Defpoints
 62
     0
440
 16777216
100
AcDbPoint
 10
33037.23389780047
 20
3565.794837380288
 30
0.0
  0
POINT
  5
6455
330
6256
100
AcDbEntity
  8
Defpoints
 62
     0
440
 16777216
100
AcDbPoint
 10
33037.23389780047
 20
3109.794837380288
 30
0.0
  0
POINT
  5
6456
330
6256
100
AcDbEntity
  8
Defpoints
 62
     0
440
 16777216
100
AcDbPoint
 10
32754.74286454751
 20
3109.794837380288
 30
0.0
  0
ENDBLK
  5
6261
330
6256
100
AcDbEntity
  8
0
100
AcDbBlockEnd
  0
BLOCK
  5
6278
330
626E
100
AcDbEntity
  8
0
100
AcDbBlockBegin
  2
*D8
 70
     1
 10
0.0
 20
0.0
 30
0.0
  3
*D8
  1

  0
LINE
  5
642A
330
626E
100
AcDbEntity
  8
0
 62
     0
440
 16777216
370
    -2
100
AcDbLine
 10
32897.63353322805
 20
3412.933541931894
 30
0.0
 11
32897.63353322805
 21
3609.394076959544
 31
0.0
  0
LINE
  5
642B
330
626E
100
AcDbEntity
  8
0
 62
     0
440
 16777216
370
    -2
100
AcDbLine
 10
33253.63353322806
 20
3412.933541931884
 30
0.0
 11
33253.63353322806
 21
3609.394076959544
 31
0.0
  0
LINE
  5
642C
330
626E
100
AcDbEntity
  8
0
 62
     0
440
 16777216
370
    -2
100
AcDbLine
 10
32905.63353322805
 20
3608.144076959544
 30
0.0
 11
33245.63353322806
 21
3608.144076959544
 31
0.0
  0
SOLID
  5
642D
330
626E
100
AcDbEntity
  8
0
 62
     0
440
 16777216
100
AcDbTrace
 10
32905.63353322805
 20
3609.477410292877
 30
0.0
 11
32905.63353322805
 21
3606.810743626211
 31
0.0
 12
32897.63353322805
 22
3608.144076959544
 32
0.0
 13
32897.63353322805
 23
3608.144076959544
 33
0.0
  0
SOLID
  5
642E
330
626E
100
AcDbEntity
  8
0
 62
     0
440
 16777216
100
AcDbTrace
 10
33245.63353322806
 20
3609.477410292877
 30
0.0
 11
33245.63353322806
 21
3606.810743626211
 31
0.0
 12
33253.63353322806
 22
3608.144076959544
 32
0.0
 13
33253.63353322806
 23
3608.144076959544
 33
0.0
  0
MTEXT
  5
642F
330
626E
100
AcDbEntity
  8
0
 62
     0
440
 16777216
100
AcDbMText
 10
33075.63353322806
 20
3618.644076959544
 30
0.0
 40
15.0
 41
0.0
 46
0.0
 71
     5
 72
     1
  1
356{\Ftxt|c134; [14"]}
 73
     1
 44
1.0
  0
POINT
  5
6430
330
626E
100
AcDbEntity
  8
Defpoints
 62
     0
440
 16777216
100
AcDbPoint
 10
32897.63353322805
 20
3411.933541931894
 30
0.0
  0
POINT
  5
6431
330
626E
100
AcDbEntity
  8
Defpoints
 62
     0
440
 16777216
100
AcDbPoint
 10
33253.63353322806
 20
3411.933541931884
 30
0.0
  0
POINT
  5
6432
330
626E
100
AcDbEntity
  8
Defpoints
 62
     0
440
 16777216
100
AcDbPoint
 10
33253.63353322806
 20
3608.144076959544
 30
0.0
  0
ENDBLK
  5
6279
330
626E
100
AcDbEntity
  8
0
100
AcDbBlockEnd
  0
BLOCK
  5
6290
330
6286
100
AcDbEntity
  8
0
100
AcDbBlockBegin
  2
*D9
 70
     1
 10
0.0
 20
0.0
 30
0.0
  3
*D9
  1

  0
LINE
  5
643C
330
6286
100
AcDbEntity
  8
0
 62
     0
440
 16777216
370
    -2
100
AcDbLine
 10
33285.63353322804
 20
3433.702200290261
 30
0.0
 11
33285.63353322804
 21
3607.485129646031
 31
0.0
  0
LINE
  5
643D
330
6286
100
AcDbEntity
  8
0
 62
     0
440
 16777216
370
    -2
100
AcDbLine
 10
33641.63353322805
 20
3433.702200290261
 30
0.0
 11
33641.63353322805
 21
3607.485129646031
 31
0.0
  0
LINE
  5
643E
330
6286
100
AcDbEntity
  8
0
 62
     0
440
 16777216
370
    -2
100
AcDbLine
 10
33293.63353322805
 20
3606.235129646031
 30
0.0
 11
33633.63353322805
 21
3606.235129646031
 31
0.0
  0
SOLID
  5
643F
330
6286
100
AcDbEntity
  8
0
 62
     0
440
 16777216
100
AcDbTrace
 10
33293.63353322805
 20
3607.568462979365
 30
0.0
 11
33293.63353322805
 21
3604.901796312698
 31
0.0
 12
33285.63353322804
 22
3606.235129646031
 32
0.0
 13
33285.63353322804
 23
3606.235129646031
 33
0.0
  0
SOLID
  5
6440
330
6286
100
AcDbEntity
  8
0
 62
     0
440
 16777216
100
AcDbTrace
 10
33633.63353322805
 20
3607.568462979365
 30
0.0
 11
33633.63353322805
 21
3604.901796312698
 31
0.0
 12
33641.63353322805
 22
3606.235129646031
 32
0.0
 13
33641.63353322805
 23
3606.235129646031
 33
0.0
  0
MTEXT
  5
6441
330
6286
100
AcDbEntity
  8
0
 62
     0
440
 16777216
100
AcDbMText
 10
33463.63353322804
 20
3616.735129646031
 30
0.0
 40
15.0
 41
0.0
 46
0.0
 71
     5
 72
     1
  1
356{\Ftxt|c134; [14"]}
 73
     1
 44
1.0
  0
POINT
  5
6442
330
6286
100
AcDbEntity
  8
Defpoints
 62
     0
440
 16777216
100
AcDbPoint
 10
33285.63353322804
 20
3432.702200290262
 30
0.0
  0
POINT
  5
6443
330
6286
100
AcDbEntity
  8
Defpoints
 62
     0
440
 16777216
100
AcDbPoint
 10
33641.63353322805
 20
3432.702200290262
 30
0.0
  0
POINT
  5
6444
330
6286
100
AcDbEntity
  8
Defpoints
 62
     0
440
 16777216
100
AcDbPoint
 10
33641.63353322805
 20
3606.235129646031
 30
0.0
  0
ENDBLK
  5
6291
330
6286
100
AcDbEntity
  8
0
100
AcDbBlockEnd
  0
BLOCK
  5
62A8
330
629E
100
AcDbEntity
  8
0
100
AcDbBlockBegin
  2
*D10
 70
     1
 10
0.0
 20
0.0
 30
0.0
  3
*D10
  1

  0
LINE
  5
6460
330
629E
100
AcDbEntity
  8
0
 62
     0
440
 16777216
370
    -2
100
AcDbLine
 10
33015.30072802582
 20
3540.794837380288
 30
0.0
 11
32819.72502920426
 21
3540.794837380288
 31
0.0
  0
LINE
  5
6461
330
629E
100
AcDbEntity
  8
0
 62
     0
440
 16777216
370
    -2
100
AcDbLine
 10
33015.30072802582
 20
3134.794837380288
 30
0.0
 11
32819.72502920426
 21
3134.794837380288
 31
0.0
  0
LINE
  5
6462
330
629E
100
AcDbEntity
  8
0
 62
     0
440
 16777216
370
    -2
100
AcDbLine
 10
32820.97502920426
 20
3532.794837380289
 30
0.0
 11
32820.97502920426
 21
3142.794837380288
 31
0.0
  0
SOLID
  5
6463
330
629E
100
AcDbEntity
  8
0
 62
     0
440
 16777216
100
AcDbTrace
 10
32819.64169587093
 20
3532.794837380289
 30
0.0
 11
32822.3083625376
 21
3532.794837380289
 31
0.0
 12
32820.97502920426
 22
3540.794837380288
 32
0.0
 13
32820.97502920426
 23
3540.794837380288
 33
0.0
  0
SOLID
  5
6464
330
629E
100
AcDbEntity
  8
0
 62
     0
440
 16777216
100
AcDbTrace
 10
32819.64169587093
 20
3142.794837380288
 30
0.0
 11
32822.3083625376
 21
3142.794837380288
 31
0.0
 12
32820.97502920426
 22
3134.794837380288
 32
0.0
 13
32820.97502920426
 23
3134.794837380288
 33
0.0
  0
MTEXT
  5
6465
330
629E
100
AcDbEntity
  8
0
 62
     0
440
 16777216
100
AcDbMText
 10
32810.47502920425
 20
3337.794837380278
 30
0.0
 40
15.0
 41
0.0
 46
0.0
 71
     5
 72
     1
  1
406{\Ftxt|c134; [15.98"]}
 11
0.0000000000000001
 21
1.0
 31
0.0
 73
     1
 44
1.0
  0
POINT
  5
6466
330
629E
100
AcDbEntity
  8
Defpoints
 62
     0
440
 16777216
100
AcDbPoint
 10
33016.30072802582
 20
3540.794837380288
 30
0.0
  0
POINT
  5
6467
330
629E
100
AcDbEntity
  8
Defpoints
 62
     0
440
 16777216
100
AcDbPoint
 10
33016.30072802582
 20
3134.794837380288
 30
0.0
  0
POINT
  5
6468
330
629E
100
AcDbEntity
  8
Defpoints
 62
     0
440
 16777216
100
AcDbPoint
 10
32820.97502920426
 20
3134.794837380288
 30
0.0
  0
ENDBLK
  5
62A9
330
629E
100
AcDbEntity
  8
0
100
AcDbBlockEnd
  0
BLOCK
  5
62BC
330
62B6
100
AcDbEntity
  8
0
100
AcDbBlockBegin
  2
*D11
 70
     1
 10
0.0
 20
0.0
 30
0.0
  3
*D11
  1

  0
LINE
  5
646E
330
62B6
100
AcDbEntity
  8
0
 62
     0
440
 16777216
370
    -2
100
AcDbLine
 10
32987.52791320525
 20
3456.130963359685
 30
0.0
 11
32915.3193853329
 21
3499.04865787499
 31
0.0
  0
MTEXT
  5
646F
330
62B6
100
AcDbEntity
  8
0
 62
     0
440
 16777216
100
AcDbMText
 10
32966.61342409457
 20
3495.317493510223
 30
0.0
 40
15.0
 41
6.741060204206561
 46
0.0
 71
     5
 72
     1
  1
4-R77{\Ftxt|c134; [3"]}
 11
0.8596253318136415
 21
-0.5109249347059577
 31
0.0
 73
     1
 44
1.0
  0
SOLID
  5
6470
330
62B6
100
AcDbEntity
  8
0
 62
     0
440
 16777216
100
AcDbTrace
 10
32916.00061857917
 20
3500.194824984074
 30
0.0
 11
32914.63815208663
 21
3497.902490765906
 31
0.0
 12
32908.44238267839
 22
3503.136057352636
 32
0.0
 13
32908.44238267839
 23
3503.136057352636
 33
0.0
  0
POINT
  5
6471
330
62B6
100
AcDbEntity
  8
Defpoints
 62
     0
440
 16777216
100
AcDbPoint
 10
32908.44238267839
 20
3503.136057352636
 30
0.0
  0
POINT
  5
6472
330
62B6
100
AcDbEntity
  8
Defpoints
 62
     0
440
 16777216
100
AcDbPoint
 10
32974.63353322805
 20
3463.794837380277
 30
0.0
  0
ENDBLK
  5
62BD
330
62B6
100
AcDbEntity
  8
0
100
AcDbBlockEnd
  0
BLOCK
  5
62D0
330
62C6
100
AcDbEntity
  8
0
100
AcDbBlockBegin
  2
*D12
 70
     1
 10
0.0
 20
0.0
 30
0.0
  3
*D12
  1

  0
LINE
  5
6486
330
62C6
100
AcDbEntity
  8
0
 62
     0
440
 16777216
370
    -2
100
AcDbLine
 10
33131.89462037273
 20
3540.794837380288
 30
0.0
 11
33163.25718753934
 21
3540.794837380288
 31
0.0
  0
LINE
  5
6487
330
62C6
100
AcDbEntity
  8
0
 62
     0
440
 16777216
370
    -2
100
AcDbLine
 10
33147.90382603842
 20
3420.794837380288
 30
0.0
 11
33163.25718753934
 21
3420.794837380288
 31
0.0
  0
LINE
  5
6488
330
62C6
100
AcDbEntity
  8
0
 62
     0
440
 16777216
370
    -2
100
AcDbLine
 10
33162.00718753933
 20
3532.794837380289
 30
0.0
 11
33162.00718753933
 21
3428.794837380289
 31
0.0
  0
SOLID
  5
6489
330
62C6
100
AcDbEntity
  8
0
 62
     0
440
 16777216
100
AcDbTrace
 10
33160.673854206
 20
3532.794837380289
 30
0.0
 11
33163.34052087267
 21
3532.794837380289
 31
0.0
 12
33162.00718753933
 22
3540.794837380288
 32
0.0
 13
33162.00718753933
 23
3540.794837380288
 33
0.0
  0
SOLID
  5
648A
330
62C6
100
AcDbEntity
  8
0
 62
     0
440
 16777216
100
AcDbTrace
 10
33160.673854206
 20
3428.794837380289
 30
0.0
 11
33163.34052087267
 21
3428.794837380289
 31
0.0
 12
33162.00718753933
 22
3420.794837380288
 32
0.0
 13
33162.00718753933
 23
3420.794837380288
 33
0.0
  0
MTEXT
  5
648B
330
62C6
100
AcDbEntity
  8
0
 62
     0
440
 16777216
100
AcDbMText
 10
33139.00718753933
 20
3480.794837380278
 30
0.0
 40
15.0
 41
7.84184470087348
 46
0.0
 71
     5
 72
     1
  1
120{\Ftxt|c134; [4.72"]}
 11
0.0000000000000001
 21
1.0
 31
0.0
 73
     1
 44
1.0
  0
POINT
  5
648C
330
62C6
100
AcDbEntity
  8
Defpoints
 62
     0
440
 16777216
100
AcDbPoint
 10
33130.89462037273
 20
3540.794837380288
 30
0.0
  0
POINT
  5
648D
330
62C6
100
AcDbEntity
  8
Defpoints
 62
     0
440
 16777216
100
AcDbPoint
 10
33146.90382603842
 20
3420.794837380288
 30
0.0
  0
POINT
  5
648E
330
62C6
100
AcDbEntity
  8
Defpoints
 62
     0
440
 16777216
100
AcDbPoint
 10
33162.00718753933
 20
3420.794837380288
 30
0.0
  0
ENDBLK
  5
62D1
330
62C6
100
AcDbEntity
  8
0
100
AcDbBlockEnd
  0
BLOCK
  5
62FA
330
62F0
100
AcDbEntity
  8
0
100
AcDbBlockBegin
  2
*D13
 70
     1
 10
0.0
 20
0.0
 30
0.0
  3
*D13
  1

  0
LINE
  5
6498
330
62F0
100
AcDbEntity
  8
0
 62
     0
440
 16777216
370
    -2
100
AcDbLine
 10
33535.90382603842
 20
3420.794837380288
 30
0.0
 11
33557.35466745176
 21
3420.794837380288
 31
0.0
  0
LINE
  5
6499
330
62F0
100
AcDbEntity
  8
0
 62
     0
440
 16777216
370
    -2
100
AcDbLine
 10
33526.51229484781
 20
3540.794837380288
 30
0.0
 11
33557.35466745176
 21
3540.794837380288
 31
0.0
  0
LINE
  5
649A
330
62F0
100
AcDbEntity
  8
0
 62
     0
440
 16777216
370
    -2
100
AcDbLine
 10
33556.10466745176
 20
3428.794837380289
 30
0.0
 11
33556.10466745176
 21
3532.794837380289
 31
0.0
  0
SOLID
  5
649B
330
62F0
100
AcDbEntity
  8
0
 62
     0
440
 16777216
100
AcDbTrace
 10
33554.77133411842
 20
3428.794837380289
 30
0.0
 11
33557.4380007851
 21
3428.794837380289
 31
0.0
 12
33556.10466745176
 22
3420.794837380288
 32
0.0
 13
33556.10466745176
 23
3420.794837380288
 33
0.0
  0
SOLID
  5
649C
330
62F0
100
AcDbEntity
  8
0
 62
     0
440
 16777216
100
AcDbTrace
 10
33554.77133411842
 20
3532.794837380289
 30
0.0
 11
33557.4380007851
 21
3532.794837380289
 31
0.0
 12
33556.10466745176
 22
3540.794837380288
 32
0.0
 13
33556.10466745176
 23
3540.794837380288
 33
0.0
  0
MTEXT
  5
649D
330
62F0
100
AcDbEntity
  8
0
 62
     0
440
 16777216
100
AcDbMText
 10
33533.10466745175
 20
3480.794837380278
 30
0.0
 40
15.0
 41
3.136735123058315
 46
0.0
 71
     5
 72
     1
  1
120{\Ftxt|c134; [4.72"]}
 11
0.0000000000000001
 21
1.0
 31
0.0
 73
     1
 44
1.0
  0
POINT
  5
649E
330
62F0
100
AcDbEntity
  8
Defpoints
 62
     0
440
 16777216
100
AcDbPoint
 10
33534.90382603842
 20
3420.794837380288
 30
0.0
  0
POINT
  5
649F
330
62F0
100
AcDbEntity
  8
Defpoints
 62
     0
440
 16777216
100
AcDbPoint
 10
33525.51229484781
 20
3540.794837380288
 30
0.0
  0
POINT
  5
64A0
330
62F0
100
AcDbEntity
  8
Defpoints
 62
     0
440
 16777216
100
AcDbPoint
 10
33556.10466745176
 20
3540.794837380288
 30
0.0
  0
ENDBLK
  5
62FB
330
62F0
100
AcDbEntity
  8
0
100
AcDbBlockEnd
  0
BLOCK
  5
6315
330
630F
100
AcDbEntity
  8
0
100
AcDbBlockBegin
  2
*D14
 70
     1
 10
0.0
 20
0.0
 30
0.0
  3
*D14
  1

  0
LINE
  5
6478
330
630F
100
AcDbEntity
  8
0
 62
     0
440
 16777216
370
    -2
100
AcDbLine
 10
33375.52791320526
 20
3456.130963359683
 30
0.0
 11
33303.31938533292
 21
3499.048657874986
 31
0.0
  0
MTEXT
  5
6479
330
630F
100
AcDbEntity
  8
0
 62
     0
440
 16777216
100
AcDbMText
 10
33354.61342409458
 20
3495.317493510227
 30
0.0
 40
15.0
 41
1.601667645555932
 46
0.0
 71
     5
 72
     1
  1
4-R77{\Ftxt|c134; [3"]}
 11
0.8596253318136232
 21
-0.5109249347059882
 31
0.0
 73
     1
 44
1.0
  0
SOLID
  5
647A
330
630F
100
AcDbEntity
  8
0
 62
     0
440
 16777216
100
AcDbTrace
 10
33304.00061857919
 20
3500.19482498407
 30
0.0
 11
33302.63815208664
 21
3497.902490765902
 31
0.0
 12
33296.44238267841
 22
3503.136057352634
 32
0.0
 13
33296.44238267841
 23
3503.136057352634
 33
0.0
  0
POINT
  5
647B
330
630F
100
AcDbEntity
  8
Defpoints
 62
     0
440
 16777216
100
AcDbPoint
 10
33296.44238267841
 20
3503.136057352634
 30
0.0
  0
POINT
  5
647C
330
630F
100
AcDbEntity
  8
Defpoints
 62
     0
440
 16777216
100
AcDbPoint
 10
33362.63353322804
 20
3463.794837380279
 30
0.0
  0
ENDBLK
  5
6316
330
630F
100
AcDbEntity
  8
0
100
AcDbBlockEnd
  0
BLOCK
  5
6324
330
631D
100
AcDbEntity
  8
0
100
AcDbBlockBegin
  2
*D15
 70
     1
 10
0.0
 20
0.0
 30
0.0
  3
*D15
  1

  0
LINE
  5
64A7
330
631D
100
AcDbEntity
  8
0
 62
     0
440
 16777216
370
    -2
100
AcDbLine
 10
33756.49928638349
 20
3034.115961972717
 30
0.0
 11
33645.34188063571
 21
3137.05420145359
 31
0.0
  0
MTEXT
  5
64A8
330
631D
100
AcDbEntity
  8
0
 62
     0
440
 16777216
100
AcDbMText
 10
33710.98976593561
 20
3090.571219022911
 30
0.0
 40
15.0
 41
0.0
 46
0.0
 71
     5
 72
     1
  1
4-R102{\Ftxt|c134; [4"]}
 11
0.7337122491603308
 21
-0.6794603266064097
 31
0.0
 73
     1
 44
1.0
  0
LINE
  5
64A9
330
631D
100
AcDbEntity
  8
0
 62
     0
440
 16777216
370
    -2
100
AcDbLine
 10
33564.63353322807
 20
3211.794837380285
 30
0.0
 11
33639.47218264242
 21
3142.489884066439
 31
0.0
  0
SOLID
  5
64AA
330
631D
100
AcDbEntity
  8
0
 62
     0
440
 16777216
100
AcDbTrace
 10
33646.24782773784
 20
3138.03248445247
 30
0.0
 11
33644.43593353356
 21
3136.07591845471
 31
0.0
 12
33639.47218264242
 22
3142.489884066439
 32
0.0
 13
33639.47218264242
 23
3142.489884066439
 33
0.0
  0
POINT
  5
64AB
330
631D
100
AcDbEntity
  8
Defpoints
 62
     0
440
 16777216
100
AcDbPoint
 10
33639.47218264242
 20
3142.489884066439
 30
0.0
  0
POINT
  5
64AC
330
631D
100
AcDbEntity
  8
Defpoints
 62
     0
440
 16777216
100
AcDbPoint
 10
33564.63353322807
 20
3211.794837380285
 30
0.0
  0
ENDBLK
  5
6325
330
631D
100
AcDbEntity
  8
0
100
AcDbBlockEnd
  0
BLOCK
  5
6348
330
633E
100
AcDbEntity
  8
0
100
AcDbBlockBegin
  2
*D16
 70
     1
 10
0.0
 20
0.0
 30
0.0
  3
*D16
  1

  0
LINE
  5
63E8
330
633E
100
AcDbEntity
  8
0
 62
     0
440
 16777216
370
    -2
100
AcDbLine
 10
33570.2168245619
 20
4079.208269946992
 30
0.0
 11
33715.73077599536
 21
4079.208269946992
 31
0.0
  0
LINE
  5
63E9
330
633E
100
AcDbEntity
  8
0
 62
     0
440
 16777216
370
    -2
100
AcDbLine
 10
33520.69798802203
 20
3825.208269946993
 30
0.0
 11
33715.73077599536
 21
3825.208269946993
 31
0.0
  0
LINE
  5
63EA
330
633E
100
AcDbEntity
  8
0
 62
     0
440
 16777216
370
    -2
100
AcDbLine
 10
33714.48077599536
 20
4071.208269946992
 30
0.0
 11
33714.48077599536
 21
3833.208269946992
 31
0.0
  0
SOLID
  5
63EB
330
633E
100
AcDbEntity
  8
0
 62
     0
440
 16777216
100
AcDbTrace
 10
33713.14744266203
 20
4071.208269946992
 30
0.0
 11
33715.8141093287
 21
4071.208269946992
 31
0.0
 12
33714.48077599536
 22
4079.208269946992
 32
0.0
 13
33714.48077599536
 23
4079.208269946992
 33
0.0
  0
SOLID
  5
63EC
330
633E
100
AcDbEntity
  8
0
 62
     0
440
 16777216
100
AcDbTrace
 10
33713.14744266203
 20
3833.208269946992
 30
0.0
 11
33715.8141093287
 21
3833.208269946992
 31
0.0
 12
33714.48077599536
 22
3825.208269946993
 32
0.0
 13
33714.48077599536
 23
3825.208269946993
 33
0.0
  0
MTEXT
  5
63ED
330
633E
100
AcDbEntity
  8
0
 62
     0
440
 16777216
100
AcDbMText
 10
33703.98077599535
 20
3952.208269946981
 30
0.0
 40
15.0
 41
0.0
 46
0.0
 71
     5
 72
     1
  1
254{\Ftxt|c134; [10"]}
 11
0.0000000000000001
 21
1.0
 31
0.0
 73
     1
 44
1.0
  0
POINT
  5
63EE
330
633E
100
AcDbEntity
  8
Defpoints
 62
     0
440
 16777216
100
AcDbPoint
 10
33569.2168245619
 20
4079.208269946992
 30
0.0
  0
POINT
  5
63EF
330
633E
100
AcDbEntity
  8
Defpoints
 62
     0
440
 16777216
100
AcDbPoint
 10
33519.69798802203
 20
3825.208269946993
 30
0.0
  0
POINT
  5
63F0
330
633E
100
AcDbEntity
  8
Defpoints
 62
     0
440
 16777216
100
AcDbPoint
 10
33714.48077599536
 20
3825.208269946993
 30
0.0
  0
ENDBLK
  5
6349
330
633E
100
AcDbEntity
  8
0
100
AcDbBlockEnd
  0
BLOCK
  5
6365
330
635F
100
AcDbEntity
  8
0
100
AcDbBlockBegin
  2
*D17
 70
     1
 10
0.0
 20
0.0
 30
0.0
  3
*D17
  1

  0
LINE
  5
6405
330
635F
100
AcDbEntity
  8
0
 62
     0
440
 16777216
370
    -2
100
AcDbLine
 10
33023.16665378775
 20
3942.382161379305
 30
0.0
 11
32915.75020595662
 21
3850.273764718939
 31
0.0
  0
MTEXT
  5
6406
330
635F
100
AcDbEntity
  8
0
 62
     0
440
 16777216
100
AcDbMText
 10
32965.66003853925
 20
3906.902565797305
 30
0.0
 40
15.0
 41
0.0
 46
0.0
 71
     5
 72
     1
  1
R50{\Ftxt|c134; [1.97"]}
 11
0.7591268397959324
 21
0.650942732582092
 31
0.0
 73
     1
 44
1.0
  0
SOLID
  5
6407
330
635F
100
AcDbEntity
  8
0
 62
     0
440
 16777216
100
AcDbTrace
 10
32914.88228231318
 20
3851.285933838666
 30
0.0
 11
32916.61812960007
 21
3849.261595599211
 31
0.0
 12
32909.67719123826
 22
3845.066222858281
 32
0.0
 13
32909.67719123826
 23
3845.066222858281
 33
0.0
  0
POINT
  5
6408
330
635F
100
AcDbEntity
  8
Defpoints
 62
     0
440
 16777216
100
AcDbPoint
 10
32909.67719123826
 20
3845.066222858281
 30
0.0
  0
POINT
  5
6409
330
635F
100
AcDbEntity
  8
Defpoints
 62
     0
440
 16777216
100
AcDbPoint
 10
32947.63353322804
 20
3877.613359487379
 30
0.0
  0
ENDBLK
  5
6366
330
635F
100
AcDbEntity
  8
0
100
AcDbBlockEnd
  0
BLOCK
  5
6375
330
636F
100
AcDbEntity
  8
0
100
AcDbBlockBegin
  2
*D18
 70
     1
 10
0.0
 20
0.0
 30
0.0
  3
*D18
  1

  0
LINE
  5
640A
330
636F
100
AcDbEntity
  8
0
 62
     0
440
 16777216
370
    -2
100
AcDbLine
 10
33403.29768540748
 20
3950.564113491955
 30
0.0
 11
33307.07178054925
 21
3846.820076389975
 31
0.0
  0
MTEXT
  5
640B
330
636F
100
AcDbEntity
  8
0
 62
     0
440
 16777216
100
AcDbMText
 10
33350.20657912581
 20
3908.765226738982
 30
0.0
 40
15.0
 41
0.0
 46
0.0
 71
     5
 72
     1
  1
R50{\Ftxt|c134; [1.97"]}
 11
0.6800417304468038
 21
0.7331734070811058
 31
0.0
 73
     1
 44
1.0
  0
SOLID
  5
640C
330
636F
100
AcDbEntity
  8
0
 62
     0
440
 16777216
100
AcDbTrace
 10
33306.09421600648
 20
3847.726798697236
 30
0.0
 11
33308.04934509203
 21
3845.913354082713
 31
0.0
 12
33301.63144670568
 22
3840.954689133325
 32
0.0
 13
33301.63144670568
 23
3840.954689133325
 33
0.0
  0
POINT
  5
640D
330
636F
100
AcDbEntity
  8
Defpoints
 62
     0
440
 16777216
100
AcDbPoint
 10
33301.63144670568
 20
3840.954689133325
 30
0.0
  0
POINT
  5
640E
330
636F
100
AcDbEntity
  8
Defpoints
 62
     0
440
 16777216
100
AcDbPoint
 10
33335.63353322801
 20
3877.613359487373
 30
0.0
  0
ENDBLK
  5
6376
330
636F
100
AcDbEntity
  8
0
100
AcDbBlockEnd
  0
ENDSEC
  0
SECTION
  2
ENTITIES
  0
LINE
  5
3258
330
1F
100
AcDbEntity
  8
DIM
  6
CENTER
 62
     0
100
AcDbLine
 10
33269.63353322805
 20
3565.794837380287
 30
0.0
 11
33269.63353322805
 21
3109.794837380288
 31
0.0
  0
LINE
  5
3259
330
1F
100
AcDbEntity
  8
DIM
  6
CENTER
 62
     0
100
AcDbLine
 10
32872.63353322805
 20
3337.794837380287
 30
0.0
 11
33666.63353322805
 21
3337.794837380287
 31
0.0
  0
LWPOLYLINE
  5
3263
102
{ACAD_REACTORS
330
6284
330
62B4
330
62C4
102
}
330
1F
100
AcDbEntity
  8
base
 62
     0
100
AcDbPolyline
 90
        8
 70
     1
 43
0.0
 10
32974.63353322805
 20
3134.794837380286
 42
-0.4142135623730977
 10
32897.63353322805
 20
3211.794837380285
 10
32897.63353322805
 20
3463.794837380286
 42
-0.4142135623730951
 10
32974.63353322805
 20
3540.794837380287
 10
33176.63353322805
 20
3540.794837380287
 42
-0.4142135623731262
 10
33253.63353322806
 20
3463.794837380286
 10
33253.63353322805
 20
3211.794837380287
 42
-0.4142135623730969
 10
33176.63353322805
 20
3134.794837380286
  0
LWPOLYLINE
  5
3264
102
{ACAD_REACTORS
330
629C
330
6306
102
}
330
1F
100
AcDbEntity
  8
base
 62
     0
100
AcDbPolyline
 90
        8
 70
     1
 43
0.0
 10
33564.63353322805
 20
3134.794837380286
 42
0.4142135623730977
 10
33641.63353322805
 20
3211.794837380285
 10
33641.63353322805
 20
3463.794837380286
 42
0.4142135623730951
 10
33564.63353322805
 20
3540.794837380287
 10
33362.63353322805
 20
3540.794837380287
 42
0.4142135623731262
 10
33285.63353322804
 20
3463.794837380286
 10
33285.63353322805
 20
3211.794837380287
 42
0.4142135623730969
 10
33362.63353322805
 20
3134.794837380286
  0
LWPOLYLINE
  5
3265
102
{ACAD_REACTORS
330
6254
330
626C
330
632D
102
}
330
1F
100
AcDbEntity
  8
base
 62
     0
100
AcDbPolyline
 90
        8
 70
     1
 43
0.0
 10
32974.63353322805
 20
3109.794837380286
 42
-0.4142135623730977
 10
32872.63353322805
 20
3211.794837380287
 10
32872.63353322805
 20
3463.794837380286
 42
-0.4142135623730951
 10
32974.63353322805
 20
3565.794837380287
 10
33564.63353322805
 20
3565.794837380287
 42
-0.4142135623731003
 10
33666.63353322805
 20
3463.794837380286
 10
33666.63353322805
 20
3211.794837380287
 42
-0.4142135623730678
 10
33564.63353322805
 20
3109.794837380289
  0
LINE
  5
3266
102
{ACAD_REACTORS
330
62DC
102
}
330
1F
100
AcDbEntity
  8
DIM
  6
CENTER
 62
     0
100
AcDbLine
 10
33146.90382603841
 20
3420.794837380287
 30
0.0
 11
33004.3632404177
 21
3420.794837380287
 31
0.0
  0
LINE
  5
3267
330
1F
100
AcDbEntity
  8
DIM
  6
CENTER
 62
     0
100
AcDbLine
 10
33075.63353322805
 20
3540.794837380287
 30
0.0
 11
33075.63353322805
 21
3134.794837380286
 31
0.0
  0
CIRCLE
  5
3268
330
1F
100
AcDbEntity
  8
base
 62
     0
100
AcDbCircle
 10
33075.63353322805
 20
3420.794837380287
 30
0.0
 40
44.0
  0
CIRCLE
  5
326A
330
1F
100
AcDbEntity
  8
base
 62
     0
100
AcDbCircle
 10
33075.63353322805
 20
3420.794837380287
 30
0.0
 40
60.0
  0
CIRCLE
  5
326B
330
1F
100
AcDbEntity
  8
base
 62
     0
100
AcDbCircle
 10
33075.63353322805
 20
3420.794837380287
 30
0.0
 40
57.0
  0
CIRCLE
  5
3284
330
1F
100
AcDbEntity
  8
base
 62
     0
100
AcDbCircle
 10
33463.63353322805
 20
3420.794837380287
 30
0.0
 40
57.0
  0
CIRCLE
  5
3285
330
1F
100
AcDbEntity
  8
base
 62
     0
100
AcDbCircle
 10
33463.63353322805
 20
3420.794837380287
 30
0.0
 40
60.0
  0
CIRCLE
  5
3286
330
1F
100
AcDbEntity
  8
base
 62
     0
100
AcDbCircle
 10
33463.63353322805
 20
3420.794837380287
 30
0.0
 40
44.0
  0
LINE
  5
3287
330
1F
100
AcDbEntity
  8
DIM
  6
CENTER
 62
     0
100
AcDbLine
 10
33463.63353322805
 20
3540.794837380287
 30
0.0
 11
33463.63353322805
 21
3134.794837380286
 31
0.0
  0
LINE
  5
3288
102
{ACAD_REACTORS
330
6306
102
}
330
1F
100
AcDbEntity
  8
DIM
  6
CENTER
 62
     0
100
AcDbLine
 10
33392.3632404177
 20
3420.794837380287
 30
0.0
 11
33534.9038260384
 21
3420.794837380287
 31
0.0
  0
LINE
  5
3289
102
{ACAD_REACTORS
330
6354
102
}
330
1F
100
AcDbEntity
  8
base
 62
     0
100
AcDbLine
 10
32872.63353322805
 20
4079.20826994699
 30
0.0
 11
33666.63353322805
 21
4079.20826994699
 31
0.0
  0
LINE
  5
328A
330
1F
100
AcDbEntity
  8
base
 62
     0
100
AcDbLine
 10
32872.63353322805
 20
4079.20826994699
 30
0.0
 11
32872.63353322805
 21
4078.00826994699
 31
0.0
  0
LINE
  5
328C
330
1F
100
AcDbEntity
  8
base
 62
     0
100
AcDbLine
 10
33253.63353322806
 20
3877.613359487371
 30
0.0
 11
33253.63353322806
 21
4074.008269946991
 31
0.0
  0
LINE
  5
328E
330
1F
100
AcDbEntity
  8
base
 62
     0
100
AcDbLine
 10
33015.63353322805
 20
3825.20826994699
 30
0.0
 11
33135.63353322805
 21
3825.20826994699
 31
0.0
  0
LINE
  5
328F
330
1F
100
AcDbEntity
  8
DIM
  6
CENTER
 62
     0
100
AcDbLine
 10
33075.63353322805
 20
3867.643016562735
 30
0.0
 11
33075.63353322805
 21
3782.669264042048
 31
0.0
  0
LINE
  5
3290
330
1F
100
AcDbEntity
  8
DIM
  6
CENTER
 62
     0
100
AcDbLine
 10
33463.63353322805
 20
3876.485100471721
 30
0.0
 11
33463.63353322805
 21
3800.127295293225
 31
0.0
  0
LINE
  5
3293
330
1F
100
AcDbEntity
  8
base
 62
     0
100
AcDbLine
 10
33135.63353322805
 20
3825.20826994699
 30
0.0
 11
33205.37850806319
 21
3827.643818136415
 31
0.0
  0
LINE
  5
3294
330
1F
100
AcDbEntity
  8
base
 62
     0
100
AcDbLine
 10
33015.63353322805
 20
3825.20826994699
 30
0.0
 11
32945.88855839292
 21
3827.643818136415
 31
0.0
  0
LINE
  5
3295
330
1F
100
AcDbEntity
  8
base
 62
     0
100
AcDbLine
 10
32897.63353322805
 20
3877.61335948737
 30
0.0
 11
32897.63353322805
 21
4074.00826994699
 31
0.0
  0
ARC
  5
3296
330
1F
100
AcDbEntity
  8
base
 62
     0
100
AcDbCircle
 10
32947.63353322806
 20
3877.613359487373
 30
0.0
 40
50.0
100
AcDbArc
 50
180.0000000000031
 51
267.9999999999881
  0
ARC
  5
3297
330
1F
100
AcDbEntity
  8
base
 62
     0
100
AcDbCircle
 10
33203.63353322806
 20
3877.613359487373
 30
0.0
 40
50.0
100
AcDbArc
 50
271.9999999999952
 51
359.9999999999974
  0
LINE
  5
3298
330
1F
100
AcDbEntity
  8
base
 62
     0
100
AcDbLine
 10
32872.63353322805
 20
4078.00826994699
 30
0.0
 11
32892.43353322806
 21
4078.00826994699
 31
0.0
  0
LINE
  5
32A0
330
1F
100
AcDbEntity
  8
base
 62
     0
100
AcDbLine
 10
32896.43353322805
 20
3877.61335948737
 30
0.0
 11
32896.43353322805
 21
4074.00826994699
 31
0.0
  0
ARC
  5
32A1
330
1F
100
AcDbEntity
  8
base
 62
     0
100
AcDbCircle
 10
32892.43353322806
 20
4074.00826994699
 30
0.0
 40
4.0
100
AcDbArc
 50
0.0
 51
90.0
  0
ARC
  5
32A2
330
1F
100
AcDbEntity
  8
base
 62
     0
100
AcDbCircle
 10
32892.43353322806
 20
4074.00826994699
 30
0.0
 40
5.2
100
AcDbArc
 50
0.0
 51
90.0
  0
ARC
  5
32A4
330
1F
100
AcDbEntity
  8
base
 62
     0
100
AcDbCircle
 10
32947.63353322806
 20
3877.613359487373
 30
0.0
 40
51.2
100
AcDbArc
 50
180.0000000000031
 51
267.9999999999881
  0
LINE
  5
32A5
330
1F
100
AcDbEntity
  8
base
 62
     0
100
AcDbLine
 10
33015.63353322805
 20
3824.007538493832
 30
0.0
 11
32945.84667899688
 21
3826.444549143993
 31
0.0
  0
LINE
  5
32A7
330
1F
100
AcDbEntity
  8
base
 62
     0
100
AcDbLine
 10
33135.63294063829
 20
3824.00751780014
 30
0.0
 11
33205.42038745923
 21
3826.444549143993
 31
0.0
  0
ARC
  5
32A8
330
1F
100
AcDbEntity
  8
base
 62
     0
100
AcDbCircle
 10
33203.63353322806
 20
3877.613359487373
 30
0.0
 40
51.2
100
AcDbArc
 50
271.9999999999952
 51
359.9999999999974
  0
LINE
  5
32A9
330
1F
100
AcDbEntity
  8
base
 62
     0
100
AcDbLine
 10
33254.83353322806
 20
3877.613359487371
 30
0.0
 11
33254.83353322806
 21
4074.008269946991
 31
0.0
  0
ARC
  5
32AA
330
1F
100
AcDbEntity
  8
base
 62
     0
100
AcDbCircle
 10
33258.83353322805
 20
4074.00826994699
 30
0.0
 40
5.2
100
AcDbArc
 50
90.0
 51
180.0
  0
ARC
  5
32AB
330
1F
100
AcDbEntity
  8
base
 62
     0
100
AcDbCircle
 10
33258.83353322805
 20
4074.00826994699
 30
0.0
 40
4.0
100
AcDbArc
 50
90.0
 51
180.0
  0
LINE
  5
32AC
330
1F
100
AcDbEntity
  8
base
 62
     0
100
AcDbLine
 10
33018.67820870717
 20
3821.708269946991
 30
0.0
 11
33132.58885774893
 21
3821.70826994699
 31
0.0
  0
LINE
  5
32AF
330
1F
100
AcDbEntity
  8
base
 62
     0
100
AcDbLine
 10
33018.04821191664
 20
3820.50826994699
 30
0.0
 11
33133.21885453947
 21
3820.508269946991
 31
0.0
  0
LINE
  5
32B2
330
1F
100
AcDbEntity
  8
base
 62
     0
100
AcDbLine
 10
33015.63360968573
 20
3824.008265940013
 30
0.0
 11
33018.04821191664
 21
3820.50826994699
 31
0.0
  0
LINE
  5
32B4
330
1F
100
AcDbEntity
  8
base
 62
     0
100
AcDbLine
 10
33016.26360371189
 20
3825.20826994699
 30
0.0
 11
33018.67820870717
 21
3821.708269946991
 31
0.0
  0
LINE
  5
32B5
330
1F
100
AcDbEntity
  8
base
 62
     0
100
AcDbLine
 10
33031.63353322805
 20
3821.708269946991
 30
0.0
 11
33031.63353322805
 21
3820.50826994699
 31
0.0
  0
LINE
  5
32B6
330
1F
100
AcDbEntity
  8
base
 62
     0
100
AcDbLine
 10
33119.63353322805
 20
3820.508269946991
 30
0.0
 11
33119.63353322805
 21
3821.70826994699
 31
0.0
  0
LINE
  5
32B7
330
1F
100
AcDbEntity
  8
base
 62
     0
100
AcDbLine
 10
33135.00346274421
 20
3825.20826994699
 30
0.0
 11
33132.58885774893
 21
3821.70826994699
 31
0.0
  0
LINE
  5
32B8
330
1F
100
AcDbEntity
  8
base
 62
     0
100
AcDbLine
 10
33135.63294063829
 20
3824.00751780014
 30
0.0
 11
33133.21885453947
 21
3820.508269946991
 31
0.0
  0
LINE
  5
32B9
330
1F
100
AcDbEntity
  8
base
 62
     0
100
AcDbLine
 10
33403.63412581781
 20
3824.00751780014
 30
0.0
 11
33406.04821191664
 21
3820.508269946991
 31
0.0
  0
LINE
  5
32BA
330
1F
100
AcDbEntity
  8
base
 62
     0
100
AcDbLine
 10
33404.26360371189
 20
3825.20826994699
 30
0.0
 11
33406.68774994902
 21
3821.69443979815
 31
0.0
  0
LINE
  5
32BB
330
1F
100
AcDbEntity
  8
base
 62
     0
100
AcDbLine
 10
33419.63353322805
 20
3820.208269946991
 30
0.0
 11
33419.63353322805
 21
3821.408562497591
 31
0.0
  0
ARC
  5
32C1
330
1F
100
AcDbEntity
  8
base
 62
     0
100
AcDbCircle
 10
33280.43353322805
 20
4074.00826994699
 30
0.0
 40
4.0
100
AcDbArc
 50
0.000000000000007
 51
90.0
  0
ARC
  5
32C2
330
1F
100
AcDbEntity
  8
base
 62
     0
100
AcDbCircle
 10
33280.43353322805
 20
4074.00826994699
 30
0.0
 40
5.2
100
AcDbArc
 50
0.000000000000007
 51
90.0
  0
LINE
  5
32C3
330
1F
100
AcDbEntity
  8
base
 62
     0
100
AcDbLine
 10
33284.43353322805
 20
3877.613359487371
 30
0.0
 11
33284.43353322805
 21
4074.008269946991
 31
0.0
  0
ARC
  5
32C4
330
1F
100
AcDbEntity
  8
base
 62
     0
100
AcDbCircle
 10
33335.63353322804
 20
3877.613359487373
 30
0.0
 40
51.2
100
AcDbArc
 50
180.0000000000026
 51
268.0000000000049
  0
LINE
  5
32C5
330
1F
100
AcDbEntity
  8
base
 62
     0
100
AcDbLine
 10
33403.63412581781
 20
3824.00751780014
 30
0.0
 11
33333.84667899688
 21
3826.444549143993
 31
0.0
  0
LINE
  5
32C6
330
1F
100
AcDbEntity
  8
base
 62
     0
100
AcDbLine
 10
33523.63353322805
 20
3824.007538493832
 30
0.0
 11
33593.42038745922
 21
3826.444549143993
 31
0.0
  0
ARC
  5
32C7
330
1F
100
AcDbEntity
  8
base
 62
     0
100
AcDbCircle
 10
33591.63353322804
 20
3877.613359487373
 30
0.0
 40
51.2
100
AcDbArc
 50
272.0000000000119
 51
359.9999999999969
  0
ARC
  5
32C8
330
1F
100
AcDbEntity
  8
base
 62
     0
100
AcDbCircle
 10
33646.83353322805
 20
4074.00826994699
 30
0.0
 40
5.2
100
AcDbArc
 50
90.0
 51
180.0
  0
ARC
  5
32C9
330
1F
100
AcDbEntity
  8
base
 62
     0
100
AcDbCircle
 10
33646.83353322805
 20
4074.00826994699
 30
0.0
 40
4.0
100
AcDbArc
 50
90.0
 51
180.0
  0
LINE
  5
32CA
330
1F
100
AcDbEntity
  8
base
 62
     0
100
AcDbLine
 10
33642.83353322805
 20
3877.61335948737
 30
0.0
 11
33642.83353322805
 21
4074.00826994699
 31
0.0
  0
LINE
  5
32CB
330
1F
100
AcDbEntity
  8
base
 62
     0
100
AcDbLine
 10
33666.63353322805
 20
4078.00826994699
 30
0.0
 11
33646.83353322805
 21
4078.00826994699
 31
0.0
  0
ARC
  5
32CC
330
1F
100
AcDbEntity
  8
base
 62
     0
100
AcDbCircle
 10
33335.63353322804
 20
3877.613359487373
 30
0.0
 40
50.0
100
AcDbArc
 50
180.0000000000026
 51
268.0000000000049
  0
ARC
  5
32CD
330
1F
100
AcDbEntity
  8
base
 62
     0
100
AcDbCircle
 10
33591.63353322804
 20
3877.613359487373
 30
0.0
 40
50.0
100
AcDbArc
 50
272.0000000000119
 51
359.9999999999969
  0
LINE
  5
32CE
330
1F
100
AcDbEntity
  8
base
 62
     0
100
AcDbLine
 10
33641.63353322805
 20
3877.61335948737
 30
0.0
 11
33641.63353322805
 21
4074.00826994699
 31
0.0
  0
LINE
  5
32CF
102
{ACAD_REACTORS
330
3330
102
}
330
1F
100
AcDbEntity
  8
base
 62
     0
100
AcDbLine
 10
33523.63353322805
 20
3825.20826994699
 30
0.0
 11
33593.37850806318
 21
3827.643818136415
 31
0.0
  0
LINE
  5
32D0
330
1F
100
AcDbEntity
  8
base
 62
     0
100
AcDbLine
 10
33403.63353322805
 20
3825.20826994699
 30
0.0
 11
33333.88855839292
 21
3827.643818136415
 31
0.0
  0
LINE
  5
32D1
102
{ACAD_REACTORS
330
3330
102
}
330
1F
100
AcDbEntity
  8
base
 62
     0
100
AcDbLine
 10
33523.63353322805
 20
3825.20826994699
 30
0.0
 11
33403.63353322805
 21
3825.20826994699
 31
0.0
  0
LINE
  5
32D2
330
1F
100
AcDbEntity
  8
base
 62
     0
100
AcDbLine
 10
33285.63353322804
 20
3877.613359487371
 30
0.0
 11
33285.63353322804
 21
4074.008269946991
 31
0.0
  0
LINE
  5
32D3
330
1F
100
AcDbEntity
  8
base
 62
     0
100
AcDbLine
 10
33666.63353322805
 20
4079.20826994699
 30
0.0
 11
33666.63353322805
 21
4078.00826994699
 31
0.0
  0
LINE
  5
32D4
330
1F
100
AcDbEntity
  8
base
 62
     0
100
AcDbLine
 10
33258.83353322805
 20
4078.00826994699
 30
0.0
 11
33280.43353322805
 21
4078.00826994699
 31
0.0
  0
LINE
  5
32D5
330
1F
100
AcDbEntity
  8
DIM
  6
CENTER
 62
     0
100
AcDbLine
 10
33269.63353322805
 20
4114.166557087356
 30
0.0
 11
33269.63353322805
 21
4021.051713438043
 31
0.0
  0
CIRCLE
  5
330C
330
1F
100
AcDbEntity
  8
DIM
 62
     0
100
AcDbCircle
 10
33463.63353322805
 20
3820.50826994699
 30
0.0
 40
67.24040506675328
  0
DIMENSION
  5
330D
102
{ACAD_XDICTIONARY
360
3320
102
}
102
{ACAD_REACTORS
330
3330
102
}
330
1F
100
AcDbEntity
  8
DIM
 62
     0
100
AcDbDimension
280
     0
  2
*D1
 10
33403.63353322805
 20
3825.20826994699
 30
0.0
 11
33683.45858872916
 21
3776.422925012157
 31
0.0
 70
    34
 71
     5
 42
0.0349065850398902
 73
     0
 74
     0
 75
     0
  3
ISO-25
100
AcDb2LineAngularDimension
 13
33523.63353322805
 23
3825.20826994699
 33
0.0
 14
33593.37850806318
 24
3827.643818136415
 34
0.0
 15
33523.63353322805
 25
3825.20826994699
 35
0.0
 16
33675.90324500939
 26
3828.752386828427
 36
0.0
1001
ACAD
1000
DSTYLE
1002
{
1070
    41
1040
8.0
1070
   140
1040
15.0
1070
   141
1040
0.5
1070
   143
1040
0.03937007874
1070
   147
1040
3.0
1070
   170
1070
     1
1070
   171
1070
     2
1070
   179
1070
     2
1070
   274
1070
     2
1002
}
  0
LEADER
  5
3349
330
1F
100
AcDbEntity
  8
DIM
 62
     0
100
AcDbLeader
  3
ISO-25
 73
     0
 75
     1
 40
15.0
 41
5.0
 76
     3
 10
33437.59818609665
 20
3790.268234538461
 30
0.0
 10
33393.61588591605
 20
3770.62983864938
 30
0.0
 10
33385.61588591604
 20
3770.62983864938
 30
0.0
340
334A
213
0.0
223
5.0
233
0.0
1001
ACAD
1000
DSTYLE
1002
{
1070
    77
1070
     0
1070
    41
1040
8.0
1070
   140
1040
10.0
1070
   141
1040
0.5
1070
   147
1040
3.0
1070
   179
1070
     2
1002
}
  0
MTEXT
  5
334A
102
{ACAD_REACTORS
330
3349
102
}
330
1F
100
AcDbEntity
  8
DIM
 62
     0
100
AcDbMText
 10
33382.61588591604
 20
3765.62983864938
 30
0.0
 40
15.0
 41
0.0
 46
0.0
 71
     9
 72
     1
  1
I
 73
     1
 44
1.0
  0
LINE
  5
35C2
330
1F
100
AcDbEntity
  8
base
 62
     0
370
     9
100
AcDbLine
 10
33558.61510000368
 20
2912.934182731947
 30
0.0
 11
33318.61510000368
 21
2912.934182731947
 31
0.0
  0
LINE
  5
35C3
330
1F
100
AcDbEntity
  8
base
 62
     0
100
AcDbLine
 10
33557.32385105419
 20
2912.889091325025
 30
0.0
 11
33628.66435612399
 21
2915.380356657993
 31
0.0
  0
LINE
  5
35C4
102
{ACAD_REACTORS
330
3618
102
}
330
1F
100
AcDbEntity
  8
base
 62
     0
100
AcDbLine
 10
33558.61510000368
 20
2910.53271982563
 30
0.0
 11
33628.664356124
 21
2912.978893751677
 31
0.0
  0
LINE
  5
35CB
102
{ACAD_REACTORS
330
3600
102
}
330
1F
100
AcDbEntity
  8
base
 62
     0
100
AcDbLine
 10
33319.87524097135
 20
2912.934182731947
 30
0.0
 11
33324.72353344562
 21
2905.906522434265
 31
0.0
  0
LINE
  5
35CC
330
1F
100
AcDbEntity
  8
base
 62
     0
100
AcDbLine
 10
33318.61628518319
 20
2910.532678438249
 30
0.0
 11
33323.44445738085
 21
2903.534182731948
 31
0.0
  0
LINE
  5
35CD
102
{ACAD_REACTORS
330
3618
102
}
330
1F
100
AcDbEntity
  8
base
 62
     0
100
AcDbLine
 10
33318.61510000368
 20
2910.53271982563
 30
0.0
 11
33248.56584388336
 21
2912.978893751676
 31
0.0
  0
LINE
  5
35CE
330
1F
100
AcDbEntity
  8
base
 62
     0
100
AcDbLine
 10
33318.61510000368
 20
2912.934182731947
 30
0.0
 11
33248.56584388336
 21
2915.380356657993
 31
0.0
  0
LINE
  5
35CF
330
1F
100
AcDbEntity
  8
base
 62
     0
100
AcDbLine
 10
33248.56584388336
 20
2915.380356657993
 30
0.0
 11
33248.56584388336
 21
2912.978893751676
 31
0.0
  0
LINE
  5
35D0
330
1F
100
AcDbEntity
  8
base
 62
     0
100
AcDbLine
 10
33628.66435612399
 20
2915.380356657993
 30
0.0
 11
33628.66435612399
 21
2912.978893751676
 31
0.0
  0
DIMENSION
  5
35D1
330
1F
100
AcDbEntity
  8
DIM
 62
     0
100
AcDbDimension
280
     0
  2
*D2
 10
33526.61510000368
 20
2864.336905126839
 30
0.0
 11
33438.61510000368
 21
2874.836905126839
 31
0.0
 70
    32
  1
%%C90{\Ftxt|c134; [3.5"]}
 71
     5
 42
176.0
 73
     0
 74
     0
 75
     0
  3
ISO-25
100
AcDbAlignedDimension
 13
33350.61510000368
 23
2902.934182731947
 33
0.0
 14
33526.61510000368
 24
2903.534182731945
 34
0.0
100
AcDbRotatedDimension
1001
ACAD
1000
DSTYLE
1002
{
1070
    41
1040
8.0
1070
   140
1040
15.0
1070
   141
1040
0.5
1070
   143
1040
0.03937007874
1070
   147
1040
3.0
1070
   170
1070
     1
1070
   171
1070
     2
1070
   179
1070
     2
1070
   274
1070
     2
1002
}
  0
DIMENSION
  5
35E9
102
{ACAD_XDICTIONARY
360
35F6
102
}
102
{ACAD_REACTORS
330
3600
102
}
330
1F
100
AcDbEntity
  8
DIM
 62
     0
100
AcDbDimension
280
     0
  2
*D3
 10
33552.52574904544
 20
2944.353140803374
 30
0.0
 11
33438.62464124553
 21
2954.853140803374
 31
0.0
 70
    32
  1
%%C114{\Ftxt|c134; [4.5"]}
 71
     5
 42
227.8022155998187
 73
     0
 74
     0
 75
     0
  3
ISO-25
100
AcDbAlignedDimension
 13
33324.72353344562
 23
2905.906522434265
 33
0.0
 14
33552.52574904544
 24
2905.934182731947
 34
0.0
100
AcDbRotatedDimension
1001
ACAD
1000
DSTYLE
1002
{
1070
    41
1040
8.0
1070
   140
1040
15.0
1070
   141
1040
0.5
1070
   143
1040
0.03937007874
1070
   147
1040
3.0
1070
   170
1070
     1
1070
   171
1070
     2
1070
   179
1070
     2
1070
   274
1070
     2
1002
}
  0
DIMENSION
  5
3601
102
{ACAD_XDICTIONARY
360
360E
102
}
102
{ACAD_REACTORS
330
3618
102
}
330
1F
100
AcDbEntity
  8
DIM
 62
     0
100
AcDbDimension
280
     0
  2
*D4
 10
33558.61510000368
 20
2823.111004147106
 30
0.0
 11
33438.61510000368
 21
2833.611004147106
 31
0.0
 70
    32
  1
%%C120{\Ftxt|c134; [4.72"]}
 71
     5
 42
240.0
 73
     0
 74
     0
 75
     0
  3
ISO-25
100
AcDbAlignedDimension
 13
33318.61510000368
 23
2910.53271982563
 33
0.0
 14
33558.61510000368
 24
2910.53271982563
 34
0.0
100
AcDbRotatedDimension
1001
ACAD
1000
DSTYLE
1002
{
1070
    41
1040
8.0
1070
   140
1040
15.0
1070
   141
1040
0.5
1070
   143
1040
0.03937007874
1070
   147
1040
3.0
1070
   170
1070
     1
1070
   171
1070
     2
1070
   179
1070
     2
1070
   274
1070
     2
1002
}
  0
POINT
  5
36A0
330
1F
100
AcDbEntity
  8
0
 62
     0
 48
3.0
370
     5
100
AcDbPoint
 10
33820.97621976692
 20
4251.487337499887
 30
0.0
  0
LINE
  5
370D
102
{ACAD_REACTORS
330
3330
102
}
330
1F
100
AcDbEntity
  8
base
 62
     0
100
AcDbLine
 10
33507.63353322803
 20
3820.208269946991
 30
0.0
 11
33419.63353322805
 21
3820.208269946991
 31
0.0
  0
LINE
  5
370E
330
1F
100
AcDbEntity
  8
base
 62
     0
100
AcDbLine
 10
33419.63353322805
 20
3820.208269946991
 30
0.0
 11
33406.04821191664
 21
3820.508269946991
 31
0.0
  0
LINE
  5
370F
330
1F
100
AcDbEntity
  8
base
 62
     0
100
AcDbLine
 10
33419.63353322805
 20
3821.408562497591
 30
0.0
 11
33406.68774994902
 21
3821.69443979815
 31
0.0
  0
LINE
  5
3710
330
1F
100
AcDbEntity
  8
base
 62
     0
100
AcDbLine
 10
33507.63353322805
 20
3821.408562497591
 30
0.0
 11
33520.57931650708
 21
3821.69443979815
 31
0.0
  0
LINE
  5
3711
330
1F
100
AcDbEntity
  8
base
 62
     0
100
AcDbLine
 10
33507.63353322805
 20
3820.208269946991
 30
0.0
 11
33521.21885453946
 21
3820.508269946991
 31
0.0
  0
LINE
  5
3712
330
1F
100
AcDbEntity
  8
base
 62
     0
100
AcDbLine
 10
33507.63353322805
 20
3820.208269946991
 30
0.0
 11
33507.63353322805
 21
3821.408562497591
 31
0.0
  0
LINE
  5
3713
330
1F
100
AcDbEntity
  8
base
 62
     0
100
AcDbLine
 10
33523.00346274422
 20
3825.20826994699
 30
0.0
 11
33520.57931650708
 21
3821.69443979815
 31
0.0
  0
LINE
  5
3714
330
1F
100
AcDbEntity
  8
base
 62
     0
100
AcDbLine
 10
33523.6329406383
 20
3824.00751780014
 30
0.0
 11
33521.21885453946
 21
3820.508269946991
 31
0.0
  0
LINE
  5
3715
102
{ACAD_REACTORS
330
3759
102
}
330
1F
100
AcDbEntity
  8
base
 62
     0
370
     9
100
AcDbLine
 10
33526.61510000372
 20
2902.934182731947
 30
0.0
 11
33350.61510000365
 21
2902.934182731948
 31
0.0
  0
LINE
  5
371F
330
1F
100
AcDbEntity
  8
base
 62
     0
100
AcDbLine
 10
33350.61510000368
 20
2902.934182731947
 30
0.0
 11
33323.44445738085
 21
2903.534182731948
 31
0.0
  0
LINE
  5
3720
330
1F
100
AcDbEntity
  8
base
 62
     0
100
AcDbLine
 10
33350.66808546467
 20
2905.333597773353
 30
0.0
 11
33324.72353344562
 21
2905.906522434265
 31
0.0
  0
LINE
  5
372A
330
1F
100
AcDbEntity
  8
base
 62
     0
100
AcDbLine
 10
33350.61510000368
 20
2902.934182731947
 30
0.0
 11
33350.66808546466
 21
2905.333597773353
 31
0.0
  0
LINE
  5
3739
330
1F
100
AcDbEntity
  8
base
 62
     0
100
AcDbLine
 10
33526.61510000368
 20
2902.934182731947
 30
0.0
 11
33526.5621145427
 21
2905.333597773353
 31
0.0
  0
LINE
  5
373A
330
1F
100
AcDbEntity
  8
base
 62
     0
100
AcDbLine
 10
33526.56211454269
 20
2905.333597773353
 30
0.0
 11
33552.50666656174
 21
2905.906522434265
 31
0.0
  0
LINE
  5
373B
330
1F
100
AcDbEntity
  8
base
 62
     0
100
AcDbLine
 10
33526.61510000372
 20
2902.934182731947
 30
0.0
 11
33553.78574262652
 21
2903.534182731948
 31
0.0
  0
LINE
  5
373C
330
1F
100
AcDbEntity
  8
base
 62
     0
100
AcDbLine
 10
33558.61391482417
 20
2910.532678438249
 30
0.0
 11
33553.78574262652
 21
2903.534182731948
 31
0.0
  0
LINE
  5
373D
102
{ACAD_REACTORS
330
3759
102
}
330
1F
100
AcDbEntity
  8
base
 62
     0
100
AcDbLine
 10
33557.32385105419
 20
2912.889091325025
 30
0.0
 11
33552.50666656174
 21
2905.906522434265
 31
0.0
  0
DIMENSION
  5
373E
102
{ACAD_XDICTIONARY
360
374D
102
}
102
{ACAD_REACTORS
330
3759
102
}
330
1F
100
AcDbEntity
  8
DIM
 62
     0
100
AcDbDimension
280
     0
  2
*D5
 10
33655.31202888221
 20
2912.889091325027
 30
0.0
 11
33644.8120288822
 21
2969.389091325016
 31
0.0
 70
    32
  1
5{\Ftxt|c134; [.2"]}
 71
     5
 42
9.954908593078471
 73
     0
 74
     0
 75
     0
  3
ISO-25
100
AcDbAlignedDimension
 13
33526.61510000372
 23
2902.934182731947
 33
0.0
 14
33557.32385105419
 24
2912.889091325025
 34
0.0
 50
90.0
100
AcDbRotatedDimension
1001
ACAD
1000
DSTYLE
1002
{
1070
    41
1040
8.0
1070
   140
1040
15.0
1070
   141
1040
0.5
1070
   143
1040
0.03937007874
1070
   147
1040
3.0
1070
   170
1070
     1
1070
   171
1070
     2
1070
   179
1070
     2
1070
   274
1070
     2
1002
}
  0
LINE
  5
379B
330
1F
100
AcDbEntity
  8
DIM
  6
CENTER
 62
     0
100
AcDbLine
 10
33438.61510000368
 20
2929.999929841739
 30
0.0
 11
33438.61510000368
 21
2888.759527348204
 31
0.0
  0
LINE
  5
37A8
330
1F
100
AcDbEntity
  8
base
 62
     0
100
AcDbLine
 10
33507.63353322803
 20
3821.408562497591
 30
0.0
 11
33419.63353322805
 21
3821.408562497591
 31
0.0
  0
LINE
  5
37C6
330
1F
100
AcDbEntity
  8
base
 62
     0
100
AcDbLine
 10
33350.66808546466
 20
2905.333597773353
 30
0.0
 11
33526.5621145427
 21
2905.333597773353
 31
0.0
  0
DIMENSION
  5
623D
102
{ACAD_XDICTIONARY
360
624A
102
}
102
{ACAD_REACTORS
330
6254
102
}
330
1F
100
AcDbEntity
  8
0
100
AcDbDimension
280
     0
  2
*D6
 10
33666.63353322805
 20
3675.909216771916
 30
0.0
 11
33269.63353322805
 21
3686.409216771916
 31
0.0
 70
    32
  1
<>{\Ftxt|c134; [31.26"]}
 71
     5
 42
794.0
 73
     0
 74
     0
 75
     0
  3
ISO-25
100
AcDbAlignedDimension
 13
32872.63353322805
 23
3442.564235683631
 33
0.0
 14
33666.63353322805
 24
3424.986867924731
 34
0.0
100
AcDbRotatedDimension
1001
ACAD
1000
DSTYLE
1002
{
1070
    41
1040
8.0
1070
   140
1040
15.0
1070
   141
1040
0.5
1070
   143
1040
0.03937007874
1070
   147
1040
3.0
1070
   171
1070
     2
1070
   179
1070
     2
1070
   274
1070
     2
1002
}
  0
DIMENSION
  5
6255
102
{ACAD_XDICTIONARY
360
6262
102
}
102
{ACAD_REACTORS
330
626C
102
}
330
1F
100
AcDbEntity
  8
0
100
AcDbDimension
280
     0
  2
*D7
 10
32754.74286454751
 20
3109.794837380288
 30
0.0
 11
32744.2428645475
 21
3337.794837380278
 31
0.0
 70
    32
  1
<>{\Ftxt|c134; [17.95"}
 71
     5
 42
456.0000000000004
 73
     0
 74
     0
 75
     0
  3
ISO-25
100
AcDbAlignedDimension
 13
33037.23389780046
 23
3565.794837380287
 33
0.0
 14
33037.23389780046
 24
3109.794837380286
 34
0.0
 50
90.0
100
AcDbRotatedDimension
1001
ACAD
1000
DSTYLE
1002
{
1070
    41
1040
8.0
1070
   140
1040
15.0
1070
   141
1040
0.5
1070
   143
1040
0.03937007874
1070
   147
1040
3.0
1070
   171
1070
     2
1070
   179
1070
     2
1070
   274
1070
     2
1002
}
  0
DIMENSION
  5
626D
102
{ACAD_XDICTIONARY
360
627A
102
}
102
{ACAD_REACTORS
330
6284
102
}
330
1F
100
AcDbEntity
  8
0
100
AcDbDimension
280
     0
  2
*D8
 10
33253.63353322806
 20
3608.144076959544
 30
0.0
 11
33075.63353322806
 21
3618.644076959544
 31
0.0
 70
    32
  1
<>{\Ftxt|c134; [14"]}
 71
     5
 42
356.0000000000073
 73
     0
 74
     0
 75
     0
  3
ISO-25
100
AcDbAlignedDimension
 13
32897.63353322805
 23
3411.933541931894
 33
0.0
 14
33253.63353322806
 24
3411.933541931884
 34
0.0
100
AcDbRotatedDimension
1001
ACAD
1000
DSTYLE
1002
{
1070
    41
1040
8.0
1070
   140
1040
15.0
1070
   141
1040
0.5
1070
   143
1040
0.03937007874
1070
   147
1040
3.0
1070
   171
1070
     2
1070
   179
1070
     2
1070
   274
1070
     2
1002
}
  0
DIMENSION
  5
6285
102
{ACAD_XDICTIONARY
360
6292
102
}
102
{ACAD_REACTORS
330
629C
102
}
330
1F
100
AcDbEntity
  8
0
100
AcDbDimension
280
     0
  2
*D9
 10
33641.63353322805
 20
3606.235129646031
 30
0.0
 11
33463.63353322804
 21
3616.735129646031
 31
0.0
 70
    32
  1
<>{\Ftxt|c134; [14"]}
 71
     5
 42
356.0000000000073
 73
     0
 74
     0
 75
     0
  3
ISO-25
100
AcDbAlignedDimension
 13
33285.63353322804
 23
3432.702200290262
 33
0.0
 14
33641.63353322805
 24
3432.702200290262
 34
0.0
100
AcDbRotatedDimension
1001
ACAD
1000
DSTYLE
1002
{
1070
    41
1040
8.0
1070
   140
1040
15.0
1070
   141
1040
0.5
1070
   143
1040
0.03937007874
1070
   147
1040
3.0
1070
   171
1070
     2
1070
   179
1070
     2
1070
   274
1070
     2
1002
}
  0
DIMENSION
  5
629D
102
{ACAD_XDICTIONARY
360
62AA
102
}
102
{ACAD_REACTORS
330
62B4
102
}
330
1F
100
AcDbEntity
  8
0
100
AcDbDimension
280
     0
  2
*D10
 10
32820.97502920426
 20
3134.794837380288
 30
0.0
 11
32810.47502920425
 21
3337.794837380278
 31
0.0
 70
    32
  1
<>{\Ftxt|c134; [15.98"]}
 71
     5
 42
406.0000000000009
 73
     0
 74
     0
 75
     0
  3
ISO-25
100
AcDbAlignedDimension
 13
33016.3007280258
 23
3540.794837380287
 33
0.0
 14
33016.3007280258
 24
3134.794837380286
 34
0.0
 50
90.0
100
AcDbRotatedDimension
1001
ACAD
1000
DSTYLE
1002
{
1070
    41
1040
8.0
1070
   140
1040
15.0
1070
   141
1040
0.5
1070
   143
1040
0.03937007874
1070
   147
1040
3.0
1070
   171
1070
     2
1070
   179
1070
     2
1070
   274
1070
     2
1002
}
  0
DIMENSION
  5
62B5
102
{ACAD_XDICTIONARY
360
62BE
102
}
102
{ACAD_REACTORS
330
62C4
102
}
330
1F
100
AcDbEntity
  8
0
100
AcDbDimension
280
     0
  2
*D11
 10
32974.63353322805
 20
3463.794837380277
 30
0.0
 11
32954.86215059633
 21
3475.546110878511
 31
0.0
 70
   164
  1
4-<>{\Ftxt|c134; [3"]}
 71
     5
 42
77.00000000000727
 73
     0
 74
     0
 75
     0
  3
ISO-25
100
AcDbRadialDimension
 15
32908.44238267839
 25
3503.136057352636
 35
0.0
 40
0.0
1001
ACAD
1000
DSTYLE
1002
{
1070
    41
1040
8.0
1070
   140
1040
15.0
1070
   141
1040
0.5
1070
   143
1040
0.03937007874
1070
   147
1040
3.0
1070
   171
1070
     2
1070
   179
1070
     2
1070
   274
1070
     2
1070
   288
1070
     1
1002
}
  0
DIMENSION
  5
62C5
102
{ACAD_XDICTIONARY
360
62D2
102
}
102
{ACAD_REACTORS
330
62DC
102
}
330
1F
100
AcDbEntity
  8
0
100
AcDbDimension
280
     0
  2
*D12
 10
33162.00718753933
 20
3420.794837380288
 30
0.0
 11
33139.00718753933
 21
3480.794837380278
 31
0.0
 70
    32
  1
<>{\Ftxt|c134; [4.72"]}
 71
     5
 42
119.9999999999995
 73
     0
 74
     0
 75
     0
  3
ISO-25
100
AcDbAlignedDimension
 13
33130.89462037272
 23
3540.794837380287
 33
0.0
 14
33146.90382603841
 24
3420.794837380287
 34
0.0
 50
90.0
100
AcDbRotatedDimension
1001
ACAD
1000
DSTYLE
1002
{
1070
    41
1040
8.0
1070
   140
1040
15.0
1070
   141
1040
0.5
1070
   143
1040
0.03937007874
1070
   147
1040
3.0
1070
   171
1070
     2
1070
   179
1070
     2
1070
   274
1070
     2
1002
}
  0
DIMENSION
  5
62EF
102
{ACAD_XDICTIONARY
360
62FC
102
}
102
{ACAD_REACTORS
330
6306
102
}
330
1F
100
AcDbEntity
  8
0
100
AcDbDimension
280
     0
  2
*D13
 10
33556.10466745176
 20
3540.794837380288
 30
0.0
 11
33533.10466745175
 21
3480.794837380278
 31
0.0
 70
    32
  1
<>{\Ftxt|c134; [4.72"]}
 71
     5
 42
120.0
 73
     0
 74
     0
 75
     0
  3
ISO-25
100
AcDbAlignedDimension
 13
33534.9038260384
 23
3420.794837380287
 33
0.0
 14
33525.5122948478
 24
3540.794837380287
 34
0.0
 50
90.0
100
AcDbRotatedDimension
1001
ACAD
1000
DSTYLE
1002
{
1070
    41
1040
8.0
1070
   140
1040
15.0
1070
   141
1040
0.5
1070
   143
1040
0.03937007874
1070
   147
1040
3.0
1070
   171
1070
     2
1070
   179
1070
     2
1070
   274
1070
     2
1002
}
  0
DIMENSION
  5
630C
330
1F
100
AcDbEntity
  8
0
100
AcDbDimension
280
     0
  2
*D14
 10
33362.63353322804
 20
3463.794837380279
 30
0.0
 11
33342.86215059634
 21
3475.546110878511
 31
0.0
 70
   164
  1
4-<>{\Ftxt|c134; [3"]}
 71
     5
 42
76.99999999998908
 73
     0
 74
     0
 75
     0
  3
ISO-25
100
AcDbRadialDimension
 15
33296.44238267841
 25
3503.136057352634
 35
0.0
 40
0.0
1001
ACAD
1000
DSTYLE
1002
{
1070
    41
1040
8.0
1070
   140
1040
15.0
1070
   141
1040
0.5
1070
   143
1040
0.03937007874
1070
   147
1040
3.0
1070
   171
1070
     2
1070
   179
1070
     2
1070
   274
1070
     2
1070
   288
1070
     1
1002
}
  0
DIMENSION
  5
631C
102
{ACAD_XDICTIONARY
360
6326
102
}
102
{ACAD_REACTORS
330
632D
102
}
330
1F
100
AcDbEntity
  8
0
100
AcDbDimension
280
     0
  2
*D15
 10
33564.63353322807
 20
3211.794837380285
 30
0.0
 11
33710.98976593561
 21
3090.571219022911
 31
0.0
 70
    36
  1
4-<>{\Ftxt|c134; [4"]}
 71
     5
 42
101.9999999999927
 73
     0
 74
     0
 75
     0
  3
ISO-25
100
AcDbRadialDimension
 15
33639.47218264242
 25
3142.489884066439
 35
0.0
 40
0.0
1001
ACAD
1000
DSTYLE
1002
{
1070
    41
1040
8.0
1070
   140
1040
15.0
1070
   141
1040
0.5
1070
   143
1040
0.03937007874
1070
   147
1040
3.0
1070
   171
1070
     2
1070
   179
1070
     2
1070
   274
1070
     2
1070
   288
1070
     1
1002
}
  0
DIMENSION
  5
633D
102
{ACAD_XDICTIONARY
360
634A
102
}
102
{ACAD_REACTORS
330
6354
102
}
330
1F
100
AcDbEntity
  8
0
100
AcDbDimension
280
     0
  2
*D16
 10
33714.48077599536
 20
3825.208269946993
 30
0.0
 11
33703.98077599535
 21
3952.208269946981
 31
0.0
 70
    32
  1
<>{\Ftxt|c134; [10"]}
 71
     5
 42
254.0
 73
     0
 74
     0
 75
     0
  3
ISO-25
100
AcDbAlignedDimension
 13
33569.21682456188
 23
4079.20826994699
 33
0.0
 14
33519.69798802201
 24
3825.20826994699
 34
0.0
 50
90.0
100
AcDbRotatedDimension
1001
ACAD
1000
DSTYLE
1002
{
1070
    41
1040
8.0
1070
   140
1040
15.0
1070
   141
1040
0.5
1070
   143
1040
0.03937007874
1070
   147
1040
3.0
1070
   171
1070
     2
1070
   179
1070
     2
1070
   274
1070
     2
1002
}
  0
DIMENSION
  5
635E
330
1F
100
AcDbEntity
  8
0
100
AcDbDimension
280
     0
  2
*D17
 10
32947.63353322804
 20
3877.613359487379
 30
0.0
 11
32972.49493723136
 21
3898.931733979447
 31
0.0
 70
   164
  1
<>{\Ftxt|c134; [1.97"]}
 71
     5
 42
49.99999999999272
 73
     0
 74
     0
 75
     0
  3
ISO-25
100
AcDbRadialDimension
 15
32909.67719123826
 25
3845.066222858281
 35
0.0
 40
0.0
1001
ACAD
1000
DSTYLE
1002
{
1070
    41
1040
8.0
1070
   140
1040
15.0
1070
   141
1040
0.5
1070
   143
1040
0.03937007874
1070
   147
1040
3.0
1070
   171
1070
     2
1070
   179
1070
     2
1070
   274
1070
     2
1070
   279
1070
     1
1070
   288
1070
     1
1002
}
  0
DIMENSION
  5
636E
330
1F
100
AcDbEntity
  8
0
100
AcDbDimension
280
     0
  2
*D18
 10
33335.63353322801
 20
3877.613359487373
 30
0.0
 11
33357.90489990015
 21
3901.624788569292
 31
0.0
 70
   164
  1
<>{\Ftxt|c134; [1.97"]}
 71
     5
 42
49.99999999999272
 73
     0
 74
     0
 75
     0
  3
ISO-25
100
AcDbRadialDimension
 15
33301.63144670568
 25
3840.954689133325
 35
0.0
 40
0.0
1001
ACAD
1000
DSTYLE
1002
{
1070
    41
1040
8.0
1070
   140
1040
15.0
1070
   141
1040
0.5
1070
   143
1040
0.03937007874
1070
   147
1040
3.0
1070
   171
1070
     2
1070
   179
1070
     2
1070
   274
1070
     2
1070
   279
1070
     1
1070
   288
1070
     1
1002
}
  0
ENDSEC
  0
SECTION
  2
OBJECTS
  0
DICTIONARY
  5
C
330
0
100
AcDbDictionary
281
     1
  3
ACAD_CIP_PREVIOUS_PRODUCT_INFO
350
63DC
  3
ACAD_COLOR
350
6B
  3
ACAD_DETAILVIEWSTYLE
350
63D5
  3
ACAD_GROUP
350
D
  3
ACAD_LAYOUT
350
1A
  3
ACAD_MATERIAL
350
6A
  3
ACAD_MLEADERSTYLE
350
63D1
  3
ACAD_MLINESTYLE
350
17
  3
ACAD_PLOTSETTINGS
350
19
  3
ACAD_PLOTSTYLENAME
350
E
  3
ACAD_SCALELIST
350
63BF
  3
ACAD_SECTIONVIEWSTYLE
350
63D3
  3
ACAD_TABLESTYLE
350
622B
  3
ACAD_VISUALSTYLE
350
621A
  3
AcadDim
350
1BCC
  3
ACDB_RECOMPOSE_DATA
350
651A
  3
AcDbVariableDictionary
350
5E
  3
lxx_dict
350
6233
  0
DICTIONARY
  5
6502
330
10
100
AcDbDictionary
280
     1
281
     1
  3
ADSK_XREC_LAYER_RECONCILED
360
6503
  0
DICTIONARY
  5
6504
330
84
100
AcDbDictionary
280
     1
281
     1
  3
ADSK_XREC_LAYER_RECONCILED
360
6505
  0
DICTIONARY
  5
6506
330
2D93
100
AcDbDictionary
280
     1
281
     1
  3
ADSK_XREC_LAYER_RECONCILED
360
6507
  0
DICTIONARY
  5
3320
330
330D
100
AcDbDictionary
280
     1
281
     1
  3
ACAD_DIMASSOC
360
3330
  0
DICTIONARY
  5
35F6
330
35E9
100
AcDbDictionary
280
     1
281
     1
  3
ACAD_DIMASSOC
360
3600
  0
DICTIONARY
  5
360E
330
3601
100
AcDbDictionary
280
     1
281
     1
  3
ACAD_DIMASSOC
360
3618
  0
DICTIONARY
  5
374D
330
373E
100
AcDbDictionary
280
     1
281
     1
  3
ACAD_DIMASSOC
360
3759
  0
DICTIONARY
  5
624A
330
623D
100
AcDbDictionary
280
     1
281
     1
  3
ACAD_DIMASSOC
360
6254
  0
DICTIONARY
  5
6262
330
6255
100
AcDbDictionary
280
     1
281
     1
  3
ACAD_DIMASSOC
360
626C
  0
DICTIONARY
  5
627A
330
626D
100
AcDbDictionary
280
     1
281
     1
  3
ACAD_DIMASSOC
360
6284
  0
DICTIONARY
  5
6292
330
6285
100
AcDbDictionary
280
     1
281
     1
  3
ACAD_DIMASSOC
360
629C
  0
DICTIONARY
  5
62AA
330
629D
100
AcDbDictionary
280
     1
281
     1
  3
ACAD_DIMASSOC
360
62B4
  0
DICTIONARY
  5
62BE
330
62B5
100
AcDbDictionary
280
     1
281
     1
  3
ACAD_DIMASSOC
360
62C4
  0
DICTIONARY
  5
62D2
330
62C5
100
AcDbDictionary
280
     1
281
     1
  3
ACAD_DIMASSOC
360
62DC
  0
DICTIONARY
  5
62FC
330
62EF
100
AcDbDictionary
280
     1
281
     1
  3
ACAD_DIMASSOC
360
6306
  0
DICTIONARY
  5
6326
330
631C
100
AcDbDictionary
280
     1
281
     1
  3
ACAD_DIMASSOC
360
632D
  0
DICTIONARY
  5
634A
330
633D
100
AcDbDictionary
280
     1
281
     1
  3
ACAD_DIMASSOC
360
6354
  0
XRECORD
  5
63DC
102
{ACAD_REACTORS
330
C
102
}
330
C
100
AcDbXrecord
280
     1
300
ACDLT
300
2018
300

  0
DICTIONARY
  5
6B
102
{ACAD_REACTORS
330
C
102
}
330
C
100
AcDbDictionary
281
     1
  0
DICTIONARY
  5
63D5
102
{ACAD_REACTORS
330
C
102
}
330
C
100
AcDbDictionary
281
     1
  3
Metric50
350
63D6
  0
DICTIONARY
  5
D
102
{ACAD_REACTORS
330
C
102
}
330
C
100
AcDbDictionary
281
     1
  0
DICTIONARY
  5
1A
102
{ACAD_REACTORS
330
C
102
}
330
C
100
AcDbDictionary
281
     1
  3
Layout1
350
51
  3
Layout2
350
56
  3
Model
350
22
  0
DICTIONARY
  5
6A
102
{ACAD_REACTORS
330
C
102
}
330
C
100
AcDbDictionary
281
     1
  3
ByBlock
350
6218
  3
ByLayer
350
6217
  3
Global
350
6219
  0
DICTIONARY
  5
63D1
102
{ACAD_REACTORS
330
C
102
}
330
C
100
AcDbDictionary
281
     1
  3
Standard
350
63D2
  0
DICTIONARY
  5
17
102
{ACAD_REACTORS
330
C
102
}
330
C
100
AcDbDictionary
281
     1
  3
Standard
350
18
  0
DICTIONARY
  5
19
102
{ACAD_REACTORS
330
C
102
}
330
C
100
AcDbDictionary
281
     1
  0
ACDBDICTIONARYWDFLT
  5
E
102
{ACAD_REACTORS
330
C
102
}
330
C
100
AcDbDictionary
281
     1
  3
Normal
350
F
100
AcDbDictionaryWithDefault
340
F
  0
DICTIONARY
  5
63BF
102
{ACAD_REACTORS
330
C
102
}
330
C
100
AcDbDictionary
281
     1
  3
A0
350
63C0
  3
A1
350
63C1
  3
A2
350
63C2
  3
A3
350
63C3
  3
A4
350
63C4
  3
A5
350
63C5
  3
A6
350
63C6
  3
A7
350
63C7
  3
A8
350
63C8
  3
A9
350
63C9
  3
B0
350
63CA
  3
B1
350
63CB
  3
B2
350
63CC
  3
B3
350
63CD
  3
B4
350
63CE
  3
B5
350
63CF
  3
B6
350
63D0
  0
DICTIONARY
  5
63D3
102
{ACAD_REACTORS
330
C
102
}
330
C
100
AcDbDictionary
281
     1
  3
Metric50
350
63D4
  0
DICTIONARY
  5
622B
102
{ACAD_REACTORS
330
C
102
}
330
C
100
AcDbDictionary
281
     1
  3
Standard
350
622C
  0
DICTIONARY
  5
621A
102
{ACAD_REACTORS
330
C
102
}
330
C
100
AcDbDictionary
281
     1
  3
2dWireframe
350
6220
  3
3D Hidden
350
6222
  3
3dWireframe
350
6221
  3
Basic
350
621F
  3
Brighten
350
6226
  3
ColorChange
350
622A
  3
Conceptual
350
6223
  3
Dim
350
6225
  3
EdgeColorOff
350
63BE
  3
Facepattern
350
6229
  3
Flat
350
621B
  3
FlatWithEdges
350
621C
  3
Gouraud
350
621D
  3
GouraudWithEdges
350
621E
  3
Hidden
350
63B6
  3
JitterOff
350
63BC
  3
Linepattern
350
6228
  3
OverhangOff
350
63BD
  3
Realistic
350
6224
  3
Shaded
350
63BB
  3
Shaded with edges
350
63BA
  3
Shades of Gray
350
63B7
  3
Sketchy
350
63B8
  3
Thicken
350
6227
  3
Wireframe
350
63B5
  3
X-Ray
350
63B9
  0
XRECORD
  5
1BCC
102
{ACAD_REACTORS
330
C
102
}
330
C
100
AcDbXrecord
280
     1
 90
   990106
  3

 60
     0
 61
     0
 62
     1
 63
     3
 64
     0
 65
     0
 66
     0
 67
     3
 68
     1
 69
     0
 70
     0
 71
     0
 72
     0
 40
0.0
170
     0
340
0
  0
XRECORD
  5
651A
102
{ACAD_REACTORS
330
C
102
}
330
C
100
AcDbXrecord
280
     1
 90
        1
330
622C
  0
DICTIONARY
  5
5E
102
{ACAD_REACTORS
330
C
102
}
330
C
100
AcDbDictionary
281
     1
  3
CANNOSCALE
350
6514
  3
CMLEADERSTYLE
350
6510
  3
CTABLESTYLE
350
6235
  3
CVIEWDETAILSTYLE
350
6511
  3
CVIEWSECTIONSTYLE
350
6512
  3
DIMASSOC
350
5F
  3
HIDETEXT
350
63
  3
LAYEREVAL
350
6516
  3
LAYERNOTIFY
350
6517
  3
LIGHTINGUNITS
350
6515
  3
MSLTSCALE
350
6513
  3
PROJECTNAME
350
1CF
  0
DICTIONARY
  5
6233
102
{ACAD_REACTORS
330
C
102
}
330
C
100
AcDbDictionary
281
     1
  3
lxx_dimth
350
6234
  0
XRECORD
  5
6503
102
{ACAD_REACTORS
330
6502
102
}
330
6502
100
AcDbXrecord
280
     1
290
     1
  0
XRECORD
  5
6505
102
{ACAD_REACTORS
330
6504
102
}
330
6504
100
AcDbXrecord
280
     1
290
     1
  0
XRECORD
  5
6507
102
{ACAD_REACTORS
330
6506
102
}
330
6506
100
AcDbXrecord
280
     1
290
     1
  0
DIMASSOC
  5
3330
102
{ACAD_REACTORS
330
3320
102
}
330
3320
100
AcDbDimAssoc
330
330D
 90
       15
 70
     0
 71
     0
  1
AcDbOsnapPointRef
 72
    13
331
32CF
 73
     2
 91
        0
 40
0.0
 10
0.0
 20
0.0
 30
2.000000000000000E+50
 75
     0
  1
AcDbOsnapPointRef
 72
     1
331
32CF
 73
     2
 91
        0
 40
0.9999999999999998
 10
0.0
 20
0.0
 30
2.000000000000000E+50
 75
     0
  1
AcDbOsnapPointRef
 72
    13
331
32D1
 73
     2
 91
        0
 40
0.0
 10
0.0
 20
0.0
 30
2.000000000000000E+50
 75
     0
  1
AcDbOsnapPointRef
 72
     1
331
32D1
 73
     2
 91
        0
 40
1.0
 10
0.0
 20
0.0
 30
2.000000000000000E+50
 75
     0
  0
DIMASSOC
  5
3600
102
{ACAD_REACTORS
330
35F6
102
}
330
35F6
100
AcDbDimAssoc
330
35E9
 90
        1
 70
     0
 71
     0
  1
AcDbOsnapPointRef
 72
     1
331
35CB
 73
     2
 91
        0
 40
0.9999999999999998
 10
0.0
 20
0.0
 30
2.000000000000000E+50
 75
     0
  0
DIMASSOC
  5
3618
102
{ACAD_REACTORS
330
360E
102
}
330
360E
100
AcDbDimAssoc
330
3601
 90
        3
 70
     0
 71
     0
  1
AcDbOsnapPointRef
 72
    13
331
35CD
 73
     2
 91
        0
 40
0.0
 10
0.0
 20
0.0
 30
2.000000000000000E+50
 75
     0
  1
AcDbOsnapPointRef
 72
    13
331
35C4
 73
     2
 91
        0
 40
0.0
 10
0.0
 20
0.0
 30
2.000000000000000E+50
 75
     0
  0
DIMASSOC
  5
3759
102
{ACAD_REACTORS
330
374D
102
}
330
374D
100
AcDbDimAssoc
330
373E
 90
        3
 70
     0
 71
     0
  1
AcDbOsnapPointRef
 72
    13
331
3715
 73
     2
 91
        0
 40
0.0
 10
0.0
 20
0.0
 30
2.000000000000000E+50
 75
     0
  1
AcDbOsnapPointRef
 72
    13
331
373D
 73
     2
 91
        0
 40
0.0
 10
0.0
 20
0.0
 30
2.000000000000000E+50
 75
     0
  0
DIMASSOC
  5
6254
102
{ACAD_REACTORS
330
624A
102
}
330
624A
100
AcDbDimAssoc
330
623D
 90
        3
 70
     0
 71
     0
  1
AcDbOsnapPointRef
 72
    10
331
3265
 73
     2
 91
        2
 40
0.9157515805688259
 10
0.0
 20
0.0
 30
0.0
 75
     0
  1
AcDbOsnapPointRef
 72
    10
331
3265
 73
     2
 91
        6
 40
0.1539998787918883
 10
0.0
 20
0.0
 30
0.0
 75
     0
  0
DIMASSOC
  5
626C
102
{ACAD_REACTORS
330
6262
102
}
330
6262
100
AcDbDimAssoc
330
6255
 90
        3
 70
     0
 71
     0
  1
AcDbOsnapPointRef
 72
    10
331
3265
 73
     2
 91
        4
 40
0.1061023128345846
 10
0.0
 20
0.0
 30
0.0
 75
     0
  1
AcDbOsnapPointRef
 72
     8
331
3265
 73
     2
 91
        8
 40
0.8938976871654153
 10
0.0
 20
0.0
 30
0.0
 75
     1
  1
AcDbOsnapPointRef
 72
    10
331
3265
 73
     2
 91
        4
 40
0.1061023128345846
 10
0.0
 20
0.0
 30
0.0
 75
     0
  0
DIMASSOC
  5
6284
102
{ACAD_REACTORS
330
627A
102
}
330
627A
100
AcDbDimAssoc
330
626D
 90
        3
 70
     0
 71
     0
  1
AcDbOsnapPointRef
 72
    10
331
3263
 73
     2
 91
        2
 40
0.7942012085381262
 10
0.0
 20
0.0
 30
0.0
 75
     0
  1
AcDbOsnapPointRef
 72
     8
331
3263
 73
     2
 91
        6
 40
0.2057987914619161
 10
0.0
 20
0.0
 30
0.0
 75
     1
  1
AcDbOsnapPointRef
 72
    10
331
3263
 73
     2
 91
        2
 40
0.7942012085381262
 10
0.0
 20
0.0
 30
0.0
 75
     0
  0
DIMASSOC
  5
629C
102
{ACAD_REACTORS
330
6292
102
}
330
6292
100
AcDbDimAssoc
330
6285
 90
        3
 70
     0
 71
     0
  1
AcDbOsnapPointRef
 72
    10
331
3264
 73
     2
 91
        6
 40
0.1233834805159729
 10
0.0
 20
0.0
 30
0.0
 75
     0
  1
AcDbOsnapPointRef
 72
     8
331
3264
 73
     2
 91
        2
 40
0.8766165194840274
 10
0.0
 20
0.0
 30
0.0
 75
     1
  1
AcDbOsnapPointRef
 72
    10
331
3264
 73
     2
 91
        6
 40
0.1233834805159729
 10
0.0
 20
0.0
 30
0.0
 75
     0
  0
DIMASSOC
  5
62B4
102
{ACAD_REACTORS
330
62AA
102
}
330
62AA
100
AcDbDimAssoc
330
629D
 90
        3
 70
     0
 71
     0
  1
AcDbOsnapPointRef
 72
    10
331
3263
 73
     2
 91
        4
 40
0.2062732415730298
 10
0.0
 20
0.0
 30
0.0
 75
     0
  1
AcDbOsnapPointRef
 72
     8
331
3263
 73
     2
 91
        8
 40
0.7937267584269702
 10
0.0
 20
0.0
 30
0.0
 75
     1
  1
AcDbOsnapPointRef
 72
    10
331
3263
 73
     2
 91
        4
 40
0.2062732415730298
 10
0.0
 20
0.0
 30
0.0
 75
     0
  0
DIMASSOC
  5
62C4
102
{ACAD_REACTORS
330
62BE
102
}
330
62BE
100
AcDbDimAssoc
330
62B5
 90
        2
 70
     0
 71
     0
  1
AcDbOsnapPointRef
 72
     3
331
3263
 73
     2
 91
        3
 40
0.0
 10
0.0
 20
0.0
 30
0.0
 75
     0
  0
DIMASSOC
  5
62DC
102
{ACAD_REACTORS
330
62D2
102
}
330
62D2
100
AcDbDimAssoc
330
62C5
 90
        2
 70
     0
 71
     0
  1
AcDbOsnapPointRef
 72
    13
331
3266
 73
     2
 91
        0
 40
0.0
 10
0.0
 20
0.0
 30
2.000000000000000E+50
 75
     0
  0
DIMASSOC
  5
6306
102
{ACAD_REACTORS
330
62FC
102
}
330
62FC
100
AcDbDimAssoc
330
62EF
 90
        3
 70
     0
 71
     0
  1
AcDbOsnapPointRef
 72
     1
331
3288
 73
     2
 91
        0
 40
1.0
 10
0.0
 20
0.0
 30
2.000000000000000E+50
 75
     0
  1
AcDbOsnapPointRef
 72
    10
331
3264
 73
     2
 91
        4
 40
0.1936694969319595
 10
0.0
 20
0.0
 30
0.0
 75
     0
  0
DIMASSOC
  5
632D
102
{ACAD_REACTORS
330
6326
102
}
330
6326
100
AcDbDimAssoc
330
631C
 90
        2
 70
     0
 71
     0
  1
AcDbOsnapPointRef
 72
     3
331
3265
 73
     2
 91
        7
 40
0.0
 10
0.0
 20
0.0
 30
0.0
 75
     0
  0
DIMASSOC
  5
6354
102
{ACAD_REACTORS
330
634A
102
}
330
634A
100
AcDbDimAssoc
330
633D
 90
        1
 70
     0
 71
     0
  1
AcDbOsnapPointRef
 72
    10
331
3289
 73
     2
 91
        0
 40
0.8773089311509204
 10
0.0
 20
0.0
 30
0.0
 75
     0
  0
ACDBDETAILVIEWSTYLE
  5
63D6
102
{ACAD_REACTORS
330
63D5
102
}
330
63D5
100
AcDbModelDocViewStyle
 70
     0
  3
Metric50
290
     1
300
Metric50
 90
        0
100
AcDbDetailViewStyle
 70
     0
 71
     0
 90
        3
 71
     1
340
11
 62
   256
 40
5.0
340
0
 62
   256
 40
5.0
300

 40
0.0
280
     1
 71
     2
340
16
 90
       25
 62
   256
 71
     3
340
11
 62
   256
 40
5.0
 90
        0
 40
15.0
 90
        1
300
%<\AcVar ViewDetailId>% (%<\AcVar ViewScale \f "%sn">%)
 71
     4
340
16
 90
       25
 62
   256
340
16
 90
       25
 62
   256
280
     0
  0
LAYOUT
  5
51
102
{ACAD_REACTORS
330
1A
102
}
330
1A
100
AcDbPlotSettings
  1

  2
None
  4

  6

 40
0.0
 41
0.0
 42
0.0
 43
0.0
 44
0.0
 45
0.0
 46
0.0
 47
0.0
 48
0.0
 49
0.0
140
0.0
141
0.0
142
1.0
143
1.0
 70
   688
 72
     0
 73
     0
 74
     5
  7

 75
    16
147
1.0
 76
     0
 77
     2
 78
   300
148
0.0
149
0.0
100
AcDbLayout
  1
Layout1
 70
     1
 71
     1
 10
0.0
 20
0.0
 11
12.0
 21
9.0
 12
0.0
 22
0.0
 32
0.0
 14
0.0
 24
0.0
 34
0.0
 15
0.0
 25
0.0
 35
0.0
146
0.0
 13
0.0
 23
0.0
 33
0.0
 16
1.0
 26
0.0
 36
0.0
 17
0.0
 27
1.0
 37
0.0
 76
     0
330
50
  0
LAYOUT
  5
56
102
{ACAD_REACTORS
330
1A
102
}
330
1A
100
AcDbPlotSettings
  1

  2
None
  4

  6

 40
0.0
 41
0.0
 42
0.0
 43
0.0
 44
0.0
 45
0.0
 46
0.0
 47
0.0
 48
0.0
 49
0.0
140
0.0
141
0.0
142
1.0
143
1.0
 70
   688
 72
     0
 73
     0
 74
     5
  7

 75
    16
147
1.0
 76
     0
 77
     2
 78
   300
148
0.0
149
0.0
100
AcDbLayout
  1
Layout2
 70
     1
 71
     2
 10
0.0
 20
0.0
 11
12.0
 21
9.0
 12
0.0
 22
0.0
 32
0.0
 14
0.0
 24
0.0
 34
0.0
 15
0.0
 25
0.0
 35
0.0
146
0.0
 13
0.0
 23
0.0
 33
0.0
 16
1.0
 26
0.0
 36
0.0
 17
0.0
 27
1.0
 37
0.0
 76
     0
330
55
  0
LAYOUT
  5
22
102
{ACAD_REACTORS
330
1A
102
}
330
1A
100
AcDbPlotSettings
  1

  2
EPSON ME 1
  4
A4
  6

 40
3.757083177566528
 41
13.28207111358642
 42
3.757080078125
 43
3.757080078125
 44
209.9733276367187
 45
296.9683227539062
 46
0.0
 47
12.96
 48
34167.55329059125
 49
2986.939479498671
140
35146.46947682305
141
4215.069274257515
142
1.0
143
4.835129045526885
 70
 11956
 72
     1
 73
     0
 74
     4
  7

 75
     0
147
0.2068197126869092
 76
     0
 77
     2
 78
   180
148
-34167.55329059125
149
-2986.939479498671
100
AcDbLayout
  1
Model
 70
     1
 71
     0
 10
0.0
 20
0.0
 11
12.0
 21
9.0
 12
0.0
 22
0.0
 32
0.0
 14
0.0
 24
0.0
 34
0.0
 15
0.0
 25
0.0
 35
0.0
146
0.0
 13
0.0
 23
0.0
 33
0.0
 16
1.0
 26
0.0
 36
0.0
 17
0.0
 27
1.0
 37
0.0
 76
     0
330
1F
331
6215
  0
MATERIAL
  5
6218
102
{ACAD_REACTORS
330
6A
102
}
330
6A
100
AcDbMaterial
  1
ByBlock
 73
     1
 78
     1
172
     1
176
     1
270
     1
274
     1
 94
       63
  0
MATERIAL
  5
6217
102
{ACAD_REACTORS
330
6A
102
}
330
6A
100
AcDbMaterial
  1
ByLayer
 73
     1
 78
     1
172
     1
176
     1
270
     1
274
     1
 94
       63
  0
MATERIAL
  5
6219
102
{ACAD_REACTORS
330
6A
102
}
330
6A
100
AcDbMaterial
  1
Global
 73
     1
 78
     1
172
     1
176
     1
270
     1
274
     1
 94
       63
  0
MLEADERSTYLE
  5
63D2
102
{ACAD_REACTORS
330
63D1
102
}
330
63D1
100
AcDbMLeaderStyle
179
     2
170
     2
171
     1
172
     0
 90
        2
 40
0.0
 41
0.0
173
     1
 91
-1056964608
340
14
 92
       -2
290
     1
 42
2.0
291
     1
 43
0.36
  3
Standard
 44
4.0
300

342
11
174
     1
178
     6
175
     1
176
     0
 93
-1056964608
 45
4.0
292
     0
297
     0
 46
4.0
 94
-1056964608
 47
1.0
 49
1.0
140
1.0
293
     1
141
0.0
294
     1
177
     0
142
1.0
295
     1
296
     0
143
0.125
271
     0
272
     9
273
     9
298
     1
  0
MLINESTYLE
  5
18
102
{ACAD_REACTORS
330
17
102
}
330
17
100
AcDbMlineStyle
  2
STANDARD
 70
     0
  3

 62
   256
 51
90.0
 52
90.0
 71
     2
 49
0.5
 62
   256
  6
BYLAYER
 49
-0.5
 62
   256
  6
BYLAYER
  0
ACDBPLACEHOLDER
  5
F
102
{ACAD_REACTORS
330
E
102
}
330
E
  0
SCALE
  5
63C0
102
{ACAD_REACTORS
330
63BF
102
}
330
63BF
100
AcDbScale
 70
     0
300
1:1
140
1.0
141
1.0
290
     1
  0
SCALE
  5
63C1
102
{ACAD_REACTORS
330
63BF
102
}
330
63BF
100
AcDbScale
 70
     0
300
1:2
140
1.0
141
2.0
290
     0
  0
SCALE
  5
63C2
102
{ACAD_REACTORS
330
63BF
102
}
330
63BF
100
AcDbScale
 70
     0
300
1:4
140
1.0
141
4.0
290
     0
  0
SCALE
  5
63C3
102
{ACAD_REACTORS
330
63BF
102
}
330
63BF
100
AcDbScale
 70
     0
300
1:5
140
1.0
141
5.0
290
     0
  0
SCALE
  5
63C4
102
{ACAD_REACTORS
330
63BF
102
}
330
63BF
100
AcDbScale
 70
     0
300
1:8
140
1.0
141
8.0
290
     0
  0
SCALE
  5
63C5
102
{ACAD_REACTORS
330
63BF
102
}
330
63BF
100
AcDbScale
 70
     0
300
1:10
140
1.0
141
10.0
290
     0
  0
SCALE
  5
63C6
102
{ACAD_REACTORS
330
63BF
102
}
330
63BF
100
AcDbScale
 70
     0
300
1:16
140
1.0
141
16.0
290
     0
  0
SCALE
  5
63C7
102
{ACAD_REACTORS
330
63BF
102
}
330
63BF
100
AcDbScale
 70
     0
300
1:20
140
1.0
141
20.0
290
     0
  0
SCALE
  5
63C8
102
{ACAD_REACTORS
330
63BF
102
}
330
63BF
100
AcDbScale
 70
     0
300
1:30
140
1.0
141
30.0
290
     0
  0
SCALE
  5
63C9
102
{ACAD_REACTORS
330
63BF
102
}
330
63BF
100
AcDbScale
 70
     0
300
1:40
140
1.0
141
40.0
290
     0
  0
SCALE
  5
63CA
102
{ACAD_REACTORS
330
63BF
102
}
330
63BF
100
AcDbScale
 70
     0
300
1:50
140
1.0
141
50.0
290
     0
  0
SCALE
  5
63CB
102
{ACAD_REACTORS
330
63BF
102
}
330
63BF
100
AcDbScale
 70
     0
300
1:100
140
1.0
141
100.0
290
     0
  0
SCALE
  5
63CC
102
{ACAD_REACTORS
330
63BF
102
}
330
63BF
100
AcDbScale
 70
     0
300
2:1
140
2.0
141
1.0
290
     0
  0
SCALE
  5
63CD
102
{ACAD_REACTORS
330
63BF
102
}
330
63BF
100
AcDbScale
 70
     0
300
4:1
140
4.0
141
1.0
290
     0
  0
SCALE
  5
63CE
102
{ACAD_REACTORS
330
63BF
102
}
330
63BF
100
AcDbScale
 70
     0
300
8:1
140
8.0
141
1.0
290
     0
  0
SCALE
  5
63CF
102
{ACAD_REACTORS
330
63BF
102
}
330
63BF
100
AcDbScale
 70
     0
300
10:1
140
10.0
141
1.0
290
     0
  0
SCALE
  5
63D0
102
{ACAD_REACTORS
330
63BF
102
}
330
63BF
100
AcDbScale
 70
     0
300
100:1
140
100.0
141
1.0
290
     0
  0
ACDBSECTIONVIEWSTYLE
  5
63D4
102
{ACAD_REACTORS
330
63D3
102
}
330
63D3
100
AcDbModelDocViewStyle
 70
     0
  3
Metric50
290
     1
300
Metric50
 90
        0
100
AcDbSectionViewStyle
 70
     0
 71
     0
 90
      102
 71
     1
340
11
 62
   256
 40
5.0
340
0
340
0
 62
   256
 40
5.0
300
I, O, Q, S, X, Z
 40
10.0
 90
        0
 40
2.5
 90
        0
 71
     2
340
16
 90
       25
 62
   256
340
16
 90
       50
 62
   256
 40
5.0
 40
2.5
 40
5.0
 71
     3
340
11
 62
   256
 40
5.0
 90
        0
 40
15.0
 90
        1
300
%<\AcVar ViewSectionStartId>%-%<\AcVar ViewSectionEndId>% (%<\AcVar ViewScale \f "%sn">%)
 71
     4
 62
   256
 62
   257
300
ANSI31
 40
1.0
 90
        0
290
     0
290
     0
 90
        6
 40
0.0
 40
1.570796326794896
 40
0.2617993877991494
 40
1.308996938995747
 40
-0.2617993877991494
 40
1.832595714594046
  0
TABLESTYLE
  5
622C
102
{ACAD_XDICTIONARY
360
6518
102
}
102
{ACAD_REACTORS
330
622B
102
}
330
622B
100
AcDbTableStyle
280
     0
  3
Standard
 70
     0
 71
     0
 40
1.5
 41
1.5
280
     0
281
     0
  7
Standard
140
4.5
170
     2
 62
     0
 63
     7
283
     0
 90
      512
 91
        0
  1

274
    -2
284
     1
 64
     0
275
    -2
285
     1
 65
     0
276
    -2
286
     1
 66
     0
277
    -2
287
     1
 67
     0
278
    -2
288
     1
 68
     0
279
    -2
289
     1
 69
     0
  7
Standard
140
6.0
170
     5
 62
     0
 63
     7
283
     0
 90
      512
 91
        0
  1

274
    -2
284
     1
 64
     0
275
    -2
285
     1
 65
     0
276
    -2
286
     1
 66
     0
277
    -2
287
     1
 67
     0
278
    -2
288
     1
 68
     0
279
    -2
289
     1
 69
     0
  7
Standard
140
4.5
170
     5
 62
     0
 63
     7
283
     0
 90
      512
 91
        0
  1

274
    -2
284
     1
 64
     0
275
    -2
285
     1
 65
     0
276
    -2
286
     1
 66
     0
277
    -2
287
     1
 67
     0
278
    -2
288
     1
 68
     0
279
    -2
289
     1
 69
     0
  0
VISUALSTYLE
  5
6220
102
{ACAD_REACTORS
330
621A
102
}
330
621A
100
AcDbVisualStyle
  2
2dWireframe
 70
     4
177
     3
291
     0
 70
    58
 90
        0
176
     1
 90
        2
176
     1
 90
        0
176
     1
 90
        0
176
     1
 40
0.6
176
     1
 40
30.0
176
     1
 62
     7
420
 16777215
176
     1
 90
        1
176
     1
 90
        4
176
     1
 62
     7
176
     1
 62
   257
176
     1
 90
        1
176
     1
 90
        1
176
     1
 40
1.0
176
     1
 90
        0
176
     1
 62
   257
176
     1
 40
1.0
176
     1
 90
        1
176
     1
 90
        6
176
     1
 90
        2
176
     1
 62
     7
176
     1
 90
        5
176
     1
 90
        0
176
     1
 90
        0
176
     1
290
     0
176
     1
 90
        1
176
     1
 40
0.0
176
     1
 90
        0
176
     1
290
     1
176
     1
290
     1
176
     1
290
     0
176
     1
290
     0
176
     1
290
     0
176
     1
290
     0
176
     1
290
     0
176
     1
290
     0
176
     1
290
     0
176
     1
 90
       50
176
     1
 40
0.0
176
     1
 40
1.0
176
     1
 90
        0
176
     1
 62
    18
420
        0
176
     1
 90
       50
176
     1
 90
        3
176
     1
 62
     5
420
      255
176
     1
290
     0
176
     1
 90
       50
176
     1
 90
       50
176
     1
 90
       50
176
     1
290
     0
176
     1
 90
       50
176
     1
 62
   256
176
     0
 40
1.0
176
     0
 90
        2
176
     1
  1
strokes_ogs.tif
176
     1
290
     0
176
     1
 40
1.0
176
     1
 40
1.0
176
     1
  0
VISUALSTYLE
  5
6222
102
{ACAD_REACTORS
330
621A
102
}
330
621A
100
AcDbVisualStyle
  2
3D Hidden
 70
     6
177
     3
291
     0
 70
    58
 90
        1
176
     1
 90
        2
176
     1
 90
        2
176
     1
 90
        0
176
     1
 40
0.6
176
     1
 40
30.0
176
     1
 62
     7
420
 16777215
176
     1
 90
        2
176
     1
 90
        2
176
     1
 62
     7
176
     1
 62
   257
176
     1
 90
        2
176
     1
 90
        1
176
     1
 40
40.0
176
     1
 90
        0
176
     1
 62
   257
176
     1
 40
1.0
176
     1
 90
        1
176
     1
 90
        6
176
     1
 90
        2
176
     1
 62
     7
176
     1
 90
        3
176
     1
 90
        0
176
     1
 90
        0
176
     1
290
     0
176
     1
 90
        1
176
     1
 40
0.0
176
     1
 90
        0
176
     1
290
     0
176
     1
290
     1
176
     1
290
     1
176
     1
290
     0
176
     1
290
     0
176
     1
290
     0
176
     1
290
     0
176
     1
290
     0
176
     1
290
     0
176
     1
 90
       50
176
     1
 40
0.0
176
     1
 40
1.0
176
     1
 90
        0
176
     1
 62
    18
420
        0
176
     1
 90
       50
176
     1
 90
        3
176
     1
 62
     5
420
      255
176
     1
290
     0
176
     1
 90
       50
176
     1
 90
       50
176
     1
 90
       50
176
     1
290
     0
176
     1
 90
       50
176
     1
 62
   256
176
     0
 40
1.0
176
     0
 90
        2
176
     1
  1
strokes_ogs.tif
176
     1
290
     0
176
     1
 40
1.0
176
     1
 40
1.0
176
     1
  0
VISUALSTYLE
  5
6221
102
{ACAD_REACTORS
330
621A
102
}
330
621A
100
AcDbVisualStyle
  2
3dWireframe
 70
     5
177
     3
291
     0
 70
    58
 90
        0
176
     1
 90
        2
176
     1
 90
        0
176
     1
 90
        0
176
     1
 40
0.6
176
     1
 40
30.0
176
     1
 62
     7
420
 16777215
176
     1
 90
        1
176
     1
 90
        4
176
     1
 62
     7
176
     1
 62
   257
176
     1
 90
        1
176
     1
 90
        1
176
     1
 40
1.0
176
     1
 90
        0
176
     1
 62
   257
176
     1
 40
1.0
176
     1
 90
        1
176
     1
 90
        6
176
     1
 90
        2
176
     1
 62
     7
176
     1
 90
        5
176
     1
 90
        0
176
     1
 90
        0
176
     1
290
     0
176
     1
 90
        1
176
     1
 40
0.0
176
     1
 90
        0
176
     1
290
     0
176
     1
290
     1
176
     1
290
     1
176
     1
290
     0
176
     1
290
     0
176
     1
290
     0
176
     1
290
     0
176
     1
290
     0
176
     1
290
     0
176
     1
 90
       50
176
     1
 40
0.0
176
     1
 40
1.0
176
     1
 90
        0
176
     1
 62
    18
420
        0
176
     1
 90
       50
176
     1
 90
        3
176
     1
 62
     5
420
      255
176
     1
290
     0
176
     1
 90
       50
176
     1
 90
       50
176
     1
 90
       50
176
     1
290
     0
176
     1
 90
       50
176
     1
 62
   256
176
     0
 40
1.0
176
     0
 90
        2
176
     1
  1
strokes_ogs.tif
176
     1
290
     0
176
     1
 40
1.0
176
     1
 40
1.0
176
     1
  0
VISUALSTYLE
  5
621F
102
{ACAD_REACTORS
330
621A
102
}
330
621A
100
AcDbVisualStyle
  2
Basic
 70
     7
177
     3
291
     1
 70
    58
 90
        1
176
     1
 90
        0
176
     1
 90
        1
176
     1
 90
        0
176
     1
 40
0.6
176
     1
 40
30.0
176
     1
 62
     7
420
 16777215
176
     1
 90
        0
176
     1
 90
        4
176
     1
 62
     7
176
     1
 62
   257
176
     1
 90
        1
176
     1
 90
        1
176
     1
 40
1.0
176
     1
 90
        8
176
     1
 62
     7
176
     1
 40
1.0
176
     1
 90
        1
176
     1
 90
        6
176
     1
 90
        2
176
     1
 62
     7
176
     1
 90
        5
176
     1
 90
        0
176
     1
 90
        0
176
     1
290
     0
176
     1
 90
        1
176
     1
 40
0.0
176
     1
 90
        0
176
     1
290
     0
176
     1
290
     1
176
     1
290
     1
176
     1
290
     0
176
     1
290
     0
176
     1
290
     0
176
     1
290
     0
176
     1
290
     0
176
     1
290
     0
176
     1
 90
       50
176
     1
 40
0.0
176
     1
 40
1.0
176
     1
 90
        0
176
     1
 62
    18
420
        0
176
     1
 90
       50
176
     1
 90
        3
176
     1
 62
     5
420
      255
176
     1
290
     0
176
     1
 90
       50
176
     1
 90
       50
176
     1
 90
       50
176
     1
290
     0
176
     1
 90
       50
176
     1
 62
   256
176
     0
 40
1.0
176
     0
 90
        2
176
     1
  1
strokes_ogs.tif
176
     1
290
     0
176
     1
 40
1.0
176
     1
 40
1.0
176
     1
  0
VISUALSTYLE
  5
6226
102
{ACAD_REACTORS
330
621A
102
}
330
621A
100
AcDbVisualStyle
  2
Brighten
 70
    12
177
     3
291
     1
 70
    58
 90
        2
176
     1
 90
        2
176
     1
 90
        0
176
     1
 90
        0
176
     1
 40
0.6
176
     1
 40
30.0
176
     1
 62
     7
420
 16777215
176
     1
 90
        1
176
     1
 90
        4
176
     1
 62
     7
176
     1
 62
   257
176
     1
 90
        1
176
     1
 90
        1
176
     1
 40
1.0
176
     1
 90
        8
176
     1
 62
     7
176
     1
 40
1.0
176
     1
 90
        1
176
     1
 90
        6
176
     1
 90
        2
176
     1
 62
     7
176
     1
 90
        5
176
     1
 90
        0
176
     1
 90
        0
176
     1
290
     0
176
     1
 90
        1
176
     1
 40
50.0
176
     1
 90
        0
176
     1
290
     0
176
     1
290
     1
176
     1
290
     1
176
     1
290
     0
176
     1
290
     0
176
     1
290
     0
176
     1
290
     0
176
     1
290
     0
176
     1
290
     0
176
     1
 90
       50
176
     1
 40
0.0
176
     1
 40
1.0
176
     1
 90
        0
176
     1
 62
    18
420
        0
176
     1
 90
       50
176
     1
 90
        3
176
     1
 62
     5
420
      255
176
     1
290
     0
176
     1
 90
       50
176
     1
 90
       50
176
     1
 90
       50
176
     1
290
     0
176
     1
 90
       50
176
     1
 62
   256
176
     0
 40
1.0
176
     0
 90
        2
176
     1
  1
strokes_ogs.tif
176
     1
290
     0
176
     1
 40
1.0
176
     1
 40
1.0
176
     1
  0
VISUALSTYLE
  5
622A
102
{ACAD_REACTORS
330
621A
102
}
330
621A
100
AcDbVisualStyle
  2
ColorChange
 70
    16
177
     3
291
     1
 70
    58
 90
        2
176
     1
 90
        2
176
     1
 90
        3
176
     1
 90
        0
176
     1
 40
0.6
176
     1
 40
30.0
176
     1
 62
     8
420
  8421504
176
     1
 90
        1
176
     1
 90
        4
176
     1
 62
     7
176
     1
 62
   257
176
     1
 90
        1
176
     1
 90
        1
176
     1
 40
1.0
176
     1
 90
        8
176
     1
 62
     8
420
  8421504
176
     1
 40
1.0
176
     1
 90
        1
176
     1
 90
        6
176
     1
 90
        2
176
     1
 62
     7
176
     1
 90
        5
176
     1
 90
        0
176
     1
 90
        0
176
     1
290
     0
176
     1
 90
        1
176
     1
 40
0.0
176
     1
 90
        0
176
     1
290
     0
176
     1
290
     1
176
     1
290
     1
176
     1
290
     0
176
     1
290
     0
176
     1
290
     0
176
     1
290
     0
176
     1
290
     0
176
     1
290
     0
176
     1
 90
       50
176
     1
 40
0.0
176
     1
 40
1.0
176
     1
 90
        0
176
     1
 62
    18
420
        0
176
     1
 90
       50
176
     1
 90
        3
176
     1
 62
     5
420
      255
176
     1
290
     0
176
     1
 90
       50
176
     1
 90
       50
176
     1
 90
       50
176
     1
290
     0
176
     1
 90
       50
176
     1
 62
   256
176
     0
 40
1.0
176
     0
 90
        2
176
     1
  1
strokes_ogs.tif
176
     1
290
     0
176
     1
 40
1.0
176
     1
 40
1.0
176
     1
  0
VISUALSTYLE
  5
6223
102
{ACAD_REACTORS
330
621A
102
}
330
621A
100
AcDbVisualStyle
  2
Conceptual
 70
     9
177
     3
291
     0
 70
    58
 90
        3
176
     1
 90
        2
176
     1
 90
        0
176
     1
 90
        0
176
     1
 40
0.6
176
     1
 40
30.0
176
     1
 62
     7
420
 16777215
176
     1
 90
        2
176
     1
 90
        2
176
     1
 62
     7
176
     1
 62
   257
176
     1
 90
        1
176
     1
 90
        1
176
     1
 40
40.0
176
     1
 90
        8
176
     1
 62
     7
176
     1
 40
1.0
176
     1
 90
        1
176
     1
 90
        6
176
     1
 90
        2
176
     1
 62
     7
176
     1
 90
        3
176
     1
 90
        0
176
     1
 90
        0
176
     1
290
     0
176
     1
 90
        1
176
     1
 40
0.0
176
     1
 90
        0
176
     1
290
     0
176
     1
290
     1
176
     1
290
     1
176
     1
290
     0
176
     1
290
     0
176
     1
290
     0
176
     1
290
     0
176
     1
290
     0
176
     1
290
     0
176
     1
 90
       50
176
     1
 40
0.0
176
     1
 40
1.0
176
     1
 90
        0
176
     1
 62
    18
420
        0
176
     1
 90
       50
176
     1
 90
        3
176
     1
 62
     5
420
      255
176
     1
290
     0
176
     1
 90
       50
176
     1
 90
       50
176
     1
 90
       50
176
     1
290
     0
176
     1
 90
       50
176
     1
 62
   256
176
     0
 40
1.0
176
     0
 90
        2
176
     1
  1
strokes_ogs.tif
176
     1
290
     0
176
     1
 40
1.0
176
     1
 40
1.0
176
     1
  0
VISUALSTYLE
  5
6225
102
{ACAD_REACTORS
330
621A
102
}
330
621A
100
AcDbVisualStyle
  2
Dim
 70
    11
177
     3
291
     1
 70
    58
 90
        2
176
     1
 90
        2
176
     1
 90
        0
176
     1
 90
        0
176
     1
 40
0.6
176
     1
 40
30.0
176
     1
 62
     7
420
 16777215
176
     1
 90
        1
176
     1
 90
        4
176
     1
 62
     7
176
     1
 62
   257
176
     1
 90
        1
176
     1
 90
        1
176
     1
 40
1.0
176
     1
 90
        8
176
     1
 62
     7
176
     1
 40
1.0
176
     1
 90
        1
176
     1
 90
        6
176
     1
 90
        2
176
     1
 62
     7
176
     1
 90
        5
176
     1
 90
        0
176
     1
 90
        0
176
     1
290
     0
176
     1
 90
        1
176
     1
 40
-50.0
176
     1
 90
        0
176
     1
290
     0
176
     1
290
     1
176
     1
290
     1
176
     1
290
     0
176
     1
290
     0
176
     1
290
     0
176
     1
290
     0
176
     1
290
     0
176
     1
290
     0
176
     1
 90
       50
176
     1
 40
0.0
176
     1
 40
1.0
176
     1
 90
        0
176
     1
 62
    18
420
        0
176
     1
 90
       50
176
     1
 90
        3
176
     1
 62
     5
420
      255
176
     1
290
     0
176
     1
 90
       50
176
     1
 90
       50
176
     1
 90
       50
176
     1
290
     0
176
     1
 90
       50
176
     1
 62
   256
176
     0
 40
1.0
176
     0
 90
        2
176
     1
  1
strokes_ogs.tif
176
     1
290
     0
176
     1
 40
1.0
176
     1
 40
1.0
176
     1
  0
VISUALSTYLE
  5
63BE
102
{ACAD_REACTORS
330
621A
102
}
330
621A
100
AcDbVisualStyle
  2
EdgeColorOff
 70
    22
177
     3
291
     1
 70
    58
 90
        2
176
     0
 90
        2
176
     0
 90
        0
176
     0
 90
        0
176
     0
 40
0.6
176
     0
 40
30.0
176
     0
 62
     7
420
 16777215
176
     0
 90
        1
176
     0
 90
        4
176
     0
 62
     7
176
     0
 62
   257
176
     0
 90
        1
176
     0
 90
        1
176
     0
 40
1.0
176
     0
 90
        8
176
     2
 62
     7
176
     0
 40
1.0
176
     0
 90
        1
176
     0
 90
        6
176
     0
 90
        2
176
     0
 62
     7
176
     0
 90
        5
176
     0
 90
        0
176
     0
 90
        0
176
     0
290
     0
176
     0
 90
        1
176
     0
 40
0.0
176
     0
 90
        0
176
     0
290
     0
176
     0
290
     1
176
     0
290
     1
176
     0
290
     0
176
     0
290
     0
176
     0
290
     0
176
     0
290
     0
176
     0
290
     0
176
     0
290
     0
176
     0
 90
       50
176
     0
 40
0.0
176
     0
 40
1.0
176
     0
 90
        0
176
     0
 62
    18
420
        0
176
     0
 90
       50
176
     0
 90
        3
176
     0
 62
     5
420
      255
176
     0
290
     0
176
     0
 90
       50
176
     0
 90
       50
176
     0
 90
       50
176
     0
290
     0
176
     0
 90
       50
176
     0
 62
   256
176
     0
 40
1.0
176
     0
 90
        2
176
     0
  1
strokes_ogs.tif
176
     0
290
     0
176
     0
 40
1.0
176
     0
 40
1.0
176
     0
  0
VISUALSTYLE
  5
6229
102
{ACAD_REACTORS
330
621A
102
}
330
621A
100
AcDbVisualStyle
  2
Facepattern
 70
    15
177
     3
291
     1
 70
    58
 90
        2
176
     1
 90
        2
176
     1
 90
        0
176
     1
 90
        0
176
     1
 40
0.6
176
     1
 40
30.0
176
     1
 62
     7
420
 16777215
176
     1
 90
        1
176
     1
 90
        4
176
     1
 62
     7
176
     1
 62
   257
176
     1
 90
        1
176
     1
 90
        1
176
     1
 40
1.0
176
     1
 90
        8
176
     1
 62
     7
176
     1
 40
1.0
176
     1
 90
        1
176
     1
 90
        6
176
     1
 90
        2
176
     1
 62
     7
176
     1
 90
        5
176
     1
 90
        0
176
     1
 90
        0
176
     1
290
     0
176
     1
 90
        1
176
     1
 40
0.0
176
     1
 90
        0
176
     1
290
     0
176
     1
290
     1
176
     1
290
     1
176
     1
290
     0
176
     1
290
     0
176
     1
290
     0
176
     1
290
     0
176
     1
290
     0
176
     1
290
     0
176
     1
 90
       50
176
     1
 40
0.0
176
     1
 40
1.0
176
     1
 90
        0
176
     1
 62
    18
420
        0
176
     1
 90
       50
176
     1
 90
        3
176
     1
 62
     5
420
      255
176
     1
290
     0
176
     1
 90
       50
176
     1
 90
       50
176
     1
 90
       50
176
     1
290
     0
176
     1
 90
       50
176
     1
 62
   256
176
     0
 40
1.0
176
     0
 90
        2
176
     1
  1
strokes_ogs.tif
176
     1
290
     0
176
     1
 40
1.0
176
     1
 40
1.0
176
     1
  0
VISUALSTYLE
  5
621B
102
{ACAD_REACTORS
330
621A
102
}
330
621A
100
AcDbVisualStyle
  2
Flat
 70
     0
177
     3
291
     1
 70
    58
 90
        2
176
     1
 90
        1
176
     1
 90
        1
176
     1
 90
        2
176
     1
 40
0.6
176
     1
 40
30.0
176
     1
 62
     7
420
 16777215
176
     1
 90
        0
176
     1
 90
        4
176
     1
 62
     7
176
     1
 62
   257
176
     1
 90
        1
176
     1
 90
        1
176
     1
 40
1.0
176
     1
 90
        8
176
     1
 62
     7
176
     1
 40
1.0
176
     1
 90
        1
176
     1
 90
        6
176
     1
 90
        2
176
     1
 62
     7
176
     1
 90
        5
176
     1
 90
        0
176
     1
 90
        0
176
     1
290
     0
176
     1
 90
       13
176
     1
 40
0.0
176
     1
 90
        0
176
     1
290
     0
176
     1
290
     1
176
     1
290
     1
176
     1
290
     0
176
     1
290
     0
176
     1
290
     0
176
     1
290
     0
176
     1
290
     0
176
     1
290
     0
176
     1
 90
       50
176
     1
 40
0.0
176
     1
 40
1.0
176
     1
 90
        0
176
     1
 62
    18
420
        0
176
     1
 90
       50
176
     1
 90
        3
176
     1
 62
     5
420
      255
176
     1
290
     0
176
     1
 90
       50
176
     1
 90
       50
176
     1
 90
       50
176
     1
290
     0
176
     1
 90
       50
176
     1
 62
   256
176
     0
 40
1.0
176
     0
 90
        2
176
     1
  1
strokes_ogs.tif
176
     1
290
     0
176
     1
 40
1.0
176
     1
 40
1.0
176
     1
  0
VISUALSTYLE
  5
621C
102
{ACAD_REACTORS
330
621A
102
}
330
621A
100
AcDbVisualStyle
  2
FlatWithEdges
 70
     1
177
     3
291
     1
 70
    58
 90
        2
176
     1
 90
        1
176
     1
 90
        1
176
     1
 90
        2
176
     1
 40
0.6
176
     1
 40
30.0
176
     1
 62
     7
420
 16777215
176
     1
 90
        1
176
     1
 90
        4
176
     1
 62
     7
176
     1
 62
   257
176
     1
 90
        1
176
     1
 90
        1
176
     1
 40
1.0
176
     1
 90
        0
176
     1
 62
   257
176
     1
 40
1.0
176
     1
 90
        1
176
     1
 90
        6
176
     1
 90
        2
176
     1
 62
     7
176
     1
 90
        5
176
     1
 90
        0
176
     1
 90
        0
176
     1
290
     0
176
     1
 90
       13
176
     1
 40
0.0
176
     1
 90
        0
176
     1
290
     0
176
     1
290
     1
176
     1
290
     1
176
     1
290
     0
176
     1
290
     0
176
     1
290
     0
176
     1
290
     0
176
     1
290
     0
176
     1
290
     0
176
     1
 90
       50
176
     1
 40
0.0
176
     1
 40
1.0
176
     1
 90
        0
176
     1
 62
    18
420
        0
176
     1
 90
       50
176
     1
 90
        3
176
     1
 62
     5
420
      255
176
     1
290
     0
176
     1
 90
       50
176
     1
 90
       50
176
     1
 90
       50
176
     1
290
     0
176
     1
 90
       50
176
     1
 62
   256
176
     0
 40
1.0
176
     0
 90
        2
176
     1
  1
strokes_ogs.tif
176
     1
290
     0
176
     1
 40
1.0
176
     1
 40
1.0
176
     1
  0
VISUALSTYLE
  5
621D
102
{ACAD_REACTORS
330
621A
102
}
330
621A
100
AcDbVisualStyle
  2
Gouraud
 70
     2
177
     3
291
     1
 70
    58
 90
        2
176
     1
 90
        2
176
     1
 90
        1
176
     1
 90
        2
176
     1
 40
0.6
176
     1
 40
30.0
176
     1
 62
     7
420
 16777215
176
     1
 90
        0
176
     1
 90
        4
176
     1
 62
     7
176
     1
 62
   257
176
     1
 90
        1
176
     1
 90
        1
176
     1
 40
1.0
176
     1
 90
        0
176
     1
 62
     7
176
     1
 40
1.0
176
     1
 90
        1
176
     1
 90
        6
176
     1
 90
        2
176
     1
 62
     7
176
     1
 90
        5
176
     1
 90
        0
176
     1
 90
        0
176
     1
290
     0
176
     1
 90
       13
176
     1
 40
0.0
176
     1
 90
        0
176
     1
290
     0
176
     1
290
     1
176
     1
290
     1
176
     1
290
     0
176
     1
290
     0
176
     1
290
     0
176
     1
290
     0
176
     1
290
     0
176
     1
290
     0
176
     1
 90
       50
176
     1
 40
0.0
176
     1
 40
1.0
176
     1
 90
        0
176
     1
 62
    18
420
        0
176
     1
 90
       50
176
     1
 90
        3
176
     1
 62
     5
420
      255
176
     1
290
     0
176
     1
 90
       50
176
     1
 90
       50
176
     1
 90
       50
176
     1
290
     0
176
     1
 90
       50
176
     1
 62
   256
176
     0
 40
1.0
176
     0
 90
        2
176
     1
  1
strokes_ogs.tif
176
     1
290
     0
176
     1
 40
1.0
176
     1
 40
1.0
176
     1
  0
VISUALSTYLE
  5
621E
102
{ACAD_REACTORS
330
621A
102
}
330
621A
100
AcDbVisualStyle
  2
GouraudWithEdges
 70
     3
177
     3
291
     1
 70
    58
 90
        2
176
     1
 90
        2
176
     1
 90
        1
176
     1
 90
        2
176
     1
 40
0.6
176
     1
 40
30.0
176
     1
 62
     7
420
 16777215
176
     1
 90
        1
176
     1
 90
        4
176
     1
 62
     7
176
     1
 62
   257
176
     1
 90
        1
176
     1
 90
        1
176
     1
 40
1.0
176
     1
 90
        0
176
     1
 62
   257
176
     1
 40
1.0
176
     1
 90
        1
176
     1
 90
        6
176
     1
 90
        2
176
     1
 62
     7
176
     1
 90
        5
176
     1
 90
        0
176
     1
 90
        0
176
     1
290
     0
176
     1
 90
       13
176
     1
 40
0.0
176
     1
 90
        0
176
     1
290
     0
176
     1
290
     1
176
     1
290
     1
176
     1
290
     0
176
     1
290
     0
176
     1
290
     0
176
     1
290
     0
176
     1
290
     0
176
     1
290
     0
176
     1
 90
       50
176
     1
 40
0.0
176
     1
 40
1.0
176
     1
 90
        0
176
     1
 62
    18
420
        0
176
     1
 90
       50
176
     1
 90
        3
176
     1
 62
     5
420
      255
176
     1
290
     0
176
     1
 90
       50
176
     1
 90
       50
176
     1
 90
       50
176
     1
290
     0
176
     1
 90
       50
176
     1
 62
   256
176
     0
 40
1.0
176
     0
 90
        2
176
     1
  1
strokes_ogs.tif
176
     1
290
     0
176
     1
 40
1.0
176
     1
 40
1.0
176
     1
  0
VISUALSTYLE
  5
63B6
102
{ACAD_REACTORS
330
621A
102
}
330
621A
100
AcDbVisualStyle
  2
Hidden
 70
     6
177
     3
291
     0
 70
    58
 90
        1
176
     1
 90
        2
176
     1
 90
        2
176
     1
 90
        0
176
     1
 40
0.6
176
     1
 40
30.0
176
     1
 62
     7
420
 16777215
176
     1
 90
        2
176
     1
 90
        2
176
     1
 62
     7
176
     1
 62
   257
176
     1
 90
        2
176
     1
 90
        1
176
     1
 40
40.0
176
     1
 90
        0
176
     1
 62
   257
176
     1
 40
1.0
176
     1
 90
        1
176
     1
 90
        6
176
     1
 90
        2
176
     1
 62
     7
176
     1
 90
        3
176
     1
 90
        0
176
     1
 90
        0
176
     1
290
     0
176
     1
 90
        1
176
     1
 40
0.0
176
     1
 90
        0
176
     1
290
     0
176
     1
290
     1
176
     1
290
     1
176
     1
290
     0
176
     1
290
     0
176
     1
290
     0
176
     1
290
     0
176
     1
290
     0
176
     1
290
     0
176
     1
 90
       50
176
     1
 40
0.0
176
     1
 40
1.0
176
     1
 90
        0
176
     1
 62
    18
420
        0
176
     1
 90
       50
176
     1
 90
        3
176
     1
 62
     5
420
      255
176
     1
290
     0
176
     1
 90
       50
176
     1
 90
       50
176
     1
 90
       50
176
     1
290
     0
176
     1
 90
       50
176
     1
 62
   256
176
     0
 40
1.0
176
     0
 90
        2
176
     1
  1
strokes_ogs.tif
176
     1
290
     0
176
     1
 40
1.0
176
     1
 40
1.0
176
     1
  0
VISUALSTYLE
  5
63BC
102
{ACAD_REACTORS
330
621A
102
}
330
621A
100
AcDbVisualStyle
  2
JitterOff
 70
    20
177
     3
291
     1
 70
    58
 90
        2
176
     0
 90
        2
176
     0
 90
        0
176
     0
 90
        0
176
     0
 40
0.6
176
     0
 40
30.0
176
     0
 62
     7
420
 16777215
176
     0
 90
        1
176
     0
 90
        4
176
     0
 62
     7
176
     0
 62
   257
176
     0
 90
        1
176
     0
 90
        1
176
     0
 40
1.0
176
     0
 90
       10
176
     2
 62
     7
176
     0
 40
1.0
176
     0
 90
        1
176
     0
 90
        6
176
     0
 90
        2
176
     0
 62
     7
176
     0
 90
        5
176
     0
 90
        0
176
     0
 90
        0
176
     0
290
     0
176
     0
 90
        1
176
     0
 40
0.0
176
     0
 90
        0
176
     0
290
     0
176
     0
290
     1
176
     0
290
     1
176
     0
290
     0
176
     0
290
     0
176
     0
290
     0
176
     0
290
     0
176
     0
290
     0
176
     0
290
     0
176
     0
 90
       50
176
     0
 40
0.0
176
     0
 40
1.0
176
     0
 90
        0
176
     0
 62
    18
420
        0
176
     0
 90
       50
176
     0
 90
        3
176
     0
 62
     5
420
      255
176
     0
290
     0
176
     0
 90
       50
176
     0
 90
       50
176
     0
 90
       50
176
     0
290
     0
176
     0
 90
       50
176
     0
 62
   256
176
     0
 40
1.0
176
     0
 90
        2
176
     0
  1
strokes_ogs.tif
176
     0
290
     0
176
     0
 40
1.0
176
     0
 40
1.0
176
     0
  0
VISUALSTYLE
  5
6228
102
{ACAD_REACTORS
330
621A
102
}
330
621A
100
AcDbVisualStyle
  2
Linepattern
 70
    14
177
     3
291
     1
 70
    58
 90
        2
176
     1
 90
        2
176
     1
 90
        0
176
     1
 90
        0
176
     1
 40
0.6
176
     1
 40
30.0
176
     1
 62
     7
420
 16777215
176
     1
 90
        1
176
     1
 90
        4
176
     1
 62
     7
176
     1
 62
   257
176
     1
 90
        7
176
     1
 90
        7
176
     1
 40
1.0
176
     1
 90
        8
176
     1
 62
     7
176
     1
 40
1.0
176
     1
 90
        1
176
     1
 90
        6
176
     1
 90
        2
176
     1
 62
     7
176
     1
 90
        5
176
     1
 90
        0
176
     1
 90
        0
176
     1
290
     0
176
     1
 90
        1
176
     1
 40
0.0
176
     1
 90
        0
176
     1
290
     0
176
     1
290
     1
176
     1
290
     1
176
     1
290
     0
176
     1
290
     0
176
     1
290
     0
176
     1
290
     0
176
     1
290
     0
176
     1
290
     0
176
     1
 90
       50
176
     1
 40
0.0
176
     1
 40
1.0
176
     1
 90
        0
176
     1
 62
    18
420
        0
176
     1
 90
       50
176
     1
 90
        3
176
     1
 62
     5
420
      255
176
     1
290
     0
176
     1
 90
       50
176
     1
 90
       50
176
     1
 90
       50
176
     1
290
     0
176
     1
 90
       50
176
     1
 62
   256
176
     0
 40
1.0
176
     0
 90
        2
176
     1
  1
strokes_ogs.tif
176
     1
290
     0
176
     1
 40
1.0
176
     1
 40
1.0
176
     1
  0
VISUALSTYLE
  5
63BD
102
{ACAD_REACTORS
330
621A
102
}
330
621A
100
AcDbVisualStyle
  2
OverhangOff
 70
    21
177
     3
291
     1
 70
    58
 90
        2
176
     0
 90
        2
176
     0
 90
        0
176
     0
 90
        0
176
     0
 40
0.6
176
     0
 40
30.0
176
     0
 62
     7
420
 16777215
176
     0
 90
        1
176
     0
 90
        4
176
     0
 62
     7
176
     0
 62
   257
176
     0
 90
        1
176
     0
 90
        1
176
     0
 40
1.0
176
     0
 90
        9
176
     2
 62
     7
176
     0
 40
1.0
176
     0
 90
        1
176
     0
 90
        6
176
     0
 90
        2
176
     0
 62
     7
176
     0
 90
        5
176
     0
 90
        0
176
     0
 90
        0
176
     0
290
     0
176
     0
 90
        1
176
     0
 40
0.0
176
     0
 90
        0
176
     0
290
     0
176
     0
290
     1
176
     0
290
     1
176
     0
290
     0
176
     0
290
     0
176
     0
290
     0
176
     0
290
     0
176
     0
290
     0
176
     0
290
     0
176
     0
 90
       50
176
     0
 40
0.0
176
     0
 40
1.0
176
     0
 90
        0
176
     0
 62
    18
420
        0
176
     0
 90
       50
176
     0
 90
        3
176
     0
 62
     5
420
      255
176
     0
290
     0
176
     0
 90
       50
176
     0
 90
       50
176
     0
 90
       50
176
     0
290
     0
176
     0
 90
       50
176
     0
 62
   256
176
     0
 40
1.0
176
     0
 90
        2
176
     0
  1
strokes_ogs.tif
176
     0
290
     0
176
     0
 40
1.0
176
     0
 40
1.0
176
     0
  0
VISUALSTYLE
  5
6224
102
{ACAD_REACTORS
330
621A
102
}
330
621A
100
AcDbVisualStyle
  2
Realistic
 70
     8
177
     3
291
     0
 70
    58
 90
        2
176
     1
 90
        2
176
     1
 90
        0
176
     1
 90
        0
176
     1
 40
0.6
176
     1
 40
30.0
176
     1
 62
     7
420
 16777215
176
     1
 90
        1
176
     1
 90
        0
176
     1
 62
     7
176
     1
 62
   257
176
     1
 90
        1
176
     1
 90
        1
176
     1
 40
1.0
176
     1
 90
        8
176
     1
 62
     8
420
  7895160
176
     1
 40
1.0
176
     1
 90
        1
176
     1
 90
        6
176
     1
 90
        2
176
     1
 62
     7
176
     1
 90
        5
176
     1
 90
        0
176
     1
 90
        0
176
     1
290
     0
176
     1
 90
       13
176
     1
 40
0.0
176
     1
 90
        0
176
     1
290
     0
176
     1
290
     1
176
     1
290
     1
176
     1
290
     0
176
     1
290
     0
176
     1
290
     0
176
     1
290
     0
176
     1
290
     0
176
     1
290
     0
176
     1
 90
       50
176
     1
 40
0.0
176
     1
 40
1.0
176
     1
 90
        0
176
     1
 62
    18
420
        0
176
     1
 90
       50
176
     1
 90
        3
176
     1
 62
     5
420
      255
176
     1
290
     0
176
     1
 90
       50
176
     1
 90
       50
176
     1
 90
       50
176
     1
290
     0
176
     1
 90
       50
176
     1
 62
   256
176
     0
 40
1.0
176
     0
 90
        2
176
     1
  1
strokes_ogs.tif
176
     1
290
     0
176
     1
 40
1.0
176
     1
 40
1.0
176
     1
  0
VISUALSTYLE
  5
63BB
102
{ACAD_REACTORS
330
621A
102
}
330
621A
100
AcDbVisualStyle
  2
Shaded
 70
    27
177
     3
291
     0
 70
    58
 90
        2
176
     1
 90
        2
176
     1
 90
        1
176
     1
 90
        2
176
     1
 40
0.6
176
     1
 40
30.0
176
     1
 62
     7
420
 16777215
176
     1
 90
        0
176
     1
 90
        4
176
     1
 62
     7
176
     1
 62
   257
176
     1
 90
        1
176
     1
 90
        1
176
     1
 40
1.0
176
     1
 90
        8
176
     1
 62
   257
176
     1
 40
1.0
176
     1
 90
        1
176
     1
 90
        6
176
     1
 90
        2
176
     1
 62
     8
420
  7895160
176
     1
 90
        3
176
     1
 90
        0
176
     1
 90
        0
176
     1
290
     0
176
     1
 90
        5
176
     1
 40
0.0
176
     1
 90
        0
176
     1
290
     0
176
     1
290
     1
176
     1
290
     1
176
     1
290
     0
176
     1
290
     0
176
     1
290
     0
176
     1
290
     0
176
     1
290
     0
176
     1
290
     0
176
     1
 90
       50
176
     1
 40
0.0
176
     1
 40
1.0
176
     1
 90
        0
176
     1
 62
    18
420
        0
176
     1
 90
       50
176
     1
 90
        3
176
     1
 62
     5
420
      255
176
     1
290
     0
176
     1
 90
       50
176
     1
 90
       50
176
     1
 90
       50
176
     1
290
     0
176
     1
 90
       50
176
     1
 62
   256
176
     0
 40
1.0
176
     0
 90
        2
176
     1
  1
strokes_ogs.tif
176
     1
290
     0
176
     1
 40
1.0
176
     1
 40
1.0
176
     1
  0
VISUALSTYLE
  5
63BA
102
{ACAD_REACTORS
330
621A
102
}
330
621A
100
AcDbVisualStyle
  2
Shaded with edges
 70
    26
177
     3
291
     0
 70
    58
 90
        2
176
     1
 90
        2
176
     1
 90
        1
176
     1
 90
        2
176
     1
 40
0.6
176
     1
 40
30.0
176
     1
 62
     7
420
 16777215
176
     1
 90
        1
176
     1
 90
        2
176
     1
 62
     7
176
     1
 62
   257
176
     1
 90
        2
176
     1
 90
        1
176
     1
 40
1.0
176
     1
 90
        8
176
     1
 62
   257
176
     1
 40
1.0
176
     1
 90
        1
176
     1
 90
        6
176
     1
 90
        2
176
     1
 62
     7
176
     1
 90
        3
176
     1
 90
        0
176
     1
 90
        0
176
     1
290
     0
176
     1
 90
        5
176
     1
 40
0.0
176
     1
 90
        0
176
     1
290
     0
176
     1
290
     1
176
     1
290
     1
176
     1
290
     0
176
     1
290
     0
176
     1
290
     0
176
     1
290
     0
176
     1
290
     0
176
     1
290
     0
176
     1
 90
       50
176
     1
 40
0.0
176
     1
 40
1.0
176
     1
 90
        0
176
     1
 62
    18
420
        0
176
     1
 90
       50
176
     1
 90
        3
176
     1
 62
     5
420
      255
176
     1
290
     0
176
     1
 90
       50
176
     1
 90
       50
176
     1
 90
       50
176
     1
290
     0
176
     1
 90
       50
176
     1
 62
   256
176
     0
 40
1.0
176
     0
 90
        2
176
     1
  1
strokes_ogs.tif
176
     1
290
     0
176
     1
 40
1.0
176
     1
 40
1.0
176
     1
  0
VISUALSTYLE
  5
63B7
102
{ACAD_REACTORS
330
621A
102
}
330
621A
100
AcDbVisualStyle
  2
Shades of Gray
 70
    23
177
     3
291
     0
 70
    58
 90
        2
176
     1
 90
        2
176
     1
 90
        3
176
     1
 90
        0
176
     1
 40
0.6
176
     1
 40
30.0
176
     1
 62
     7
420
 16777215
176
     1
 90
        2
176
     1
 90
        2
176
     1
 62
     7
176
     1
 62
     7
176
     1
 90
        1
176
     1
 90
        1
176
     1
 40
40.0
176
     1
 90
        8
176
     1
 62
     7
176
     1
 40
1.0
176
     1
 90
        1
176
     1
 90
        6
176
     1
 90
        2
176
     1
 62
     7
176
     1
 90
        3
176
     1
 90
        0
176
     1
 90
        0
176
     1
290
     0
176
     1
 90
        1
176
     1
 40
0.0
176
     1
 90
        0
176
     1
290
     0
176
     1
290
     1
176
     1
290
     1
176
     1
290
     0
176
     1
290
     0
176
     1
290
     0
176
     1
290
     0
176
     1
290
     0
176
     1
290
     0
176
     1
 90
       50
176
     1
 40
0.0
176
     1
 40
1.0
176
     1
 90
        0
176
     1
 62
    18
420
        0
176
     1
 90
       50
176
     1
 90
        3
176
     1
 62
     5
420
      255
176
     1
290
     0
176
     1
 90
       50
176
     1
 90
       50
176
     1
 90
       50
176
     1
290
     0
176
     1
 90
       50
176
     1
 62
   256
176
     0
 40
1.0
176
     0
 90
        2
176
     1
  1
strokes_ogs.tif
176
     1
290
     0
176
     1
 40
1.0
176
     1
 40
1.0
176
     1
  0
VISUALSTYLE
  5
63B8
102
{ACAD_REACTORS
330
621A
102
}
330
621A
100
AcDbVisualStyle
  2
Sketchy
 70
    24
177
     3
291
     0
 70
    58
 90
        1
176
     1
 90
        2
176
     1
 90
        2
176
     1
 90
        0
176
     1
 40
0.6
176
     1
 40
30.0
176
     1
 62
     7
420
 16777215
176
     1
 90
        2
176
     1
 90
        2
176
     1
 62
     7
176
     1
 62
     7
176
     1
 90
        1
176
     1
 90
        1
176
     1
 40
40.0
176
     1
 90
       11
176
     1
 62
     7
176
     1
 40
1.0
176
     1
 90
        1
176
     1
 90
        6
176
     1
 90
        2
176
     1
 62
     7
176
     1
 90
        6
176
     1
 90
        0
176
     1
 90
        0
176
     1
290
     0
176
     1
 90
        1
176
     1
 40
0.0
176
     1
 90
        0
176
     1
290
     0
176
     1
290
     1
176
     1
290
     1
176
     1
290
     0
176
     1
290
     0
176
     1
290
     0
176
     1
290
     0
176
     1
290
     0
176
     1
290
     0
176
     1
 90
       50
176
     1
 40
0.0
176
     1
 40
1.0
176
     1
 90
        0
176
     1
 62
    18
420
        0
176
     1
 90
       50
176
     1
 90
        3
176
     1
 62
     5
420
      255
176
     1
290
     0
176
     1
 90
       50
176
     1
 90
       50
176
     1
 90
       50
176
     1
290
     0
176
     1
 90
       50
176
     1
 62
   256
176
     0
 40
1.0
176
     0
 90
        2
176
     1
  1
strokes_ogs.tif
176
     1
290
     0
176
     1
 40
1.0
176
     1
 40
1.0
176
     1
  0
VISUALSTYLE
  5
6227
102
{ACAD_REACTORS
330
621A
102
}
330
621A
100
AcDbVisualStyle
  2
Thicken
 70
    13
177
     3
291
     1
 70
    58
 90
        2
176
     1
 90
        2
176
     1
 90
        0
176
     1
 90
        0
176
     1
 40
0.6
176
     1
 40
30.0
176
     1
 62
     7
420
 16777215
176
     1
 90
        1
176
     1
 90
        4
176
     1
 62
     7
176
     1
 62
   257
176
     1
 90
        1
176
     1
 90
        1
176
     1
 40
1.0
176
     1
 90
       12
176
     1
 62
     7
176
     1
 40
1.0
176
     1
 90
        1
176
     1
 90
        6
176
     1
 90
        2
176
     1
 62
     7
176
     1
 90
        5
176
     1
 90
        0
176
     1
 90
        0
176
     1
290
     0
176
     1
 90
        1
176
     1
 40
0.0
176
     1
 90
        0
176
     1
290
     0
176
     1
290
     1
176
     1
290
     1
176
     1
290
     0
176
     1
290
     0
176
     1
290
     0
176
     1
290
     0
176
     1
290
     0
176
     1
290
     0
176
     1
 90
       50
176
     1
 40
0.0
176
     1
 40
1.0
176
     1
 90
        0
176
     1
 62
    18
420
        0
176
     1
 90
       50
176
     1
 90
        3
176
     1
 62
     5
420
      255
176
     1
290
     0
176
     1
 90
       50
176
     1
 90
       50
176
     1
 90
       50
176
     1
290
     0
176
     1
 90
       50
176
     1
 62
   256
176
     0
 40
1.0
176
     0
 90
        2
176
     1
  1
strokes_ogs.tif
176
     1
290
     0
176
     1
 40
1.0
176
     1
 40
1.0
176
     1
  0
VISUALSTYLE
  5
63B5
102
{ACAD_REACTORS
330
621A
102
}
330
621A
100
AcDbVisualStyle
  2
Wireframe
 70
     5
177
     3
291
     0
 70
    58
 90
        0
176
     1
 90
        2
176
     1
 90
        0
176
     1
 90
        0
176
     1
 40
0.6
176
     1
 40
30.0
176
     1
 62
     7
420
 16777215
176
     1
 90
        1
176
     1
 90
        4
176
     1
 62
     7
176
     1
 62
   257
176
     1
 90
        1
176
     1
 90
        1
176
     1
 40
1.0
176
     1
 90
        0
176
     1
 62
   257
176
     1
 40
1.0
176
     1
 90
        1
176
     1
 90
        6
176
     1
 90
        2
176
     1
 62
     7
176
     1
 90
        3
176
     1
 90
        0
176
     1
 90
        0
176
     1
290
     0
176
     1
 90
        1
176
     1
 40
0.0
176
     1
 90
        0
176
     1
290
     0
176
     1
290
     1
176
     1
290
     1
176
     1
290
     0
176
     1
290
     0
176
     1
290
     0
176
     1
290
     0
176
     1
290
     0
176
     1
290
     0
176
     1
 90
       50
176
     1
 40
0.0
176
     1
 40
1.0
176
     1
 90
        0
176
     1
 62
    18
420
        0
176
     1
 90
       50
176
     1
 90
        3
176
     1
 62
     5
420
      255
176
     1
290
     0
176
     1
 90
       50
176
     1
 90
       50
176
     1
 90
       50
176
     1
290
     0
176
     1
 90
       50
176
     1
 62
   256
176
     0
 40
1.0
176
     0
 90
        2
176
     1
  1
strokes_ogs.tif
176
     1
290
     0
176
     1
 40
1.0
176
     1
 40
1.0
176
     1
  0
VISUALSTYLE
  5
63B9
102
{ACAD_REACTORS
330
621A
102
}
330
621A
100
AcDbVisualStyle
  2
X-Ray
 70
    25
177
     3
291
     0
 70
    58
 90
        2
176
     1
 90
        2
176
     1
 90
        1
176
     1
 90
        1
176
     1
 40
0.5
176
     1
 40
30.0
176
     1
 62
     7
420
 16777215
176
     1
 90
        1
176
     1
 90
        0
176
     1
 62
     7
176
     1
 62
   257
176
     1
 90
        1
176
     1
 90
        1
176
     1
 40
1.0
176
     1
 90
        8
176
     1
 62
     7
176
     1
 40
1.0
176
     1
 90
        1
176
     1
 90
        6
176
     1
 90
        2
176
     1
 62
     7
176
     1
 90
        3
176
     1
 90
        0
176
     1
 90
        0
176
     1
290
     0
176
     1
 90
       13
176
     1
 40
0.0
176
     1
 90
        0
176
     1
290
     0
176
     1
290
     1
176
     1
290
     1
176
     1
290
     0
176
     1
290
     0
176
     1
290
     0
176
     1
290
     0
176
     1
290
     0
176
     1
290
     0
176
     1
 90
       50
176
     1
 40
0.0
176
     1
 40
1.0
176
     1
 90
        0
176
     1
 62
    18
420
        0
176
     1
 90
       50
176
     1
 90
        3
176
     1
 62
     5
420
      255
176
     1
290
     0
176
     1
 90
       50
176
     1
 90
       50
176
     1
 90
       50
176
     1
290
     0
176
     1
 90
       50
176
     1
 62
   256
176
     0
 40
1.0
176
     0
 90
        2
176
     1
  1
strokes_ogs.tif
176
     1
290
     0
176
     1
 40
1.0
176
     1
 40
1.0
176
     1
  0
DICTIONARYVAR
  5
6514
102
{ACAD_REACTORS
330
5E
102
}
330
5E
100
DictionaryVariables
280
     0
  1
1:1
  0
DICTIONARYVAR
  5
6510
102
{ACAD_REACTORS
330
5E
102
}
330
5E
100
DictionaryVariables
280
     0
  1
STANDARD
  0
DICTIONARYVAR
  5
6235
102
{ACAD_REACTORS
330
5E
102
}
330
5E
100
DictionaryVariables
280
     0
  1
STANDARD
  0
DICTIONARYVAR
  5
6511
102
{ACAD_REACTORS
330
5E
102
}
330
5E
100
DictionaryVariables
280
     0
  1
Metric50
  0
DICTIONARYVAR
  5
6512
102
{ACAD_REACTORS
330
5E
102
}
330
5E
100
DictionaryVariables
280
     0
  1
Metric50
  0
DICTIONARYVAR
  5
5F
102
{ACAD_REACTORS
330
5E
102
}
330
5E
100
DictionaryVariables
280
     0
  1
2
  0
DICTIONARYVAR
  5
63
102
{ACAD_REACTORS
330
5E
102
}
330
5E
100
DictionaryVariables
280
     0
  1
1
  0
DICTIONARYVAR
  5
6516
102
{ACAD_REACTORS
330
5E
102
}
330
5E
100
DictionaryVariables
280
     0
  1
1
  0
DICTIONARYVAR
  5
6517
102
{ACAD_REACTORS
330
5E
102
}
330
5E
100
DictionaryVariables
280
     0
  1
15
  0
DICTIONARYVAR
  5
6515
102
{ACAD_REACTORS
330
5E
102
}
330
5E
100
DictionaryVariables
280
     0
  1
0
  0
DICTIONARYVAR
  5
6513
102
{ACAD_REACTORS
330
5E
102
}
330
5E
100
DictionaryVariables
280
     0
  1
0
  0
DICTIONARYVAR
  5
1CF
102
{ACAD_REACTORS
330
5E
102
}
330
5E
100
DictionaryVariables
280
     0
  1

  0
ACAD_PROXY_OBJECT
  5
6234
102
{ACAD_REACTORS
330
6233
102
}
330
6233
100
AcDbProxyObject
 90
      499
 91
      508
 71
    27
 97
        1
 70
     0
162
                 0
161
               224
310
00013FFFD0C4040800000000000004402826564C4F2D52202E20302900
 94
        0
  0
DICTIONARY
  5
6518
330
622C
100
AcDbDictionary
280
     1
281
     1
  3
ACAD_ROUNDTRIP_2008_TABLESTYLE_CELLSTYLEMAP
360
6519
  0
CELLSTYLEMAP
  5
6519
102
{ACAD_REACTORS
330
6518
102
}
330
6518
100
AcDbCellStyleMap
 90
        3
300
CELLSTYLE
  1
TABLEFORMAT_BEGIN
 90
        5
170
     1
 91
        0
 92
    32768
 62
   257
 93
        1
300
CONTENTFORMAT
  1
CONTENTFORMAT_BEGIN
 90
        0
 91
        0
 92
      512
 93
        0
300

 40
0.0
140
1.0
 94
        5
 62
     0
340
11
144
6.0
309
CONTENTFORMAT_END
171
     1
301
MARGIN
  1
CELLMARGIN_BEGIN
 40
1.5
 40
1.5
 40
1.5
 40
1.5
 40
0.18
 40
0.18
309
CELLMARGIN_END
 94
        6
 95
        1
302
GRIDFORMAT
  1
GRIDFORMAT_BEGIN
 90
        0
 91
        1
 62
     0
 92
       -2
340
0
 93
        0
 40
0.045
309
GRIDFORMAT_END
 95
        2
302
GRIDFORMAT
  1
GRIDFORMAT_BEGIN
 90
        0
 91
        1
 62
     0
 92
       -2
340
0
 93
        0
 40
0.045
309
GRIDFORMAT_END
 95
        4
302
GRIDFORMAT
  1
GRIDFORMAT_BEGIN
 90
        0
 91
        1
 62
     0
 92
       -2
340
0
 93
        0
 40
0.045
309
GRIDFORMAT_END
 95
        8
302
GRIDFORMAT
  1
GRIDFORMAT_BEGIN
 90
        0
 91
        1
 62
     0
 92
       -2
340
0
 93
        0
 40
0.045
309
GRIDFORMAT_END
 95
       16
302
GRIDFORMAT
  1
GRIDFORMAT_BEGIN
 90
        0
 91
        1
 62
     0
 92
       -2
340
0
 93
        0
 40
0.045
309
GRIDFORMAT_END
 95
       32
302
GRIDFORMAT
  1
GRIDFORMAT_BEGIN
 90
        0
 91
        1
 62
     0
 92
       -2
340
0
 93
        0
 40
0.045
309
GRIDFORMAT_END
309
TABLEFORMAT_END
  1
CELLSTYLE_BEGIN
 90
        1
 91
        1
300
_TITLE
309
CELLSTYLE_END
300
CELLSTYLE
  1
TABLEFORMAT_BEGIN
 90
        5
170
     1
 91
        0
 92
        0
 62
   257
 93
        1
300
CONTENTFORMAT
  1
CONTENTFORMAT_BEGIN
 90
        0
 91
        0
 92
      512
 93
        0
300

 40
0.0
140
1.0
 94
        5
 62
     0
340
11
144
4.5
309
CONTENTFORMAT_END
171
     1
301
MARGIN
  1
CELLMARGIN_BEGIN
 40
1.5
 40
1.5
 40
1.5
 40
1.5
 40
0.18
 40
0.18
309
CELLMARGIN_END
 94
        6
 95
        1
302
GRIDFORMAT
  1
GRIDFORMAT_BEGIN
 90
        0
 91
        1
 62
     0
 92
       -2
340
0
 93
        0
 40
0.045
309
GRIDFORMAT_END
 95
        2
302
GRIDFORMAT
  1
GRIDFORMAT_BEGIN
 90
        0
 91
        1
 62
     0
 92
       -2
340
0
 93
        0
 40
0.045
309
GRIDFORMAT_END
 95
        4
302
GRIDFORMAT
  1
GRIDFORMAT_BEGIN
 90
        0
 91
        1
 62
     0
 92
       -2
340
0
 93
        0
 40
0.045
309
GRIDFORMAT_END
 95
        8
302
GRIDFORMAT
  1
GRIDFORMAT_BEGIN
 90
        0
 91
        1
 62
     0
 92
       -2
340
0
 93
        0
 40
0.045
309
GRIDFORMAT_END
 95
       16
302
GRIDFORMAT
  1
GRIDFORMAT_BEGIN
 90
        0
 91
        1
 62
     0
 92
       -2
340
0
 93
        0
 40
0.045
309
GRIDFORMAT_END
 95
       32
302
GRIDFORMAT
  1
GRIDFORMAT_BEGIN
 90
        0
 91
        1
 62
     0
 92
       -2
340
0
 93
        0
 40
0.045
309
GRIDFORMAT_END
309
TABLEFORMAT_END
  1
CELLSTYLE_BEGIN
 90
        2
 91
        1
300
_HEADER
309
CELLSTYLE_END
300
CELLSTYLE
  1
TABLEFORMAT_BEGIN
 90
        5
170
     1
 91
        0
 92
        0
 62
   257
 93
        1
300
CONTENTFORMAT
  1
CONTENTFORMAT_BEGIN
 90
        0
 91
        0
 92
      512
 93
        0
300

 40
0.0
140
1.0
 94
        2
 62
     0
340
11
144
4.5
309
CONTENTFORMAT_END
171
     1
301
MARGIN
  1
CELLMARGIN_BEGIN
 40
1.5
 40
1.5
 40
1.5
 40
1.5
 40
0.18
 40
0.18
309
CELLMARGIN_END
 94
        6
 95
        1
302
GRIDFORMAT
  1
GRIDFORMAT_BEGIN
 90
        0
 91
        1
 62
     0
 92
       -2
340
0
 93
        0
 40
0.045
309
GRIDFORMAT_END
 95
        2
302
GRIDFORMAT
  1
GRIDFORMAT_BEGIN
 90
        0
 91
        1
 62
     0
 92
       -2
340
0
 93
        0
 40
0.045
309
GRIDFORMAT_END
 95
        4
302
GRIDFORMAT
  1
GRIDFORMAT_BEGIN
 90
        0
 91
        1
 62
     0
 92
       -2
340
0
 93
        0
 40
0.045
309
GRIDFORMAT_END
 95
        8
302
GRIDFORMAT
  1
GRIDFORMAT_BEGIN
 90
        0
 91
        1
 62
     0
 92
       -2
340
0
 93
        0
 40
0.045
309
GRIDFORMAT_END
 95
       16
302
GRIDFORMAT
  1
GRIDFORMAT_BEGIN
 90
        0
 91
        1
 62
     0
 92
       -2
340
0
 93
        0
 40
0.045
309
GRIDFORMAT_END
 95
       32
302
GRIDFORMAT
  1
GRIDFORMAT_BEGIN
 90
        0
 91
        1
 62
     0
 92
       -2
340
0
 93
        0
 40
0.045
309
GRIDFORMAT_END
309
TABLEFORMAT_END
  1
CELLSTYLE_BEGIN
 90
        3
 91
        2
300
_DATA
309
CELLSTYLE_END
  0
ENDSEC
  0
EOF
