  0
SECTION
  2
HEADER
  9
$ACADVER
  1
AC1027
  9
$ACADMAINTVER
 70
   125
  9
$DWGCODEPAGE
  3
ANSI_1252
  9
$LASTSAVEDBY
  1
Siqi
  9
$REQUIREDVERSIONS
160
                 0
  9
$INSBASE
 10
0.0
 20
0.0
 30
0.0
  9
$EXTMIN
 10
34526.54564018516
 20
3149.329943404957
 30
0.0
  9
$EXTMAX
 10
35622.80292783666
 20
4236.796987030827
 30
0.0
  9
$LIMMIN
 10
0.0
 20
0.0
  9
$LIMMAX
 10
420.0
 20
297.0
  9
$ORTHOMODE
 70
     0
  9
$REGENMODE
 70
     1
  9
$FILLMODE
 70
     1
  9
$QTEXTMODE
 70
     0
  9
$MIRRTEXT
 70
     0
  9
$LTSCALE
 40
1.0
  9
$ATTMODE
 70
     1
  9
$TEXTSIZE
 40
2.5
  9
$TRACEWID
 40
1.0
  9
$TEXTSTYLE
  7
Standard
  9
$CLAYER
  8
base
  9
$CELTYPE
  6
ByLayer
  9
$CECOLOR
 62
   256
  9
$CELTSCALE
 40
1.0
  9
$DISPSILH
 70
     0
  9
$DIMSCALE
 40
1.0
  9
$DIMASZ
 40
8.0
  9
$DIMEXO
 40
1.0
  9
$DIMDLI
 40
3.75
  9
$DIMRND
 40
0.0
  9
$DIMDLE
 40
0.0
  9
$DIMEXE
 40
1.25
  9
$DIMTP
 40
0.0
  9
$DIMTM
 40
0.0
  9
$DIMTXT
 40
15.0
  9
$DIMCEN
 40
0.5
  9
$DIMTSZ
 40
0.0
  9
$DIMTOL
 70
     0
  9
$DIMLIM
 70
     0
  9
$DIMTIH
 70
     0
  9
$DIMTOH
 70
     0
  9
$DIMSE1
 70
     0
  9
$DIMSE2
 70
     0
  9
$DIMTAD
 70
     1
  9
$DIMZIN
 70
     8
  9
$DIMBLK
  1

  9
$DIMASO
 70
     1
  9
$DIMSHO
 70
     1
  9
$DIMPOST
  1

  9
$DIMAPOST
  1

  9
$DIMALT
 70
     1
  9
$DIMALTD
 70
     2
  9
$DIMALTF
 40
0.03937007874
  9
$DIMLFAC
 40
1.0
  9
$DIMTOFL
 70
     1
  9
$DIMTVP
 40
0.0
  9
$DIMTIX
 70
     0
  9
$DIMSOXD
 70
     0
  9
$DIMSAH
 70
     0
  9
$DIMBLK1
  1

  9
$DIMBLK2
  1

  9
$DIMSTYLE
  2
ISO-25
  9
$DIMCLRD
 70
     0
  9
$DIMCLRE
 70
     0
  9
$DIMCLRT
 70
     0
  9
$DIMTFAC
 40
1.0
  9
$DIMGAP
 40
3.0
  9
$DIMJUST
 70
     0
  9
$DIMSD1
 70
     0
  9
$DIMSD2
 70
     0
  9
$DIMTOLJ
 70
     0
  9
$DIMTZIN
 70
     8
  9
$DIMALTZ
 70
     0
  9
$DIMALTTZ
 70
     0
  9
$DIMUPT
 70
     0
  9
$DIMDEC
 70
     2
  9
$DIMTDEC
 70
     2
  9
$DIMALTU
 70
     2
  9
$DIMALTTD
 70
     2
  9
$DIMTXSTY
  7
Standard
  9
$DIMAUNIT
 70
     0
  9
$DIMADEC
 70
     2
  9
$DIMALTRND
 40
0.0
  9
$DIMAZIN
 70
     0
  9
$DIMDSEP
 70
    44
  9
$DIMATFIT
 70
     3
  9
$DIMFRAC
 70
     0
  9
$DIMLDRBLK
  1

  9
$DIMLUNIT
 70
     2
  9
$DIMLWD
 70
    -2
  9
$DIMLWE
 70
    -2
  9
$DIMTMOVE
 70
     0
  9
$DIMFXL
 40
1.0
  9
$DIMFXLON
 70
     0
  9
$DIMJOGANG
 40
0.7853981633974483
  9
$DIMTFILL
 70
     0
  9
$DIMTFILLCLR
 70
     0
  9
$DIMARCSYM
 70
     0
  9
$DIMLTYPE
  6

  9
$DIMLTEX1
  6

  9
$DIMLTEX2
  6

  9
$DIMTXTDIRECTION
 70
     0
  9
$LUNITS
 70
     2
  9
$LUPREC
 70
     4
  9
$SKETCHINC
 40
1.0
  9
$FILLETRAD
 40
50.0
  9
$AUNITS
 70
     0
  9
$AUPREC
 70
     0
  9
$MENU
  1
.
  9
$ELEVATION
 40
0.0
  9
$PELEVATION
 40
0.0
  9
$THICKNESS
 40
0.0
  9
$LIMCHECK
 70
     0
  9
$CHAMFERA
 40
0.0
  9
$CHAMFERB
 40
0.0
  9
$CHAMFERC
 40
0.0
  9
$CHAMFERD
 40
0.0
  9
$SKPOLY
 70
     0
  9
$TDCREATE
 40
2453649.060439815
  9
$TDUCREATE
 40
2453649.352115521
  9
$TDUPDATE
 40
2457969.390115741
  9
$TDUUPDATE
 40
2457969.681782408
  9
$TDINDWG
 40
0.5681265972
  9
$TDUSRTIMER
 40
0.5681218981
  9
$USRTIMER
 70
     1
  9
$ANGBASE
 50
0.0
  9
$ANGDIR
 70
     0
  9
$PDMODE
 70
     0
  9
$PDSIZE
 40
0.0
  9
$PLINEWID
 40
0.0
  9
$SPLFRAME
 70
     0
  9
$SPLINETYPE
 70
     6
  9
$SPLINESEGS
 70
     8
  9
$HANDSEED
  5
3E72
  9
$SURFTAB1
 70
     6
  9
$SURFTAB2
 70
     6
  9
$SURFTYPE
 70
     6
  9
$SURFU
 70
     6
  9
$SURFV
 70
     6
  9
$UCSBASE
  2

  9
$UCSNAME
  2

  9
$UCSORG
 10
20135.92273348905
 20
3420.432723209263
 30
0.0
  9
$UCSXDIR
 10
1.0
 20
0.0
 30
0.0
  9
$UCSYDIR
 10
0.0
 20
1.0
 30
0.0
  9
$UCSORTHOREF
  2

  9
$UCSORTHOVIEW
 70
     0
  9
$UCSORGTOP
 10
0.0
 20
0.0
 30
0.0
  9
$UCSORGBOTTOM
 10
0.0
 20
0.0
 30
0.0
  9
$UCSORGLEFT
 10
0.0
 20
0.0
 30
0.0
  9
$UCSORGRIGHT
 10
0.0
 20
0.0
 30
0.0
  9
$UCSORGFRONT
 10
0.0
 20
0.0
 30
0.0
  9
$UCSORGBACK
 10
0.0
 20
0.0
 30
0.0
  9
$PUCSBASE
  2

  9
$PUCSNAME
  2

  9
$PUCSORG
 10
0.0
 20
0.0
 30
0.0
  9
$PUCSXDIR
 10
1.0
 20
0.0
 30
0.0
  9
$PUCSYDIR
 10
0.0
 20
1.0
 30
0.0
  9
$PUCSORTHOREF
  2

  9
$PUCSORTHOVIEW
 70
     0
  9
$PUCSORGTOP
 10
0.0
 20
0.0
 30
0.0
  9
$PUCSORGBOTTOM
 10
0.0
 20
0.0
 30
0.0
  9
$PUCSORGLEFT
 10
0.0
 20
0.0
 30
0.0
  9
$PUCSORGRIGHT
 10
0.0
 20
0.0
 30
0.0
  9
$PUCSORGFRONT
 10
0.0
 20
0.0
 30
0.0
  9
$PUCSORGBACK
 10
0.0
 20
0.0
 30
0.0
  9
$USERI1
 70
     0
  9
$USERI2
 70
     0
  9
$USERI3
 70
     0
  9
$USERI4
 70
     0
  9
$USERI5
 70
     0
  9
$USERR1
 40
0.0
  9
$USERR2
 40
0.0
  9
$USERR3
 40
0.0
  9
$USERR4
 40
0.0
  9
$USERR5
 40
0.0
  9
$WORLDVIEW
 70
     1
  9
$SHADEDGE
 70
     3
  9
$SHADEDIF
 70
    70
  9
$TILEMODE
 70
     1
  9
$MAXACTVP
 70
    64
  9
$PINSBASE
 10
0.0
 20
0.0
 30
0.0
  9
$PLIMCHECK
 70
     0
  9
$PEXTMIN
 10
0.0
 20
0.0
 30
0.0
  9
$PEXTMAX
 10
0.0
 20
0.0
 30
0.0
  9
$PLIMMIN
 10
0.0
 20
0.0
  9
$PLIMMAX
 10
12.0
 20
9.0
  9
$UNITMODE
 70
     0
  9
$VISRETAIN
 70
     1
  9
$PLINEGEN
 70
     0
  9
$PSLTSCALE
 70
     1
  9
$TREEDEPTH
 70
  3020
  9
$CMLSTYLE
  2
Standard
  9
$CMLJUST
 70
     0
  9
$CMLSCALE
 40
20.0
  9
$PROXYGRAPHICS
 70
     1
  9
$MEASUREMENT
 70
     1
  9
$CELWEIGHT
370
    -1
  9
$ENDCAPS
280
     0
  9
$JOINSTYLE
280
     0
  9
$LWDISPLAY
290
     0
  9
$INSUNITS
 70
     4
  9
$HYPERLINKBASE
  1

  9
$STYLESHEET
  1

  9
$XEDIT
290
     1
  9
$CEPSNTYPE
380
     0
  9
$PSTYLEMODE
290
     1
  9
$FINGERPRINTGUID
  2
{FDEAD578-A652-11D2-9A35-0060089B3A3F}
  9
$VERSIONGUID
  2
{D3824319-163D-DA47-94DC-3E441B5A8237}
  9
$EXTNAMES
290
     1
  9
$PSVPSCALE
 40
0.0
  9
$OLESTARTUP
290
     0
  9
$SORTENTS
280
   127
  9
$INDEXCTL
280
     0
  9
$HIDETEXT
280
     1
  9
$XCLIPFRAME
280
     2
  9
$HALOGAP
280
     0
  9
$OBSCOLOR
 70
   257
  9
$OBSLTYPE
280
     0
  9
$INTERSECTIONDISPLAY
280
     0
  9
$INTERSECTIONCOLOR
 70
   257
  9
$DIMASSOC
280
     2
  9
$PROJECTNAME
  1

  9
$CAMERADISPLAY
290
     0
  9
$LENSLENGTH
 40
50.0
  9
$CAMERAHEIGHT
 40
0.0
  9
$STEPSPERSEC
 40
2.0
  9
$STEPSIZE
 40
6.0
  9
$3DDWFPREC
 40
2.0
  9
$PSOLWIDTH
 40
0.25
  9
$PSOLHEIGHT
 40
4.0
  9
$LOFTANG1
 40
1.570796326794896
  9
$LOFTANG2
 40
1.570796326794896
  9
$LOFTMAG1
 40
0.0
  9
$LOFTMAG2
 40
0.0
  9
$LOFTPARAM
 70
     7
  9
$LOFTNORMALS
280
     1
  9
$LATITUDE
 40
37.795
  9
$LONGITUDE
 40
-122.394
  9
$NORTHDIRECTION
 40
0.0
  9
$TIMEZONE
 70
 -8000
  9
$LIGHTGLYPHDISPLAY
280
     1
  9
$TILEMODELIGHTSYNCH
280
     1
  9
$CMATERIAL
347
3C9C
  9
$SOLIDHIST
280
     0
  9
$SHOWHIST
280
     1
  9
$DWFFRAME
280
     2
  9
$DGNFRAME
280
     0
  9
$REALWORLDSCALE
290
     1
  9
$INTERFERECOLOR
 62
     1
  9
$INTERFEREOBJVS
345
3CA9
  9
$INTERFEREVPVS
346
3CD7
  9
$CSHADOW
280
     0
  9
$SHADOWPLANELOCATION
 40
0.0
  0
ENDSEC
  0
SECTION
  2
CLASSES
  0
CLASS
  1
ACDBDICTIONARYWDFLT
  2
AcDbDictionaryWithDefault
  3
ObjectDBX Classes
 90
        0
 91
        1
280
     0
281
     0
  0
CLASS
  1
DICTIONARYVAR
  2
AcDbDictionaryVar
  3
ObjectDBX Classes
 90
        0
 91
       14
280
     0
281
     0
  0
CLASS
  1
DIMASSOC
  2
AcDbDimAssoc
  3
"AcDbDimAssoc|Product Desc:     AcDim ARX App For Dimension|Company:          Autodesk, Inc.|WEB Address:      www.autodesk.com"
 90
        0
 91
       23
280
     0
281
     0
  0
CLASS
  1
MATERIAL
  2
AcDbMaterial
  3
ObjectDBX Classes
 90
     1153
 91
        3
280
     0
281
     0
  0
CLASS
  1
VISUALSTYLE
  2
AcDbVisualStyle
  3
ObjectDBX Classes
 90
     4095
 91
       26
280
     0
281
     0
  0
CLASS
  1
TABLESTYLE
  2
AcDbTableStyle
  3
ObjectDBX Classes
 90
     4095
 91
        1
280
     0
281
     0
  0
CLASS
  1
SCALE
  2
AcDbScale
  3
ObjectDBX Classes
 90
     1153
 91
       17
280
     0
281
     0
  0
CLASS
  1
MLEADERSTYLE
  2
AcDbMLeaderStyle
  3
ACDB_MLEADERSTYLE_CLASS
 90
     4095
 91
        1
280
     0
281
     0
  0
CLASS
  1
ACDBSECTIONVIEWSTYLE
  2
AcDbSectionViewStyle
  3
ObjectDBX Classes
 90
     1025
 91
        1
280
     0
281
     0
  0
CLASS
  1
ACDBDETAILVIEWSTYLE
  2
AcDbDetailViewStyle
  3
ObjectDBX Classes
 90
     1025
 91
        1
280
     0
281
     0
  0
CLASS
  1
ACAD_EVALUATION_GRAPH
  2
AcDbEvalGraph
  3
ObjectDBX Classes
 90
     1153
 91
        0
280
     0
281
     0
  0
CLASS
  1
ACAECUSTOBJ
  2
AcAeEditorObj
  3
AcAeEditorObj
 90
     1024
 91
        0
280
     0
281
     0
  0
CLASS
  1
CELLSTYLEMAP
  2
AcDbCellStyleMap
  3
ObjectDBX Classes
 90
     1152
 91
        1
280
     0
281
     0
  0
ENDSEC
  0
SECTION
  2
TABLES
  0
TABLE
  2
VPORT
  5
8
102
{ACAD_XDICTIONARY
360
3CB9
102
}
330
0
100
AcDbSymbolTable
 70
     1
1001
ACAD
1000
DbSaveVer
1071
       51
  0
VPORT
  5
3C9A
330
8
100
AcDbSymbolTableRecord
100
AcDbViewportTableRecord
  2
*Active
 70
     0
 10
0.0
 20
0.0
 11
1.0
 21
1.0
 12
35688.84413936087
 22
3736.372243107826
 13
0.0
 23
0.0
 14
10.0
 24
10.0
 15
10.0
 25
10.0
 16
0.0
 26
0.0
 36
1.0
 17
0.0
 27
0.0
 37
0.0
 40
1659.213311650959
 41
2.283154121863799
 42
50.0
 43
0.0
 44
0.0
 50
0.0
 51
0.0
 71
     0
 72
  1000
 73
     1
 74
     3
 75
     0
 76
     0
 77
     0
 78
     0
281
     0
 65
     1
110
20135.92273348905
120
3420.432723209263
130
0.0
111
1.0
121
0.0
131
0.0
112
0.0
122
1.0
132
0.0
 79
     0
146
0.0
348
3CA5
 60
     3
 61
     5
292
     1
282
     1
141
0.0
142
0.0
 63
   250
421
  3355443
1001
ACAD_NAV_VCDISPLAY
1070
     3
  0
ENDTAB
  0
TABLE
  2
LTYPE
  5
5
330
0
100
AcDbSymbolTable
 70
     3
  0
LTYPE
  5
14
330
5
100
AcDbSymbolTableRecord
100
AcDbLinetypeTableRecord
  2
ByBlock
 70
     0
  3

 72
    65
 73
     0
 40
0.0
  0
LTYPE
  5
15
330
5
100
AcDbSymbolTableRecord
100
AcDbLinetypeTableRecord
  2
ByLayer
 70
     0
  3

 72
    65
 73
     0
 40
0.0
  0
LTYPE
  5
16
330
5
100
AcDbSymbolTableRecord
100
AcDbLinetypeTableRecord
  2
Continuous
 70
     0
  3
Solid line
 72
    65
 73
     0
 40
0.0
  0
LTYPE
  5
8F
330
5
100
AcDbSymbolTableRecord
100
AcDbLinetypeTableRecord
  2
ACAD_ISO02W100
 70
     0
  3
ISO dash __ __ __ __ __ __ __ __ __ __ __ __ __
 72
    65
 73
     2
 40
15.0
 49
12.0
 74
     0
 49
-3.0
 74
     0
  0
LTYPE
  5
2E41
330
5
100
AcDbSymbolTableRecord
100
AcDbLinetypeTableRecord
  2
CENTER
 70
     0
  3
Center ____ _ ____ _ ____ _ ____ _ ____ _ ____
 72
    65
 73
     4
 40
50.8
 49
31.75
 74
     0
 49
-6.349999999999999
 74
     0
 49
6.349999999999999
 74
     0
 49
-6.349999999999999
 74
     0
  0
ENDTAB
  0
TABLE
  2
LAYER
  5
2
102
{ACAD_XDICTIONARY
360
3E4F
102
}
330
0
100
AcDbSymbolTable
 70
     4
  0
LAYER
  5
10
102
{ACAD_XDICTIONARY
360
3E3E
102
}
330
2
100
AcDbSymbolTableRecord
100
AcDbLayerTableRecord
  2
0
 70
     0
 62
     7
  6
Continuous
370
    25
390
F
347
3C9E
348
0
  0
LAYER
  5
84
102
{ACAD_XDICTIONARY
360
3E40
102
}
330
2
100
AcDbSymbolTableRecord
100
AcDbLayerTableRecord
  2
base
 70
     0
 62
     4
  6
Continuous
370
    40
390
F
347
3C9E
348
0
  0
LAYER
  5
1DA
330
2
100
AcDbSymbolTableRecord
100
AcDbLayerTableRecord
  2
Defpoints
 70
     0
 62
     7
  6
Continuous
290
     0
370
    -3
390
F
347
3C9E
348
0
  0
LAYER
  5
2D93
102
{ACAD_XDICTIONARY
360
3E42
102
}
330
2
100
AcDbSymbolTableRecord
100
AcDbLayerTableRecord
  2
DIM
 70
     0
 62
     7
  6
Continuous
370
     9
390
F
347
3C9E
348
0
  0
ENDTAB
  0
TABLE
  2
STYLE
  5
3
330
0
100
AcDbSymbolTable
 70
     2
  0
STYLE
  5
11
330
3
100
AcDbSymbolTableRecord
100
AcDbTextStyleTableRecord
  2
Standard
 70
     0
 40
0.0
 41
1.0
 50
0.0
 71
     0
 42
2.5
  3
txt
  4

  0
STYLE
  5
2E40
330
3
100
AcDbSymbolTableRecord
100
AcDbTextStyleTableRecord
  2

 70
     1
 40
0.0
 41
1.0
 50
0.0
 71
     0
 42
2.5
  3
ltypeshp.shx
  4

  0
ENDTAB
  0
TABLE
  2
VIEW
  5
6
330
0
100
AcDbSymbolTable
 70
     0
  0
ENDTAB
  0
TABLE
  2
UCS
  5
7
330
0
100
AcDbSymbolTable
 70
     0
  0
ENDTAB
  0
TABLE
  2
APPID
  5
9
330
0
100
AcDbSymbolTable
 70
     2
  0
APPID
  5
12
330
9
100
AcDbSymbolTableRecord
100
AcDbRegAppTableRecord
  2
ACAD
 70
     0
  0
APPID
  5
3CFE
330
9
100
AcDbSymbolTableRecord
100
AcDbRegAppTableRecord
  2
ACAD_NAV_VCDISPLAY
 70
     0
  0
ENDTAB
  0
TABLE
  2
DIMSTYLE
  5
A
330
0
100
AcDbSymbolTable
 70
     1
100
AcDbDimStyleTable
 71
     1
340
27
  0
DIMSTYLE
105
27
102
{ACAD_REACTORS
330
39A0
330
39B8
330
39DF
330
39F7
330
3A0F
330
3A27
330
3A3F
330
3A57
330
3A65
330
3A7D
330
3A95
330
3AAD
330
3AC2
330
3AD7
330
3B05
330
3B29
330
3B47
102
}
330
A
100
AcDbSymbolTableRecord
100
AcDbDimStyleTableRecord
  2
ISO-25
 70
     0
 41
2.0
 42
1.0
 43
3.75
 44
1.25
 73
     0
 74
     0
 77
     1
 78
     8
140
3.0
141
2.5
143
0.03937007874016
147
5.0
171
     3
172
     1
271
     2
272
     2
274
     3
278
    44
283
     0
284
     8
340
11
  0
ENDTAB
  0
TABLE
  2
BLOCK_RECORD
  5
1
330
0
100
AcDbSymbolTable
 70
    36
  0
BLOCK_RECORD
  5
1F
330
1
100
AcDbSymbolTableRecord
100
AcDbBlockTableRecord
  2
*Model_Space
340
22
 70
     0
280
     1
281
     0
  0
BLOCK_RECORD
  5
50
330
1
100
AcDbSymbolTableRecord
100
AcDbBlockTableRecord
  2
*Paper_Space
340
51
 70
     0
280
     1
281
     0
  0
BLOCK_RECORD
  5
55
330
1
100
AcDbSymbolTableRecord
100
AcDbBlockTableRecord
  2
*Paper_Space0
340
56
 70
     0
280
     1
281
     0
  0
BLOCK_RECORD
  5
39A1
330
1
100
AcDbSymbolTableRecord
100
AcDbBlockTableRecord
  2
*D5
340
0
 70
     0
280
     1
281
     0
  0
BLOCK_RECORD
  5
39B9
330
1
100
AcDbSymbolTableRecord
100
AcDbBlockTableRecord
  2
*D6
340
0
 70
     0
280
     1
281
     0
  0
BLOCK_RECORD
  5
39E0
330
1
100
AcDbSymbolTableRecord
100
AcDbBlockTableRecord
  2
*D7
340
0
 70
     0
280
     1
281
     0
  0
BLOCK_RECORD
  5
39F8
330
1
100
AcDbSymbolTableRecord
100
AcDbBlockTableRecord
  2
*D8
340
0
 70
     0
280
     1
281
     0
  0
BLOCK_RECORD
  5
3A10
330
1
100
AcDbSymbolTableRecord
100
AcDbBlockTableRecord
  2
*D9
340
0
 70
     0
280
     1
281
     0
  0
BLOCK_RECORD
  5
3A28
330
1
100
AcDbSymbolTableRecord
100
AcDbBlockTableRecord
  2
*D10
340
0
 70
     0
280
     1
281
     0
  0
BLOCK_RECORD
  5
3A40
330
1
100
AcDbSymbolTableRecord
100
AcDbBlockTableRecord
  2
*D11
340
0
 70
     0
280
     1
281
     0
  0
BLOCK_RECORD
  5
3A58
330
1
100
AcDbSymbolTableRecord
100
AcDbBlockTableRecord
  2
*D12
340
0
 70
     0
280
     1
281
     0
  0
BLOCK_RECORD
  5
3A66
330
1
100
AcDbSymbolTableRecord
100
AcDbBlockTableRecord
  2
*D13
340
0
 70
     0
280
     1
281
     0
  0
BLOCK_RECORD
  5
3A7E
330
1
100
AcDbSymbolTableRecord
100
AcDbBlockTableRecord
  2
*D14
340
0
 70
     0
280
     1
281
     0
  0
BLOCK_RECORD
  5
3A96
330
1
100
AcDbSymbolTableRecord
100
AcDbBlockTableRecord
  2
*D15
340
0
 70
     0
280
     1
281
     0
  0
BLOCK_RECORD
  5
3AAE
330
1
100
AcDbSymbolTableRecord
100
AcDbBlockTableRecord
  2
*D16
340
0
 70
     0
280
     1
281
     0
  0
BLOCK_RECORD
  5
3AC3
330
1
100
AcDbSymbolTableRecord
100
AcDbBlockTableRecord
  2
*D17
340
0
 70
     0
280
     1
281
     0
  0
BLOCK_RECORD
  5
3AD8
330
1
100
AcDbSymbolTableRecord
100
AcDbBlockTableRecord
  2
*D18
340
0
 70
     0
280
     1
281
     0
  0
BLOCK_RECORD
  5
3B06
330
1
100
AcDbSymbolTableRecord
100
AcDbBlockTableRecord
  2
*D19
340
0
 70
     0
280
     1
281
     0
  0
BLOCK_RECORD
  5
3B2A
330
1
100
AcDbSymbolTableRecord
100
AcDbBlockTableRecord
  2
*D20
340
0
 70
     0
280
     1
281
     0
  0
BLOCK_RECORD
  5
3B48
330
1
100
AcDbSymbolTableRecord
100
AcDbBlockTableRecord
  2
*D21
340
0
 70
     0
280
     1
281
     0
  0
BLOCK_RECORD
  5
3B8A
330
1
100
AcDbSymbolTableRecord
100
AcDbBlockTableRecord
  2
*D22
340
0
 70
     0
280
     1
281
     0
  0
BLOCK_RECORD
  5
3B96
330
1
100
AcDbSymbolTableRecord
100
AcDbBlockTableRecord
  2
*D23
340
0
 70
     0
280
     1
281
     0
  0
BLOCK_RECORD
  5
3BA2
330
1
100
AcDbSymbolTableRecord
100
AcDbBlockTableRecord
  2
*D24
340
0
 70
     0
280
     1
281
     0
  0
BLOCK_RECORD
  5
3BAE
330
1
100
AcDbSymbolTableRecord
100
AcDbBlockTableRecord
  2
*D25
340
0
 70
     0
280
     1
281
     0
  0
BLOCK_RECORD
  5
3BBA
330
1
100
AcDbSymbolTableRecord
100
AcDbBlockTableRecord
  2
*D26
340
0
 70
     0
280
     1
281
     0
  0
BLOCK_RECORD
  5
3BC6
330
1
100
AcDbSymbolTableRecord
100
AcDbBlockTableRecord
  2
*D27
340
0
 70
     0
280
     1
281
     0
  0
BLOCK_RECORD
  5
3BD2
330
1
100
AcDbSymbolTableRecord
100
AcDbBlockTableRecord
  2
A$C211C3DC7
340
0
 70
     0
280
     1
281
     0
  0
ENDTAB
  0
ENDSEC
  0
SECTION
  2
BLOCKS
  0
BLOCK
  5
20
330
1F
100
AcDbEntity
  8
0
100
AcDbBlockBegin
  2
*Model_Space
 70
     0
 10
0.0
 20
0.0
 30
0.0
  3
*Model_Space
  1

  0
ENDBLK
  5
21
330
1F
100
AcDbEntity
  8
0
100
AcDbBlockEnd
  0
BLOCK
  5
52
330
50
100
AcDbEntity
 67
     1
  8
0
100
AcDbBlockBegin
  2
*Paper_Space
 70
     0
 10
0.0
 20
0.0
 30
0.0
  3
*Paper_Space
  1

  0
ENDBLK
  5
53
330
50
100
AcDbEntity
 67
     1
  8
0
100
AcDbBlockEnd
  0
BLOCK
  5
57
330
55
100
AcDbEntity
 67
     1
  8
0
100
AcDbBlockBegin
  2
*Paper_Space0
 70
     0
 10
0.0
 20
0.0
 30
0.0
  3
*Paper_Space0
  1

  0
ENDBLK
  5
58
330
55
100
AcDbEntity
 67
     1
  8
0
100
AcDbBlockEnd
  0
BLOCK
  5
39AB
330
39A1
100
AcDbEntity
  8
0
100
AcDbBlockBegin
  2
*D5
 70
     1
 10
0.0
 20
0.0
 30
0.0
  3
*D5
  1

  0
LINE
  5
39AE
330
39A1
100
AcDbEntity
  8
DIM
 62
     0
440
 16777216
370
    -2
100
AcDbLine
 10
35486.87408811263
 20
4197.706356687551
 30
0.0
 11
35540.46845220896
 21
4197.706356687551
 31
0.0
  0
LINE
  5
39AF
330
39A1
100
AcDbEntity
  8
DIM
 62
     0
440
 16777216
370
    -2
100
AcDbLine
 10
35321.2440176288
 20
3943.706356687551
 30
0.0
 11
35540.46845220896
 21
3943.706356687551
 31
0.0
  0
LINE
  5
39B0
330
39A1
100
AcDbEntity
  8
DIM
 62
     0
440
 16777216
370
    -2
100
AcDbLine
 10
35539.21845220896
 20
4189.706356687551
 30
0.0
 11
35539.21845220896
 21
3951.706356687551
 31
0.0
  0
SOLID
  5
39B1
330
39A1
100
AcDbEntity
  8
DIM
 62
     0
440
 16777216
100
AcDbTrace
 10
35537.88511887562
 20
4189.706356687551
 30
0.0
 11
35540.5517855423
 21
4189.706356687551
 31
0.0
 12
35539.21845220896
 22
4197.706356687551
 32
0.0
 13
35539.21845220896
 23
4197.706356687551
 33
0.0
  0
SOLID
  5
39B2
330
39A1
100
AcDbEntity
  8
DIM
 62
     0
440
 16777216
100
AcDbTrace
 10
35537.88511887562
 20
3951.706356687551
 30
0.0
 11
35540.5517855423
 21
3951.706356687551
 31
0.0
 12
35539.21845220896
 22
3943.706356687551
 32
0.0
 13
35539.21845220896
 23
3943.706356687551
 33
0.0
  0
MTEXT
  5
39B3
330
39A1
100
AcDbEntity
  8
DIM
 62
     0
440
 16777216
100
AcDbMText
 10
35527.46845220896
 20
4070.706356687557
 30
0.0
 40
15.0
 41
0.0
 46
0.0
 71
     5
 72
     1
  1
254 [10,00]
 11
0.0000000000000001
 21
1.0
 31
0.0
 73
     1
 44
1.0
  0
POINT
  5
39B4
330
39A1
100
AcDbEntity
  8
Defpoints
 62
     0
440
 16777216
100
AcDbPoint
 10
35485.87408811263
 20
4197.706356687551
 30
0.0
  0
POINT
  5
39B5
330
39A1
100
AcDbEntity
  8
Defpoints
 62
     0
440
 16777216
100
AcDbPoint
 10
35320.2440176288
 20
3943.706356687551
 30
0.0
  0
POINT
  5
39B6
330
39A1
100
AcDbEntity
  8
Defpoints
 62
     0
440
 16777216
100
AcDbPoint
 10
35539.21845220896
 20
3943.706356687551
 30
0.0
  0
ENDBLK
  5
39AC
330
39A1
100
AcDbEntity
  8
0
100
AcDbBlockEnd
  0
BLOCK
  5
39C9
330
39B9
100
AcDbEntity
  8
0
100
AcDbBlockBegin
  2
*D6
 70
     1
 10
0.0
 20
0.0
 30
0.0
  3
*D6
  1

  0
LINE
  5
39CC
330
39B9
100
AcDbEntity
  8
DIM
 62
     0
440
 16777216
370
    -2
100
AcDbLine
 10
35321.87408811264
 20
3943.70635668755
 30
0.0
 11
35515.49085142827
 21
3943.70635668755
 31
0.0
  0
LINE
  5
39CD
330
39B9
100
AcDbEntity
  8
DIM
 62
     0
440
 16777216
370
    -2
100
AcDbLine
 10
35416.6184537748
 20
3947.049823610973
 30
0.0
 11
35515.37229615443
 21
3950.498383777136
 31
0.0
  0
ARC
  5
39CE
330
39B9
100
AcDbEntity
  8
DIM
 62
     0
440
 16777216
370
    -2
100
AcDbCircle
 10
35320.87408811264
 20
3943.70635668755
 30
0.0
 40
193.3667633156358
100
AcDbArc
 50
355.2577465754804
 51
359.9999999999999
  0
LINE
  5
39CF
330
39B9
100
AcDbEntity
  8
DIM
 62
     0
440
 16777216
370
    -2
100
AcDbLine
 10
35513.57889692376
 20
3927.720055794787
 30
0.0
 11
35508.32913171445
 21
3864.437436022474
 31
0.0
  0
ARC
  5
39D0
330
39B9
100
AcDbEntity
  8
DIM
 62
     0
440
 16777216
370
    -2
100
AcDbCircle
 10
35320.87408811264
 20
3943.70635668755
 30
0.0
 40
193.3667633156358
100
AcDbArc
 50
355.2587619014773
 51
357.6293809507386
  0
ARC
  5
39D1
330
39B9
100
AcDbEntity
  8
DIM
 62
     0
440
 16777216
370
    -2
100
AcDbCircle
 10
35320.87408811264
 20
3943.70635668755
 30
0.0
 40
193.3667633156358
100
AcDbArc
 50
4.370619049261448
 51
6.741238098522718
  0
ARC
  5
39D2
330
39B9
100
AcDbEntity
  8
DIM
 62
     0
440
 16777216
370
    -2
100
AcDbCircle
 10
35320.87408811264
 20
3943.70635668755
 30
0.0
 40
193.3667633156358
100
AcDbArc
 50
359.9999999999999
 51
2.000000000000168
  0
SOLID
  5
39D3
330
39B9
100
AcDbEntity
  8
DIM
 62
     0
440
 16777216
100
AcDbTrace
 10
35512.74231477522
 20
3935.735649963724
 30
0.0
 11
35515.40841082907
 21
3935.680487088348
 31
0.0
 12
35514.24085142827
 22
3943.70635668755
 32
0.0
 13
35514.24085142827
 23
3943.70635668755
 33
0.0
  0
SOLID
  5
39D4
330
39B9
100
AcDbEntity
  8
DIM
 62
     0
440
 16777216
100
AcDbTrace
 10
35515.00980696619
 20
3958.516487098011
 30
0.0
 11
35512.34726018262
 21
3958.368312415928
 31
0.0
 12
35514.12305762065
 22
3950.454759406259
 32
0.0
 13
35514.12305762065
 23
3950.454759406259
 33
0.0
  0
MTEXT
  5
39D5
102
{ACAD_XDICTIONARY
360
3CC9
102
}
330
39B9
100
AcDbEntity
  8
DIM
 62
     0
440
 16777216
100
AcDbMText
 10
35522.66379041871
 20
3895.107332661234
 30
0.0
 40
15.0
 41
0.0
 46
0.0
 71
     5
 72
     1
  1
2,00°
 11
-0.0826734678630833
 21
-0.9965766893277665
 31
0.0
 73
     1
 44
1.0
  0
POINT
  5
39D6
330
39B9
100
AcDbEntity
  8
Defpoints
 62
     0
440
 16777216
100
AcDbPoint
 10
35514.1884956715
 20
3948.205799467335
 30
0.0
  0
POINT
  5
39D7
330
39B9
100
AcDbEntity
  8
Defpoints
 62
     0
440
 16777216
100
AcDbPoint
 10
35320.87408811264
 20
3943.70635668755
 30
0.0
  0
POINT
  5
39D8
330
39B9
100
AcDbEntity
  8
Defpoints
 62
     0
440
 16777216
100
AcDbPoint
 10
35320.87408811264
 20
3943.70635668755
 30
0.0
  0
POINT
  5
39D9
330
39B9
100
AcDbEntity
  8
Defpoints
 62
     0
440
 16777216
100
AcDbPoint
 10
35415.61906294778
 20
3947.01492411427
 30
0.0
  0
POINT
  5
39DA
330
39B9
100
AcDbEntity
  8
Defpoints
 62
     0
440
 16777216
100
AcDbPoint
 10
35200.87408811264
 20
3943.70635668755
 30
0.0
  0
ENDBLK
  5
39CA
330
39B9
100
AcDbEntity
  8
0
100
AcDbBlockEnd
  0
BLOCK
  5
39E6
330
39E0
100
AcDbEntity
  8
0
100
AcDbBlockBegin
  2
*D7
 70
     1
 10
0.0
 20
0.0
 30
0.0
  3
*D7
  1

  0
LINE
  5
39E9
330
39E0
100
AcDbEntity
  8
DIM
 62
     0
440
 16777216
370
    -2
100
AcDbLine
 10
34790.67881063541
 20
4076.334206517498
 30
0.0
 11
34692.0815802065
 21
3964.622138450741
 31
0.0
  0
MTEXT
  5
39EA
330
39E0
100
AcDbEntity
  8
DIM
 62
     0
440
 16777216
100
AcDbMText
 10
34735.21759221244
 20
4031.25243912712
 30
0.0
 40
15.0
 41
0.0
 46
0.0
 71
     5
 72
     1
  1
R50 [R1,97]
 11
0.6617263787174254
 21
0.7497454232668064
 31
0.0
 73
     1
 44
1.0
  0
SOLID
  5
39EB
330
39E0
100
AcDbEntity
  8
DIM
 62
     0
440
 16777216
100
AcDbTrace
 10
34691.08191964215
 20
3965.504440289031
 30
0.0
 11
34693.08124077086
 21
3963.739836612453
 31
0.0
 12
34686.78776917677
 22
3958.624175064608
 32
0.0
 13
34686.78776917677
 23
3958.624175064608
 33
0.0
  0
POINT
  5
39EC
330
39E0
100
AcDbEntity
  8
Defpoints
 62
     0
440
 16777216
100
AcDbPoint
 10
34686.78776917677
 20
3958.624175064608
 30
0.0
  0
POINT
  5
39ED
330
39E0
100
AcDbEntity
  8
Defpoints
 62
     0
440
 16777216
100
AcDbPoint
 10
34719.87408811264
 20
3996.111446227958
 30
0.0
  0
ENDBLK
  5
39E7
330
39E0
100
AcDbEntity
  8
0
100
AcDbBlockEnd
  0
BLOCK
  5
3A02
330
39F8
100
AcDbEntity
  8
0
100
AcDbBlockBegin
  2
*D8
 70
     1
 10
0.0
 20
0.0
 30
0.0
  3
*D8
  1

  0
LINE
  5
3A05
330
39F8
100
AcDbEntity
  8
DIM
 62
     0
440
 16777216
370
    -2
100
AcDbLine
 10
34745.87408811264
 20
3335.870157135861
 30
0.0
 11
34599.55806593887
 21
3335.870157135861
 31
0.0
  0
LINE
  5
3A06
330
39F8
100
AcDbEntity
  8
DIM
 62
     0
440
 16777216
370
    -2
100
AcDbLine
 10
34745.87408811264
 20
3741.870157135862
 30
0.0
 11
34599.55806593887
 21
3741.870157135862
 31
0.0
  0
LINE
  5
3A07
330
39F8
100
AcDbEntity
  8
DIM
 62
     0
440
 16777216
370
    -2
100
AcDbLine
 10
34600.80806593887
 20
3343.870157135861
 30
0.0
 11
34600.80806593887
 21
3733.870157135862
 31
0.0
  0
SOLID
  5
3A08
330
39F8
100
AcDbEntity
  8
DIM
 62
     0
440
 16777216
100
AcDbTrace
 10
34599.47473260553
 20
3343.870157135861
 30
0.0
 11
34602.1413992722
 21
3343.870157135861
 31
0.0
 12
34600.80806593887
 22
3335.870157135861
 32
0.0
 13
34600.80806593887
 23
3335.870157135861
 33
0.0
  0
SOLID
  5
3A09
330
39F8
100
AcDbEntity
  8
DIM
 62
     0
440
 16777216
100
AcDbTrace
 10
34599.47473260553
 20
3733.870157135862
 30
0.0
 11
34602.1413992722
 21
3733.870157135862
 31
0.0
 12
34600.80806593887
 22
3741.870157135862
 32
0.0
 13
34600.80806593887
 23
3741.870157135862
 33
0.0
  0
MTEXT
  5
3A0A
330
39F8
100
AcDbEntity
  8
DIM
 62
     0
440
 16777216
100
AcDbMText
 10
34589.05806593886
 20
3538.870157135868
 30
0.0
 40
15.0
 41
0.0
 46
0.0
 71
     5
 72
     1
  1
406 [15,98]
 11
0.0000000000000001
 21
1.0
 31
0.0
 73
     1
 44
1.0
  0
POINT
  5
3A0B
330
39F8
100
AcDbEntity
  8
Defpoints
 62
     0
440
 16777216
100
AcDbPoint
 10
34746.87408811264
 20
3335.870157135861
 30
0.0
  0
POINT
  5
3A0C
330
39F8
100
AcDbEntity
  8
Defpoints
 62
     0
440
 16777216
100
AcDbPoint
 10
34746.87408811264
 20
3741.870157135862
 30
0.0
  0
POINT
  5
3A0D
330
39F8
100
AcDbEntity
  8
Defpoints
 62
     0
440
 16777216
100
AcDbPoint
 10
34600.80806593887
 20
3741.870157135862
 30
0.0
  0
ENDBLK
  5
3A03
330
39F8
100
AcDbEntity
  8
0
100
AcDbBlockEnd
  0
BLOCK
  5
3A1A
330
3A10
100
AcDbEntity
  8
0
100
AcDbBlockBegin
  2
*D9
 70
     1
 10
0.0
 20
0.0
 30
0.0
  3
*D9
  1

  0
LINE
  5
3A1D
330
3A10
100
AcDbEntity
  8
DIM
 62
     0
440
 16777216
370
    -2
100
AcDbLine
 10
34745.87408811264
 20
3313.870157135862
 30
0.0
 11
34545.79564018517
 21
3313.870157135862
 31
0.0
  0
LINE
  5
3A1E
330
3A10
100
AcDbEntity
  8
DIM
 62
     0
440
 16777216
370
    -2
100
AcDbLine
 10
34745.87408811265
 20
3763.870157135862
 30
0.0
 11
34545.79564018517
 21
3763.870157135862
 31
0.0
  0
LINE
  5
3A1F
330
3A10
100
AcDbEntity
  8
DIM
 62
     0
440
 16777216
370
    -2
100
AcDbLine
 10
34547.04564018516
 20
3321.870157135862
 30
0.0
 11
34547.04564018516
 21
3755.870157135862
 31
0.0
  0
SOLID
  5
3A20
330
3A10
100
AcDbEntity
  8
DIM
 62
     0
440
 16777216
100
AcDbTrace
 10
34545.71230685183
 20
3321.870157135862
 30
0.0
 11
34548.3789735185
 21
3321.870157135862
 31
0.0
 12
34547.04564018516
 22
3313.870157135862
 32
0.0
 13
34547.04564018516
 23
3313.870157135862
 33
0.0
  0
SOLID
  5
3A21
330
3A10
100
AcDbEntity
  8
DIM
 62
     0
440
 16777216
100
AcDbTrace
 10
34545.71230685183
 20
3755.870157135862
 30
0.0
 11
34548.3789735185
 21
3755.870157135862
 31
0.0
 12
34547.04564018516
 22
3763.870157135862
 32
0.0
 13
34547.04564018516
 23
3763.870157135862
 33
0.0
  0
MTEXT
  5
3A22
330
3A10
100
AcDbEntity
  8
DIM
 62
     0
440
 16777216
100
AcDbMText
 10
34535.29564018516
 20
3538.870157135868
 30
0.0
 40
15.0
 41
0.0
 46
0.0
 71
     5
 72
     1
  1
450 [17,72]
 11
0.0000000000000001
 21
1.0
 31
0.0
 73
     1
 44
1.0
  0
POINT
  5
3A23
330
3A10
100
AcDbEntity
  8
Defpoints
 62
     0
440
 16777216
100
AcDbPoint
 10
34746.87408811264
 20
3313.870157135862
 30
0.0
  0
POINT
  5
3A24
330
3A10
100
AcDbEntity
  8
Defpoints
 62
     0
440
 16777216
100
AcDbPoint
 10
34746.87408811265
 20
3763.870157135862
 30
0.0
  0
POINT
  5
3A25
330
3A10
100
AcDbEntity
  8
Defpoints
 62
     0
440
 16777216
100
AcDbPoint
 10
34547.04564018516
 20
3763.870157135862
 30
0.0
  0
ENDBLK
  5
3A1B
330
3A10
100
AcDbEntity
  8
0
100
AcDbBlockEnd
  0
BLOCK
  5
3A32
330
3A28
100
AcDbEntity
  8
0
100
AcDbBlockBegin
  2
*D10
 70
     1
 10
0.0
 20
0.0
 30
0.0
  3
*D10
  1

  0
LINE
  5
3A35
330
3A28
100
AcDbEntity
  8
DIM
 62
     0
440
 16777216
370
    -2
100
AcDbLine
 10
34669.87408811264
 20
3411.870157135858
 30
0.0
 11
34669.87408811264
 21
3235.235493226901
 31
0.0
  0
LINE
  5
3A36
330
3A28
100
AcDbEntity
  8
DIM
 62
     0
440
 16777216
370
    -2
100
AcDbLine
 10
35025.87408811264
 20
3411.870157135862
 30
0.0
 11
35025.87408811264
 21
3235.235493226901
 31
0.0
  0
LINE
  5
3A37
330
3A28
100
AcDbEntity
  8
DIM
 62
     0
440
 16777216
370
    -2
100
AcDbLine
 10
34677.87408811264
 20
3236.485493226901
 30
0.0
 11
35017.87408811264
 21
3236.485493226901
 31
0.0
  0
SOLID
  5
3A38
330
3A28
100
AcDbEntity
  8
DIM
 62
     0
440
 16777216
100
AcDbTrace
 10
34677.87408811264
 20
3237.818826560235
 30
0.0
 11
34677.87408811264
 21
3235.152159893568
 31
0.0
 12
34669.87408811264
 22
3236.485493226901
 32
0.0
 13
34669.87408811264
 23
3236.485493226901
 33
0.0
  0
SOLID
  5
3A39
330
3A28
100
AcDbEntity
  8
DIM
 62
     0
440
 16777216
100
AcDbTrace
 10
35017.87408811264
 20
3237.818826560235
 30
0.0
 11
35017.87408811264
 21
3235.152159893568
 31
0.0
 12
35025.87408811264
 22
3236.485493226901
 32
0.0
 13
35025.87408811264
 23
3236.485493226901
 33
0.0
  0
MTEXT
  5
3A3A
330
3A28
100
AcDbEntity
  8
DIM
 62
     0
440
 16777216
100
AcDbMText
 10
34847.87408811265
 20
3248.235493226901
 30
0.0
 40
15.0
 41
0.0
 46
0.0
 71
     5
 72
     1
  1
356 [14,02]
 73
     1
 44
1.0
  0
POINT
  5
3A3B
330
3A28
100
AcDbEntity
  8
Defpoints
 62
     0
440
 16777216
100
AcDbPoint
 10
34669.87408811264
 20
3412.870157135858
 30
0.0
  0
POINT
  5
3A3C
330
3A28
100
AcDbEntity
  8
Defpoints
 62
     0
440
 16777216
100
AcDbPoint
 10
35025.87408811264
 20
3412.870157135862
 30
0.0
  0
POINT
  5
3A3D
330
3A28
100
AcDbEntity
  8
Defpoints
 62
     0
440
 16777216
100
AcDbPoint
 10
35025.87408811264
 20
3236.485493226901
 30
0.0
  0
ENDBLK
  5
3A33
330
3A28
100
AcDbEntity
  8
0
100
AcDbBlockEnd
  0
BLOCK
  5
3A4A
330
3A40
100
AcDbEntity
  8
0
100
AcDbBlockBegin
  2
*D11
 70
     1
 10
0.0
 20
0.0
 30
0.0
  3
*D11
  1

  0
LINE
  5
3A4D
330
3A40
100
AcDbEntity
  8
DIM
 62
     0
440
 16777216
370
    -2
100
AcDbLine
 10
35057.87408811264
 20
3411.870157135857
 30
0.0
 11
35057.87408811264
 21
3235.246480766564
 31
0.0
  0
LINE
  5
3A4E
330
3A40
100
AcDbEntity
  8
DIM
 62
     0
440
 16777216
370
    -2
100
AcDbLine
 10
35463.87408811264
 20
3411.87015713586
 30
0.0
 11
35463.87408811264
 21
3235.246480766564
 31
0.0
  0
LINE
  5
3A4F
330
3A40
100
AcDbEntity
  8
DIM
 62
     0
440
 16777216
370
    -2
100
AcDbLine
 10
35065.87408811264
 20
3236.496480766564
 30
0.0
 11
35455.87408811264
 21
3236.496480766564
 31
0.0
  0
SOLID
  5
3A50
330
3A40
100
AcDbEntity
  8
DIM
 62
     0
440
 16777216
100
AcDbTrace
 10
35065.87408811264
 20
3237.829814099897
 30
0.0
 11
35065.87408811264
 21
3235.16314743323
 31
0.0
 12
35057.87408811264
 22
3236.496480766564
 32
0.0
 13
35057.87408811264
 23
3236.496480766564
 33
0.0
  0
SOLID
  5
3A51
330
3A40
100
AcDbEntity
  8
DIM
 62
     0
440
 16777216
100
AcDbTrace
 10
35455.87408811264
 20
3237.829814099897
 30
0.0
 11
35455.87408811264
 21
3235.16314743323
 31
0.0
 12
35463.87408811264
 22
3236.496480766564
 32
0.0
 13
35463.87408811264
 23
3236.496480766564
 33
0.0
  0
MTEXT
  5
3A52
330
3A40
100
AcDbEntity
  8
DIM
 62
     0
440
 16777216
100
AcDbMText
 10
35260.87408811264
 20
3248.246480766564
 30
0.0
 40
15.0
 41
0.0
 46
0.0
 71
     5
 72
     1
  1
406 [15,98]
 73
     1
 44
1.0
  0
POINT
  5
3A53
330
3A40
100
AcDbEntity
  8
Defpoints
 62
     0
440
 16777216
100
AcDbPoint
 10
35057.87408811264
 20
3412.870157135856
 30
0.0
  0
POINT
  5
3A54
330
3A40
100
AcDbEntity
  8
Defpoints
 62
     0
440
 16777216
100
AcDbPoint
 10
35463.87408811264
 20
3412.87015713586
 30
0.0
  0
POINT
  5
3A55
330
3A40
100
AcDbEntity
  8
Defpoints
 62
     0
440
 16777216
100
AcDbPoint
 10
35463.87408811264
 20
3236.496480766564
 30
0.0
  0
ENDBLK
  5
3A4B
330
3A40
100
AcDbEntity
  8
0
100
AcDbBlockEnd
  0
BLOCK
  5
3A63
330
3A58
100
AcDbEntity
  8
0
100
AcDbBlockBegin
  2
*D12
 70
     1
 10
0.0
 20
0.0
 30
0.0
  3
*D12
  1

  0
LINE
  5
3A59
330
3A58
100
AcDbEntity
  8
DIM
 62
     0
440
 16777216
370
    -2
100
AcDbLine
 10
35025.87408811264
 20
3312.870157135863
 30
0.0
 11
35025.87408811264
 21
3193.809924863807
 31
0.0
  0
LINE
  5
3A5A
330
3A58
100
AcDbEntity
  8
DIM
 62
     0
440
 16777216
370
    -2
100
AcDbLine
 10
35057.87408811264
 20
3312.870157135863
 30
0.0
 11
35057.87408811264
 21
3193.809924863807
 31
0.0
  0
LINE
  5
3A5B
330
3A58
100
AcDbEntity
  8
DIM
 62
     0
440
 16777216
370
    -2
100
AcDbLine
 10
35033.87408811264
 20
3195.059924863806
 30
0.0
 11
35049.87408811264
 21
3195.059924863806
 31
0.0
  0
LINE
  5
3A5C
330
3A58
100
AcDbEntity
  8
DIM
 62
     0
440
 16777216
370
    -2
100
AcDbLine
 10
35057.87408811264
 20
3195.059924863806
 30
0.0
 11
35179.37408811264
 21
3195.059924863806
 31
0.0
  0
SOLID
  5
3A5D
330
3A58
100
AcDbEntity
  8
DIM
 62
     0
440
 16777216
100
AcDbTrace
 10
35033.87408811264
 20
3196.39325819714
 30
0.0
 11
35033.87408811264
 21
3193.726591530473
 31
0.0
 12
35025.87408811264
 22
3195.059924863806
 32
0.0
 13
35025.87408811264
 23
3195.059924863806
 33
0.0
  0
SOLID
  5
3A5E
330
3A58
100
AcDbEntity
  8
DIM
 62
     0
440
 16777216
100
AcDbTrace
 10
35049.87408811264
 20
3196.39325819714
 30
0.0
 11
35049.87408811264
 21
3193.726591530473
 31
0.0
 12
35057.87408811264
 22
3195.059924863806
 32
0.0
 13
35057.87408811264
 23
3195.059924863806
 33
0.0
  0
MTEXT
  5
3A5F
330
3A58
100
AcDbEntity
  8
DIM
 62
     0
440
 16777216
100
AcDbMText
 10
35122.62408811264
 20
3206.809924863807
 30
0.0
 40
15.0
 41
0.0
 46
0.0
 71
     5
 72
     1
  1
32 [1,26]
 73
     1
 44
1.0
  0
POINT
  5
3A60
330
3A58
100
AcDbEntity
  8
Defpoints
 62
     0
440
 16777216
100
AcDbPoint
 10
35025.87408811264
 20
3313.870157135863
 30
0.0
  0
POINT
  5
3A61
330
3A58
100
AcDbEntity
  8
Defpoints
 62
     0
440
 16777216
100
AcDbPoint
 10
35057.87408811264
 20
3313.870157135863
 30
0.0
  0
POINT
  5
3A62
330
3A58
100
AcDbEntity
  8
Defpoints
 62
     0
440
 16777216
100
AcDbPoint
 10
35057.87408811264
 20
3195.059924863806
 30
0.0
  0
ENDBLK
  5
3A64
330
3A58
100
AcDbEntity
  8
0
100
AcDbBlockEnd
  0
BLOCK
  5
3A70
330
3A66
100
AcDbEntity
  8
0
100
AcDbBlockBegin
  2
*D13
 70
     1
 10
0.0
 20
0.0
 30
0.0
  3
*D13
  1

  0
LINE
  5
3A73
330
3A66
100
AcDbEntity
  8
DIM
 62
     0
440
 16777216
370
    -2
100
AcDbLine
 10
34647.87408811264
 20
3411.870157135862
 30
0.0
 11
34647.87408811264
 21
3149.413276738291
 31
0.0
  0
LINE
  5
3A74
330
3A66
100
AcDbEntity
  8
DIM
 62
     0
440
 16777216
370
    -2
100
AcDbLine
 10
35485.87408811264
 20
3411.870157135862
 30
0.0
 11
35485.87408811264
 21
3149.413276738291
 31
0.0
  0
LINE
  5
3A75
330
3A66
100
AcDbEntity
  8
DIM
 62
     0
440
 16777216
370
    -2
100
AcDbLine
 10
34655.87408811264
 20
3150.663276738291
 30
0.0
 11
35477.87408811264
 21
3150.663276738291
 31
0.0
  0
SOLID
  5
3A76
330
3A66
100
AcDbEntity
  8
DIM
 62
     0
440
 16777216
100
AcDbTrace
 10
34655.87408811264
 20
3151.996610071624
 30
0.0
 11
34655.87408811264
 21
3149.329943404957
 31
0.0
 12
34647.87408811264
 22
3150.663276738291
 32
0.0
 13
34647.87408811264
 23
3150.663276738291
 33
0.0
  0
SOLID
  5
3A77
330
3A66
100
AcDbEntity
  8
DIM
 62
     0
440
 16777216
100
AcDbTrace
 10
35477.87408811264
 20
3151.996610071624
 30
0.0
 11
35477.87408811264
 21
3149.329943404957
 31
0.0
 12
35485.87408811264
 22
3150.663276738291
 32
0.0
 13
35485.87408811264
 23
3150.663276738291
 33
0.0
  0
MTEXT
  5
3A78
330
3A66
100
AcDbEntity
  8
DIM
 62
     0
440
 16777216
100
AcDbMText
 10
35066.87408811264
 20
3162.413276738291
 30
0.0
 40
15.0
 41
0.0
 46
0.0
 71
     5
 72
     1
  1
838 [32,99]
 73
     1
 44
1.0
  0
POINT
  5
3A79
330
3A66
100
AcDbEntity
  8
Defpoints
 62
     0
440
 16777216
100
AcDbPoint
 10
34647.87408811264
 20
3412.870157135862
 30
0.0
  0
POINT
  5
3A7A
330
3A66
100
AcDbEntity
  8
Defpoints
 62
     0
440
 16777216
100
AcDbPoint
 10
35485.87408811264
 20
3412.870157135862
 30
0.0
  0
POINT
  5
3A7B
330
3A66
100
AcDbEntity
  8
Defpoints
 62
     0
440
 16777216
100
AcDbPoint
 10
35485.87408811264
 20
3150.663276738291
 30
0.0
  0
ENDBLK
  5
3A71
330
3A66
100
AcDbEntity
  8
0
100
AcDbBlockEnd
  0
BLOCK
  5
3A88
330
3A7E
100
AcDbEntity
  8
0
100
AcDbBlockBegin
  2
*D14
 70
     1
 10
0.0
 20
0.0
 30
0.0
  3
*D14
  1

  0
LINE
  5
3A8B
330
3A7E
100
AcDbEntity
  8
DIM
 62
     0
440
 16777216
370
    -2
100
AcDbLine
 10
35387.87408811264
 20
3335.870157135861
 30
0.0
 11
35542.34946055718
 21
3335.870157135861
 31
0.0
  0
LINE
  5
3A8C
330
3A7E
100
AcDbEntity
  8
DIM
 62
     0
440
 16777216
370
    -2
100
AcDbLine
 10
35387.87408811264
 20
3691.870157135862
 30
0.0
 11
35542.34946055718
 21
3691.870157135862
 31
0.0
  0
LINE
  5
3A8D
330
3A7E
100
AcDbEntity
  8
DIM
 62
     0
440
 16777216
370
    -2
100
AcDbLine
 10
35541.09946055719
 20
3343.870157135861
 30
0.0
 11
35541.09946055719
 21
3683.870157135862
 31
0.0
  0
SOLID
  5
3A8E
330
3A7E
100
AcDbEntity
  8
DIM
 62
     0
440
 16777216
100
AcDbTrace
 10
35539.76612722385
 20
3343.870157135861
 30
0.0
 11
35542.43279389052
 21
3343.870157135861
 31
0.0
 12
35541.09946055719
 22
3335.870157135861
 32
0.0
 13
35541.09946055719
 23
3335.870157135861
 33
0.0
  0
SOLID
  5
3A8F
330
3A7E
100
AcDbEntity
  8
DIM
 62
     0
440
 16777216
100
AcDbTrace
 10
35539.76612722385
 20
3683.870157135862
 30
0.0
 11
35542.43279389052
 21
3683.870157135862
 31
0.0
 12
35541.09946055719
 22
3691.870157135862
 32
0.0
 13
35541.09946055719
 23
3691.870157135862
 33
0.0
  0
MTEXT
  5
3A90
330
3A7E
100
AcDbEntity
  8
DIM
 62
     0
440
 16777216
100
AcDbMText
 10
35529.34946055719
 20
3513.870157135868
 30
0.0
 40
15.0
 41
0.0
 46
0.0
 71
     5
 72
     1
  1
356 [14,02]
 11
0.0000000000000001
 21
1.0
 31
0.0
 73
     1
 44
1.0
  0
POINT
  5
3A91
330
3A7E
100
AcDbEntity
  8
Defpoints
 62
     0
440
 16777216
100
AcDbPoint
 10
35386.87408811264
 20
3335.870157135861
 30
0.0
  0
POINT
  5
3A92
330
3A7E
100
AcDbEntity
  8
Defpoints
 62
     0
440
 16777216
100
AcDbPoint
 10
35386.87408811264
 20
3691.870157135862
 30
0.0
  0
POINT
  5
3A93
330
3A7E
100
AcDbEntity
  8
Defpoints
 62
     0
440
 16777216
100
AcDbPoint
 10
35541.09946055719
 20
3691.870157135862
 30
0.0
  0
ENDBLK
  5
3A89
330
3A7E
100
AcDbEntity
  8
0
100
AcDbBlockEnd
  0
BLOCK
  5
3AA0
330
3A96
100
AcDbEntity
  8
0
100
AcDbBlockBegin
  2
*D15
 70
     1
 10
0.0
 20
0.0
 30
0.0
  3
*D15
  1

  0
LINE
  5
3AA3
330
3A96
100
AcDbEntity
  8
DIM
 62
     0
440
 16777216
370
    -2
100
AcDbLine
 10
35387.87408811264
 20
3713.870157135862
 30
0.0
 11
35586.5837111531
 21
3713.870157135862
 31
0.0
  0
LINE
  5
3AA4
330
3A96
100
AcDbEntity
  8
DIM
 62
     0
440
 16777216
370
    -2
100
AcDbLine
 10
35387.87408811264
 20
3313.870157135863
 30
0.0
 11
35586.5837111531
 21
3313.870157135863
 31
0.0
  0
LINE
  5
3AA5
330
3A96
100
AcDbEntity
  8
DIM
 62
     0
440
 16777216
370
    -2
100
AcDbLine
 10
35585.3337111531
 20
3705.870157135862
 30
0.0
 11
35585.3337111531
 21
3321.870157135864
 31
0.0
  0
SOLID
  5
3AA6
330
3A96
100
AcDbEntity
  8
DIM
 62
     0
440
 16777216
100
AcDbTrace
 10
35584.00037781976
 20
3705.870157135862
 30
0.0
 11
35586.66704448644
 21
3705.870157135862
 31
0.0
 12
35585.3337111531
 22
3713.870157135862
 32
0.0
 13
35585.3337111531
 23
3713.870157135862
 33
0.0
  0
SOLID
  5
3AA7
330
3A96
100
AcDbEntity
  8
DIM
 62
     0
440
 16777216
100
AcDbTrace
 10
35584.00037781976
 20
3321.870157135864
 30
0.0
 11
35586.66704448644
 21
3321.870157135864
 31
0.0
 12
35585.3337111531
 22
3313.870157135863
 32
0.0
 13
35585.3337111531
 23
3313.870157135863
 33
0.0
  0
MTEXT
  5
3AA8
330
3A96
100
AcDbEntity
  8
DIM
 62
     0
440
 16777216
100
AcDbMText
 10
35573.5837111531
 20
3513.870157135868
 30
0.0
 40
15.0
 41
0.0
 46
0.0
 71
     5
 72
     1
  1
400 [15,75]
 11
0.0000000000000001
 21
1.0
 31
0.0
 73
     1
 44
1.0
  0
POINT
  5
3AA9
330
3A96
100
AcDbEntity
  8
Defpoints
 62
     0
440
 16777216
100
AcDbPoint
 10
35386.87408811264
 20
3713.870157135862
 30
0.0
  0
POINT
  5
3AAA
330
3A96
100
AcDbEntity
  8
Defpoints
 62
     0
440
 16777216
100
AcDbPoint
 10
35386.87408811264
 20
3313.870157135863
 30
0.0
  0
POINT
  5
3AAB
330
3A96
100
AcDbEntity
  8
Defpoints
 62
     0
440
 16777216
100
AcDbPoint
 10
35585.3337111531
 20
3313.870157135863
 30
0.0
  0
ENDBLK
  5
3AA1
330
3A96
100
AcDbEntity
  8
0
100
AcDbBlockEnd
  0
BLOCK
  5
3AB4
330
3AAE
100
AcDbEntity
  8
0
100
AcDbBlockBegin
  2
*D16
 70
     1
 10
0.0
 20
0.0
 30
0.0
  3
*D16
  1

  0
LINE
  5
3ABD
330
3AAE
100
AcDbEntity
  8
DIM
 62
     0
440
 16777216
370
    -2
100
AcDbLine
 10
34820.60563420214
 20
3501.123537304849
 30
0.0
 11
34702.63516045893
 21
3359.918129034473
 31
0.0
  0
MTEXT
  5
3ABE
330
3AAE
100
AcDbEntity
  8
DIM
 62
     0
440
 16777216
100
AcDbMText
 10
34755.16777965552
 20
3441.123956536862
 30
0.0
 40
15.0
 41
0.0
 46
0.0
 71
     5
 72
     1
  1
4-R77 [R3,03]
 11
0.6411438790391623
 21
0.7674206971216089
 31
0.0
 73
     1
 44
1.0
  0
SOLID
  5
3ABF
330
3AAE
100
AcDbEntity
  8
DIM
 62
     0
440
 16777216
100
AcDbTrace
 10
34701.61193286277
 20
3360.772987539859
 30
0.0
 11
34703.65838805509
 21
3359.063270529088
 31
0.0
 12
34697.50600942663
 22
3353.778763457502
 32
0.0
 13
34697.50600942663
 23
3353.778763457502
 33
0.0
  0
POINT
  5
3AC0
330
3AAE
100
AcDbEntity
  8
Defpoints
 62
     0
440
 16777216
100
AcDbPoint
 10
34697.50600942663
 20
3353.778763457502
 30
0.0
  0
POINT
  5
3AC1
330
3AAE
100
AcDbEntity
  8
Defpoints
 62
     0
440
 16777216
100
AcDbPoint
 10
34746.87408811262
 20
3412.870157135845
 30
0.0
  0
ENDBLK
  5
3AB5
330
3AAE
100
AcDbEntity
  8
0
100
AcDbBlockEnd
  0
BLOCK
  5
3AC9
330
3AC3
100
AcDbEntity
  8
0
100
AcDbBlockBegin
  2
*D17
 70
     1
 10
0.0
 20
0.0
 30
0.0
  3
*D17
  1

  0
LINE
  5
3AD2
330
3AC3
100
AcDbEntity
  8
DIM
 62
     0
440
 16777216
370
    -2
100
AcDbLine
 10
35216.19136794909
 20
3494.187436972301
 30
0.0
 11
35086.08372021075
 21
3364.07978923399
 31
0.0
  0
MTEXT
  5
3AD3
330
3AC3
100
AcDbEntity
  8
DIM
 62
     0
440
 16777216
100
AcDbMText
 10
35145.65746652572
 20
3440.270544906831
 30
0.0
 40
15.0
 41
0.0
 46
0.0
 71
     5
 72
     1
  1
4-R77 [R3,03]
 11
0.7071067811866186
 21
0.7071067811864764
 31
0.0
 73
     1
 44
1.0
  0
SOLID
  5
3AD4
330
3AC3
100
AcDbEntity
  8
DIM
 62
     0
440
 16777216
100
AcDbTrace
 10
35085.14091116917
 20
3365.022598275573
 30
0.0
 11
35087.02652925232
 21
3363.13698019241
 31
0.0
 12
35080.42686596126
 22
3358.422934984498
 32
0.0
 13
35080.42686596126
 23
3358.422934984498
 33
0.0
  0
POINT
  5
3AD5
330
3AC3
100
AcDbEntity
  8
Defpoints
 62
     0
440
 16777216
100
AcDbPoint
 10
35080.42686596126
 20
3358.422934984498
 30
0.0
  0
POINT
  5
3AD6
330
3AC3
100
AcDbEntity
  8
Defpoints
 62
     0
440
 16777216
100
AcDbPoint
 10
35134.87408811263
 20
3412.870157135858
 30
0.0
  0
ENDBLK
  5
3ACA
330
3AC3
100
AcDbEntity
  8
0
100
AcDbBlockEnd
  0
BLOCK
  5
3AE3
330
3AD8
100
AcDbEntity
  8
0
100
AcDbBlockBegin
  2
*D18
 70
     1
 10
0.0
 20
0.0
 30
0.0
  3
*D18
  1

  0
LINE
  5
3AFB
330
3AD8
100
AcDbEntity
  8
DIM
 62
     0
440
 16777216
370
    -2
100
AcDbLine
 10
34846.87408811264
 20
3621.870157135862
 30
0.0
 11
34771.69321157906
 21
3621.870157135862
 31
0.0
  0
LINE
  5
3AFC
330
3AD8
100
AcDbEntity
  8
DIM
 62
     0
440
 16777216
370
    -2
100
AcDbLine
 10
34846.87408811264
 20
3741.870157135862
 30
0.0
 11
34771.69321157906
 21
3741.870157135862
 31
0.0
  0
LINE
  5
3AFD
330
3AD8
100
AcDbEntity
  8
DIM
 62
     0
440
 16777216
370
    -2
100
AcDbLine
 10
34772.94321157906
 20
3629.870157135862
 30
0.0
 11
34772.94321157906
 21
3733.870157135862
 31
0.0
  0
LINE
  5
3AFE
330
3AD8
100
AcDbEntity
  8
DIM
 62
     0
440
 16777216
370
    -2
100
AcDbLine
 10
34772.94321157906
 20
3741.870157135862
 30
0.0
 11
34772.94321157906
 21
3903.370157135853
 31
0.0
  0
SOLID
  5
3AFF
330
3AD8
100
AcDbEntity
  8
DIM
 62
     0
440
 16777216
100
AcDbTrace
 10
34771.60987824572
 20
3629.870157135862
 30
0.0
 11
34774.27654491239
 21
3629.870157135862
 31
0.0
 12
34772.94321157906
 22
3621.870157135862
 32
0.0
 13
34772.94321157906
 23
3621.870157135862
 33
0.0
  0
SOLID
  5
3B00
330
3AD8
100
AcDbEntity
  8
DIM
 62
     0
440
 16777216
100
AcDbTrace
 10
34771.60987824572
 20
3733.870157135862
 30
0.0
 11
34774.27654491239
 21
3733.870157135862
 31
0.0
 12
34772.94321157906
 22
3741.870157135862
 32
0.0
 13
34772.94321157906
 23
3741.870157135862
 33
0.0
  0
MTEXT
  5
3B01
330
3AD8
100
AcDbEntity
  8
DIM
 62
     0
440
 16777216
100
AcDbMText
 10
34761.19321157906
 20
3840.370157135859
 30
0.0
 40
15.0
 41
0.0
 46
0.0
 71
     5
 72
     1
  1
120 [4,72]
 11
0.0000000000000001
 21
1.0
 31
0.0
 73
     1
 44
1.0
  0
POINT
  5
3B02
330
3AD8
100
AcDbEntity
  8
Defpoints
 62
     0
440
 16777216
100
AcDbPoint
 10
34847.87408811264
 20
3621.870157135862
 30
0.0
  0
POINT
  5
3B03
330
3AD8
100
AcDbEntity
  8
Defpoints
 62
     0
440
 16777216
100
AcDbPoint
 10
34847.87408811264
 20
3741.870157135862
 30
0.0
  0
POINT
  5
3B04
330
3AD8
100
AcDbEntity
  8
Defpoints
 62
     0
440
 16777216
100
AcDbPoint
 10
34772.94321157906
 20
3741.870157135862
 30
0.0
  0
ENDBLK
  5
3AE4
330
3AD8
100
AcDbEntity
  8
0
100
AcDbBlockEnd
  0
BLOCK
  5
3B11
330
3B06
100
AcDbEntity
  8
0
100
AcDbBlockBegin
  2
*D19
 70
     1
 10
0.0
 20
0.0
 30
0.0
  3
*D19
  1

  0
LINE
  5
3B1F
330
3B06
100
AcDbEntity
  8
DIM
 62
     0
440
 16777216
370
    -2
100
AcDbLine
 10
35259.87408811264
 20
3571.870157135862
 30
0.0
 11
35193.52834819054
 21
3571.870157135862
 31
0.0
  0
LINE
  5
3B20
330
3B06
100
AcDbEntity
  8
DIM
 62
     0
440
 16777216
370
    -2
100
AcDbLine
 10
35259.87408811264
 20
3691.870157135862
 30
0.0
 11
35193.52834819054
 21
3691.870157135862
 31
0.0
  0
LINE
  5
3B21
330
3B06
100
AcDbEntity
  8
DIM
 62
     0
440
 16777216
370
    -2
100
AcDbLine
 10
35194.77834819054
 20
3579.870157135861
 30
0.0
 11
35194.77834819054
 21
3683.870157135862
 31
0.0
  0
LINE
  5
3B22
330
3B06
100
AcDbEntity
  8
DIM
 62
     0
440
 16777216
370
    -2
100
AcDbLine
 10
35194.77834819054
 20
3691.870157135862
 30
0.0
 11
35194.77834819054
 21
3848.08183998021
 31
0.0
  0
SOLID
  5
3B23
330
3B06
100
AcDbEntity
  8
DIM
 62
     0
440
 16777216
100
AcDbTrace
 10
35193.44501485721
 20
3579.870157135861
 30
0.0
 11
35196.11168152388
 21
3579.870157135861
 31
0.0
 12
35194.77834819054
 22
3571.870157135862
 32
0.0
 13
35194.77834819054
 23
3571.870157135862
 33
0.0
  0
SOLID
  5
3B24
330
3B06
100
AcDbEntity
  8
DIM
 62
     0
440
 16777216
100
AcDbTrace
 10
35193.44501485721
 20
3683.870157135862
 30
0.0
 11
35196.11168152388
 21
3683.870157135862
 31
0.0
 12
35194.77834819054
 22
3691.870157135862
 32
0.0
 13
35194.77834819054
 23
3691.870157135862
 33
0.0
  0
MTEXT
  5
3B25
330
3B06
100
AcDbEntity
  8
DIM
 62
     0
440
 16777216
100
AcDbMText
 10
35183.02834819055
 20
3785.081839980216
 30
0.0
 40
15.0
 41
0.0
 46
0.0
 71
     5
 72
     1
  1
120 [4,72]
 11
0.0000000000000001
 21
1.0
 31
0.0
 73
     1
 44
1.0
  0
POINT
  5
3B26
330
3B06
100
AcDbEntity
  8
Defpoints
 62
     0
440
 16777216
100
AcDbPoint
 10
35260.87408811264
 20
3571.870157135862
 30
0.0
  0
POINT
  5
3B27
330
3B06
100
AcDbEntity
  8
Defpoints
 62
     0
440
 16777216
100
AcDbPoint
 10
35260.87408811264
 20
3691.870157135862
 30
0.0
  0
POINT
  5
3B28
330
3B06
100
AcDbEntity
  8
Defpoints
 62
     0
440
 16777216
100
AcDbPoint
 10
35194.77834819054
 20
3691.870157135862
 30
0.0
  0
ENDBLK
  5
3B12
330
3B06
100
AcDbEntity
  8
0
100
AcDbBlockEnd
  0
BLOCK
  5
3B31
330
3B2A
100
AcDbEntity
  8
0
100
AcDbBlockBegin
  2
*D20
 70
     1
 10
0.0
 20
0.0
 30
0.0
  3
*D20
  1

  0
LINE
  5
3B41
330
3B2A
100
AcDbEntity
  8
DIM
 62
     0
440
 16777216
370
    -2
100
AcDbLine
 10
35622.80292783666
 20
3835.074552221448
 30
0.0
 11
35465.09631635927
 21
3687.878944333929
 31
0.0
  0
MTEXT
  5
3B42
330
3B2A
100
AcDbEntity
  8
DIM
 62
     0
440
 16777216
100
AcDbMText
 10
35550.45330788076
 20
3783.619766319294
 30
0.0
 40
15.0
 41
0.0
 46
0.0
 71
     5
 72
     1
  1
5-R99 [R3,90]
 11
0.7310488621180922
 21
0.6823251140005349
 31
0.0
 73
     1
 44
1.0
  0
LINE
  5
3B43
330
3B2A
100
AcDbEntity
  8
DIM
 62
     0
440
 16777216
370
    -2
100
AcDbLine
 10
35386.87408811263
 20
3614.870157135874
 30
0.0
 11
35459.24792546232
 21
3682.420343421926
 31
0.0
  0
SOLID
  5
3B44
330
3B2A
100
AcDbEntity
  8
DIM
 62
     0
440
 16777216
100
AcDbTrace
 10
35464.18654954059
 20
3688.853676150085
 30
0.0
 11
35466.00608317794
 21
3686.904212517773
 31
0.0
 12
35459.24792546232
 22
3682.420343421926
 32
0.0
 13
35459.24792546232
 23
3682.420343421926
 33
0.0
  0
POINT
  5
3B45
330
3B2A
100
AcDbEntity
  8
Defpoints
 62
     0
440
 16777216
100
AcDbPoint
 10
35459.24792546232
 20
3682.420343421926
 30
0.0
  0
POINT
  5
3B46
330
3B2A
100
AcDbEntity
  8
Defpoints
 62
     0
440
 16777216
100
AcDbPoint
 10
35386.87408811263
 20
3614.870157135874
 30
0.0
  0
ENDBLK
  5
3B32
330
3B2A
100
AcDbEntity
  8
0
100
AcDbBlockEnd
  0
BLOCK
  5
3B4E
330
3B48
100
AcDbEntity
  8
0
100
AcDbBlockBegin
  2
*D21
 70
     1
 10
0.0
 20
0.0
 30
0.0
  3
*D21
  1

  0
LINE
  5
3B51
330
3B48
100
AcDbEntity
  8
DIM
 62
     0
440
 16777216
370
    -2
100
AcDbLine
 10
35103.62948506793
 20
3860.577592572787
 30
0.0
 11
35042.52087352254
 21
3724.685217529172
 31
0.0
  0
MTEXT
  5
3B52
330
3B48
100
AcDbEntity
  8
DIM
 62
     0
440
 16777216
100
AcDbMText
 10
35063.99933392221
 20
3801.098490190799
 30
0.0
 40
15.0
 41
0.0
 46
0.0
 71
     5
 72
     1
  1
R40 [R1,57]
 11
0.4101249097006031
 21
0.9120293627088287
 31
0.0
 73
     1
 44
1.0
  0
SOLID
  5
3B53
330
3B48
100
AcDbEntity
  8
DIM
 62
     0
440
 16777216
100
AcDbTrace
 10
35041.30483437226
 20
3725.232050742105
 30
0.0
 11
35043.73691267282
 21
3724.138384316237
 31
0.0
 12
35039.23987424494
 22
3717.388982627501
 32
0.0
 13
35039.23987424494
 23
3717.388982627501
 33
0.0
  0
POINT
  5
3B54
330
3B48
100
AcDbEntity
  8
Defpoints
 62
     0
440
 16777216
100
AcDbPoint
 10
35039.23987424494
 20
3717.388982627501
 30
0.0
  0
POINT
  5
3B55
330
3B48
100
AcDbEntity
  8
Defpoints
 62
     0
440
 16777216
100
AcDbPoint
 10
35055.64487063297
 20
3753.870157135871
 30
0.0
  0
ENDBLK
  5
3B4F
330
3B48
100
AcDbEntity
  8
0
100
AcDbBlockEnd
  0
BLOCK
  5
3B8B
330
3B8A
100
AcDbEntity
  8
0
100
AcDbBlockBegin
  2
*D22
 70
     1
 10
0.0
 20
0.0
 30
0.0
  3
*D22
  1

  0
LINE
  5
3B8C
330
3B8A
100
AcDbEntity
  8
DIM
 62
     0
370
    -2
100
AcDbLine
 10
34861.88175006883
 20
3874.263262885805
 30
0.0
 11
34861.88175006883
 21
3917.101436536362
 31
0.0
  0
LINE
  5
3B8D
330
3B8A
100
AcDbEntity
  8
DIM
 62
     0
370
    -2
100
AcDbLine
 10
35011.88175006883
 20
3874.263262885805
 30
0.0
 11
35011.88175006883
 21
3917.101436536362
 31
0.0
  0
LINE
  5
3B8E
330
3B8A
100
AcDbEntity
  8
DIM
 62
     0
370
    -2
100
AcDbLine
 10
34869.88175006882
 20
3915.851436536362
 30
0.0
 11
35003.88175006882
 21
3915.851436536362
 31
0.0
  0
SOLID
  5
3B8F
330
3B8A
100
AcDbEntity
  8
DIM
 62
     0
100
AcDbTrace
 10
34869.88175006882
 20
3917.184769869695
 30
0.0
 11
34869.88175006882
 21
3914.518103203028
 31
0.0
 12
34861.88175006883
 22
3915.851436536362
 32
0.0
 13
34861.88175006883
 23
3915.851436536362
 33
0.0
  0
SOLID
  5
3B90
330
3B8A
100
AcDbEntity
  8
DIM
 62
     0
100
AcDbTrace
 10
35003.88175006882
 20
3917.184769869695
 30
0.0
 11
35003.88175006882
 21
3914.518103203028
 31
0.0
 12
35011.88175006883
 22
3915.851436536362
 32
0.0
 13
35011.88175006883
 23
3915.851436536362
 33
0.0
  0
MTEXT
  5
3B91
330
3B8A
100
AcDbEntity
  8
DIM
 62
     0
100
AcDbMText
 10
34936.88175006882
 20
3926.351436536362
 30
0.0
 40
15.0
 41
0.0
 46
0.0
 71
     5
 72
     1
  1
150
 73
     1
 44
1.0
  0
POINT
  5
3B92
330
3B8A
100
AcDbEntity
  8
Defpoints
 62
     0
100
AcDbPoint
 10
34861.88175006883
 20
3873.263262885805
 30
0.0
  0
POINT
  5
3B93
330
3B8A
100
AcDbEntity
  8
Defpoints
 62
     0
100
AcDbPoint
 10
35011.88175006883
 20
3873.263262885805
 30
0.0
  0
POINT
  5
3B94
330
3B8A
100
AcDbEntity
  8
Defpoints
 62
     0
100
AcDbPoint
 10
35011.88175006883
 20
3915.851436536362
 30
0.0
  0
ENDBLK
  5
3B95
330
3B8A
100
AcDbEntity
  8
0
100
AcDbBlockEnd
  0
BLOCK
  5
3B97
330
3B96
100
AcDbEntity
  8
0
100
AcDbBlockBegin
  2
*D23
 70
     1
 10
0.0
 20
0.0
 30
0.0
  3
*D23
  1

  0
LINE
  5
3B98
330
3B96
100
AcDbEntity
  8
DIM
 62
     0
370
    -2
100
AcDbLine
 10
34711.88175006882
 20
3874.263262885805
 30
0.0
 11
34711.88175006882
 21
3955.159642699814
 31
0.0
  0
LINE
  5
3B99
330
3B96
100
AcDbEntity
  8
DIM
 62
     0
370
    -2
100
AcDbLine
 10
35011.88175006883
 20
3874.263262885805
 30
0.0
 11
35011.88175006883
 21
3955.159642699814
 31
0.0
  0
LINE
  5
3B9A
330
3B96
100
AcDbEntity
  8
DIM
 62
     0
370
    -2
100
AcDbLine
 10
34719.88175006882
 20
3953.909642699814
 30
0.0
 11
35003.88175006882
 21
3953.909642699814
 31
0.0
  0
SOLID
  5
3B9B
330
3B96
100
AcDbEntity
  8
DIM
 62
     0
100
AcDbTrace
 10
34719.88175006882
 20
3955.242976033148
 30
0.0
 11
34719.88175006882
 21
3952.576309366481
 31
0.0
 12
34711.88175006882
 22
3953.909642699814
 32
0.0
 13
34711.88175006882
 23
3953.909642699814
 33
0.0
  0
SOLID
  5
3B9C
330
3B96
100
AcDbEntity
  8
DIM
 62
     0
100
AcDbTrace
 10
35003.88175006882
 20
3955.242976033148
 30
0.0
 11
35003.88175006882
 21
3952.576309366481
 31
0.0
 12
35011.88175006883
 22
3953.909642699814
 32
0.0
 13
35011.88175006883
 23
3953.909642699814
 33
0.0
  0
MTEXT
  5
3B9D
330
3B96
100
AcDbEntity
  8
DIM
 62
     0
100
AcDbMText
 10
34861.88175006883
 20
3964.409642699814
 30
0.0
 40
15.0
 41
0.0
 46
0.0
 71
     5
 72
     1
  1
300
 73
     1
 44
1.0
  0
POINT
  5
3B9E
330
3B96
100
AcDbEntity
  8
Defpoints
 62
     0
100
AcDbPoint
 10
34711.88175006882
 20
3873.263262885805
 30
0.0
  0
POINT
  5
3B9F
330
3B96
100
AcDbEntity
  8
Defpoints
 62
     0
100
AcDbPoint
 10
35011.88175006883
 20
3873.263262885805
 30
0.0
  0
POINT
  5
3BA0
330
3B96
100
AcDbEntity
  8
Defpoints
 62
     0
100
AcDbPoint
 10
35011.88175006883
 20
3953.909642699814
 30
0.0
  0
ENDBLK
  5
3BA1
330
3B96
100
AcDbEntity
  8
0
100
AcDbBlockEnd
  0
BLOCK
  5
3BA3
330
3BA2
100
AcDbEntity
  8
0
100
AcDbBlockBegin
  2
*D24
 70
     1
 10
0.0
 20
0.0
 30
0.0
  3
*D24
  1

  0
LINE
  5
3BA4
330
3BA2
100
AcDbEntity
  8
DIM
 62
     0
370
    -2
100
AcDbLine
 10
35012.88175006882
 20
3873.263262885803
 30
0.0
 11
35064.13619357771
 21
3873.263262885803
 31
0.0
  0
LINE
  5
3BA5
330
3BA2
100
AcDbEntity
  8
DIM
 62
     0
370
    -2
100
AcDbLine
 10
35012.88175006882
 20
3723.263262885804
 30
0.0
 11
35064.13619357771
 21
3723.263262885804
 31
0.0
  0
LINE
  5
3BA6
330
3BA2
100
AcDbEntity
  8
DIM
 62
     0
370
    -2
100
AcDbLine
 10
35062.88619357771
 20
3865.263262885804
 30
0.0
 11
35062.88619357771
 21
3731.263262885804
 31
0.0
  0
SOLID
  5
3BA7
330
3BA2
100
AcDbEntity
  8
DIM
 62
     0
100
AcDbTrace
 10
35061.55286024438
 20
3865.263262885804
 30
0.0
 11
35064.21952691105
 21
3865.263262885804
 31
0.0
 12
35062.88619357771
 22
3873.263262885803
 32
0.0
 13
35062.88619357771
 23
3873.263262885803
 33
0.0
  0
SOLID
  5
3BA8
330
3BA2
100
AcDbEntity
  8
DIM
 62
     0
100
AcDbTrace
 10
35061.55286024438
 20
3731.263262885804
 30
0.0
 11
35064.21952691105
 21
3731.263262885804
 31
0.0
 12
35062.88619357771
 22
3723.263262885804
 32
0.0
 13
35062.88619357771
 23
3723.263262885804
 33
0.0
  0
MTEXT
  5
3BA9
330
3BA2
100
AcDbEntity
  8
DIM
 62
     0
100
AcDbMText
 10
35052.38619357771
 20
3798.263262885809
 30
0.0
 40
15.0
 41
0.0
 46
0.0
 71
     5
 72
     1
  1
150
 11
0.0000000000000001
 21
1.0
 31
0.0
 73
     1
 44
1.0
  0
POINT
  5
3BAA
330
3BA2
100
AcDbEntity
  8
Defpoints
 62
     0
100
AcDbPoint
 10
35011.88175006883
 20
3873.263262885803
 30
0.0
  0
POINT
  5
3BAB
330
3BA2
100
AcDbEntity
  8
Defpoints
 62
     0
100
AcDbPoint
 10
35011.88175006883
 20
3723.263262885804
 30
0.0
  0
POINT
  5
3BAC
330
3BA2
100
AcDbEntity
  8
Defpoints
 62
     0
100
AcDbPoint
 10
35062.88619357771
 20
3723.263262885804
 30
0.0
  0
ENDBLK
  5
3BAD
330
3BA2
100
AcDbEntity
  8
0
100
AcDbBlockEnd
  0
BLOCK
  5
3BAF
330
3BAE
100
AcDbEntity
  8
0
100
AcDbBlockBegin
  2
*D25
 70
     1
 10
0.0
 20
0.0
 30
0.0
  3
*D25
  1

  0
LINE
  5
3BB0
330
3BAE
100
AcDbEntity
  8
DIM
 62
     0
370
    -2
100
AcDbLine
 10
35012.88175006882
 20
3873.263262885803
 30
0.0
 11
35112.22679469808
 21
3873.263262885803
 31
0.0
  0
LINE
  5
3BB1
330
3BAE
100
AcDbEntity
  8
DIM
 62
     0
370
    -2
100
AcDbLine
 10
35012.88175006882
 20
3573.263262885804
 30
0.0
 11
35112.22679469808
 21
3573.263262885804
 31
0.0
  0
LINE
  5
3BB2
330
3BAE
100
AcDbEntity
  8
DIM
 62
     0
370
    -2
100
AcDbLine
 10
35110.97679469808
 20
3865.263262885804
 30
0.0
 11
35110.97679469808
 21
3581.263262885804
 31
0.0
  0
SOLID
  5
3BB3
330
3BAE
100
AcDbEntity
  8
DIM
 62
     0
100
AcDbTrace
 10
35109.64346136475
 20
3865.263262885804
 30
0.0
 11
35112.31012803142
 21
3865.263262885804
 31
0.0
 12
35110.97679469808
 22
3873.263262885803
 32
0.0
 13
35110.97679469808
 23
3873.263262885803
 33
0.0
  0
SOLID
  5
3BB4
330
3BAE
100
AcDbEntity
  8
DIM
 62
     0
100
AcDbTrace
 10
35109.64346136475
 20
3581.263262885804
 30
0.0
 11
35112.31012803142
 21
3581.263262885804
 31
0.0
 12
35110.97679469808
 22
3573.263262885804
 32
0.0
 13
35110.97679469808
 23
3573.263262885804
 33
0.0
  0
MTEXT
  5
3BB5
330
3BAE
100
AcDbEntity
  8
DIM
 62
     0
100
AcDbMText
 10
35100.47679469808
 20
3723.263262885808
 30
0.0
 40
15.0
 41
0.0
 46
0.0
 71
     5
 72
     1
  1
300
 11
0.0000000000000001
 21
1.0
 31
0.0
 73
     1
 44
1.0
  0
POINT
  5
3BB6
330
3BAE
100
AcDbEntity
  8
Defpoints
 62
     0
100
AcDbPoint
 10
35011.88175006883
 20
3873.263262885803
 30
0.0
  0
POINT
  5
3BB7
330
3BAE
100
AcDbEntity
  8
Defpoints
 62
     0
100
AcDbPoint
 10
35011.88175006883
 20
3573.263262885804
 30
0.0
  0
POINT
  5
3BB8
330
3BAE
100
AcDbEntity
  8
Defpoints
 62
     0
100
AcDbPoint
 10
35110.97679469808
 20
3573.263262885804
 30
0.0
  0
ENDBLK
  5
3BB9
330
3BAE
100
AcDbEntity
  8
0
100
AcDbBlockEnd
  0
BLOCK
  5
3BBB
330
3BBA
100
AcDbEntity
  8
0
100
AcDbBlockBegin
  2
*D26
 70
     1
 10
0.0
 20
0.0
 30
0.0
  3
*D26
  1

  0
LINE
  5
3BBC
330
3BBA
100
AcDbEntity
  8
DIM
 62
     0
370
    -2
100
AcDbLine
 10
35011.88175006883
 20
3874.263262885805
 30
0.0
 11
35011.88175006883
 21
4017.254637620207
 31
0.0
  0
LINE
  5
3BBD
330
3BBA
100
AcDbEntity
  8
DIM
 62
     0
370
    -2
100
AcDbLine
 10
34271.88175006882
 20
3874.263262885805
 30
0.0
 11
34271.88175006882
 21
4017.254637620207
 31
0.0
  0
LINE
  5
3BBE
330
3BBA
100
AcDbEntity
  8
DIM
 62
     0
370
    -2
100
AcDbLine
 10
35003.88175006882
 20
4016.004637620206
 30
0.0
 11
34279.88175006882
 21
4016.004637620206
 31
0.0
  0
SOLID
  5
3BBF
330
3BBA
100
AcDbEntity
  8
DIM
 62
     0
100
AcDbTrace
 10
35003.88175006882
 20
4017.33797095354
 30
0.0
 11
35003.88175006882
 21
4014.671304286873
 31
0.0
 12
35011.88175006883
 22
4016.004637620206
 32
0.0
 13
35011.88175006883
 23
4016.004637620206
 33
0.0
  0
SOLID
  5
3BC0
330
3BBA
100
AcDbEntity
  8
DIM
 62
     0
100
AcDbTrace
 10
34279.88175006882
 20
4017.33797095354
 30
0.0
 11
34279.88175006882
 21
4014.671304286873
 31
0.0
 12
34271.88175006882
 22
4016.004637620206
 32
0.0
 13
34271.88175006882
 23
4016.004637620206
 33
0.0
  0
MTEXT
  5
3BC1
330
3BBA
100
AcDbEntity
  8
DIM
 62
     0
100
AcDbMText
 10
34641.88175006882
 20
4026.504637620206
 30
0.0
 40
15.0
 41
0.0
 46
0.0
 71
     5
 72
     1
  1
740
 73
     1
 44
1.0
  0
POINT
  5
3BC2
330
3BBA
100
AcDbEntity
  8
Defpoints
 62
     0
100
AcDbPoint
 10
35011.88175006883
 20
3873.263262885805
 30
0.0
  0
POINT
  5
3BC3
330
3BBA
100
AcDbEntity
  8
Defpoints
 62
     0
100
AcDbPoint
 10
34271.88175006882
 20
3873.263262885805
 30
0.0
  0
POINT
  5
3BC4
330
3BBA
100
AcDbEntity
  8
Defpoints
 62
     0
100
AcDbPoint
 10
34271.88175006882
 20
4016.004637620206
 30
0.0
  0
ENDBLK
  5
3BC5
330
3BBA
100
AcDbEntity
  8
0
100
AcDbBlockEnd
  0
BLOCK
  5
3BC7
330
3BC6
100
AcDbEntity
  8
0
100
AcDbBlockBegin
  2
*D27
 70
     1
 10
0.0
 20
0.0
 30
0.0
  3
*D27
  1

  0
LINE
  5
3BC8
330
3BC6
100
AcDbEntity
  8
DIM
 62
     0
370
    -2
100
AcDbLine
 10
34270.88175006883
 20
3873.263262885803
 30
0.0
 11
34216.42966183019
 21
3873.263262885803
 31
0.0
  0
LINE
  5
3BC9
330
3BC6
100
AcDbEntity
  8
DIM
 62
     0
370
    -2
100
AcDbLine
 10
34270.88175006883
 20
3093.263262885803
 30
0.0
 11
34216.42966183019
 21
3093.263262885803
 31
0.0
  0
LINE
  5
3BCA
330
3BC6
100
AcDbEntity
  8
DIM
 62
     0
370
    -2
100
AcDbLine
 10
34217.67966183019
 20
3865.263262885803
 30
0.0
 11
34217.67966183019
 21
3101.263262885803
 31
0.0
  0
SOLID
  5
3BCB
330
3BC6
100
AcDbEntity
  8
DIM
 62
     0
100
AcDbTrace
 10
34216.34632849686
 20
3865.263262885803
 30
0.0
 11
34219.01299516353
 21
3865.263262885803
 31
0.0
 12
34217.67966183019
 22
3873.263262885803
 32
0.0
 13
34217.67966183019
 23
3873.263262885803
 33
0.0
  0
SOLID
  5
3BCC
330
3BC6
100
AcDbEntity
  8
DIM
 62
     0
100
AcDbTrace
 10
34216.34632849686
 20
3101.263262885803
 30
0.0
 11
34219.01299516353
 21
3101.263262885803
 31
0.0
 12
34217.67966183019
 22
3093.263262885803
 32
0.0
 13
34217.67966183019
 23
3093.263262885803
 33
0.0
  0
MTEXT
  5
3BCD
330
3BC6
100
AcDbEntity
  8
DIM
 62
     0
100
AcDbMText
 10
34207.17966183019
 20
3483.263262885809
 30
0.0
 40
15.0
 41
0.0
 46
0.0
 71
     5
 72
     1
  1
780
 11
0.0000000000000001
 21
1.0
 31
0.0
 73
     1
 44
1.0
  0
POINT
  5
3BCE
330
3BC6
100
AcDbEntity
  8
Defpoints
 62
     0
100
AcDbPoint
 10
34271.88175006882
 20
3873.263262885803
 30
0.0
  0
POINT
  5
3BCF
330
3BC6
100
AcDbEntity
  8
Defpoints
 62
     0
100
AcDbPoint
 10
34271.88175006882
 20
3093.263262885803
 30
0.0
  0
POINT
  5
3BD0
330
3BC6
100
AcDbEntity
  8
Defpoints
 62
     0
100
AcDbPoint
 10
34217.67966183019
 20
3093.263262885803
 30
0.0
  0
ENDBLK
  5
3BD1
330
3BC6
100
AcDbEntity
  8
0
100
AcDbBlockEnd
  0
BLOCK
  5
3BF6
330
3BD2
100
AcDbEntity
  8
0
100
AcDbBlockBegin
  2
A$C211C3DC7
 70
     0
 10
0.0
 20
0.0
 30
0.0
  3
A$C211C3DC7
  1

  0
MTEXT
  5
3BD3
330
3BD2
100
AcDbEntity
  8
0
100
AcDbMText
 10
-20065.55767696937
 20
-2216.524815964102
 30
0.0
 40
20.0
 41
246.1586823495673
 46
0.0
 71
     1
 72
     5
  1
2010-12-18
 73
     1
 44
1.0
  0
LWPOLYLINE
  5
3BD4
330
3BD2
100
AcDbEntity
  8
0
100
AcDbPolyline
 90
        4
 70
     1
 43
0.0
 10
-20135.92273348905
 20
-2192.302928450419
 10
-19157.00654725725
 20
-2192.302928450419
 10
-19157.00654725725
 20
-3420.432723209263
 10
-20135.92273348905
 20
-3420.432723209263
  0
LWPOLYLINE
  5
3BD5
330
3BD2
100
AcDbEntity
  8
0
100
AcDbPolyline
 90
        4
 70
     1
 43
0.0
 10
-20135.92273348905
 20
-2192.302928450419
 10
-19768.02023720257
 20
-2192.302928450419
 10
-19768.02023720257
 20
-2275.797056386074
 10
-20135.92273348905
 20
-2275.797056386074
  0
MTEXT
  5
3BD6
330
3BD2
100
AcDbEntity
  8
0
100
AcDbMText
 10
-19785.98302518821
 20
-2764.647978187956
 30
0.0
 40
20.0
 41
246.1586823495673
 46
0.0
 71
     1
 72
     5
  1
D27 D44\PA50  10"  {\fSimSun|b0|i0|c134|p54;对焊}
 73
     1
 44
1.0
  0
DIMENSION
  5
3BD7
102
{ACAD_XDICTIONARY
360
3BD8
102
}
102
{ACAD_REACTORS
330
3BD9
102
}
330
3BD2
100
AcDbEntity
  8
DIM
100
AcDbDimension
280
     0
  2
*D27
 10
-20085.79636225011
 20
-3314.108939822132
 30
0.0
 11
-20096.29636225011
 21
-2924.108939822126
 31
0.0
 12
-54303.4760240803
 22
-6407.372202707936
 32
0.0
 71
     5
 42
780.0
 73
     0
 74
     0
 75
     0
  3
ISO-25
100
AcDbAlignedDimension
 13
-20031.59427401148
 23
-2534.10893982213
 33
0.0
 14
-20031.59427401148
 24
-3314.10893982213
 34
0.0
 50
90.0
100
AcDbRotatedDimension
1001
ACAD
1000
DSTYLE
1002
{
1070
    41
1040
8.0
1070
   140
1040
15.0
1070
   141
1040
0.5
1070
   143
1040
0.03937007874
1070
   147
1040
3.0
1070
   171
1070
     2
1070
   179
1070
     2
1070
   274
1070
     2
1002
}
  0
DIMENSION
  5
3BDA
102
{ACAD_XDICTIONARY
360
3BDB
102
}
102
{ACAD_REACTORS
330
3BDC
102
}
330
3BD2
100
AcDbEntity
  8
DIM
100
AcDbDimension
280
     0
  2
*D26
 10
-20031.59427401148
 20
-2391.367565087728
 30
0.0
 11
-19661.59427401148
 21
-2380.867565087728
 31
0.0
 12
-54303.4760240803
 22
-6407.372202707936
 32
0.0
 71
     5
 42
740.0
 73
     0
 74
     0
 75
     0
  3
ISO-25
100
AcDbAlignedDimension
 13
-19291.59427401148
 23
-2534.10893982213
 33
0.0
 14
-20031.59427401148
 24
-2534.10893982213
 34
0.0
100
AcDbRotatedDimension
1001
ACAD
1000
DSTYLE
1002
{
1070
    41
1040
8.0
1070
   140
1040
15.0
1070
   141
1040
0.5
1070
   143
1040
0.03937007874
1070
   147
1040
3.0
1070
   171
1070
     2
1070
   179
1070
     2
1070
   274
1070
     2
1002
}
  0
DIMENSION
  5
3BDD
102
{ACAD_XDICTIONARY
360
3BDE
102
}
102
{ACAD_REACTORS
330
3BDF
102
}
330
3BD2
100
AcDbEntity
  8
DIM
100
AcDbDimension
280
     0
  2
*D25
 10
-19192.49922938222
 20
-2834.108939822131
 30
0.0
 11
-19202.99922938222
 21
-2684.108939822126
 31
0.0
 12
-54303.4760240803
 22
-6407.372202707936
 32
0.0
 71
     5
 42
300.0
 73
     0
 74
     0
 75
     0
  3
ISO-25
100
AcDbAlignedDimension
 13
-19291.59427401148
 23
-2534.10893982213
 33
0.0
 14
-19291.59427401148
 24
-2834.10893982213
 34
0.0
 50
90.0
100
AcDbRotatedDimension
1001
ACAD
1000
DSTYLE
1002
{
1070
    41
1040
8.0
1070
   140
1040
15.0
1070
   141
1040
0.5
1070
   143
1040
0.03937007874
1070
   147
1040
3.0
1070
   171
1070
     2
1070
   179
1070
     2
1070
   274
1070
     2
1002
}
  0
DIMENSION
  5
3BE0
102
{ACAD_XDICTIONARY
360
3BE1
102
}
102
{ACAD_REACTORS
330
3BE2
102
}
330
3BD2
100
AcDbEntity
  8
DIM
100
AcDbDimension
280
     0
  2
*D24
 10
-19240.58983050259
 20
-2684.108939822131
 30
0.0
 11
-19251.08983050259
 21
-2609.108939822126
 31
0.0
 12
-54303.4760240803
 22
-6407.372202707936
 32
0.0
 71
     5
 42
150.0
 73
     0
 74
     0
 75
     0
  3
ISO-25
100
AcDbAlignedDimension
 13
-19291.59427401148
 23
-2534.10893982213
 33
0.0
 14
-19291.59427401148
 24
-2684.10893982213
 34
0.0
 50
90.0
100
AcDbRotatedDimension
1001
ACAD
1000
DSTYLE
1002
{
1070
    41
1040
8.0
1070
   140
1040
15.0
1070
   141
1040
0.5
1070
   143
1040
0.03937007874
1070
   147
1040
3.0
1070
   171
1070
     2
1070
   179
1070
     2
1070
   274
1070
     2
1002
}
  0
DIMENSION
  5
3BE3
102
{ACAD_XDICTIONARY
360
3BE4
102
}
102
{ACAD_REACTORS
330
3BE5
102
}
330
3BD2
100
AcDbEntity
  8
DIM
100
AcDbDimension
280
     0
  2
*D23
 10
-19291.59427401148
 20
-2453.46256000812
 30
0.0
 11
-19441.59427401148
 21
-2442.962560008121
 31
0.0
 12
-54303.4760240803
 22
-6407.372202707936
 32
0.0
 71
     5
 42
300.0
 73
     0
 74
     0
 75
     0
  3
ISO-25
100
AcDbAlignedDimension
 13
-19591.59427401147
 23
-2534.10893982213
 33
0.0
 14
-19291.59427401148
 24
-2534.10893982213
 34
0.0
100
AcDbRotatedDimension
1001
ACAD
1000
DSTYLE
1002
{
1070
    41
1040
8.0
1070
   140
1040
15.0
1070
   141
1040
0.5
1070
   143
1040
0.03937007874
1070
   147
1040
3.0
1070
   171
1070
     2
1070
   179
1070
     2
1070
   274
1070
     2
1002
}
  0
DIMENSION
  5
3BE6
102
{ACAD_XDICTIONARY
360
3BE7
102
}
102
{ACAD_REACTORS
330
3BE8
102
}
330
3BD2
100
AcDbEntity
  8
DIM
100
AcDbDimension
280
     0
  2
*D22
 10
-19291.59427401148
 20
-2491.520766171573
 30
0.0
 11
-19366.59427401147
 21
-2481.020766171573
 31
0.0
 12
-54303.4760240803
 22
-6407.372202707936
 32
0.0
 71
     5
 42
150.0
 73
     0
 74
     0
 75
     0
  3
ISO-25
100
AcDbAlignedDimension
 13
-19441.59427401148
 23
-2534.10893982213
 33
0.0
 14
-19291.59427401148
 24
-2534.10893982213
 34
0.0
100
AcDbRotatedDimension
1001
ACAD
1000
DSTYLE
1002
{
1070
    41
1040
8.0
1070
   140
1040
15.0
1070
   141
1040
0.5
1070
   143
1040
0.03937007874
1070
   147
1040
3.0
1070
   171
1070
     2
1070
   179
1070
     2
1070
   274
1070
     2
1002
}
  0
LWPOLYLINE
  5
3BE9
330
3BD2
100
AcDbEntity
  8
base
100
AcDbPolyline
 90
        8
 70
     1
 43
0.0
 10
-19560.59427401148
 20
-3127.108939822131
 42
0.4142135623730977
 10
-19483.59427401148
 20
-3050.108939822131
 10
-19483.59427401148
 20
-2798.108939822129
 42
0.4142135623730951
 10
-19560.59427401148
 20
-2721.108939822129
 10
-19762.59427401148
 20
-2721.108939822129
 42
0.4142135623731262
 10
-19839.59427401148
 20
-2798.108939822129
 10
-19839.59427401148
 20
-3050.108939822129
 42
0.4142135623730969
 10
-19762.59427401148
 20
-3127.10893982213
  0
LINE
  5
3BEA
330
3BD2
100
AcDbEntity
  8
base
100
AcDbLine
 10
-20031.59427401148
 20
-3164.10893982213
 30
0.0
 11
-19731.59427401147
 21
-3314.10893982213
 31
0.0
  0
LINE
  5
3BEB
330
3BD2
100
AcDbEntity
  8
base
100
AcDbLine
 10
-19881.59427401147
 20
-3314.10893982213
 30
0.0
 11
-20031.59427401148
 21
-3014.10893982213
 31
0.0
  0
LINE
  5
3BEC
330
3BD2
100
AcDbEntity
  8
base
100
AcDbLine
 10
-19441.59427401148
 20
-3314.10893982213
 30
0.0
 11
-19291.59427401148
 21
-3014.10893982213
 31
0.0
  0
LINE
  5
3BED
330
3BD2
100
AcDbEntity
  8
base
100
AcDbLine
 10
-19291.59427401148
 20
-3164.10893982213
 30
0.0
 11
-19591.59427401147
 21
-3314.10893982213
 31
0.0
  0
LINE
  5
3BEE
102
{ACAD_REACTORS
330
3BE5
330
3BE2
102
}
330
3BD2
100
AcDbEntity
  8
base
100
AcDbLine
 10
-19291.59427401148
 20
-2684.10893982213
 30
0.0
 11
-19591.59427401147
 21
-2534.10893982213
 31
0.0
  0
LINE
  5
3BEF
102
{ACAD_REACTORS
330
3BE8
330
3BDF
102
}
330
3BD2
100
AcDbEntity
  8
base
100
AcDbLine
 10
-19441.59427401148
 20
-2534.10893982213
 30
0.0
 11
-19291.59427401148
 21
-2834.10893982213
 31
0.0
  0
LINE
  5
3BF0
330
3BD2
100
AcDbEntity
  8
base
100
AcDbLine
 10
-19881.59427401147
 20
-2534.10893982213
 30
0.0
 11
-20031.59427401148
 21
-2834.10893982213
 31
0.0
  0
LINE
  5
3BF1
330
3BD2
100
AcDbEntity
  8
base
100
AcDbLine
 10
-20031.59427401148
 20
-2684.10893982213
 30
0.0
 11
-19731.59427401147
 21
-2534.10893982213
 31
0.0
  0
LINE
  5
3BF2
102
{ACAD_REACTORS
330
3BE2
330
3BDF
330
3BDC
102
}
330
3BD2
100
AcDbEntity
  8
base
100
AcDbLine
 10
-19291.59427401148
 20
-2534.10893982213
 30
0.0
 11
-19291.59427401148
 21
-3314.10893982213
 31
0.0
  0
LINE
  5
3BF3
102
{ACAD_REACTORS
330
3BD9
102
}
330
3BD2
100
AcDbEntity
  8
base
100
AcDbLine
 10
-19291.59427401148
 20
-3314.10893982213
 30
0.0
 11
-20031.59427401148
 21
-3314.10893982213
 31
0.0
  0
LINE
  5
3BF4
330
3BD2
100
AcDbEntity
  8
base
100
AcDbLine
 10
-20031.59427401148
 20
-2534.10893982213
 30
0.0
 11
-20031.59427401148
 21
-3314.10893982213
 31
0.0
  0
LINE
  5
3BF5
102
{ACAD_REACTORS
330
3BE8
330
3BE5
330
3BDC
330
3BD9
102
}
330
3BD2
100
AcDbEntity
  8
base
100
AcDbLine
 10
-20031.59427401148
 20
-2534.10893982213
 30
0.0
 11
-19291.59427401148
 21
-2534.10893982213
 31
0.0
  0
ENDBLK
  5
3BF7
330
3BD2
100
AcDbEntity
  8
0
100
AcDbBlockEnd
  0
ENDSEC
  0
SECTION
  2
ENTITIES
  0
LWPOLYLINE
  5
372D
102
{ACAD_REACTORS
330
3A26
330
3A7C
330
3AAC
330
3B3A
330
3B56
102
}
330
1F
100
AcDbEntity
  8
base
100
AcDbPolyline
 90
       11
 70
     1
 43
0.0
 10
34746.87408811264
 20
3313.870157135862
 10
35386.87408811264
 20
3313.870157135863
 42
0.4142135623730681
 10
35485.87408811264
 20
3412.870157135862
 10
35485.87408811263
 20
3614.870157135861
 42
0.4142135623730709
 10
35386.87408811264
 20
3713.870157135862
 10
35055.64487063294
 20
3713.870157135862
 42
-0.2225495741039862
 10
35024.91946559113
 20
3728.258646344502
 42
0.2225495741040241
 10
34948.87408811264
 20
3763.870157135858
 10
34746.87408811264
 20
3763.870157135862
 42
0.4142135623730641
 10
34647.87408811265
 20
3664.870157135862
 10
34647.87408811264
 20
3412.870157135862
 42
0.4142135623730897
  0
LWPOLYLINE
  5
372E
102
{ACAD_REACTORS
330
3A56
330
3A94
330
3AD1
102
}
330
1F
100
AcDbEntity
  8
base
100
AcDbPolyline
 90
        8
 70
     1
 43
0.0
 10
35463.87408811264
 20
3614.870157135861
 42
0.4142135623730984
 10
35386.87408811264
 20
3691.870157135862
 10
35134.87408811264
 20
3691.870157135861
 42
0.414213562373121
 10
35057.87408811264
 20
3614.870157135861
 10
35057.87408811264
 20
3412.870157135862
 42
0.4142135623731295
 10
35134.87408811264
 20
3335.87015713586
 10
35386.87408811264
 20
3335.870157135861
 42
0.4142135623731073
 10
35463.87408811264
 20
3412.870157135862
  0
LWPOLYLINE
  5
372F
102
{ACAD_REACTORS
330
3A0E
330
3A3E
330
3ABC
102
}
330
1F
100
AcDbEntity
  8
base
100
AcDbPolyline
 90
        8
 70
     1
 43
0.0
 10
34746.87408811264
 20
3335.870157135861
 42
-0.4142135623731227
 10
34669.87408811263
 20
3412.870157135862
 10
34669.87408811263
 20
3664.870157135862
 42
-0.4142135623730951
 10
34746.87408811264
 20
3741.870157135862
 10
34948.87408811264
 20
3741.870157135862
 42
-0.414213562373083
 10
35025.87408811264
 20
3664.870157135862
 10
35025.87408811264
 20
3412.870157135862
 42
-0.4142135623730829
 10
34948.87408811264
 20
3335.870157135865
  0
LINE
  5
3730
330
1F
100
AcDbEntity
  8
DIM
  6
CENTER
100
AcDbLine
 10
34669.87408811263
 20
3538.870157135862
 30
0.0
 11
35025.87408811264
 21
3538.870157135862
 31
0.0
  0
LINE
  5
3731
102
{ACAD_REACTORS
330
3AF0
102
}
330
1F
100
AcDbEntity
  8
DIM
  6
CENTER
100
AcDbLine
 10
34847.87408811264
 20
3741.870157135862
 30
0.0
 11
34847.87408811264
 21
3335.870157135864
 31
0.0
  0
LINE
  5
3732
330
1F
100
AcDbEntity
  8
DIM
  6
CENTER
100
AcDbLine
 10
35057.87408811264
 20
3513.870157135862
 30
0.0
 11
35463.87408811264
 21
3513.870157135862
 31
0.0
  0
LINE
  5
3733
102
{ACAD_REACTORS
330
3B1E
102
}
330
1F
100
AcDbEntity
  8
DIM
  6
CENTER
100
AcDbLine
 10
35260.87408811264
 20
3691.870157135862
 30
0.0
 11
35260.87408811264
 21
3335.870157135861
 31
0.0
  0
LINE
  5
3735
330
1F
100
AcDbEntity
  8
DIM
  6
CENTER
100
AcDbLine
 10
35041.87408811264
 20
3716.315323242232
 30
0.0
 11
35041.87408811264
 21
3313.870157135863
 31
0.0
  0
LINE
  5
3736
102
{ACAD_REACTORS
330
3AF0
102
}
330
1F
100
AcDbEntity
  8
DIM
  6
CENTER
100
AcDbLine
 10
34920.8149012818
 20
3621.870157135862
 30
0.0
 11
34774.93327494347
 21
3621.870157135862
 31
0.0
  0
LINE
  5
3737
102
{ACAD_REACTORS
330
3B1E
102
}
330
1F
100
AcDbEntity
  8
DIM
  6
CENTER
100
AcDbLine
 10
35333.81490128181
 20
3571.870157135862
 30
0.0
 11
35187.93327494347
 21
3571.870157135862
 31
0.0
  0
CIRCLE
  5
3738
330
1F
100
AcDbEntity
  8
base
100
AcDbCircle
 10
34847.87408811264
 20
3621.870157135862
 30
0.0
 40
44.0
  0
CIRCLE
  5
3739
330
1F
100
AcDbEntity
  8
base
100
AcDbCircle
 10
34847.87408811264
 20
3621.870157135862
 30
0.0
 40
57.0
  0
CIRCLE
  5
373A
330
1F
100
AcDbEntity
  8
base
100
AcDbCircle
 10
34847.87408811264
 20
3621.870157135862
 30
0.0
 40
60.0
  0
CIRCLE
  5
373B
330
1F
100
AcDbEntity
  8
base
100
AcDbCircle
 10
35260.87408811264
 20
3571.870157135862
 30
0.0
 40
60.0
  0
CIRCLE
  5
373C
330
1F
100
AcDbEntity
  8
base
100
AcDbCircle
 10
35260.87408811264
 20
3571.870157135862
 30
0.0
 40
57.0
  0
CIRCLE
  5
373D
330
1F
100
AcDbEntity
  8
base
100
AcDbCircle
 10
35260.87408811264
 20
3571.870157135862
 30
0.0
 40
44.0
  0
LINE
  5
3740
330
1F
100
AcDbEntity
  8
base
100
AcDbLine
 10
34647.87408811265
 20
4197.706356687551
 30
0.0
 11
34647.87408811265
 21
4196.506356687551
 31
0.0
  0
LINE
  5
3741
330
1F
100
AcDbEntity
  8
base
100
AcDbLine
 10
34669.87408811263
 20
3996.111446227942
 30
0.0
 11
34669.87408811264
 21
4192.506356687551
 31
0.0
  0
LINE
  5
3742
330
1F
100
AcDbEntity
  8
base
100
AcDbLine
 10
35025.87408811264
 20
3996.111446227936
 30
0.0
 11
35025.87408811264
 21
4192.506356687551
 31
0.0
  0
LINE
  5
3745
330
1F
100
AcDbEntity
  8
base
100
AcDbLine
 10
35485.87408811263
 20
4197.706356687551
 30
0.0
 11
35485.87408811263
 21
4196.506356687551
 31
0.0
  0
LINE
  5
3746
102
{ACAD_REACTORS
330
39B7
102
}
330
1F
100
AcDbEntity
  8
base
100
AcDbLine
 10
34647.87408811265
 20
4197.706356687551
 30
0.0
 11
35485.87408811263
 21
4197.706356687551
 31
0.0
  0
LINE
  5
3747
330
1F
100
AcDbEntity
  8
base
100
AcDbLine
 10
34647.87408811265
 20
4196.506356687551
 30
0.0
 11
34664.67408811265
 21
4196.506356687551
 31
0.0
  0
LINE
  5
3748
330
1F
100
AcDbEntity
  8
base
100
AcDbLine
 10
34907.87408811263
 20
3943.706356687551
 30
0.0
 11
34787.87408811267
 21
3943.706356687551
 31
0.0
  0
LINE
  5
374E
330
1F
100
AcDbEntity
  8
base
100
AcDbLine
 10
34907.87408811264
 20
3943.706356687552
 30
0.0
 11
34977.61906294777
 21
3946.141904876977
 31
0.0
  0
ARC
  5
374F
330
1F
100
AcDbEntity
  8
base
100
AcDbCircle
 10
34975.87408811263
 20
3996.111446227942
 30
0.0
 40
50.0
100
AcDbArc
 50
272.0000000000118
 51
359.9999999999937
  0
ARC
  5
3750
102
{ACAD_REACTORS
330
39EE
102
}
330
1F
100
AcDbEntity
  8
base
100
AcDbCircle
 10
34719.87408811264
 20
3996.111446227942
 30
0.0
 40
50.0
100
AcDbArc
 50
180.0000000000063
 51
267.9999999999882
  0
LINE
  5
3751
330
1F
100
AcDbEntity
  8
base
100
AcDbLine
 10
34787.87408811264
 20
3943.706356687552
 30
0.0
 11
34718.12911327751
 21
3946.141904876977
 31
0.0
  0
LINE
  5
3752
330
1F
100
AcDbEntity
  8
base
100
AcDbLine
 10
34668.67408811264
 20
3996.111446227942
 30
0.0
 11
34668.67408811264
 21
4192.506356687551
 31
0.0
  0
LINE
  5
3753
330
1F
100
AcDbEntity
  8
base
100
AcDbLine
 10
35027.07408811263
 20
3996.111446227936
 30
0.0
 11
35027.07408811263
 21
4192.506356687551
 31
0.0
  0
ARC
  5
3754
330
1F
100
AcDbEntity
  8
base
100
AcDbCircle
 10
34719.87408811264
 20
3996.111446227942
 30
0.0
 40
51.2
100
AcDbArc
 50
180.0000000000063
 51
267.9999999999882
  0
LINE
  5
3755
330
1F
100
AcDbEntity
  8
base
100
AcDbLine
 10
34787.8322087166
 20
3942.507087695129
 30
0.0
 11
34718.08723388147
 21
3944.942635884554
 31
0.0
  0
LINE
  5
3757
330
1F
100
AcDbEntity
  8
base
100
AcDbLine
 10
34907.91596750868
 20
3942.507087695129
 30
0.0
 11
34977.66094234381
 21
3944.942635884554
 31
0.0
  0
ARC
  5
3758
330
1F
100
AcDbEntity
  8
base
100
AcDbCircle
 10
34975.87408811263
 20
3996.111446227942
 30
0.0
 40
51.2
100
AcDbArc
 50
272.0000000000118
 51
359.9999999999937
  0
ARC
  5
3759
330
1F
100
AcDbEntity
  8
base
100
AcDbCircle
 10
34664.67408811265
 20
4192.506356687551
 30
0.0
 40
4.0
100
AcDbArc
 50
0.0
 51
90.0
  0
ARC
  5
375A
330
1F
100
AcDbEntity
  8
base
100
AcDbCircle
 10
35031.07408811263
 20
4192.506356687551
 30
0.0
 40
4.0
100
AcDbArc
 50
90.0
 51
180.0
  0
LINE
  5
375B
330
1F
100
AcDbEntity
  8
base
100
AcDbLine
 10
35031.07408811263
 20
4196.506356687551
 30
0.0
 11
35052.67408811265
 21
4196.506356687551
 31
0.0
  0
ARC
  5
375C
330
1F
100
AcDbEntity
  8
base
100
AcDbCircle
 10
35031.07408811263
 20
4192.506356687551
 30
0.0
 40
5.2
100
AcDbArc
 50
90.0
 51
180.0
  0
ARC
  5
375D
330
1F
100
AcDbEntity
  8
base
100
AcDbCircle
 10
34664.67408811265
 20
4192.506356687551
 30
0.0
 40
5.2
100
AcDbArc
 50
0.0
 51
90.0
  0
ARC
  5
375E
330
1F
100
AcDbEntity
  8
base
100
AcDbCircle
 10
35469.07408811263
 20
4192.506356687551
 30
0.0
 40
5.2
100
AcDbArc
 50
90.0
 51
180.0
  0
ARC
  5
375F
330
1F
100
AcDbEntity
  8
base
100
AcDbCircle
 10
35052.67408811265
 20
4192.506356687551
 30
0.0
 40
5.2
100
AcDbArc
 50
0.000000000000007
 51
90.0
  0
ARC
  5
3760
330
1F
100
AcDbEntity
  8
base
100
AcDbCircle
 10
35052.67408811265
 20
4192.506356687551
 30
0.0
 40
4.0
100
AcDbArc
 50
0.000000000000007
 51
90.0
  0
ARC
  5
3761
330
1F
100
AcDbEntity
  8
base
100
AcDbCircle
 10
35469.07408811263
 20
4192.506356687551
 30
0.0
 40
4.0
100
AcDbArc
 50
90.0
 51
180.0
  0
LINE
  5
3767
330
1F
100
AcDbEntity
  8
base
100
AcDbLine
 10
35056.67408811264
 20
3996.984465465237
 30
0.0
 11
35056.67408811264
 21
4192.506356687551
 31
0.0
  0
LINE
  5
3768
330
1F
100
AcDbEntity
  8
base
100
AcDbLine
 10
35465.07408811264
 20
3996.984465465237
 30
0.0
 11
35465.07408811264
 21
4192.506356687551
 31
0.0
  0
LINE
  5
376E
330
1F
100
AcDbEntity
  8
base
100
AcDbLine
 10
35057.87408811264
 20
3996.984465465237
 30
0.0
 11
35057.87408811264
 21
4192.506356687551
 31
0.0
  0
LINE
  5
376F
330
1F
100
AcDbEntity
  8
base
100
AcDbLine
 10
35463.87408811265
 20
3996.984465465233
 30
0.0
 11
35463.87408811264
 21
4192.506356687551
 31
0.0
  0
LINE
  5
3773
102
{ACAD_REACTORS
330
39DB
102
}
330
1F
100
AcDbEntity
  8
base
100
AcDbLine
 10
35320.87408811264
 20
3943.706356687551
 30
0.0
 11
35200.87408811264
 21
3943.706356687551
 31
0.0
  0
LINE
  5
3776
102
{ACAD_REACTORS
330
39DB
102
}
330
1F
100
AcDbEntity
  8
base
100
AcDbLine
 10
35320.87408811264
 20
3943.706356687551
 30
0.0
 11
35415.61906294777
 21
3947.01492411427
 31
0.0
  0
ARC
  5
3777
330
1F
100
AcDbEntity
  8
base
100
AcDbCircle
 10
35413.87408811265
 20
3996.984465465237
 30
0.0
 40
50.0
100
AcDbArc
 50
272.0000000000034
 51
359.9999999999953
  0
ARC
  5
3778
330
1F
100
AcDbEntity
  8
base
100
AcDbCircle
 10
35413.87408811265
 20
3996.984465465237
 30
0.0
 40
51.2
100
AcDbArc
 50
272.0000000000034
 51
0.0002681126662788
  0
LINE
  5
3779
330
1F
100
AcDbEntity
  8
base
100
AcDbLine
 10
35320.91596750868
 20
3942.507087695128
 30
0.0
 11
35415.66094234382
 21
3945.815655121847
 31
0.0
  0
LINE
  5
377A
330
1F
100
AcDbEntity
  8
base
100
AcDbLine
 10
35200.8322087166
 20
3942.507087695128
 30
0.0
 11
35106.08723388146
 21
3945.815655121847
 31
0.0
  0
ARC
  5
377B
330
1F
100
AcDbEntity
  8
base
100
AcDbCircle
 10
35107.87408811263
 20
3996.984465465237
 30
0.0
 40
51.2
100
AcDbArc
 50
179.9997318873337
 51
267.9999999999966
  0
ARC
  5
377C
330
1F
100
AcDbEntity
  8
base
100
AcDbCircle
 10
35107.87408811263
 20
3996.984465465237
 30
0.0
 40
50.0
100
AcDbArc
 50
180.0000000000047
 51
267.9999999999966
  0
LINE
  5
377D
330
1F
100
AcDbEntity
  8
base
100
AcDbLine
 10
35200.87408811264
 20
3943.706356687551
 30
0.0
 11
35106.1291132775
 21
3947.01492411427
 31
0.0
  0
LINE
  5
3890
330
1F
100
AcDbEntity
  8
base
100
AcDbLine
 10
34790.91876359176
 20
3940.206356687551
 30
0.0
 11
34904.82941263353
 21
3940.206356687551
 31
0.0
  0
LINE
  5
3891
330
1F
100
AcDbEntity
  8
base
100
AcDbLine
 10
34790.28876680124
 20
3939.006356687551
 30
0.0
 11
34905.45940942406
 21
3939.006356687552
 31
0.0
  0
LINE
  5
3892
330
1F
100
AcDbEntity
  8
base
100
AcDbLine
 10
34787.87416457032
 20
3942.506352680575
 30
0.0
 11
34790.28876680124
 21
3939.006356687551
 31
0.0
  0
LINE
  5
3893
330
1F
100
AcDbEntity
  8
base
100
AcDbLine
 10
34788.50415859648
 20
3943.706356687551
 30
0.0
 11
34790.91876359176
 21
3940.206356687551
 31
0.0
  0
LINE
  5
3894
330
1F
100
AcDbEntity
  8
base
100
AcDbLine
 10
34803.87408811264
 20
3940.206356687551
 30
0.0
 11
34803.87408811264
 21
3939.006356687551
 31
0.0
  0
LINE
  5
3895
330
1F
100
AcDbEntity
  8
base
100
AcDbLine
 10
34891.87408811265
 20
3939.006356687552
 30
0.0
 11
34891.87408811265
 21
3940.206356687551
 31
0.0
  0
LINE
  5
3896
330
1F
100
AcDbEntity
  8
base
100
AcDbLine
 10
34907.24401762881
 20
3943.706356687551
 30
0.0
 11
34904.82941263353
 21
3940.206356687551
 31
0.0
  0
LINE
  5
3897
330
1F
100
AcDbEntity
  8
base
100
AcDbLine
 10
34907.87349552289
 20
3942.505604540701
 30
0.0
 11
34905.45940942406
 21
3939.006356687552
 31
0.0
  0
LINE
  5
3898
330
1F
100
AcDbEntity
  8
base
100
AcDbLine
 10
35203.91876359175
 20
3940.206356687551
 30
0.0
 11
35317.82941263352
 21
3940.206356687551
 31
0.0
  0
LINE
  5
3899
330
1F
100
AcDbEntity
  8
base
100
AcDbLine
 10
35203.28876680123
 20
3939.006356687551
 30
0.0
 11
35318.45940942405
 21
3939.006356687552
 31
0.0
  0
LINE
  5
389A
330
1F
100
AcDbEntity
  8
base
100
AcDbLine
 10
35200.87416457031
 20
3942.506352680575
 30
0.0
 11
35203.28876680123
 21
3939.006356687551
 31
0.0
  0
LINE
  5
389B
330
1F
100
AcDbEntity
  8
base
100
AcDbLine
 10
35201.50415859647
 20
3943.706356687551
 30
0.0
 11
35203.91876359175
 21
3940.206356687551
 31
0.0
  0
LINE
  5
389C
330
1F
100
AcDbEntity
  8
base
100
AcDbLine
 10
35216.87408811264
 20
3940.206356687551
 30
0.0
 11
35216.87408811264
 21
3939.006356687551
 31
0.0
  0
LINE
  5
389D
330
1F
100
AcDbEntity
  8
base
100
AcDbLine
 10
35304.87408811264
 20
3939.006356687552
 30
0.0
 11
35304.87408811264
 21
3940.206356687551
 31
0.0
  0
LINE
  5
389E
102
{ACAD_REACTORS
330
39B7
102
}
330
1F
100
AcDbEntity
  8
base
100
AcDbLine
 10
35320.2440176288
 20
3943.706356687551
 30
0.0
 11
35317.82941263352
 21
3940.206356687551
 31
0.0
  0
LINE
  5
389F
330
1F
100
AcDbEntity
  8
base
100
AcDbLine
 10
35320.87349552288
 20
3942.505604540701
 30
0.0
 11
35318.45940942405
 21
3939.006356687552
 31
0.0
  0
LINE
  5
399F
330
1F
100
AcDbEntity
  8
base
100
AcDbLine
 10
35469.07408811263
 20
4196.506356687551
 30
0.0
 11
35485.87408811263
 21
4196.506356687551
 31
0.0
  0
DIMENSION
  5
39A0
102
{ACAD_XDICTIONARY
360
39AD
102
}
102
{ACAD_REACTORS
330
39B7
102
}
330
1F
100
AcDbEntity
  8
DIM
100
AcDbDimension
280
     0
  2
*D5
 10
35539.21845220896
 20
3943.706356687551
 30
0.0
 11
35527.46845220896
 21
4070.706356687557
 31
0.0
 70
    32
 71
     5
 42
254.0000000000009
 73
     0
 74
     0
 75
     0
  3
ISO-25
100
AcDbAlignedDimension
 13
35485.87408811263
 23
4197.706356687551
 33
0.0
 14
35320.2440176288
 24
3943.706356687551
 34
0.0
 50
90.0
100
AcDbRotatedDimension
1001
ACAD
1000
DSTYLE
1002
{
1070
    41
1040
8.0
1070
   140
1040
15.0
1070
   141
1040
0.5
1070
   143
1040
0.03937007874
1070
   147
1040
3.0
1070
   170
1070
     1
1070
   171
1070
     2
1070
   179
1070
     2
1070
   274
1070
     2
1002
}
  0
DIMENSION
  5
39B8
102
{ACAD_XDICTIONARY
360
39CB
102
}
102
{ACAD_REACTORS
330
39DB
102
}
330
1F
100
AcDbEntity
  8
DIM
100
AcDbDimension
280
     0
  2
*D6
 10
35200.87408811264
 20
3943.706356687551
 30
0.0
 11
35522.66379041872
 21
3895.10733266124
 31
0.0
 70
    34
 71
     5
 42
0.0349065850398915
 73
     0
 74
     0
 75
     0
  3
ISO-25
100
AcDb2LineAngularDimension
 13
35320.87408811264
 23
3943.706356687551
 33
0.0
 14
35415.61906294777
 24
3947.01492411427
 34
0.0
 15
35320.87408811264
 25
3943.706356687551
 35
0.0
 16
35514.1884956715
 26
3948.205799467335
 36
0.0
1001
ACAD
1000
DSTYLE
1002
{
1070
    41
1040
8.0
1070
   140
1040
15.0
1070
   141
1040
0.5
1070
   143
1040
0.03937007874
1070
   147
1040
3.0
1070
   170
1070
     1
1070
   171
1070
     2
1070
   179
1070
     2
1070
   274
1070
     2
1002
}
  0
LINE
  5
39DC
330
1F
100
AcDbEntity
  8
DIM
  6
CENTER
100
AcDbLine
 10
34847.87408811264
 20
4220.428695978673
 30
0.0
 11
34847.87408811264
 21
3895.9654544648
 31
0.0
  0
LINE
  5
39DD
330
1F
100
AcDbEntity
  8
DIM
  6
CENTER
100
AcDbLine
 10
35260.87408811263
 20
4221.131055679267
 30
0.0
 11
35260.87408811263
 21
3895.9654544648
 31
0.0
  0
LINE
  5
39DE
330
1F
100
AcDbEntity
  8
DIM
  6
CENTER
100
AcDbLine
 10
35041.87408811264
 20
4236.796987030827
 30
0.0
 11
35041.87408811264
 21
3894.765454464801
 31
0.0
  0
DIMENSION
  5
39DF
102
{ACAD_XDICTIONARY
360
39E8
102
}
102
{ACAD_REACTORS
330
39EE
102
}
330
1F
100
AcDbEntity
  8
DIM
100
AcDbDimension
280
     0
  2
*D7
 10
34719.87408811264
 20
3996.111446227958
 30
0.0
 11
34744.02710093583
 21
4023.477154177189
 31
0.0
 70
   164
 71
     5
 42
50.00000000001091
 73
     0
 74
     0
 75
     0
  3
ISO-25
100
AcDbRadialDimension
 15
34686.78776917677
 25
3958.624175064608
 35
0.0
 40
0.0
1001
ACAD
1000
DSTYLE
1002
{
1070
    41
1040
8.0
1070
   140
1040
15.0
1070
   141
1040
0.5
1070
   143
1040
0.03937007874
1070
   147
1040
3.0
1070
   170
1070
     1
1070
   171
1070
     2
1070
   179
1070
     2
1070
   274
1070
     2
1070
   288
1070
     1
1002
}
  0
CIRCLE
  5
39EF
102
{ACAD_REACTORS
330
39F3
102
}
330
1F
100
AcDbEntity
  8
DIM
100
AcDbCircle
 10
35042.71187042865
 20
4191.100056323928
 30
0.0
 40
23.82086339247326
  0
LEADER
  5
39F0
102
{ACAD_XDICTIONARY
360
39F2
102
}
102
{ACAD_REACTORS
330
39F3
102
}
330
1F
100
AcDbEntity
  8
DIM
100
AcDbLeader
  3
ISO-25
 73
     0
 75
     1
 40
15.0
 41
5.0
 76
     3
 10
35018.89100703618
 20
4191.100056323928
 30
0.0
 10
34999.11349900365
 20
4173.535117971743
 30
0.0
 10
34991.11349900365
 20
4173.535117971743
 30
0.0
340
39F1
213
0.0
223
7.5
233
0.0
1001
ACAD
1000
DSTYLE
1002
{
1070
    77
1070
     0
1070
    41
1040
8.0
1070
   140
1040
15.0
1070
   141
1040
0.5
1070
   143
1040
0.03937007874
1070
   147
1040
3.0
1070
   170
1070
     1
1070
   171
1070
     2
1070
   179
1070
     2
1070
   274
1070
     2
1002
}
  0
MTEXT
  5
39F1
102
{ACAD_REACTORS
330
39F0
102
}
330
1F
100
AcDbEntity
  8
DIM
100
AcDbMText
 10
34988.11349900365
 20
4166.035117971744
 30
0.0
 40
15.0
 41
0.0
 46
0.0
 71
     9
 72
     1
  1
I
 73
     1
 44
1.0
  0
CIRCLE
  5
39F4
330
1F
100
AcDbEntity
  8
DIM
100
AcDbCircle
 10
35260.87408811264
 20
3943.706356687551
 30
0.0
 40
67.22369212321392
  0
LEADER
  5
39F5
330
1F
100
AcDbEntity
  8
DIM
100
AcDbLeader
  3
ISO-25
 73
     0
 75
     1
 40
15.0
 41
15.0
 76
     3
 10
35227.89344088375
 20
3910.674950396668
 30
0.0
 10
35184.21725408951
 20
3890.897593545724
 30
0.0
 10
35176.21725408951
 20
3890.897593545724
 30
0.0
340
39F6
213
0.0
223
7.5
233
0.0
1001
ACAD
1000
DSTYLE
1002
{
1070
    77
1070
     0
1070
    41
1040
8.0
1070
   140
1040
15.0
1070
   141
1040
0.5
1070
   143
1040
0.03937007874
1070
   147
1040
3.0
1070
   170
1070
     1
1070
   171
1070
     2
1070
   179
1070
     2
1070
   274
1070
     2
1002
}
  0
MTEXT
  5
39F6
102
{ACAD_REACTORS
330
39F5
102
}
330
1F
100
AcDbEntity
  8
DIM
100
AcDbMText
 10
35173.21725408951
 20
3883.397593545724
 30
0.0
 40
15.0
 41
0.0
 46
0.0
 71
     9
 72
     1
  1
II
 73
     1
 44
1.0
  0
DIMENSION
  5
39F7
102
{ACAD_XDICTIONARY
360
3A04
102
}
102
{ACAD_REACTORS
330
3A0E
102
}
330
1F
100
AcDbEntity
  8
DIM
100
AcDbDimension
280
     0
  2
*D8
 10
34600.80806593887
 20
3741.870157135862
 30
0.0
 11
34589.05806593886
 21
3538.870157135868
 31
0.0
 70
    32
 71
     5
 42
406.0
 73
     0
 74
     0
 75
     0
  3
ISO-25
100
AcDbAlignedDimension
 13
34746.87408811264
 23
3335.870157135861
 33
0.0
 14
34746.87408811264
 24
3741.870157135862
 34
0.0
 50
90.0
100
AcDbRotatedDimension
1001
ACAD
1000
DSTYLE
1002
{
1070
    41
1040
8.0
1070
   140
1040
15.0
1070
   141
1040
0.5
1070
   143
1040
0.03937007874
1070
   147
1040
3.0
1070
   170
1070
     1
1070
   171
1070
     2
1070
   179
1070
     2
1070
   274
1070
     2
1002
}
  0
DIMENSION
  5
3A0F
102
{ACAD_XDICTIONARY
360
3A1C
102
}
102
{ACAD_REACTORS
330
3A26
102
}
330
1F
100
AcDbEntity
  8
DIM
100
AcDbDimension
280
     0
  2
*D9
 10
34547.04564018516
 20
3763.870157135862
 30
0.0
 11
34535.29564018516
 21
3538.870157135868
 31
0.0
 70
    32
 71
     5
 42
450.0000000000004
 73
     0
 74
     0
 75
     0
  3
ISO-25
100
AcDbAlignedDimension
 13
34746.87408811264
 23
3313.870157135862
 33
0.0
 14
34746.87408811265
 24
3763.870157135862
 34
0.0
 50
90.0
100
AcDbRotatedDimension
1001
ACAD
1000
DSTYLE
1002
{
1070
    41
1040
8.0
1070
   140
1040
15.0
1070
   141
1040
0.5
1070
   143
1040
0.03937007874
1070
   147
1040
3.0
1070
   170
1070
     1
1070
   171
1070
     2
1070
   179
1070
     2
1070
   274
1070
     2
1002
}
  0
DIMENSION
  5
3A27
102
{ACAD_XDICTIONARY
360
3A34
102
}
102
{ACAD_REACTORS
330
3A3E
102
}
330
1F
100
AcDbEntity
  8
DIM
100
AcDbDimension
280
     0
  2
*D10
 10
35025.87408811264
 20
3236.485493226901
 30
0.0
 11
34847.87408811265
 21
3248.235493226901
 31
0.0
 70
    32
 71
     5
 42
355.9999999999927
 73
     0
 74
     0
 75
     0
  3
ISO-25
100
AcDbAlignedDimension
 13
34669.87408811264
 23
3412.870157135858
 33
0.0
 14
35025.87408811264
 24
3412.870157135862
 34
0.0
100
AcDbRotatedDimension
1001
ACAD
1000
DSTYLE
1002
{
1070
    41
1040
8.0
1070
   140
1040
15.0
1070
   141
1040
0.5
1070
   143
1040
0.03937007874
1070
   147
1040
3.0
1070
   170
1070
     1
1070
   171
1070
     2
1070
   179
1070
     2
1070
   274
1070
     2
1002
}
  0
DIMENSION
  5
3A3F
102
{ACAD_XDICTIONARY
360
3A4C
102
}
102
{ACAD_REACTORS
330
3A56
102
}
330
1F
100
AcDbEntity
  8
DIM
100
AcDbDimension
280
     0
  2
*D11
 10
35463.87408811264
 20
3236.496480766564
 30
0.0
 11
35260.87408811264
 21
3248.246480766564
 31
0.0
 70
    32
 71
     5
 42
406.0
 73
     0
 74
     0
 75
     0
  3
ISO-25
100
AcDbAlignedDimension
 13
35057.87408811264
 23
3412.870157135856
 33
0.0
 14
35463.87408811264
 24
3412.87015713586
 34
0.0
100
AcDbRotatedDimension
1001
ACAD
1000
DSTYLE
1002
{
1070
    41
1040
8.0
1070
   140
1040
15.0
1070
   141
1040
0.5
1070
   143
1040
0.03937007874
1070
   147
1040
3.0
1070
   170
1070
     1
1070
   171
1070
     2
1070
   179
1070
     2
1070
   274
1070
     2
1002
}
  0
DIMENSION
  5
3A57
330
1F
100
AcDbEntity
  8
DIM
100
AcDbDimension
280
     0
  2
*D12
 10
35057.87408811264
 20
3195.059924863806
 30
0.0
 11
35122.62408811264
 21
3206.809924863807
 31
0.0
 70
    32
 71
     5
 42
32.0
 73
     0
 74
     0
 75
     0
  3
ISO-25
100
AcDbAlignedDimension
 13
35025.87408811264
 23
3313.870157135863
 33
0.0
 14
35057.87408811264
 24
3313.870157135863
 34
0.0
100
AcDbRotatedDimension
1001
ACAD
1000
DSTYLE
1002
{
1070
    41
1040
8.0
1070
   140
1040
15.0
1070
   141
1040
0.5
1070
   143
1040
0.03937007874
1070
   147
1040
3.0
1070
   170
1070
     1
1070
   171
1070
     2
1070
   179
1070
     2
1070
   274
1070
     2
1002
}
  0
DIMENSION
  5
3A65
102
{ACAD_XDICTIONARY
360
3A72
102
}
102
{ACAD_REACTORS
330
3A7C
102
}
330
1F
100
AcDbEntity
  8
DIM
100
AcDbDimension
280
     0
  2
*D13
 10
35485.87408811264
 20
3150.663276738291
 30
0.0
 11
35066.87408811264
 21
3162.413276738291
 31
0.0
 70
    32
 71
     5
 42
838.0
 73
     0
 74
     0
 75
     0
  3
ISO-25
100
AcDbAlignedDimension
 13
34647.87408811264
 23
3412.870157135862
 33
0.0
 14
35485.87408811264
 24
3412.870157135862
 34
0.0
100
AcDbRotatedDimension
1001
ACAD
1000
DSTYLE
1002
{
1070
    41
1040
8.0
1070
   140
1040
15.0
1070
   141
1040
0.5
1070
   143
1040
0.03937007874
1070
   147
1040
3.0
1070
   170
1070
     1
1070
   171
1070
     2
1070
   179
1070
     2
1070
   274
1070
     2
1002
}
  0
DIMENSION
  5
3A7D
102
{ACAD_XDICTIONARY
360
3A8A
102
}
102
{ACAD_REACTORS
330
3A94
102
}
330
1F
100
AcDbEntity
  8
DIM
100
AcDbDimension
280
     0
  2
*D14
 10
35541.09946055719
 20
3691.870157135862
 30
0.0
 11
35529.34946055719
 21
3513.870157135868
 31
0.0
 70
    32
 71
     5
 42
356.0
 73
     0
 74
     0
 75
     0
  3
ISO-25
100
AcDbAlignedDimension
 13
35386.87408811264
 23
3335.870157135861
 33
0.0
 14
35386.87408811264
 24
3691.870157135862
 34
0.0
 50
90.0
100
AcDbRotatedDimension
1001
ACAD
1000
DSTYLE
1002
{
1070
    41
1040
8.0
1070
   140
1040
15.0
1070
   141
1040
0.5
1070
   143
1040
0.03937007874
1070
   147
1040
3.0
1070
   170
1070
     1
1070
   171
1070
     2
1070
   179
1070
     2
1070
   274
1070
     2
1002
}
  0
DIMENSION
  5
3A95
102
{ACAD_XDICTIONARY
360
3AA2
102
}
102
{ACAD_REACTORS
330
3AAC
102
}
330
1F
100
AcDbEntity
  8
DIM
100
AcDbDimension
280
     0
  2
*D15
 10
35585.3337111531
 20
3313.870157135863
 30
0.0
 11
35573.5837111531
 21
3513.870157135868
 31
0.0
 70
    32
 71
     5
 42
399.9999999999982
 73
     0
 74
     0
 75
     0
  3
ISO-25
100
AcDbAlignedDimension
 13
35386.87408811264
 23
3713.870157135862
 33
0.0
 14
35386.87408811264
 24
3313.870157135863
 34
0.0
 50
90.0
100
AcDbRotatedDimension
1001
ACAD
1000
DSTYLE
1002
{
1070
    41
1040
8.0
1070
   140
1040
15.0
1070
   141
1040
0.5
1070
   143
1040
0.03937007874
1070
   147
1040
3.0
1070
   170
1070
     1
1070
   171
1070
     2
1070
   179
1070
     2
1070
   274
1070
     2
1002
}
  0
DIMENSION
  5
3AAD
102
{ACAD_XDICTIONARY
360
3AB6
102
}
102
{ACAD_REACTORS
330
3ABC
102
}
330
1F
100
AcDbEntity
  8
DIM
100
AcDbDimension
280
     0
  2
*D16
 10
34746.87408811262
 20
3412.870157135845
 30
0.0
 11
34764.18497284669
 21
3433.590515958151
 31
0.0
 70
   164
  1
4-<>
 71
     5
 42
76.99999999997089
 73
     0
 74
     0
 75
     0
  3
ISO-25
100
AcDbRadialDimension
 15
34697.50600942663
 25
3353.778763457502
 35
0.0
 40
0.0
1001
ACAD
1000
DSTYLE
1002
{
1070
    41
1040
8.0
1070
   140
1040
15.0
1070
   141
1040
0.5
1070
   143
1040
0.03937007874
1070
   147
1040
3.0
1070
   170
1070
     1
1070
   171
1070
     2
1070
   179
1070
     2
1070
   274
1070
     2
1070
   288
1070
     1
1002
}
  0
DIMENSION
  5
3AC2
102
{ACAD_XDICTIONARY
360
3ACB
102
}
102
{ACAD_REACTORS
330
3AD1
102
}
330
1F
100
AcDbEntity
  8
DIM
100
AcDbDimension
280
     0
  2
*D17
 10
35134.87408811263
 20
3412.870157135858
 30
0.0
 11
35153.96597120466
 21
3431.962040227889
 31
0.0
 70
   164
  1
4-<>
 71
     5
 42
77.00000000000364
 73
     0
 74
     0
 75
     0
  3
ISO-25
100
AcDbRadialDimension
 15
35080.42686596126
 25
3358.422934984498
 35
0.0
 40
0.0
1001
ACAD
1000
DSTYLE
1002
{
1070
    41
1040
8.0
1070
   140
1040
15.0
1070
   141
1040
0.5
1070
   143
1040
0.03937007874
1070
   147
1040
3.0
1070
   170
1070
     1
1070
   171
1070
     2
1070
   179
1070
     2
1070
   274
1070
     2
1070
   288
1070
     1
1002
}
  0
DIMENSION
  5
3AD7
102
{ACAD_XDICTIONARY
360
3AE5
102
}
102
{ACAD_REACTORS
330
3AF0
102
}
330
1F
100
AcDbEntity
  8
DIM
100
AcDbDimension
280
     0
  2
*D18
 10
34772.94321157906
 20
3741.870157135862
 30
0.0
 11
34772.94321157906
 21
3840.370157135859
 31
0.0
 70
   160
 71
     5
 42
120.0
 73
     0
 74
     0
 75
     0
  3
ISO-25
100
AcDbAlignedDimension
 13
34847.87408811264
 23
3621.870157135862
 33
0.0
 14
34847.87408811264
 24
3741.870157135862
 34
0.0
 50
90.0
100
AcDbRotatedDimension
1001
ACAD
1000
DSTYLE
1002
{
1070
    41
1040
8.0
1070
   140
1040
15.0
1070
   141
1040
0.5
1070
   143
1040
0.03937007874
1070
   147
1040
3.0
1070
   170
1070
     1
1070
   171
1070
     2
1070
   179
1070
     2
1070
   274
1070
     2
1002
}
  0
DIMENSION
  5
3B05
102
{ACAD_XDICTIONARY
360
3B13
102
}
102
{ACAD_REACTORS
330
3B1E
102
}
330
1F
100
AcDbEntity
  8
DIM
100
AcDbDimension
280
     0
  2
*D19
 10
35194.77834819054
 20
3691.870157135862
 30
0.0
 11
35194.77834819054
 21
3785.081839980216
 31
0.0
 70
   160
 71
     5
 42
120.0
 73
     0
 74
     0
 75
     0
  3
ISO-25
100
AcDbAlignedDimension
 13
35260.87408811264
 23
3571.870157135862
 33
0.0
 14
35260.87408811264
 24
3691.870157135862
 34
0.0
 50
90.0
100
AcDbRotatedDimension
1001
ACAD
1000
DSTYLE
1002
{
1070
    41
1040
8.0
1070
   140
1040
15.0
1070
   141
1040
0.5
1070
   143
1040
0.03937007874
1070
   147
1040
3.0
1070
   170
1070
     1
1070
   171
1070
     2
1070
   179
1070
     2
1070
   274
1070
     2
1002
}
  0
DIMENSION
  5
3B29
102
{ACAD_XDICTIONARY
360
3B33
102
}
102
{ACAD_REACTORS
330
3B3A
102
}
330
1F
100
AcDbEntity
  8
DIM
100
AcDbDimension
280
     0
  2
*D20
 10
35386.87408811263
 20
3614.870157135874
 30
0.0
 11
35558.47062797027
 21
3775.029942189407
 31
0.0
 70
   164
  1
5-<>
 71
     5
 42
98.99999999999636
 73
     0
 74
     0
 75
     0
  3
ISO-25
100
AcDbRadialDimension
 15
35459.24792546232
 25
3682.420343421926
 35
0.0
 40
0.0
1001
ACAD
1000
DSTYLE
1002
{
1070
    41
1040
8.0
1070
   140
1040
15.0
1070
   141
1040
0.5
1070
   143
1040
0.03937007874
1070
   147
1040
3.0
1070
   170
1070
     1
1070
   171
1070
     2
1070
   179
1070
     2
1070
   274
1070
     2
1070
   288
1070
     1
1002
}
  0
DIMENSION
  5
3B47
102
{ACAD_XDICTIONARY
360
3B50
102
}
102
{ACAD_REACTORS
330
3B56
102
}
330
1F
100
AcDbEntity
  8
DIM
100
AcDbDimension
280
     0
  2
*D21
 10
35055.64487063297
 20
3753.870157135871
 30
0.0
 11
35074.71567893404
 21
3796.279522501816
 31
0.0
 70
   164
 71
     5
 42
40.00000000001818
 73
     0
 74
     0
 75
     0
  3
ISO-25
100
AcDbRadialDimension
 15
35039.23987424494
 25
3717.388982627501
 35
0.0
 40
0.0
1001
ACAD
1000
DSTYLE
1002
{
1070
    41
1040
8.0
1070
   140
1040
15.0
1070
   141
1040
0.5
1070
   143
1040
0.03937007874
1070
   147
1040
3.0
1070
   170
1070
     1
1070
   171
1070
     2
1070
   179
1070
     2
1070
   274
1070
     2
1070
   288
1070
     1
1002
}
  0
ENDSEC
  0
SECTION
  2
OBJECTS
  0
DICTIONARY
  5
C
330
0
100
AcDbDictionary
281
     1
  3
ACAD_CIP_PREVIOUS_PRODUCT_INFO
350
3CFD
  3
ACAD_COLOR
350
6B
  3
ACAD_DETAILVIEWSTYLE
350
3CF7
  3
ACAD_GROUP
350
D
  3
ACAD_LAYOUT
350
1A
  3
ACAD_MATERIAL
350
6A
  3
ACAD_MLEADERSTYLE
350
3CF3
  3
ACAD_MLINESTYLE
350
17
  3
ACAD_PLOTSETTINGS
350
19
  3
ACAD_PLOTSTYLENAME
350
E
  3
ACAD_SCALELIST
350
3CE1
  3
ACAD_SECTIONVIEWSTYLE
350
3CF5
  3
ACAD_TABLESTYLE
350
3CB0
  3
ACAD_VISUALSTYLE
350
3C9F
  3
AcadDim
350
1BCC
  3
ACDB_RECOMPOSE_DATA
350
3E65
  3
AcDbVariableDictionary
350
5E
  3
AcDsDecomposeData
350
3E6B
  0
DICTIONARY
  5
3CB9
330
8
100
AcDbDictionary
280
     1
281
     1
  0
DICTIONARY
  5
3E4F
330
2
100
AcDbDictionary
280
     1
281
     1
  3
ACAD_LAYERSTATES
360
3E50
  0
DICTIONARY
  5
3E3E
330
10
100
AcDbDictionary
280
     1
281
     1
  3
ADSK_XREC_LAYER_RECONCILED
360
3E3F
  0
DICTIONARY
  5
3E40
330
84
100
AcDbDictionary
280
     1
281
     1
  3
ADSK_XREC_LAYER_RECONCILED
360
3E41
  0
DICTIONARY
  5
3E42
330
2D93
100
AcDbDictionary
280
     1
281
     1
  3
ADSK_XREC_LAYER_RECONCILED
360
3E43
  0
DICTIONARY
  5
3CC9
330
39D5
100
AcDbDictionary
280
     1
281
     1
  0
DICTIONARY
  5
3BD8
330
3BD7
100
AcDbDictionary
280
     1
281
     1
  3
ACAD_DIMASSOC
360
3BD9
  0
DICTIONARY
  5
3BDB
330
3BDA
100
AcDbDictionary
280
     1
281
     1
  3
ACAD_DIMASSOC
360
3BDC
  0
DICTIONARY
  5
3BDE
330
3BDD
100
AcDbDictionary
280
     1
281
     1
  3
ACAD_DIMASSOC
360
3BDF
  0
DICTIONARY
  5
3BE1
330
3BE0
100
AcDbDictionary
280
     1
281
     1
  3
ACAD_DIMASSOC
360
3BE2
  0
DICTIONARY
  5
3BE4
330
3BE3
100
AcDbDictionary
280
     1
281
     1
  3
ACAD_DIMASSOC
360
3BE5
  0
DICTIONARY
  5
3BE7
330
3BE6
100
AcDbDictionary
280
     1
281
     1
  3
ACAD_DIMASSOC
360
3BE8
  0
DICTIONARY
  5
39AD
330
39A0
100
AcDbDictionary
280
     1
281
     1
  3
ACAD_DIMASSOC
360
39B7
  0
DICTIONARY
  5
39CB
330
39B8
100
AcDbDictionary
280
     1
281
     1
  3
ACAD_DIMASSOC
360
39DB
  0
DICTIONARY
  5
39E8
330
39DF
100
AcDbDictionary
280
     1
281
     1
  3
ACAD_DIMASSOC
360
39EE
  0
DICTIONARY
  5
39F2
330
39F0
100
AcDbDictionary
280
     1
281
     1
  3
ACAD_DIMASSOC
360
39F3
  0
DICTIONARY
  5
3A04
330
39F7
100
AcDbDictionary
280
     1
281
     1
  3
ACAD_DIMASSOC
360
3A0E
  0
DICTIONARY
  5
3A1C
330
3A0F
100
AcDbDictionary
280
     1
281
     1
  3
ACAD_DIMASSOC
360
3A26
  0
DICTIONARY
  5
3A34
330
3A27
100
AcDbDictionary
280
     1
281
     1
  3
ACAD_DIMASSOC
360
3A3E
  0
DICTIONARY
  5
3A4C
330
3A3F
100
AcDbDictionary
280
     1
281
     1
  3
ACAD_DIMASSOC
360
3A56
  0
DICTIONARY
  5
3A72
330
3A65
100
AcDbDictionary
280
     1
281
     1
  3
ACAD_DIMASSOC
360
3A7C
  0
DICTIONARY
  5
3A8A
330
3A7D
100
AcDbDictionary
280
     1
281
     1
  3
ACAD_DIMASSOC
360
3A94
  0
DICTIONARY
  5
3AA2
330
3A95
100
AcDbDictionary
280
     1
281
     1
  3
ACAD_DIMASSOC
360
3AAC
  0
DICTIONARY
  5
3AB6
330
3AAD
100
AcDbDictionary
280
     1
281
     1
  3
ACAD_DIMASSOC
360
3ABC
  0
DICTIONARY
  5
3ACB
330
3AC2
100
AcDbDictionary
280
     1
281
     1
  3
ACAD_DIMASSOC
360
3AD1
  0
DICTIONARY
  5
3AE5
330
3AD7
100
AcDbDictionary
280
     1
281
     1
  3
ACAD_DIMASSOC
360
3AF0
  0
DICTIONARY
  5
3B13
330
3B05
100
AcDbDictionary
280
     1
281
     1
  3
ACAD_DIMASSOC
360
3B1E
  0
DICTIONARY
  5
3B33
330
3B29
100
AcDbDictionary
280
     1
281
     1
  3
ACAD_DIMASSOC
360
3B3A
  0
DICTIONARY
  5
3B50
330
3B47
100
AcDbDictionary
280
     1
281
     1
  3
ACAD_DIMASSOC
360
3B56
  0
XRECORD
  5
3CFD
102
{ACAD_REACTORS
330
C
102
}
330
C
100
AcDbXrecord
280
     1
300
ACDLT
300
2018
300

  0
DICTIONARY
  5
6B
102
{ACAD_REACTORS
330
C
102
}
330
C
100
AcDbDictionary
281
     1
  0
DICTIONARY
  5
3CF7
102
{ACAD_REACTORS
330
C
102
}
330
C
100
AcDbDictionary
281
     1
  3
Metric50
350
3CF8
  0
DICTIONARY
  5
D
102
{ACAD_REACTORS
330
C
102
}
330
C
100
AcDbDictionary
281
     1
  0
DICTIONARY
  5
1A
102
{ACAD_REACTORS
330
C
102
}
330
C
100
AcDbDictionary
281
     1
  3
Layout1
350
51
  3
Layout2
350
56
  3
Model
350
22
  0
DICTIONARY
  5
6A
102
{ACAD_REACTORS
330
C
102
}
330
C
100
AcDbDictionary
281
     1
  3
ByBlock
350
3C9D
  3
ByLayer
350
3C9C
  3
Global
350
3C9E
  0
DICTIONARY
  5
3CF3
102
{ACAD_REACTORS
330
C
102
}
330
C
100
AcDbDictionary
281
     1
  3
Standard
350
3CF4
  0
DICTIONARY
  5
17
102
{ACAD_REACTORS
330
C
102
}
330
C
100
AcDbDictionary
281
     1
  3
Standard
350
18
  0
DICTIONARY
  5
19
102
{ACAD_REACTORS
330
C
102
}
330
C
100
AcDbDictionary
281
     1
  0
ACDBDICTIONARYWDFLT
  5
E
102
{ACAD_REACTORS
330
C
102
}
330
C
100
AcDbDictionary
281
     1
  3
Normal
350
F
100
AcDbDictionaryWithDefault
340
F
  0
DICTIONARY
  5
3CE1
102
{ACAD_REACTORS
330
C
102
}
330
C
100
AcDbDictionary
281
     1
  3
A0
350
3CE2
  3
A1
350
3CE3
  3
A2
350
3CE4
  3
A3
350
3CE5
  3
A4
350
3CE6
  3
A5
350
3CE7
  3
A6
350
3CE8
  3
A7
350
3CE9
  3
A8
350
3CEA
  3
A9
350
3CEB
  3
B0
350
3CEC
  3
B1
350
3CED
  3
B2
350
3CEE
  3
B3
350
3CEF
  3
B4
350
3CF0
  3
B5
350
3CF1
  3
B6
350
3CF2
  0
DICTIONARY
  5
3CF5
102
{ACAD_REACTORS
330
C
102
}
330
C
100
AcDbDictionary
281
     1
  3
Metric50
350
3CF6
  0
DICTIONARY
  5
3CB0
102
{ACAD_REACTORS
330
C
102
}
330
C
100
AcDbDictionary
281
     1
  3
Standard
350
3CB1
  0
DICTIONARY
  5
3C9F
102
{ACAD_REACTORS
330
C
102
}
330
C
100
AcDbDictionary
281
     1
  3
2dWireframe
350
3CA5
  3
3D Hidden
350
3CA7
  3
3dWireframe
350
3CA6
  3
Basic
350
3CA4
  3
Brighten
350
3CAB
  3
ColorChange
350
3CAF
  3
Conceptual
350
3CA8
  3
Dim
350
3CAA
  3
EdgeColorOff
350
3CE0
  3
Facepattern
350
3CAE
  3
Flat
350
3CA0
  3
FlatWithEdges
350
3CA1
  3
Gouraud
350
3CA2
  3
GouraudWithEdges
350
3CA3
  3
Hidden
350
3CD8
  3
JitterOff
350
3CDE
  3
Linepattern
350
3CAD
  3
OverhangOff
350
3CDF
  3
Realistic
350
3CA9
  3
Shaded
350
3CDD
  3
Shaded with edges
350
3CDC
  3
Shades of Gray
350
3CD9
  3
Sketchy
350
3CDA
  3
Thicken
350
3CAC
  3
Wireframe
350
3CD7
  3
X-Ray
350
3CDB
  0
XRECORD
  5
1BCC
102
{ACAD_REACTORS
330
C
102
}
330
C
100
AcDbXrecord
280
     1
 90
   990106
  3

 60
     0
 61
     0
 62
     1
 63
     3
 64
     0
 65
     0
 66
     0
 67
     3
 68
     1
 69
     0
 70
     0
 71
     0
 72
     0
 40
0.0
170
     0
340
39F6
  0
XRECORD
  5
3E65
102
{ACAD_REACTORS
330
C
102
}
330
C
100
AcDbXrecord
280
     1
 90
        1
330
3CB1
  0
DICTIONARY
  5
5E
102
{ACAD_REACTORS
330
C
102
}
330
C
100
AcDbDictionary
281
     1
  3
CANNOSCALE
350
3E59
  3
CMLEADERSTYLE
350
3E55
  3
CTABLESTYLE
350
3CD3
  3
CVIEWDETAILSTYLE
350
3E56
  3
CVIEWSECTIONSTYLE
350
3E57
  3
DIMASSOC
350
5F
  3
HIDETEXT
350
63
  3
INDEXCTL
350
3CD5
  3
LAYEREVAL
350
3E5B
  3
LAYERNOTIFY
350
3E5C
  3
LIGHTINGUNITS
350
3E5A
  3
MSLTSCALE
350
3E58
  3
PROJECTNAME
350
1CF
  3
SORTENTS
350
3CD4
  0
DICTIONARY
  5
3E6B
102
{ACAD_REACTORS
330
C
102
}
330
C
100
AcDbDictionary
281
     1
  3
AcDsRecords
350
3E6D
  3
AcDsSchemas
350
3E6C
1001
ACAD
1070
     2
  0
DICTIONARY
  5
3E50
102
{ACAD_REACTORS
330
3E4F
102
}
330
3E4F
100
AcDbDictionary
281
     1
  0
XRECORD
  5
3E3F
102
{ACAD_REACTORS
330
3E3E
102
}
330
3E3E
100
AcDbXrecord
280
     1
290
     1
  0
XRECORD
  5
3E41
102
{ACAD_REACTORS
330
3E40
102
}
330
3E40
100
AcDbXrecord
280
     1
290
     1
  0
XRECORD
  5
3E43
102
{ACAD_REACTORS
330
3E42
102
}
330
3E42
100
AcDbXrecord
280
     1
290
     1
  0
DIMASSOC
  5
3BD9
102
{ACAD_REACTORS
330
3BD8
102
}
330
3BD8
100
AcDbDimAssoc
330
3BD7
 90
        3
 70
     0
 71
     0
  1
AcDbOsnapPointRef
 72
    13
331
3BF5
 73
     2
 91
        0
 40
0.0
 10
0.0
 20
0.0
 30
2.000000000000000E+50
 75
     0
  1
AcDbOsnapPointRef
 72
     1
331
3BF3
 73
     2
 91
        0
 40
1.0
 10
0.0
 20
0.0
 30
2.000000000000000E+50
 75
     0
  0
DIMASSOC
  5
3BDC
102
{ACAD_REACTORS
330
3BDB
102
}
330
3BDB
100
AcDbDimAssoc
330
3BDA
 90
        3
 70
     0
 71
     0
  1
AcDbOsnapPointRef
 72
    13
331
3BF2
 73
     2
 91
        0
 40
0.0
 10
0.0
 20
0.0
 30
2.000000000000000E+50
 75
     0
  1
AcDbOsnapPointRef
 72
    13
331
3BF5
 73
     2
 91
        0
 40
0.0
 10
0.0
 20
0.0
 30
2.000000000000000E+50
 75
     0
  0
DIMASSOC
  5
3BDF
102
{ACAD_REACTORS
330
3BDE
102
}
330
3BDE
100
AcDbDimAssoc
330
3BDD
 90
        3
 70
     0
 71
     0
  1
AcDbOsnapPointRef
 72
    13
331
3BF2
 73
     2
 91
        0
 40
0.0
 10
0.0
 20
0.0
 30
2.000000000000000E+50
 75
     0
  1
AcDbOsnapPointRef
 72
     1
331
3BEF
 73
     2
 91
        0
 40
0.9999999999999998
 10
0.0
 20
0.0
 30
2.000000000000000E+50
 75
     0
  0
DIMASSOC
  5
3BE2
102
{ACAD_REACTORS
330
3BE1
102
}
330
3BE1
100
AcDbDimAssoc
330
3BE0
 90
        3
 70
     0
 71
     0
  1
AcDbOsnapPointRef
 72
    13
331
3BF2
 73
     2
 91
        0
 40
0.0
 10
0.0
 20
0.0
 30
2.000000000000000E+50
 75
     0
  1
AcDbOsnapPointRef
 72
    13
331
3BEE
 73
     2
 91
        0
 40
0.0
 10
0.0
 20
0.0
 30
2.000000000000000E+50
 75
     0
  0
DIMASSOC
  5
3BE5
102
{ACAD_REACTORS
330
3BE4
102
}
330
3BE4
100
AcDbDimAssoc
330
3BE3
 90
        3
 70
     0
 71
     0
  1
AcDbOsnapPointRef
 72
     1
331
3BEE
 73
     2
 91
        0
 40
0.9999999999999998
 10
0.0
 20
0.0
 30
2.000000000000000E+50
 75
     0
  1
AcDbOsnapPointRef
 72
     1
331
3BF5
 73
     2
 91
        0
 40
1.0
 10
0.0
 20
0.0
 30
2.000000000000000E+50
 75
     0
  0
DIMASSOC
  5
3BE8
102
{ACAD_REACTORS
330
3BE7
102
}
330
3BE7
100
AcDbDimAssoc
330
3BE6
 90
        3
 70
     0
 71
     0
  1
AcDbOsnapPointRef
 72
    13
331
3BEF
 73
     2
 91
        0
 40
0.0
 10
0.0
 20
0.0
 30
2.000000000000000E+50
 75
     0
  1
AcDbOsnapPointRef
 72
     1
331
3BF5
 73
     2
 91
        0
 40
1.0
 10
0.0
 20
0.0
 30
2.000000000000000E+50
 75
     0
  0
DIMASSOC
  5
39B7
102
{ACAD_REACTORS
330
39AD
102
}
330
39AD
100
AcDbDimAssoc
330
39A0
 90
        3
 70
     0
 71
     0
  1
AcDbOsnapPointRef
 72
     1
331
3746
 73
     2
 91
        0
 40
1.0
 10
0.0
 20
0.0
 30
2.000000000000000E+50
 75
     0
  1
AcDbOsnapPointRef
 72
    13
331
389E
 73
     2
 91
        0
 40
0.0
 10
0.0
 20
0.0
 30
2.000000000000000E+50
 75
     0
  0
DIMASSOC
  5
39DB
102
{ACAD_REACTORS
330
39CB
102
}
330
39CB
100
AcDbDimAssoc
330
39B8
 90
       15
 70
     0
 71
     0
  1
AcDbOsnapPointRef
 72
    13
331
3776
 73
     2
 91
        0
 40
0.0
 10
0.0
 20
0.0
 30
2.000000000000000E+50
 75
     0
  1
AcDbOsnapPointRef
 72
     1
331
3776
 73
     2
 91
        0
 40
1.0
 10
0.0
 20
0.0
 30
2.000000000000000E+50
 75
     0
  1
AcDbOsnapPointRef
 72
    13
331
3773
 73
     2
 91
        0
 40
0.0
 10
0.0
 20
0.0
 30
2.000000000000000E+50
 75
     0
  1
AcDbOsnapPointRef
 72
     1
331
3773
 73
     2
 91
        0
 40
1.0
 10
0.0
 20
0.0
 30
2.000000000000000E+50
 75
     0
  0
DIMASSOC
  5
39EE
102
{ACAD_REACTORS
330
39E8
102
}
330
39E8
100
AcDbDimAssoc
330
39DF
 90
        2
 70
     0
 71
     0
  1
AcDbOsnapPointRef
 72
     3
331
3750
 73
     2
 91
        0
 40
0.0
 10
0.0
 20
0.0
 30
0.0
 75
     0
  0
DIMASSOC
  5
39F3
102
{ACAD_REACTORS
330
39F2
102
}
330
39F2
100
AcDbDimAssoc
330
39F0
 90
        1
 70
     0
 71
     0
  1
AcDbOsnapPointRef
 72
     5
331
39EF
 73
     2
 91
        0
 40
3.141592653589793
 10
0.0
 20
0.0
 30
0.0
 75
     0
  0
DIMASSOC
  5
3A0E
102
{ACAD_REACTORS
330
3A04
102
}
330
3A04
100
AcDbDimAssoc
330
39F7
 90
        3
 70
     0
 71
     0
  1
AcDbOsnapPointRef
 72
     1
331
372F
 73
     2
 91
        8
 40
1.0
 10
0.0
 20
0.0
 30
2.000000000000000E+50
 75
     0
  1
AcDbOsnapPointRef
 72
    13
331
372F
 73
     2
 91
        4
 40
0.0
 10
0.0
 20
0.0
 30
2.000000000000000E+50
 75
     0
  0
DIMASSOC
  5
3A26
102
{ACAD_REACTORS
330
3A1C
102
}
330
3A1C
100
AcDbDimAssoc
330
3A0F
 90
        3
 70
     0
 71
     0
  1
AcDbOsnapPointRef
 72
    13
331
372D
 73
     2
 91
        1
 40
0.0
 10
0.0
 20
0.0
 30
2.000000000000000E+50
 75
     0
  1
AcDbOsnapPointRef
 72
     6
331
372D
 73
     2
 91
        8
 40
0.9999999999999278
 10
0.0
 20
0.0
 30
0.0
332
372D
 74
     2
 92
        9
 75
     0
  0
DIMASSOC
  5
3A3E
102
{ACAD_REACTORS
330
3A34
102
}
330
3A34
100
AcDbDimAssoc
330
3A27
 90
        3
 70
     0
 71
     0
  1
AcDbOsnapPointRef
 72
     5
331
372F
 73
     2
 91
        1
 40
3.141592653589793
 10
0.0
 20
0.0
 30
0.0
 75
     0
  1
AcDbOsnapPointRef
 72
     1
331
372F
 73
     2
 91
        6
 40
1.0
 10
0.0
 20
0.0
 30
2.000000000000000E+50
 75
     0
  0
DIMASSOC
  5
3A56
102
{ACAD_REACTORS
330
3A4C
102
}
330
3A4C
100
AcDbDimAssoc
330
3A3F
 90
        3
 70
     0
 71
     0
  1
AcDbOsnapPointRef
 72
     5
331
372E
 73
     2
 91
        5
 40
3.141592653589793
 10
0.0
 20
0.0
 30
0.0
 75
     0
  1
AcDbOsnapPointRef
 72
     5
331
372E
 73
     2
 91
        7
 40
6.283185307179586
 10
0.0
 20
0.0
 30
0.0
 75
     0
  0
DIMASSOC
  5
3A7C
102
{ACAD_REACTORS
330
3A72
102
}
330
3A72
100
AcDbDimAssoc
330
3A65
 90
        3
 70
     0
 71
     0
  1
AcDbOsnapPointRef
 72
     1
331
372D
 73
     2
 91
       10
 40
1.0
 10
0.0
 20
0.0
 30
2.000000000000000E+50
 75
     0
  1
AcDbOsnapPointRef
 72
     1
331
372D
 73
     2
 91
        2
 40
6.283185307179531
 10
0.0
 20
0.0
 30
2.000000000000000E+50
 75
     0
  0
DIMASSOC
  5
3A94
102
{ACAD_REACTORS
330
3A8A
102
}
330
3A8A
100
AcDbDimAssoc
330
3A7D
 90
        3
 70
     0
 71
     0
  1
AcDbOsnapPointRef
 72
     1
331
372E
 73
     2
 91
        6
 40
1.0
 10
0.0
 20
0.0
 30
2.000000000000000E+50
 75
     0
  1
AcDbOsnapPointRef
 72
    13
331
372E
 73
     2
 91
        2
 40
0.0
 10
0.0
 20
0.0
 30
2.000000000000000E+50
 75
     0
  0
DIMASSOC
  5
3AAC
102
{ACAD_REACTORS
330
3AA2
102
}
330
3AA2
100
AcDbDimAssoc
330
3A95
 90
        3
 70
     0
 71
     0
  1
AcDbOsnapPointRef
 72
    13
331
372D
 73
     2
 91
        5
 40
0.0
 10
0.0
 20
0.0
 30
2.000000000000000E+50
 75
     0
  1
AcDbOsnapPointRef
 72
     1
331
372D
 73
     2
 91
        1
 40
1.0
 10
0.0
 20
0.0
 30
2.000000000000000E+50
 75
     0
  0
DIMASSOC
  5
3ABC
102
{ACAD_REACTORS
330
3AB6
102
}
330
3AB6
100
AcDbDimAssoc
330
3AAD
 90
        2
 70
     0
 71
     0
  1
AcDbOsnapPointRef
 72
     3
331
372F
 73
     2
 91
        1
 40
0.0
 10
0.0
 20
0.0
 30
0.0
 75
     0
  0
DIMASSOC
  5
3AD1
102
{ACAD_REACTORS
330
3ACB
102
}
330
3ACB
100
AcDbDimAssoc
330
3AC2
 90
        2
 70
     0
 71
     0
  1
AcDbOsnapPointRef
 72
     3
331
372E
 73
     2
 91
        5
 40
0.0
 10
0.0
 20
0.0
 30
0.0
 75
     0
  0
DIMASSOC
  5
3AF0
102
{ACAD_REACTORS
330
3AE5
102
}
330
3AE5
100
AcDbDimAssoc
330
3AD7
 90
        3
 70
     0
 71
     0
  1
AcDbOsnapPointRef
 72
     2
331
3736
 73
     2
 91
        0
 40
0.5
 10
0.0
 20
0.0
 30
0.0
 75
     0
  1
AcDbOsnapPointRef
 72
    13
331
3731
 73
     2
 91
        0
 40
0.0
 10
0.0
 20
0.0
 30
2.000000000000000E+50
 75
     0
  0
DIMASSOC
  5
3B1E
102
{ACAD_REACTORS
330
3B13
102
}
330
3B13
100
AcDbDimAssoc
330
3B05
 90
        3
 70
     0
 71
     0
  1
AcDbOsnapPointRef
 72
     2
331
3737
 73
     2
 91
        0
 40
0.5
 10
0.0
 20
0.0
 30
0.0
 75
     0
  1
AcDbOsnapPointRef
 72
    13
331
3733
 73
     2
 91
        0
 40
0.0
 10
0.0
 20
0.0
 30
2.000000000000000E+50
 75
     0
  0
DIMASSOC
  5
3B3A
102
{ACAD_REACTORS
330
3B33
102
}
330
3B33
100
AcDbDimAssoc
330
3B29
 90
        2
 70
     0
 71
     0
  1
AcDbOsnapPointRef
 72
     3
331
372D
 73
     2
 91
        4
 40
0.0
 10
0.0
 20
0.0
 30
0.0
 75
     0
  0
DIMASSOC
  5
3B56
102
{ACAD_REACTORS
330
3B50
102
}
330
3B50
100
AcDbDimAssoc
330
3B47
 90
        2
 70
     0
 71
     0
  1
AcDbOsnapPointRef
 72
     3
331
372D
 73
     2
 91
        6
 40
0.0
 10
0.0
 20
0.0
 30
0.0
 75
     0
  0
ACDBDETAILVIEWSTYLE
  5
3CF8
102
{ACAD_XDICTIONARY
360
3E70
102
}
102
{ACAD_REACTORS
330
3CF7
102
}
330
3CF7
100
AcDbModelDocViewStyle
 70
     0
  3
Metric50
290
     0
100
AcDbDetailViewStyle
 70
     0
 71
     0
 90
        3
 71
     1
340
11
 62
   256
 40
5.0
340
0
 62
   256
 40
5.0
300

 40
0.0
280
     1
 71
     2
340
16
 90
       25
 62
   256
 71
     3
340
11
 62
   256
 40
5.0
 90
        0
 40
15.0
 90
        1
300
%<\AcVar ViewDetailId>% (%<\AcVar ViewScale \f "%sn">%)
 71
     4
340
16
 90
       25
 62
   256
340
16
 90
       25
 62
   256
280
     0
  0
LAYOUT
  5
51
102
{ACAD_REACTORS
330
1A
102
}
330
1A
100
AcDbPlotSettings
  1

  2
None
  4

  6

 40
0.0
 41
0.0
 42
0.0
 43
0.0
 44
0.0
 45
0.0
 46
0.0
 47
0.0
 48
0.0
 49
0.0
140
0.0
141
0.0
142
1.0
143
1.0
 70
   688
 72
     0
 73
     0
 74
     5
  7

 75
    16
147
1.0
 76
     0
 77
     2
 78
   300
148
0.0
149
0.0
100
AcDbLayout
  1
Layout1
 70
     1
 71
     1
 10
0.0
 20
0.0
 11
12.0
 21
9.0
 12
0.0
 22
0.0
 32
0.0
 14
0.0
 24
0.0
 34
0.0
 15
0.0
 25
0.0
 35
0.0
146
0.0
 13
0.0
 23
0.0
 33
0.0
 16
1.0
 26
0.0
 36
0.0
 17
0.0
 27
1.0
 37
0.0
 76
     0
330
50
  0
LAYOUT
  5
56
102
{ACAD_REACTORS
330
1A
102
}
330
1A
100
AcDbPlotSettings
  1

  2
None
  4

  6

 40
0.0
 41
0.0
 42
0.0
 43
0.0
 44
0.0
 45
0.0
 46
0.0
 47
0.0
 48
0.0
 49
0.0
140
0.0
141
0.0
142
1.0
143
1.0
 70
   688
 72
     0
 73
     0
 74
     5
  7

 75
    16
147
1.0
 76
     0
 77
     2
 78
   300
148
0.0
149
0.0
100
AcDbLayout
  1
Layout2
 70
     1
 71
     2
 10
0.0
 20
0.0
 11
12.0
 21
9.0
 12
0.0
 22
0.0
 32
0.0
 14
0.0
 24
0.0
 34
0.0
 15
0.0
 25
0.0
 35
0.0
146
0.0
 13
0.0
 23
0.0
 33
0.0
 16
1.0
 26
0.0
 36
0.0
 17
0.0
 27
1.0
 37
0.0
 76
     0
330
55
  0
LAYOUT
  5
22
102
{ACAD_REACTORS
330
1A
102
}
330
1A
100
AcDbPlotSettings
  1

  2
none_device
  4
ANSI_A_(8.50_x_11.00_Inches)
  6

 40
6.349999904632568
 41
19.04999923706055
 42
6.350006103515625
 43
19.04998779296875
 44
215.8999938964844
 45
279.3999938964844
 46
0.0
 47
0.0
 48
0.0
 49
0.0
140
0.0
141
0.0
142
1.0
143
78.436453180766
 70
 11952
 72
     0
 73
     1
 74
     0
  7

 75
     0
147
0.0127491741332998
 76
     0
 77
     2
 78
   300
148
0.0
149
0.0
100
AcDbLayout
  1
Model
 70
     1
 71
     0
 10
0.0
 20
0.0
 11
12.0
 21
9.0
 12
0.0
 22
0.0
 32
0.0
 14
0.0
 24
0.0
 34
0.0
 15
0.0
 25
0.0
 35
0.0
146
0.0
 13
0.0
 23
0.0
 33
0.0
 16
1.0
 26
0.0
 36
0.0
 17
0.0
 27
1.0
 37
0.0
 76
     0
330
1F
331
3C9A
  0
MATERIAL
  5
3C9D
102
{ACAD_REACTORS
330
6A
102
}
330
6A
100
AcDbMaterial
  1
ByBlock
 73
     1
 78
     1
172
     1
176
     1
270
     1
274
     1
 94
       63
  0
MATERIAL
  5
3C9C
102
{ACAD_REACTORS
330
6A
102
}
330
6A
100
AcDbMaterial
  1
ByLayer
 73
     1
 78
     1
172
     1
176
     1
270
     1
274
     1
 94
       63
  0
MATERIAL
  5
3C9E
102
{ACAD_REACTORS
330
6A
102
}
330
6A
100
AcDbMaterial
  1
Global
 73
     1
 78
     1
172
     1
176
     1
270
     1
274
     1
 94
       63
  0
MLEADERSTYLE
  5
3CF4
102
{ACAD_REACTORS
330
3CF3
102
}
330
3CF3
100
AcDbMLeaderStyle
179
     2
170
     2
171
     1
172
     0
 90
        2
 40
0.0
 41
0.0
173
     1
 91
-1056964608
340
14
 92
       -2
290
     1
 42
2.0
291
     1
 43
0.36
  3
Standard
 44
4.0
300

342
11
174
     1
178
     6
175
     1
176
     0
 93
-1056964608
 45
4.0
292
     0
297
     0
 46
4.0
 94
-1056964608
 47
1.0
 49
1.0
140
1.0
293
     1
141
0.0
294
     1
177
     0
142
1.0
295
     0
296
     0
143
0.125
271
     0
272
     9
273
     9
298
     1
  0
MLINESTYLE
  5
18
102
{ACAD_REACTORS
330
17
102
}
330
17
100
AcDbMlineStyle
  2
STANDARD
 70
     0
  3

 62
   256
 51
90.0
 52
90.0
 71
     2
 49
0.5
 62
   256
  6
BYLAYER
 49
-0.5
 62
   256
  6
BYLAYER
  0
ACDBPLACEHOLDER
  5
F
102
{ACAD_REACTORS
330
E
102
}
330
E
  0
SCALE
  5
3CE2
102
{ACAD_REACTORS
330
3CE1
102
}
330
3CE1
100
AcDbScale
 70
     0
300
1:1
140
1.0
141
1.0
290
     1
  0
SCALE
  5
3CE3
102
{ACAD_REACTORS
330
3CE1
102
}
330
3CE1
100
AcDbScale
 70
     0
300
1:2
140
1.0
141
2.0
290
     0
  0
SCALE
  5
3CE4
102
{ACAD_REACTORS
330
3CE1
102
}
330
3CE1
100
AcDbScale
 70
     0
300
1:4
140
1.0
141
4.0
290
     0
  0
SCALE
  5
3CE5
102
{ACAD_REACTORS
330
3CE1
102
}
330
3CE1
100
AcDbScale
 70
     0
300
1:5
140
1.0
141
5.0
290
     0
  0
SCALE
  5
3CE6
102
{ACAD_REACTORS
330
3CE1
102
}
330
3CE1
100
AcDbScale
 70
     0
300
1:8
140
1.0
141
8.0
290
     0
  0
SCALE
  5
3CE7
102
{ACAD_REACTORS
330
3CE1
102
}
330
3CE1
100
AcDbScale
 70
     0
300
1:10
140
1.0
141
10.0
290
     0
  0
SCALE
  5
3CE8
102
{ACAD_REACTORS
330
3CE1
102
}
330
3CE1
100
AcDbScale
 70
     0
300
1:16
140
1.0
141
16.0
290
     0
  0
SCALE
  5
3CE9
102
{ACAD_REACTORS
330
3CE1
102
}
330
3CE1
100
AcDbScale
 70
     0
300
1:20
140
1.0
141
20.0
290
     0
  0
SCALE
  5
3CEA
102
{ACAD_REACTORS
330
3CE1
102
}
330
3CE1
100
AcDbScale
 70
     0
300
1:30
140
1.0
141
30.0
290
     0
  0
SCALE
  5
3CEB
102
{ACAD_REACTORS
330
3CE1
102
}
330
3CE1
100
AcDbScale
 70
     0
300
1:40
140
1.0
141
40.0
290
     0
  0
SCALE
  5
3CEC
102
{ACAD_REACTORS
330
3CE1
102
}
330
3CE1
100
AcDbScale
 70
     0
300
1:50
140
1.0
141
50.0
290
     0
  0
SCALE
  5
3CED
102
{ACAD_REACTORS
330
3CE1
102
}
330
3CE1
100
AcDbScale
 70
     0
300
1:100
140
1.0
141
100.0
290
     0
  0
SCALE
  5
3CEE
102
{ACAD_REACTORS
330
3CE1
102
}
330
3CE1
100
AcDbScale
 70
     0
300
2:1
140
2.0
141
1.0
290
     0
  0
SCALE
  5
3CEF
102
{ACAD_REACTORS
330
3CE1
102
}
330
3CE1
100
AcDbScale
 70
     0
300
4:1
140
4.0
141
1.0
290
     0
  0
SCALE
  5
3CF0
102
{ACAD_REACTORS
330
3CE1
102
}
330
3CE1
100
AcDbScale
 70
     0
300
8:1
140
8.0
141
1.0
290
     0
  0
SCALE
  5
3CF1
102
{ACAD_REACTORS
330
3CE1
102
}
330
3CE1
100
AcDbScale
 70
     0
300
10:1
140
10.0
141
1.0
290
     0
  0
SCALE
  5
3CF2
102
{ACAD_REACTORS
330
3CE1
102
}
330
3CE1
100
AcDbScale
 70
     0
300
100:1
140
100.0
141
1.0
290
     0
  0
ACDBSECTIONVIEWSTYLE
  5
3CF6
102
{ACAD_XDICTIONARY
360
3E6E
102
}
102
{ACAD_REACTORS
330
3CF5
102
}
330
3CF5
100
AcDbModelDocViewStyle
 70
     0
  3
Metric50
290
     0
100
AcDbSectionViewStyle
 70
     0
 71
     0
 90
      102
 71
     1
340
11
 62
   256
 40
5.0
340
0
340
0
 62
   256
 40
5.0
300
I, O, Q, S, X, Z
 40
10.0
 90
        0
 40
2.5
 90
        0
 71
     2
340
16
 90
       25
 62
   256
340
16
 90
       50
 62
   256
 40
5.0
 40
2.5
 40
5.0
 71
     3
340
11
 62
   256
 40
5.0
 90
        0
 40
15.0
 90
        1
300
%<\AcVar ViewSectionStartId>%-%<\AcVar ViewSectionEndId>% (%<\AcVar ViewScale \f "%sn">%)
 71
     4
 62
   256
 62
   257
300
ANSI31
 40
1.0
 90
        0
290
     0
290
     0
 90
        6
 40
0.0
 40
1.570796326794896
 40
0.2617993877991494
 40
1.308996938995747
 40
-0.2617993877991494
 40
1.832595714594046
  0
TABLESTYLE
  5
3CB1
102
{ACAD_XDICTIONARY
360
3E63
102
}
102
{ACAD_REACTORS
330
3CB0
102
}
330
3CB0
100
AcDbTableStyle
280
     0
  3
Standard
 70
     0
 71
     0
 40
1.5
 41
1.5
280
     0
281
     0
  7
Standard
140
4.5
170
     2
 62
     0
 63
     7
283
     0
 90
      512
 91
        0
  1

274
    -2
284
     1
 64
     0
275
    -2
285
     1
 65
     0
276
    -2
286
     1
 66
     0
277
    -2
287
     1
 67
     0
278
    -2
288
     1
 68
     0
279
    -2
289
     1
 69
     0
  7
Standard
140
6.0
170
     5
 62
     0
 63
     7
283
     0
 90
      512
 91
        0
  1

274
    -2
284
     1
 64
     0
275
    -2
285
     1
 65
     0
276
    -2
286
     1
 66
     0
277
    -2
287
     1
 67
     0
278
    -2
288
     1
 68
     0
279
    -2
289
     1
 69
     0
  7
Standard
140
4.5
170
     5
 62
     0
 63
     7
283
     0
 90
      512
 91
        0
  1

274
    -2
284
     1
 64
     0
275
    -2
285
     1
 65
     0
276
    -2
286
     1
 66
     0
277
    -2
287
     1
 67
     0
278
    -2
288
     1
 68
     0
279
    -2
289
     1
 69
     0
  0
VISUALSTYLE
  5
3CA5
102
{ACAD_REACTORS
330
3C9F
102
}
330
3C9F
100
AcDbVisualStyle
  2
2dWireframe
 70
     4
177
     3
291
     0
 70
    58
 90
        0
176
     1
 90
        2
176
     1
 90
        0
176
     1
 90
        0
176
     1
 40
0.6
176
     1
 40
30.0
176
     1
 62
     7
176
     1
 90
        1
176
     1
 90
        4
176
     1
 62
     7
176
     1
 62
   257
176
     1
 90
        1
176
     1
 90
        1
176
     1
 40
1.0
176
     1
 90
        0
176
     1
 62
   257
176
     1
 40
1.0
176
     1
 90
        1
176
     1
 90
        6
176
     1
 90
        2
176
     1
 62
     7
176
     1
 90
        5
176
     1
 90
        0
176
     1
 90
        0
176
     1
290
     0
176
     1
 90
        1
176
     1
 40
0.0
176
     1
 90
        0
176
     1
290
     1
176
     1
290
     1
176
     1
290
     0
176
     1
290
     0
176
     1
290
     0
176
     1
290
     0
176
     1
290
     0
176
     1
290
     0
176
     1
290
     0
176
     1
 90
       50
176
     1
 40
0.0
176
     1
 40
1.0
176
     1
 90
        0
176
     1
 62
    18
420
        0
176
     1
 90
       50
176
     1
 90
        3
176
     1
 62
     5
420
      255
176
     1
290
     0
176
     1
 90
       50
176
     1
 90
       50
176
     1
 90
       50
176
     1
290
     0
176
     1
 90
       50
176
     1
 62
   256
176
     0
 40
1.0
176
     0
 90
        2
176
     1
  1
strokes_ogs.tif
176
     1
290
     0
176
     1
 40
1.0
176
     1
 40
1.0
176
     1
1001
ACAD
1000
AcDbSavedByObjectVersion
1070
     0
  0
VISUALSTYLE
  5
3CA7
102
{ACAD_REACTORS
330
3C9F
102
}
330
3C9F
100
AcDbVisualStyle
  2
3D Hidden
 70
     6
177
     3
291
     0
 70
    58
 90
        1
176
     1
 90
        2
176
     1
 90
        2
176
     1
 90
        0
176
     1
 40
0.6
176
     1
 40
30.0
176
     1
 62
     7
176
     1
 90
        2
176
     1
 90
        2
176
     1
 62
     7
176
     1
 62
   257
176
     1
 90
        2
176
     1
 90
        1
176
     1
 40
40.0
176
     1
 90
        0
176
     1
 62
   257
176
     1
 40
1.0
176
     1
 90
        1
176
     1
 90
        6
176
     1
 90
        2
176
     1
 62
     7
176
     1
 90
        3
176
     1
 90
        0
176
     1
 90
        0
176
     1
290
     0
176
     1
 90
        1
176
     1
 40
0.0
176
     1
 90
        0
176
     1
290
     0
176
     1
290
     1
176
     1
290
     1
176
     1
290
     0
176
     1
290
     0
176
     1
290
     0
176
     1
290
     0
176
     1
290
     0
176
     1
290
     0
176
     1
 90
       50
176
     1
 40
0.0
176
     1
 40
1.0
176
     1
 90
        0
176
     1
 62
    18
420
        0
176
     1
 90
       50
176
     1
 90
        3
176
     1
 62
     5
420
      255
176
     1
290
     0
176
     1
 90
       50
176
     1
 90
       50
176
     1
 90
       50
176
     1
290
     0
176
     1
 90
       50
176
     1
 62
   256
176
     0
 40
1.0
176
     0
 90
        2
176
     1
  1
strokes_ogs.tif
176
     1
290
     0
176
     1
 40
1.0
176
     1
 40
1.0
176
     1
1001
ACAD
1000
AcDbSavedByObjectVersion
1070
     0
  0
VISUALSTYLE
  5
3CA6
102
{ACAD_REACTORS
330
3C9F
102
}
330
3C9F
100
AcDbVisualStyle
  2
3dWireframe
 70
     5
177
     3
291
     0
 70
    58
 90
        0
176
     1
 90
        2
176
     1
 90
        0
176
     1
 90
        0
176
     1
 40
0.6
176
     1
 40
30.0
176
     1
 62
     7
176
     1
 90
        1
176
     1
 90
        4
176
     1
 62
     7
176
     1
 62
   257
176
     1
 90
        1
176
     1
 90
        1
176
     1
 40
1.0
176
     1
 90
        0
176
     1
 62
   257
176
     1
 40
1.0
176
     1
 90
        1
176
     1
 90
        6
176
     1
 90
        2
176
     1
 62
     7
176
     1
 90
        5
176
     1
 90
        0
176
     1
 90
        0
176
     1
290
     0
176
     1
 90
        1
176
     1
 40
0.0
176
     1
 90
        0
176
     1
290
     0
176
     1
290
     1
176
     1
290
     1
176
     1
290
     0
176
     1
290
     0
176
     1
290
     0
176
     1
290
     0
176
     1
290
     0
176
     1
290
     0
176
     1
 90
       50
176
     1
 40
0.0
176
     1
 40
1.0
176
     1
 90
        0
176
     1
 62
    18
420
        0
176
     1
 90
       50
176
     1
 90
        3
176
     1
 62
     5
420
      255
176
     1
290
     0
176
     1
 90
       50
176
     1
 90
       50
176
     1
 90
       50
176
     1
290
     0
176
     1
 90
       50
176
     1
 62
   256
176
     0
 40
1.0
176
     0
 90
        2
176
     1
  1
strokes_ogs.tif
176
     1
290
     0
176
     1
 40
1.0
176
     1
 40
1.0
176
     1
1001
ACAD
1000
AcDbSavedByObjectVersion
1070
     0
  0
VISUALSTYLE
  5
3CA4
102
{ACAD_REACTORS
330
3C9F
102
}
330
3C9F
100
AcDbVisualStyle
  2
Basic
 70
     7
177
     3
291
     1
 70
    58
 90
        1
176
     1
 90
        0
176
     1
 90
        1
176
     1
 90
        0
176
     1
 40
0.6
176
     1
 40
30.0
176
     1
 62
     7
176
     1
 90
        0
176
     1
 90
        4
176
     1
 62
     7
176
     1
 62
   257
176
     1
 90
        1
176
     1
 90
        1
176
     1
 40
1.0
176
     1
 90
        8
176
     1
 62
     7
176
     1
 40
1.0
176
     1
 90
        1
176
     1
 90
        6
176
     1
 90
        2
176
     1
 62
     7
176
     1
 90
        5
176
     1
 90
        0
176
     1
 90
        0
176
     1
290
     0
176
     1
 90
        1
176
     1
 40
0.0
176
     1
 90
        0
176
     1
290
     0
176
     1
290
     1
176
     1
290
     1
176
     1
290
     0
176
     1
290
     0
176
     1
290
     0
176
     1
290
     0
176
     1
290
     0
176
     1
290
     0
176
     1
 90
       50
176
     1
 40
0.0
176
     1
 40
1.0
176
     1
 90
        0
176
     1
 62
    18
420
        0
176
     1
 90
       50
176
     1
 90
        3
176
     1
 62
     5
420
      255
176
     1
290
     0
176
     1
 90
       50
176
     1
 90
       50
176
     1
 90
       50
176
     1
290
     0
176
     1
 90
       50
176
     1
 62
   256
176
     0
 40
1.0
176
     0
 90
        2
176
     1
  1
strokes_ogs.tif
176
     1
290
     0
176
     1
 40
1.0
176
     1
 40
1.0
176
     1
1001
ACAD
1000
AcDbSavedByObjectVersion
1070
     0
  0
VISUALSTYLE
  5
3CAB
102
{ACAD_REACTORS
330
3C9F
102
}
330
3C9F
100
AcDbVisualStyle
  2
Brighten
 70
    12
177
     3
291
     1
 70
    58
 90
        2
176
     1
 90
        2
176
     1
 90
        0
176
     1
 90
        0
176
     1
 40
0.6
176
     1
 40
30.0
176
     1
 62
     7
176
     1
 90
        1
176
     1
 90
        4
176
     1
 62
     7
176
     1
 62
   257
176
     1
 90
        1
176
     1
 90
        1
176
     1
 40
1.0
176
     1
 90
        8
176
     1
 62
     7
176
     1
 40
1.0
176
     1
 90
        1
176
     1
 90
        6
176
     1
 90
        2
176
     1
 62
     7
176
     1
 90
        5
176
     1
 90
        0
176
     1
 90
        0
176
     1
290
     0
176
     1
 90
        1
176
     1
 40
50.0
176
     1
 90
        0
176
     1
290
     0
176
     1
290
     1
176
     1
290
     1
176
     1
290
     0
176
     1
290
     0
176
     1
290
     0
176
     1
290
     0
176
     1
290
     0
176
     1
290
     0
176
     1
 90
       50
176
     1
 40
0.0
176
     1
 40
1.0
176
     1
 90
        0
176
     1
 62
    18
420
        0
176
     1
 90
       50
176
     1
 90
        3
176
     1
 62
     5
420
      255
176
     1
290
     0
176
     1
 90
       50
176
     1
 90
       50
176
     1
 90
       50
176
     1
290
     0
176
     1
 90
       50
176
     1
 62
   256
176
     0
 40
1.0
176
     0
 90
        2
176
     1
  1
strokes_ogs.tif
176
     1
290
     0
176
     1
 40
1.0
176
     1
 40
1.0
176
     1
1001
ACAD
1000
AcDbSavedByObjectVersion
1070
     0
  0
VISUALSTYLE
  5
3CAF
102
{ACAD_REACTORS
330
3C9F
102
}
330
3C9F
100
AcDbVisualStyle
  2
ColorChange
 70
    16
177
     3
291
     1
 70
    58
 90
        2
176
     1
 90
        2
176
     1
 90
        3
176
     1
 90
        0
176
     1
 40
0.6
176
     1
 40
30.0
176
     1
 62
     8
176
     1
 90
        1
176
     1
 90
        4
176
     1
 62
     7
176
     1
 62
   257
176
     1
 90
        1
176
     1
 90
        1
176
     1
 40
1.0
176
     1
 90
        8
176
     1
 62
     8
176
     1
 40
1.0
176
     1
 90
        1
176
     1
 90
        6
176
     1
 90
        2
176
     1
 62
     7
176
     1
 90
        5
176
     1
 90
        0
176
     1
 90
        0
176
     1
290
     0
176
     1
 90
        1
176
     1
 40
0.0
176
     1
 90
        0
176
     1
290
     0
176
     1
290
     1
176
     1
290
     1
176
     1
290
     0
176
     1
290
     0
176
     1
290
     0
176
     1
290
     0
176
     1
290
     0
176
     1
290
     0
176
     1
 90
       50
176
     1
 40
0.0
176
     1
 40
1.0
176
     1
 90
        0
176
     1
 62
    18
420
        0
176
     1
 90
       50
176
     1
 90
        3
176
     1
 62
     5
420
      255
176
     1
290
     0
176
     1
 90
       50
176
     1
 90
       50
176
     1
 90
       50
176
     1
290
     0
176
     1
 90
       50
176
     1
 62
   256
176
     0
 40
1.0
176
     0
 90
        2
176
     1
  1
strokes_ogs.tif
176
     1
290
     0
176
     1
 40
1.0
176
     1
 40
1.0
176
     1
1001
ACAD
1000
AcDbSavedByObjectVersion
1070
     0
  0
VISUALSTYLE
  5
3CA8
102
{ACAD_REACTORS
330
3C9F
102
}
330
3C9F
100
AcDbVisualStyle
  2
Conceptual
 70
     9
177
     3
291
     0
 70
    58
 90
        3
176
     1
 90
        2
176
     1
 90
        0
176
     1
 90
        0
176
     1
 40
0.6
176
     1
 40
30.0
176
     1
 62
     7
176
     1
 90
        2
176
     1
 90
        2
176
     1
 62
     7
176
     1
 62
   257
176
     1
 90
        1
176
     1
 90
        1
176
     1
 40
40.0
176
     1
 90
        8
176
     1
 62
     7
176
     1
 40
1.0
176
     1
 90
        1
176
     1
 90
        6
176
     1
 90
        2
176
     1
 62
     7
176
     1
 90
        3
176
     1
 90
        0
176
     1
 90
        0
176
     1
290
     0
176
     1
 90
        1
176
     1
 40
0.0
176
     1
 90
        0
176
     1
290
     0
176
     1
290
     1
176
     1
290
     1
176
     1
290
     0
176
     1
290
     0
176
     1
290
     0
176
     1
290
     0
176
     1
290
     0
176
     1
290
     0
176
     1
 90
       50
176
     1
 40
0.0
176
     1
 40
1.0
176
     1
 90
        0
176
     1
 62
    18
420
        0
176
     1
 90
       50
176
     1
 90
        3
176
     1
 62
     5
420
      255
176
     1
290
     0
176
     1
 90
       50
176
     1
 90
       50
176
     1
 90
       50
176
     1
290
     0
176
     1
 90
       50
176
     1
 62
   256
176
     0
 40
1.0
176
     0
 90
        2
176
     1
  1
strokes_ogs.tif
176
     1
290
     0
176
     1
 40
1.0
176
     1
 40
1.0
176
     1
1001
ACAD
1000
AcDbSavedByObjectVersion
1070
     0
  0
VISUALSTYLE
  5
3CAA
102
{ACAD_REACTORS
330
3C9F
102
}
330
3C9F
100
AcDbVisualStyle
  2
Dim
 70
    11
177
     3
291
     1
 70
    58
 90
        2
176
     1
 90
        2
176
     1
 90
        0
176
     1
 90
        0
176
     1
 40
0.6
176
     1
 40
30.0
176
     1
 62
     7
176
     1
 90
        1
176
     1
 90
        4
176
     1
 62
     7
176
     1
 62
   257
176
     1
 90
        1
176
     1
 90
        1
176
     1
 40
1.0
176
     1
 90
        8
176
     1
 62
     7
176
     1
 40
1.0
176
     1
 90
        1
176
     1
 90
        6
176
     1
 90
        2
176
     1
 62
     7
176
     1
 90
        5
176
     1
 90
        0
176
     1
 90
        0
176
     1
290
     0
176
     1
 90
        1
176
     1
 40
-50.0
176
     1
 90
        0
176
     1
290
     0
176
     1
290
     1
176
     1
290
     1
176
     1
290
     0
176
     1
290
     0
176
     1
290
     0
176
     1
290
     0
176
     1
290
     0
176
     1
290
     0
176
     1
 90
       50
176
     1
 40
0.0
176
     1
 40
1.0
176
     1
 90
        0
176
     1
 62
    18
420
        0
176
     1
 90
       50
176
     1
 90
        3
176
     1
 62
     5
420
      255
176
     1
290
     0
176
     1
 90
       50
176
     1
 90
       50
176
     1
 90
       50
176
     1
290
     0
176
     1
 90
       50
176
     1
 62
   256
176
     0
 40
1.0
176
     0
 90
        2
176
     1
  1
strokes_ogs.tif
176
     1
290
     0
176
     1
 40
1.0
176
     1
 40
1.0
176
     1
1001
ACAD
1000
AcDbSavedByObjectVersion
1070
     0
  0
VISUALSTYLE
  5
3CE0
102
{ACAD_REACTORS
330
3C9F
102
}
330
3C9F
100
AcDbVisualStyle
  2
EdgeColorOff
 70
    22
177
     3
291
     1
 70
    58
 90
        2
176
     0
 90
        2
176
     0
 90
        0
176
     0
 90
        0
176
     0
 40
0.6
176
     0
 40
30.0
176
     0
 62
     7
420
 16777215
176
     0
 90
        1
176
     0
 90
        4
176
     0
 62
     7
176
     0
 62
   257
176
     0
 90
        1
176
     0
 90
        1
176
     0
 40
1.0
176
     0
 90
        8
176
     2
 62
     7
176
     0
 40
1.0
176
     0
 90
        1
176
     0
 90
        6
176
     0
 90
        2
176
     0
 62
     7
176
     0
 90
        5
176
     0
 90
        0
176
     0
 90
        0
176
     0
290
     0
176
     0
 90
        1
176
     0
 40
0.0
176
     0
 90
        0
176
     0
290
     0
176
     0
290
     1
176
     0
290
     1
176
     0
290
     0
176
     0
290
     0
176
     0
290
     0
176
     0
290
     0
176
     0
290
     0
176
     0
290
     0
176
     0
 90
       50
176
     0
 40
0.0
176
     0
 40
1.0
176
     0
 90
        0
176
     0
 62
    18
420
        0
176
     0
 90
       50
176
     0
 90
        3
176
     0
 62
     5
420
      255
176
     0
290
     0
176
     0
 90
       50
176
     0
 90
       50
176
     0
 90
       50
176
     0
290
     0
176
     0
 90
       50
176
     0
 62
   256
176
     0
 40
1.0
176
     0
 90
        2
176
     0
  1
strokes_ogs.tif
176
     0
290
     0
176
     0
 40
1.0
176
     0
 40
1.0
176
     0
1001
ACAD
1000
AcDbSavedByObjectVersion
1070
     0
  0
VISUALSTYLE
  5
3CAE
102
{ACAD_REACTORS
330
3C9F
102
}
330
3C9F
100
AcDbVisualStyle
  2
Facepattern
 70
    15
177
     3
291
     1
 70
    58
 90
        2
176
     1
 90
        2
176
     1
 90
        0
176
     1
 90
        0
176
     1
 40
0.6
176
     1
 40
30.0
176
     1
 62
     7
176
     1
 90
        1
176
     1
 90
        4
176
     1
 62
     7
176
     1
 62
   257
176
     1
 90
        1
176
     1
 90
        1
176
     1
 40
1.0
176
     1
 90
        8
176
     1
 62
     7
176
     1
 40
1.0
176
     1
 90
        1
176
     1
 90
        6
176
     1
 90
        2
176
     1
 62
     7
176
     1
 90
        5
176
     1
 90
        0
176
     1
 90
        0
176
     1
290
     0
176
     1
 90
        1
176
     1
 40
0.0
176
     1
 90
        0
176
     1
290
     0
176
     1
290
     1
176
     1
290
     1
176
     1
290
     0
176
     1
290
     0
176
     1
290
     0
176
     1
290
     0
176
     1
290
     0
176
     1
290
     0
176
     1
 90
       50
176
     1
 40
0.0
176
     1
 40
1.0
176
     1
 90
        0
176
     1
 62
    18
420
        0
176
     1
 90
       50
176
     1
 90
        3
176
     1
 62
     5
420
      255
176
     1
290
     0
176
     1
 90
       50
176
     1
 90
       50
176
     1
 90
       50
176
     1
290
     0
176
     1
 90
       50
176
     1
 62
   256
176
     0
 40
1.0
176
     0
 90
        2
176
     1
  1
strokes_ogs.tif
176
     1
290
     0
176
     1
 40
1.0
176
     1
 40
1.0
176
     1
1001
ACAD
1000
AcDbSavedByObjectVersion
1070
     0
  0
VISUALSTYLE
  5
3CA0
102
{ACAD_REACTORS
330
3C9F
102
}
330
3C9F
100
AcDbVisualStyle
  2
Flat
 70
     0
177
     3
291
     1
 70
    58
 90
        2
176
     1
 90
        1
176
     1
 90
        1
176
     1
 90
        2
176
     1
 40
0.6
176
     1
 40
30.0
176
     1
 62
     7
176
     1
 90
        0
176
     1
 90
        4
176
     1
 62
     7
176
     1
 62
   257
176
     1
 90
        1
176
     1
 90
        1
176
     1
 40
1.0
176
     1
 90
        8
176
     1
 62
     7
176
     1
 40
1.0
176
     1
 90
        1
176
     1
 90
        6
176
     1
 90
        2
176
     1
 62
     7
176
     1
 90
        5
176
     1
 90
        0
176
     1
 90
        0
176
     1
290
     0
176
     1
 90
       13
176
     1
 40
0.0
176
     1
 90
        0
176
     1
290
     0
176
     1
290
     1
176
     1
290
     1
176
     1
290
     0
176
     1
290
     0
176
     1
290
     0
176
     1
290
     0
176
     1
290
     0
176
     1
290
     0
176
     1
 90
       50
176
     1
 40
0.0
176
     1
 40
1.0
176
     1
 90
        0
176
     1
 62
    18
420
        0
176
     1
 90
       50
176
     1
 90
        3
176
     1
 62
     5
420
      255
176
     1
290
     0
176
     1
 90
       50
176
     1
 90
       50
176
     1
 90
       50
176
     1
290
     0
176
     1
 90
       50
176
     1
 62
   256
176
     0
 40
1.0
176
     0
 90
        2
176
     1
  1
strokes_ogs.tif
176
     1
290
     0
176
     1
 40
1.0
176
     1
 40
1.0
176
     1
1001
ACAD
1000
AcDbSavedByObjectVersion
1070
     0
  0
VISUALSTYLE
  5
3CA1
102
{ACAD_REACTORS
330
3C9F
102
}
330
3C9F
100
AcDbVisualStyle
  2
FlatWithEdges
 70
     1
177
     3
291
     1
 70
    58
 90
        2
176
     1
 90
        1
176
     1
 90
        1
176
     1
 90
        2
176
     1
 40
0.6
176
     1
 40
30.0
176
     1
 62
     7
176
     1
 90
        1
176
     1
 90
        4
176
     1
 62
     7
176
     1
 62
   257
176
     1
 90
        1
176
     1
 90
        1
176
     1
 40
1.0
176
     1
 90
        0
176
     1
 62
   257
176
     1
 40
1.0
176
     1
 90
        1
176
     1
 90
        6
176
     1
 90
        2
176
     1
 62
     7
176
     1
 90
        5
176
     1
 90
        0
176
     1
 90
        0
176
     1
290
     0
176
     1
 90
       13
176
     1
 40
0.0
176
     1
 90
        0
176
     1
290
     0
176
     1
290
     1
176
     1
290
     1
176
     1
290
     0
176
     1
290
     0
176
     1
290
     0
176
     1
290
     0
176
     1
290
     0
176
     1
290
     0
176
     1
 90
       50
176
     1
 40
0.0
176
     1
 40
1.0
176
     1
 90
        0
176
     1
 62
    18
420
        0
176
     1
 90
       50
176
     1
 90
        3
176
     1
 62
     5
420
      255
176
     1
290
     0
176
     1
 90
       50
176
     1
 90
       50
176
     1
 90
       50
176
     1
290
     0
176
     1
 90
       50
176
     1
 62
   256
176
     0
 40
1.0
176
     0
 90
        2
176
     1
  1
strokes_ogs.tif
176
     1
290
     0
176
     1
 40
1.0
176
     1
 40
1.0
176
     1
1001
ACAD
1000
AcDbSavedByObjectVersion
1070
     0
  0
VISUALSTYLE
  5
3CA2
102
{ACAD_REACTORS
330
3C9F
102
}
330
3C9F
100
AcDbVisualStyle
  2
Gouraud
 70
     2
177
     3
291
     1
 70
    58
 90
        2
176
     1
 90
        2
176
     1
 90
        1
176
     1
 90
        2
176
     1
 40
0.6
176
     1
 40
30.0
176
     1
 62
     7
176
     1
 90
        0
176
     1
 90
        4
176
     1
 62
     7
176
     1
 62
   257
176
     1
 90
        1
176
     1
 90
        1
176
     1
 40
1.0
176
     1
 90
        0
176
     1
 62
     7
176
     1
 40
1.0
176
     1
 90
        1
176
     1
 90
        6
176
     1
 90
        2
176
     1
 62
     7
176
     1
 90
        5
176
     1
 90
        0
176
     1
 90
        0
176
     1
290
     0
176
     1
 90
       13
176
     1
 40
0.0
176
     1
 90
        0
176
     1
290
     0
176
     1
290
     1
176
     1
290
     1
176
     1
290
     0
176
     1
290
     0
176
     1
290
     0
176
     1
290
     0
176
     1
290
     0
176
     1
290
     0
176
     1
 90
       50
176
     1
 40
0.0
176
     1
 40
1.0
176
     1
 90
        0
176
     1
 62
    18
420
        0
176
     1
 90
       50
176
     1
 90
        3
176
     1
 62
     5
420
      255
176
     1
290
     0
176
     1
 90
       50
176
     1
 90
       50
176
     1
 90
       50
176
     1
290
     0
176
     1
 90
       50
176
     1
 62
   256
176
     0
 40
1.0
176
     0
 90
        2
176
     1
  1
strokes_ogs.tif
176
     1
290
     0
176
     1
 40
1.0
176
     1
 40
1.0
176
     1
1001
ACAD
1000
AcDbSavedByObjectVersion
1070
     0
  0
VISUALSTYLE
  5
3CA3
102
{ACAD_REACTORS
330
3C9F
102
}
330
3C9F
100
AcDbVisualStyle
  2
GouraudWithEdges
 70
     3
177
     3
291
     1
 70
    58
 90
        2
176
     1
 90
        2
176
     1
 90
        1
176
     1
 90
        2
176
     1
 40
0.6
176
     1
 40
30.0
176
     1
 62
     7
176
     1
 90
        1
176
     1
 90
        4
176
     1
 62
     7
176
     1
 62
   257
176
     1
 90
        1
176
     1
 90
        1
176
     1
 40
1.0
176
     1
 90
        0
176
     1
 62
   257
176
     1
 40
1.0
176
     1
 90
        1
176
     1
 90
        6
176
     1
 90
        2
176
     1
 62
     7
176
     1
 90
        5
176
     1
 90
        0
176
     1
 90
        0
176
     1
290
     0
176
     1
 90
       13
176
     1
 40
0.0
176
     1
 90
        0
176
     1
290
     0
176
     1
290
     1
176
     1
290
     1
176
     1
290
     0
176
     1
290
     0
176
     1
290
     0
176
     1
290
     0
176
     1
290
     0
176
     1
290
     0
176
     1
 90
       50
176
     1
 40
0.0
176
     1
 40
1.0
176
     1
 90
        0
176
     1
 62
    18
420
        0
176
     1
 90
       50
176
     1
 90
        3
176
     1
 62
     5
420
      255
176
     1
290
     0
176
     1
 90
       50
176
     1
 90
       50
176
     1
 90
       50
176
     1
290
     0
176
     1
 90
       50
176
     1
 62
   256
176
     0
 40
1.0
176
     0
 90
        2
176
     1
  1
strokes_ogs.tif
176
     1
290
     0
176
     1
 40
1.0
176
     1
 40
1.0
176
     1
1001
ACAD
1000
AcDbSavedByObjectVersion
1070
     0
  0
VISUALSTYLE
  5
3CD8
102
{ACAD_REACTORS
330
3C9F
102
}
330
3C9F
100
AcDbVisualStyle
  2
Hidden
 70
     6
177
     3
291
     0
 70
    58
 90
        1
176
     1
 90
        2
176
     1
 90
        2
176
     1
 90
        0
176
     1
 40
0.6
176
     1
 40
30.0
176
     1
 62
     7
420
 16777215
176
     1
 90
        2
176
     1
 90
        2
176
     1
 62
     7
176
     1
 62
   257
176
     1
 90
        2
176
     1
 90
        1
176
     1
 40
40.0
176
     1
 90
        0
176
     1
 62
   257
176
     1
 40
1.0
176
     1
 90
        1
176
     1
 90
        6
176
     1
 90
        2
176
     1
 62
     7
176
     1
 90
        3
176
     1
 90
        0
176
     1
 90
        0
176
     1
290
     0
176
     1
 90
        1
176
     1
 40
0.0
176
     1
 90
        0
176
     1
290
     0
176
     1
290
     1
176
     1
290
     1
176
     1
290
     0
176
     1
290
     0
176
     1
290
     0
176
     1
290
     0
176
     1
290
     0
176
     1
290
     0
176
     1
 90
       50
176
     1
 40
0.0
176
     1
 40
1.0
176
     1
 90
        0
176
     1
 62
    18
420
        0
176
     1
 90
       50
176
     1
 90
        3
176
     1
 62
     5
420
      255
176
     1
290
     0
176
     1
 90
       50
176
     1
 90
       50
176
     1
 90
       50
176
     1
290
     0
176
     1
 90
       50
176
     1
 62
   256
176
     0
 40
1.0
176
     0
 90
        2
176
     1
  1
strokes_ogs.tif
176
     1
290
     0
176
     1
 40
1.0
176
     1
 40
1.0
176
     1
1001
ACAD
1000
AcDbSavedByObjectVersion
1070
     0
  0
VISUALSTYLE
  5
3CDE
102
{ACAD_REACTORS
330
3C9F
102
}
330
3C9F
100
AcDbVisualStyle
  2
JitterOff
 70
    20
177
     3
291
     1
 70
    58
 90
        2
176
     0
 90
        2
176
     0
 90
        0
176
     0
 90
        0
176
     0
 40
0.6
176
     0
 40
30.0
176
     0
 62
     7
420
 16777215
176
     0
 90
        1
176
     0
 90
        4
176
     0
 62
     7
176
     0
 62
   257
176
     0
 90
        1
176
     0
 90
        1
176
     0
 40
1.0
176
     0
 90
       10
176
     2
 62
     7
176
     0
 40
1.0
176
     0
 90
        1
176
     0
 90
        6
176
     0
 90
        2
176
     0
 62
     7
176
     0
 90
        5
176
     0
 90
        0
176
     0
 90
        0
176
     0
290
     0
176
     0
 90
        1
176
     0
 40
0.0
176
     0
 90
        0
176
     0
290
     0
176
     0
290
     1
176
     0
290
     1
176
     0
290
     0
176
     0
290
     0
176
     0
290
     0
176
     0
290
     0
176
     0
290
     0
176
     0
290
     0
176
     0
 90
       50
176
     0
 40
0.0
176
     0
 40
1.0
176
     0
 90
        0
176
     0
 62
    18
420
        0
176
     0
 90
       50
176
     0
 90
        3
176
     0
 62
     5
420
      255
176
     0
290
     0
176
     0
 90
       50
176
     0
 90
       50
176
     0
 90
       50
176
     0
290
     0
176
     0
 90
       50
176
     0
 62
   256
176
     0
 40
1.0
176
     0
 90
        2
176
     0
  1
strokes_ogs.tif
176
     0
290
     0
176
     0
 40
1.0
176
     0
 40
1.0
176
     0
1001
ACAD
1000
AcDbSavedByObjectVersion
1070
     0
  0
VISUALSTYLE
  5
3CAD
102
{ACAD_REACTORS
330
3C9F
102
}
330
3C9F
100
AcDbVisualStyle
  2
Linepattern
 70
    14
177
     3
291
     1
 70
    58
 90
        2
176
     1
 90
        2
176
     1
 90
        0
176
     1
 90
        0
176
     1
 40
0.6
176
     1
 40
30.0
176
     1
 62
     7
176
     1
 90
        1
176
     1
 90
        4
176
     1
 62
     7
176
     1
 62
   257
176
     1
 90
        7
176
     1
 90
        7
176
     1
 40
1.0
176
     1
 90
        8
176
     1
 62
     7
176
     1
 40
1.0
176
     1
 90
        1
176
     1
 90
        6
176
     1
 90
        2
176
     1
 62
     7
176
     1
 90
        5
176
     1
 90
        0
176
     1
 90
        0
176
     1
290
     0
176
     1
 90
        1
176
     1
 40
0.0
176
     1
 90
        0
176
     1
290
     0
176
     1
290
     1
176
     1
290
     1
176
     1
290
     0
176
     1
290
     0
176
     1
290
     0
176
     1
290
     0
176
     1
290
     0
176
     1
290
     0
176
     1
 90
       50
176
     1
 40
0.0
176
     1
 40
1.0
176
     1
 90
        0
176
     1
 62
    18
420
        0
176
     1
 90
       50
176
     1
 90
        3
176
     1
 62
     5
420
      255
176
     1
290
     0
176
     1
 90
       50
176
     1
 90
       50
176
     1
 90
       50
176
     1
290
     0
176
     1
 90
       50
176
     1
 62
   256
176
     0
 40
1.0
176
     0
 90
        2
176
     1
  1
strokes_ogs.tif
176
     1
290
     0
176
     1
 40
1.0
176
     1
 40
1.0
176
     1
1001
ACAD
1000
AcDbSavedByObjectVersion
1070
     0
  0
VISUALSTYLE
  5
3CDF
102
{ACAD_REACTORS
330
3C9F
102
}
330
3C9F
100
AcDbVisualStyle
  2
OverhangOff
 70
    21
177
     3
291
     1
 70
    58
 90
        2
176
     0
 90
        2
176
     0
 90
        0
176
     0
 90
        0
176
     0
 40
0.6
176
     0
 40
30.0
176
     0
 62
     7
420
 16777215
176
     0
 90
        1
176
     0
 90
        4
176
     0
 62
     7
176
     0
 62
   257
176
     0
 90
        1
176
     0
 90
        1
176
     0
 40
1.0
176
     0
 90
        9
176
     2
 62
     7
176
     0
 40
1.0
176
     0
 90
        1
176
     0
 90
        6
176
     0
 90
        2
176
     0
 62
     7
176
     0
 90
        5
176
     0
 90
        0
176
     0
 90
        0
176
     0
290
     0
176
     0
 90
        1
176
     0
 40
0.0
176
     0
 90
        0
176
     0
290
     0
176
     0
290
     1
176
     0
290
     1
176
     0
290
     0
176
     0
290
     0
176
     0
290
     0
176
     0
290
     0
176
     0
290
     0
176
     0
290
     0
176
     0
 90
       50
176
     0
 40
0.0
176
     0
 40
1.0
176
     0
 90
        0
176
     0
 62
    18
420
        0
176
     0
 90
       50
176
     0
 90
        3
176
     0
 62
     5
420
      255
176
     0
290
     0
176
     0
 90
       50
176
     0
 90
       50
176
     0
 90
       50
176
     0
290
     0
176
     0
 90
       50
176
     0
 62
   256
176
     0
 40
1.0
176
     0
 90
        2
176
     0
  1
strokes_ogs.tif
176
     0
290
     0
176
     0
 40
1.0
176
     0
 40
1.0
176
     0
1001
ACAD
1000
AcDbSavedByObjectVersion
1070
     0
  0
VISUALSTYLE
  5
3CA9
102
{ACAD_REACTORS
330
3C9F
102
}
330
3C9F
100
AcDbVisualStyle
  2
Realistic
 70
     8
177
     3
291
     0
 70
    58
 90
        2
176
     1
 90
        2
176
     1
 90
        0
176
     1
 90
        0
176
     1
 40
0.6
176
     1
 40
30.0
176
     1
 62
     7
176
     1
 90
        1
176
     1
 90
        0
176
     1
 62
     7
176
     1
 62
   257
176
     1
 90
        1
176
     1
 90
        1
176
     1
 40
1.0
176
     1
 90
        8
176
     1
 62
     8
176
     1
 40
1.0
176
     1
 90
        1
176
     1
 90
        6
176
     1
 90
        2
176
     1
 62
     7
176
     1
 90
        5
176
     1
 90
        0
176
     1
 90
        0
176
     1
290
     0
176
     1
 90
       13
176
     1
 40
0.0
176
     1
 90
        0
176
     1
290
     0
176
     1
290
     1
176
     1
290
     1
176
     1
290
     0
176
     1
290
     0
176
     1
290
     0
176
     1
290
     0
176
     1
290
     0
176
     1
290
     0
176
     1
 90
       50
176
     1
 40
0.0
176
     1
 40
1.0
176
     1
 90
        0
176
     1
 62
    18
420
        0
176
     1
 90
       50
176
     1
 90
        3
176
     1
 62
     5
420
      255
176
     1
290
     0
176
     1
 90
       50
176
     1
 90
       50
176
     1
 90
       50
176
     1
290
     0
176
     1
 90
       50
176
     1
 62
   256
176
     0
 40
1.0
176
     0
 90
        2
176
     1
  1
strokes_ogs.tif
176
     1
290
     0
176
     1
 40
1.0
176
     1
 40
1.0
176
     1
1001
ACAD
1000
AcDbSavedByObjectVersion
1070
     0
  0
VISUALSTYLE
  5
3CDD
102
{ACAD_REACTORS
330
3C9F
102
}
330
3C9F
100
AcDbVisualStyle
  2
Shaded
 70
    27
177
     3
291
     0
 70
    58
 90
        2
176
     1
 90
        2
176
     1
 90
        1
176
     1
 90
        2
176
     1
 40
0.6
176
     1
 40
30.0
176
     1
 62
     7
420
 16777215
176
     1
 90
        0
176
     1
 90
        4
176
     1
 62
     7
176
     1
 62
   257
176
     1
 90
        1
176
     1
 90
        1
176
     1
 40
1.0
176
     1
 90
        8
176
     1
 62
   257
176
     1
 40
1.0
176
     1
 90
        1
176
     1
 90
        6
176
     1
 90
        2
176
     1
 62
     8
420
  7895160
176
     1
 90
        3
176
     1
 90
        0
176
     1
 90
        0
176
     1
290
     0
176
     1
 90
        5
176
     1
 40
0.0
176
     1
 90
        0
176
     1
290
     0
176
     1
290
     1
176
     1
290
     1
176
     1
290
     0
176
     1
290
     0
176
     1
290
     0
176
     1
290
     0
176
     1
290
     0
176
     1
290
     0
176
     1
 90
       50
176
     1
 40
0.0
176
     1
 40
1.0
176
     1
 90
        0
176
     1
 62
    18
420
        0
176
     1
 90
       50
176
     1
 90
        3
176
     1
 62
     5
420
      255
176
     1
290
     0
176
     1
 90
       50
176
     1
 90
       50
176
     1
 90
       50
176
     1
290
     0
176
     1
 90
       50
176
     1
 62
   256
176
     0
 40
1.0
176
     0
 90
        2
176
     1
  1
strokes_ogs.tif
176
     1
290
     0
176
     1
 40
1.0
176
     1
 40
1.0
176
     1
1001
ACAD
1000
AcDbSavedByObjectVersion
1070
     0
  0
VISUALSTYLE
  5
3CDC
102
{ACAD_REACTORS
330
3C9F
102
}
330
3C9F
100
AcDbVisualStyle
  2
Shaded with edges
 70
    26
177
     3
291
     0
 70
    58
 90
        2
176
     1
 90
        2
176
     1
 90
        1
176
     1
 90
        2
176
     1
 40
0.6
176
     1
 40
30.0
176
     1
 62
     7
420
 16777215
176
     1
 90
        1
176
     1
 90
        2
176
     1
 62
     7
176
     1
 62
   257
176
     1
 90
        2
176
     1
 90
        1
176
     1
 40
1.0
176
     1
 90
        8
176
     1
 62
   257
176
     1
 40
1.0
176
     1
 90
        1
176
     1
 90
        6
176
     1
 90
        2
176
     1
 62
     7
176
     1
 90
        3
176
     1
 90
        0
176
     1
 90
        0
176
     1
290
     0
176
     1
 90
        5
176
     1
 40
0.0
176
     1
 90
        0
176
     1
290
     0
176
     1
290
     1
176
     1
290
     1
176
     1
290
     0
176
     1
290
     0
176
     1
290
     0
176
     1
290
     0
176
     1
290
     0
176
     1
290
     0
176
     1
 90
       50
176
     1
 40
0.0
176
     1
 40
1.0
176
     1
 90
        0
176
     1
 62
    18
420
        0
176
     1
 90
       50
176
     1
 90
        3
176
     1
 62
     5
420
      255
176
     1
290
     0
176
     1
 90
       50
176
     1
 90
       50
176
     1
 90
       50
176
     1
290
     0
176
     1
 90
       50
176
     1
 62
   256
176
     0
 40
1.0
176
     0
 90
        2
176
     1
  1
strokes_ogs.tif
176
     1
290
     0
176
     1
 40
1.0
176
     1
 40
1.0
176
     1
1001
ACAD
1000
AcDbSavedByObjectVersion
1070
     0
  0
VISUALSTYLE
  5
3CD9
102
{ACAD_REACTORS
330
3C9F
102
}
330
3C9F
100
AcDbVisualStyle
  2
Shades of Gray
 70
    23
177
     3
291
     0
 70
    58
 90
        2
176
     1
 90
        2
176
     1
 90
        3
176
     1
 90
        0
176
     1
 40
0.6
176
     1
 40
30.0
176
     1
 62
     7
420
 16777215
176
     1
 90
        2
176
     1
 90
        2
176
     1
 62
     7
176
     1
 62
     7
176
     1
 90
        1
176
     1
 90
        1
176
     1
 40
40.0
176
     1
 90
        8
176
     1
 62
     7
176
     1
 40
1.0
176
     1
 90
        1
176
     1
 90
        6
176
     1
 90
        2
176
     1
 62
     7
176
     1
 90
        3
176
     1
 90
        0
176
     1
 90
        0
176
     1
290
     0
176
     1
 90
        1
176
     1
 40
0.0
176
     1
 90
        0
176
     1
290
     0
176
     1
290
     1
176
     1
290
     1
176
     1
290
     0
176
     1
290
     0
176
     1
290
     0
176
     1
290
     0
176
     1
290
     0
176
     1
290
     0
176
     1
 90
       50
176
     1
 40
0.0
176
     1
 40
1.0
176
     1
 90
        0
176
     1
 62
    18
420
        0
176
     1
 90
       50
176
     1
 90
        3
176
     1
 62
     5
420
      255
176
     1
290
     0
176
     1
 90
       50
176
     1
 90
       50
176
     1
 90
       50
176
     1
290
     0
176
     1
 90
       50
176
     1
 62
   256
176
     0
 40
1.0
176
     0
 90
        2
176
     1
  1
strokes_ogs.tif
176
     1
290
     0
176
     1
 40
1.0
176
     1
 40
1.0
176
     1
1001
ACAD
1000
AcDbSavedByObjectVersion
1070
     0
  0
VISUALSTYLE
  5
3CDA
102
{ACAD_REACTORS
330
3C9F
102
}
330
3C9F
100
AcDbVisualStyle
  2
Sketchy
 70
    24
177
     3
291
     0
 70
    58
 90
        1
176
     1
 90
        2
176
     1
 90
        2
176
     1
 90
        0
176
     1
 40
0.6
176
     1
 40
30.0
176
     1
 62
     7
420
 16777215
176
     1
 90
        2
176
     1
 90
        2
176
     1
 62
     7
176
     1
 62
     7
176
     1
 90
        1
176
     1
 90
        1
176
     1
 40
40.0
176
     1
 90
       11
176
     1
 62
     7
176
     1
 40
1.0
176
     1
 90
        1
176
     1
 90
        6
176
     1
 90
        2
176
     1
 62
     7
176
     1
 90
        6
176
     1
 90
        0
176
     1
 90
        0
176
     1
290
     0
176
     1
 90
        1
176
     1
 40
0.0
176
     1
 90
        0
176
     1
290
     0
176
     1
290
     1
176
     1
290
     1
176
     1
290
     0
176
     1
290
     0
176
     1
290
     0
176
     1
290
     0
176
     1
290
     0
176
     1
290
     0
176
     1
 90
       50
176
     1
 40
0.0
176
     1
 40
1.0
176
     1
 90
        0
176
     1
 62
    18
420
        0
176
     1
 90
       50
176
     1
 90
        3
176
     1
 62
     5
420
      255
176
     1
290
     0
176
     1
 90
       50
176
     1
 90
       50
176
     1
 90
       50
176
     1
290
     0
176
     1
 90
       50
176
     1
 62
   256
176
     0
 40
1.0
176
     0
 90
        2
176
     1
  1
strokes_ogs.tif
176
     1
290
     0
176
     1
 40
1.0
176
     1
 40
1.0
176
     1
1001
ACAD
1000
AcDbSavedByObjectVersion
1070
     0
  0
VISUALSTYLE
  5
3CAC
102
{ACAD_REACTORS
330
3C9F
102
}
330
3C9F
100
AcDbVisualStyle
  2
Thicken
 70
    13
177
     3
291
     1
 70
    58
 90
        2
176
     1
 90
        2
176
     1
 90
        0
176
     1
 90
        0
176
     1
 40
0.6
176
     1
 40
30.0
176
     1
 62
     7
176
     1
 90
        1
176
     1
 90
        4
176
     1
 62
     7
176
     1
 62
   257
176
     1
 90
        1
176
     1
 90
        1
176
     1
 40
1.0
176
     1
 90
       12
176
     1
 62
     7
176
     1
 40
1.0
176
     1
 90
        1
176
     1
 90
        6
176
     1
 90
        2
176
     1
 62
     7
176
     1
 90
        5
176
     1
 90
        0
176
     1
 90
        0
176
     1
290
     0
176
     1
 90
        1
176
     1
 40
0.0
176
     1
 90
        0
176
     1
290
     0
176
     1
290
     1
176
     1
290
     1
176
     1
290
     0
176
     1
290
     0
176
     1
290
     0
176
     1
290
     0
176
     1
290
     0
176
     1
290
     0
176
     1
 90
       50
176
     1
 40
0.0
176
     1
 40
1.0
176
     1
 90
        0
176
     1
 62
    18
420
        0
176
     1
 90
       50
176
     1
 90
        3
176
     1
 62
     5
420
      255
176
     1
290
     0
176
     1
 90
       50
176
     1
 90
       50
176
     1
 90
       50
176
     1
290
     0
176
     1
 90
       50
176
     1
 62
   256
176
     0
 40
1.0
176
     0
 90
        2
176
     1
  1
strokes_ogs.tif
176
     1
290
     0
176
     1
 40
1.0
176
     1
 40
1.0
176
     1
1001
ACAD
1000
AcDbSavedByObjectVersion
1070
     0
  0
VISUALSTYLE
  5
3CD7
102
{ACAD_REACTORS
330
3C9F
102
}
330
3C9F
100
AcDbVisualStyle
  2
Wireframe
 70
     5
177
     3
291
     0
 70
    58
 90
        0
176
     1
 90
        2
176
     1
 90
        0
176
     1
 90
        0
176
     1
 40
0.6
176
     1
 40
30.0
176
     1
 62
     7
420
 16777215
176
     1
 90
        1
176
     1
 90
        4
176
     1
 62
     7
176
     1
 62
   257
176
     1
 90
        1
176
     1
 90
        1
176
     1
 40
1.0
176
     1
 90
        0
176
     1
 62
   257
176
     1
 40
1.0
176
     1
 90
        1
176
     1
 90
        6
176
     1
 90
        2
176
     1
 62
     7
176
     1
 90
        3
176
     1
 90
        0
176
     1
 90
        0
176
     1
290
     0
176
     1
 90
        1
176
     1
 40
0.0
176
     1
 90
        0
176
     1
290
     0
176
     1
290
     1
176
     1
290
     1
176
     1
290
     0
176
     1
290
     0
176
     1
290
     0
176
     1
290
     0
176
     1
290
     0
176
     1
290
     0
176
     1
 90
       50
176
     1
 40
0.0
176
     1
 40
1.0
176
     1
 90
        0
176
     1
 62
    18
420
        0
176
     1
 90
       50
176
     1
 90
        3
176
     1
 62
     5
420
      255
176
     1
290
     0
176
     1
 90
       50
176
     1
 90
       50
176
     1
 90
       50
176
     1
290
     0
176
     1
 90
       50
176
     1
 62
   256
176
     0
 40
1.0
176
     0
 90
        2
176
     1
  1
strokes_ogs.tif
176
     1
290
     0
176
     1
 40
1.0
176
     1
 40
1.0
176
     1
1001
ACAD
1000
AcDbSavedByObjectVersion
1070
     0
  0
VISUALSTYLE
  5
3CDB
102
{ACAD_REACTORS
330
3C9F
102
}
330
3C9F
100
AcDbVisualStyle
  2
X-Ray
 70
    25
177
     3
291
     0
 70
    58
 90
        2
176
     1
 90
        2
176
     1
 90
        1
176
     1
 90
        1
176
     1
 40
0.5
176
     1
 40
30.0
176
     1
 62
     7
420
 16777215
176
     1
 90
        1
176
     1
 90
        0
176
     1
 62
     7
176
     1
 62
   257
176
     1
 90
        1
176
     1
 90
        1
176
     1
 40
1.0
176
     1
 90
        8
176
     1
 62
     7
176
     1
 40
1.0
176
     1
 90
        1
176
     1
 90
        6
176
     1
 90
        2
176
     1
 62
     7
176
     1
 90
        3
176
     1
 90
        0
176
     1
 90
        0
176
     1
290
     0
176
     1
 90
       13
176
     1
 40
0.0
176
     1
 90
        0
176
     1
290
     0
176
     1
290
     1
176
     1
290
     1
176
     1
290
     0
176
     1
290
     0
176
     1
290
     0
176
     1
290
     0
176
     1
290
     0
176
     1
290
     0
176
     1
 90
       50
176
     1
 40
0.0
176
     1
 40
1.0
176
     1
 90
        0
176
     1
 62
    18
420
        0
176
     1
 90
       50
176
     1
 90
        3
176
     1
 62
     5
420
      255
176
     1
290
     0
176
     1
 90
       50
176
     1
 90
       50
176
     1
 90
       50
176
     1
290
     0
176
     1
 90
       50
176
     1
 62
   256
176
     0
 40
1.0
176
     0
 90
        2
176
     1
  1
strokes_ogs.tif
176
     1
290
     0
176
     1
 40
1.0
176
     1
 40
1.0
176
     1
1001
ACAD
1000
AcDbSavedByObjectVersion
1070
     0
  0
DICTIONARYVAR
  5
3E59
102
{ACAD_REACTORS
330
5E
102
}
330
5E
100
DictionaryVariables
280
     0
  1
1:1
  0
DICTIONARYVAR
  5
3E55
102
{ACAD_REACTORS
330
5E
102
}
330
5E
100
DictionaryVariables
280
     0
  1
STANDARD
  0
DICTIONARYVAR
  5
3CD3
102
{ACAD_REACTORS
330
5E
102
}
330
5E
100
DictionaryVariables
280
     0
  1
STANDARD
  0
DICTIONARYVAR
  5
3E56
102
{ACAD_REACTORS
330
5E
102
}
330
5E
100
DictionaryVariables
280
     0
  1
Metric50
  0
DICTIONARYVAR
  5
3E57
102
{ACAD_REACTORS
330
5E
102
}
330
5E
100
DictionaryVariables
280
     0
  1
Metric50
  0
DICTIONARYVAR
  5
5F
102
{ACAD_REACTORS
330
5E
102
}
330
5E
100
DictionaryVariables
280
     0
  1
2
  0
DICTIONARYVAR
  5
63
102
{ACAD_REACTORS
330
5E
102
}
330
5E
100
DictionaryVariables
280
     0
  1
1
  0
DICTIONARYVAR
  5
3CD5
102
{ACAD_REACTORS
330
5E
102
}
330
5E
100
DictionaryVariables
280
     0
  1
0
  0
DICTIONARYVAR
  5
3E5B
102
{ACAD_REACTORS
330
5E
102
}
330
5E
100
DictionaryVariables
280
     0
  1
1
  0
DICTIONARYVAR
  5
3E5C
102
{ACAD_REACTORS
330
5E
102
}
330
5E
100
DictionaryVariables
280
     0
  1
15
  0
DICTIONARYVAR
  5
3E5A
102
{ACAD_REACTORS
330
5E
102
}
330
5E
100
DictionaryVariables
280
     0
  1
0
  0
DICTIONARYVAR
  5
3E58
102
{ACAD_REACTORS
330
5E
102
}
330
5E
100
DictionaryVariables
280
     0
  1
0
  0
DICTIONARYVAR
  5
1CF
102
{ACAD_REACTORS
330
5E
102
}
330
5E
100
DictionaryVariables
280
     0
  1

  0
DICTIONARYVAR
  5
3CD4
102
{ACAD_REACTORS
330
5E
102
}
330
5E
100
DictionaryVariables
280
     0
  1
127
  0
DICTIONARY
  5
3E6D
102
{ACAD_REACTORS
330
3E6B
102
}
330
3E6B
100
AcDbDictionary
281
     1
  0
DICTIONARY
  5
3E6C
102
{ACAD_REACTORS
330
3E6B
102
}
330
3E6B
100
AcDbDictionary
281
     1
  3
2287398731360
350
3E66
  3
2287398731376
350
3E67
  3
2287398731392
350
3E68
  3
2287398731408
350
3E69
  3
2287398731424
350
3E6A
  0
DICTIONARY
  5
3E70
330
3CF8
100
AcDbDictionary
280
     1
281
     1
  3
ACAD_XREC_ROUNDTRIP
360
3E71
  0
DICTIONARY
  5
3E6E
330
3CF6
100
AcDbDictionary
280
     1
281
     1
  3
ACAD_XREC_ROUNDTRIP
360
3E6F
  0
DICTIONARY
  5
3E63
330
3CB1
100
AcDbDictionary
280
     1
281
     1
  3
ACAD_ROUNDTRIP_2008_TABLESTYLE_CELLSTYLEMAP
360
3E64
  0
XRECORD
  5
3E66
102
{ACAD_REACTORS
330
3E6C
102
}
330
3E6C
100
AcDbXrecord
280
     1
  1
AcDb_Thumbnail_Schema
102
{ATTRRECORD
341
3E67
  2
AcDbDs::TreatedAsObjectData
280
     1
291
     1
102
ATTRRECORD}
102
{ATTRRECORD
341
3E68
  2
AcDbDs::Legacy
280
     1
291
     1
102
ATTRRECORD}
  2
AcDbDs::ID
280
    10
 91
        8
102
{ATTRRECORD
341
3E69
  2
AcDs:Indexable
280
     1
291
     1
102
ATTRRECORD}
102
{ATTRRECORD
341
3E6A
  2
AcDbDs::HandleAttribute
280
     7
282
     1
102
ATTRRECORD}
  2
Thumbnail_Data
280
    15
 91
        0
  0
XRECORD
  5
3E67
102
{ACAD_REACTORS
330
3E6C
102
}
330
3E6C
100
AcDbXrecord
280
     1
  1
AcDbDs::TreatedAsObjectDataSchema
  2
AcDbDs::TreatedAsObjectData
280
     1
 91
        0
  0
XRECORD
  5
3E68
102
{ACAD_REACTORS
330
3E6C
102
}
330
3E6C
100
AcDbXrecord
280
     1
  1
AcDbDs::LegacySchema
  2
AcDbDs::Legacy
280
     1
 91
        0
  0
XRECORD
  5
3E69
102
{ACAD_REACTORS
330
3E6C
102
}
330
3E6C
100
AcDbXrecord
280
     1
  1
AcDbDs::IndexedPropertySchema
  2
AcDs:Indexable
280
     1
 91
        0
  0
XRECORD
  5
3E6A
102
{ACAD_REACTORS
330
3E6C
102
}
330
3E6C
100
AcDbXrecord
280
     1
  1
AcDbDs::HandleAttributeSchema
  2
AcDbDs::HandleAttribute
280
     7
 91
        1
284
     1
  0
XRECORD
  5
3E71
102
{ACAD_REACTORS
330
3E70
102
}
330
3E70
100
AcDbXrecord
280
     1
102
DISPLAYNAME
  1
Metric50
102
FLAGS
 90
        0
  0
XRECORD
  5
3E6F
102
{ACAD_REACTORS
330
3E6E
102
}
330
3E6E
100
AcDbXrecord
280
     1
102
DISPLAYNAME
  1
Metric50
102
FLAGS
 90
        0
  0
CELLSTYLEMAP
  5
3E64
102
{ACAD_REACTORS
330
3E63
102
}
330
3E63
100
AcDbCellStyleMap
 90
        3
300
CELLSTYLE
  1
TABLEFORMAT_BEGIN
 90
        5
170
     1
 91
        0
 92
    32768
 62
   257
 93
        1
300
CONTENTFORMAT
  1
CONTENTFORMAT_BEGIN
 90
        0
 91
        0
 92
      512
 93
        0
300

 40
0.0
140
1.0
 94
        5
 62
     0
340
11
144
6.0
309
CONTENTFORMAT_END
171
     1
301
MARGIN
  1
CELLMARGIN_BEGIN
 40
1.5
 40
1.5
 40
1.5
 40
1.5
 40
0.18
 40
0.18
309
CELLMARGIN_END
 94
        6
 95
        1
302
GRIDFORMAT
  1
GRIDFORMAT_BEGIN
 90
        0
 91
        1
 62
     0
 92
       -2
340
0
 93
        0
 40
0.045
309
GRIDFORMAT_END
 95
        2
302
GRIDFORMAT
  1
GRIDFORMAT_BEGIN
 90
        0
 91
        1
 62
     0
 92
       -2
340
0
 93
        0
 40
0.045
309
GRIDFORMAT_END
 95
        4
302
GRIDFORMAT
  1
GRIDFORMAT_BEGIN
 90
        0
 91
        1
 62
     0
 92
       -2
340
0
 93
        0
 40
0.045
309
GRIDFORMAT_END
 95
        8
302
GRIDFORMAT
  1
GRIDFORMAT_BEGIN
 90
        0
 91
        1
 62
     0
 92
       -2
340
0
 93
        0
 40
0.045
309
GRIDFORMAT_END
 95
       16
302
GRIDFORMAT
  1
GRIDFORMAT_BEGIN
 90
        0
 91
        1
 62
     0
 92
       -2
340
0
 93
        0
 40
0.045
309
GRIDFORMAT_END
 95
       32
302
GRIDFORMAT
  1
GRIDFORMAT_BEGIN
 90
        0
 91
        1
 62
     0
 92
       -2
340
0
 93
        0
 40
0.045
309
GRIDFORMAT_END
309
TABLEFORMAT_END
  1
CELLSTYLE_BEGIN
 90
        1
 91
        1
300
_TITLE
309
CELLSTYLE_END
300
CELLSTYLE
  1
TABLEFORMAT_BEGIN
 90
        5
170
     1
 91
        0
 92
        0
 62
   257
 93
        1
300
CONTENTFORMAT
  1
CONTENTFORMAT_BEGIN
 90
        0
 91
        0
 92
      512
 93
        0
300

 40
0.0
140
1.0
 94
        5
 62
     0
340
11
144
4.5
309
CONTENTFORMAT_END
171
     1
301
MARGIN
  1
CELLMARGIN_BEGIN
 40
1.5
 40
1.5
 40
1.5
 40
1.5
 40
0.18
 40
0.18
309
CELLMARGIN_END
 94
        6
 95
        1
302
GRIDFORMAT
  1
GRIDFORMAT_BEGIN
 90
        0
 91
        1
 62
     0
 92
       -2
340
0
 93
        0
 40
0.045
309
GRIDFORMAT_END
 95
        2
302
GRIDFORMAT
  1
GRIDFORMAT_BEGIN
 90
        0
 91
        1
 62
     0
 92
       -2
340
0
 93
        0
 40
0.045
309
GRIDFORMAT_END
 95
        4
302
GRIDFORMAT
  1
GRIDFORMAT_BEGIN
 90
        0
 91
        1
 62
     0
 92
       -2
340
0
 93
        0
 40
0.045
309
GRIDFORMAT_END
 95
        8
302
GRIDFORMAT
  1
GRIDFORMAT_BEGIN
 90
        0
 91
        1
 62
     0
 92
       -2
340
0
 93
        0
 40
0.045
309
GRIDFORMAT_END
 95
       16
302
GRIDFORMAT
  1
GRIDFORMAT_BEGIN
 90
        0
 91
        1
 62
     0
 92
       -2
340
0
 93
        0
 40
0.045
309
GRIDFORMAT_END
 95
       32
302
GRIDFORMAT
  1
GRIDFORMAT_BEGIN
 90
        0
 91
        1
 62
     0
 92
       -2
340
0
 93
        0
 40
0.045
309
GRIDFORMAT_END
309
TABLEFORMAT_END
  1
CELLSTYLE_BEGIN
 90
        2
 91
        1
300
_HEADER
309
CELLSTYLE_END
300
CELLSTYLE
  1
TABLEFORMAT_BEGIN
 90
        5
170
     1
 91
        0
 92
        0
 62
   257
 93
        1
300
CONTENTFORMAT
  1
CONTENTFORMAT_BEGIN
 90
        0
 91
        0
 92
      512
 93
        0
300

 40
0.0
140
1.0
 94
        2
 62
     0
340
11
144
4.5
309
CONTENTFORMAT_END
171
     1
301
MARGIN
  1
CELLMARGIN_BEGIN
 40
1.5
 40
1.5
 40
1.5
 40
1.5
 40
0.18
 40
0.18
309
CELLMARGIN_END
 94
        6
 95
        1
302
GRIDFORMAT
  1
GRIDFORMAT_BEGIN
 90
        0
 91
        1
 62
     0
 92
       -2
340
0
 93
        0
 40
0.045
309
GRIDFORMAT_END
 95
        2
302
GRIDFORMAT
  1
GRIDFORMAT_BEGIN
 90
        0
 91
        1
 62
     0
 92
       -2
340
0
 93
        0
 40
0.045
309
GRIDFORMAT_END
 95
        4
302
GRIDFORMAT
  1
GRIDFORMAT_BEGIN
 90
        0
 91
        1
 62
     0
 92
       -2
340
0
 93
        0
 40
0.045
309
GRIDFORMAT_END
 95
        8
302
GRIDFORMAT
  1
GRIDFORMAT_BEGIN
 90
        0
 91
        1
 62
     0
 92
       -2
340
0
 93
        0
 40
0.045
309
GRIDFORMAT_END
 95
       16
302
GRIDFORMAT
  1
GRIDFORMAT_BEGIN
 90
        0
 91
        1
 62
     0
 92
       -2
340
0
 93
        0
 40
0.045
309
GRIDFORMAT_END
 95
       32
302
GRIDFORMAT
  1
GRIDFORMAT_BEGIN
 90
        0
 91
        1
 62
     0
 92
       -2
340
0
 93
        0
 40
0.045
309
GRIDFORMAT_END
309
TABLEFORMAT_END
  1
CELLSTYLE_BEGIN
 90
        3
 91
        2
300
_DATA
309
CELLSTYLE_END
  0
ENDSEC
  0
SECTION
  2
ACDSDATA
 70
     2
 71
     8
  0
ACDSSCHEMA
 90
        0
  1
AcDb_Thumbnail_Schema
  2
AcDbDs::ID
280
    10
 91
        8
  2
Thumbnail_Data
280
    15
 91
        0
101
ACDSRECORD
 95
        0
 90
        1
  2
AcDbDs::TreatedAsObjectData
280
     1
291
     1
101
ACDSRECORD
 95
        0
 90
        2
  2
AcDbDs::Legacy
280
     1
291
     1
101
ACDSRECORD
  1
AcDbDs::ID
 90
        3
  2
AcDs:Indexable
280
     1
291
     1
101
ACDSRECORD
  1
AcDbDs::ID
 90
        4
  2
AcDbDs::HandleAttribute
280
     7
282
     1
  0
ACDSSCHEMA
 90
        1
  1
AcDbDs::TreatedAsObjectDataSchema
  2
AcDbDs::TreatedAsObjectData
280
     1
 91
        0
  0
ACDSSCHEMA
 90
        2
  1
AcDbDs::LegacySchema
  2
AcDbDs::Legacy
280
     1
 91
        0
  0
ACDSSCHEMA
 90
        3
  1
AcDbDs::IndexedPropertySchema
  2
AcDs:Indexable
280
     1
 91
        0
  0
ACDSSCHEMA
 90
        4
  1
AcDbDs::HandleAttributeSchema
  2
AcDbDs::HandleAttribute
280
     7
 91
        1
284
     1
  0
ACDSRECORD
 90
        0
  2
AcDbDs::ID
280
    10
320
22
  2
Thumbnail_Data
280
    15
 94
     1550
310
89504E470D0A1A0A0000000D4948445200000100000000700803000000C6F95E2100000300504C5445212830FFFFFF2128300000000000000000000000000000000000000000000000000000330000660000990000CC0000FF0033000033330033660033990033CC0033FF0066000066330066660066990066CC0066FF0099
310
000099330099660099990099CC0099FF00CC0000CC3300CC6600CC9900CCCC00CCFF00FF0000FF3300FF6600FF9900FFCC00FFFF3300003300333300663300993300CC3300FF3333003333333333663333993333CC3333FF3366003366333366663366993366CC3366FF3399003399333399663399993399CC3399FF33CC00
310
33CC3333CC6633CC9933CCCC33CCFF33FF0033FF3333FF6633FF9933FFCC33FFFF6600006600336600666600996600CC6600FF6633006633336633666633996633CC6633FF6666006666336666666666996666CC6666FF6699006699336699666699996699CC6699FF66CC0066CC3366CC6666CC9966CCCC66CCFF66FF0066
310
FF3366FF6666FF9966FFCC66FFFF9900009900339900669900999900CC9900FF9933009933339933669933999933CC9933FF9966009966339966669966999966CC9966FF9999009999339999669999999999CC9999FF99CC0099CC3399CC6699CC9999CCCC99CCFF99FF0099FF3399FF6699FF9999FFCC99FFFFCC0000CC00
310
33CC0066CC0099CC00CCCC00FFCC3300CC3333CC3366CC3399CC33CCCC33FFCC6600CC6633CC6666CC6699CC66CCCC66FFCC9900CC9933CC9966CC9999CC99CCCC99FFCCCC00CCCC33CCCC66CCCC99CCCCCCCCCCFFCCFF00CCFF33CCFF66CCFF99CCFFCCCCFFFFFF0000FF0033FF0066FF0099FF00CCFF00FFFF3300FF3333
310
FF3366FF3399FF33CCFF33FFFF6600FF6633FF6666FF6699FF66CCFF66FFFF9900FF9933FF9966FF9999FF99CCFF99FFFFCC00FFCC33FFCC66FFCC99FFCCCCFFCCFFFFFF00FFFF33FFFF66FFFF99FFFFCCFFFFFF0000000D0D0D1A1A1A2828283535354343435050505D5D5D6B6B6B787878868686939393A1A1A1AEAEAEBB
310
BBBBC9C9C9D6D6D6E4E4E4F1F1F1FFFFFF0000000000000000000000000000000000000000000000000000000000002E4550F1000002C94944415478DAED9B4192EB300844B910F73F59EF7F12C7324842F993594CB9D55D33558E1D2F7846083031932449922449922449922449922449FAA5B0BBCDD8848717463A7C01C0
310
69CC4F42387CA8BA765E07AF073C6C5B7A803BCFA29803F8B004DCC80198007C0600011000220087355B03C0D600F0850730ED026752B7AB07B4A47653005752BF278050D42C00E4D2872906C42789E4182145787C07E18B4ED521084F1A2932842409E75FCC9D68003C9B02C9246FD5AE5F87EFFFB315C0D30F885D91ABE9
310
111EF0FB3C92E95C00E6911EF910C375F0D95E02C8318010C024156E1F9ED7BA5D603700631E303BC100C07E60236C1B00CB470D6E009F163BCF5E38B3031F0130D98F1A4A6924512EF43500A228589F2ACCBCFBF3CF597DF7EEF33F00DCDEFF9118BCEB9C800058A67CF777FF96DBBB4F6A8157F9B706603400A6C5D0C305
310
E6A3013415F109C0E700CCD17A05697924EB29005C296DEB0C3500A13512FA236E0845F2BD01846E58D800DE0052A70C83731805000B00AC0750344B702D1B22004FF3437F740100217012016891EE6C0D2336C50319C4ADF3B600CE10DE00D8E80101404C102D06472200630C4800D2B5F76D7400BC02D07BC7EBB67B2742
310
1300431EE05DDD74C5075600E5DB616A0F40A9E41B630CE0A805561E1059F47500E112789DB1220674F1813206F4A54DEC070C658F9F93353C00EA39418C33848431A01E94C4ECBD211D80C5A0E46C86B02D011600F5A024A6338404A9709B7B72148392478C9B8FD01DB7710038DAE35602307E008E0A80035600302E0013
310
23FD05A0CC12B900F860E491F6A669D9FCD28404409FEC238E0902167F58397D2F7073006D31CF865FFB2427CDC99E65C3ADF3004CCABDFC0ACC67221B16AD67BD3619115B003001D80AC0B0AA117F4BDEAF782A009516DD42300158A2B132D20B003F80F55ECF0EE08A013F264703007B00F85A2649922449922449922449
310
9224497FA77F4B7E3F3607F1002C0000000049454E44AE426082
  0
ENDSEC
  0
EOF
