  0
SECTION
  2
HEADER
  9
$ACADVER
  1
AC1032
  9
$ACADMAINTVER
 90
        4
  9
$DWGCODEPAGE
  3
ANSI_1252
  9
$LASTSAVEDBY
  1
Siqi
  9
$REQUIREDVERSIONS
160
                 0
  9
$INSBASE
 10
0.0
 20
0.0
 30
0.0
  9
$EXTMIN
 10
34046.28361398958
 20
2318.231195314151
 30
0.0
  9
$EXTMAX
 10
35558.81610829255
 20
4668.131995316048
 30
0.0
  9
$LIMMIN
 10
0.0
 20
0.0
  9
$LIMMAX
 10
420.0
 20
297.0
  9
$ORTHOMODE
 70
     0
  9
$REGENMODE
 70
     1
  9
$FILLMODE
 70
     1
  9
$QTEXTMODE
 70
     0
  9
$MIRRTEXT
 70
     0
  9
$LTSCALE
 40
1.0
  9
$ATTMODE
 70
     1
  9
$TEXTSIZE
 40
2.5
  9
$TRACEWID
 40
1.0
  9
$TEXTSTYLE
  7
Standard
  9
$CLAYER
  8
0
  9
$CELTYPE
  6
ByLayer
  9
$CECOLOR
 62
   256
  9
$CELTSCALE
 40
1.0
  9
$DISPSILH
 70
     0
  9
$DIMSCALE
 40
1.0
  9
$DIMASZ
 40
8.0
  9
$DIMEXO
 40
1.0
  9
$DIMDLI
 40
3.75
  9
$DIMRND
 40
0.0
  9
$DIMDLE
 40
0.0
  9
$DIMEXE
 40
1.25
  9
$DIMTP
 40
0.0
  9
$DIMTM
 40
0.0
  9
$DIMTXT
 40
15.0
  9
$DIMCEN
 40
0.5
  9
$DIMTSZ
 40
0.0
  9
$DIMTOL
 70
     0
  9
$DIMLIM
 70
     0
  9
$DIMTIH
 70
     0
  9
$DIMTOH
 70
     0
  9
$DIMSE1
 70
     0
  9
$DIMSE2
 70
     0
  9
$DIMTAD
 70
     1
  9
$DIMZIN
 70
     8
  9
$DIMBLK
  1

  9
$DIMASO
 70
     1
  9
$DIMSHO
 70
     1
  9
$DIMPOST
  1

  9
$DIMAPOST
  1

  9
$DIMALT
 70
     1
  9
$DIMALTD
 70
     2
  9
$DIMALTF
 40
0.03937007874
  9
$DIMLFAC
 40
1.0
  9
$DIMTOFL
 70
     1
  9
$DIMTVP
 40
0.0
  9
$DIMTIX
 70
     0
  9
$DIMSOXD
 70
     0
  9
$DIMSAH
 70
     0
  9
$DIMBLK1
  1

  9
$DIMBLK2
  1

  9
$DIMSTYLE
  2
ISO-25
  9
$DIMCLRD
 70
     0
  9
$DIMCLRE
 70
     0
  9
$DIMCLRT
 70
     0
  9
$DIMTFAC
 40
1.0
  9
$DIMGAP
 40
3.0
  9
$DIMJUST
 70
     0
  9
$DIMSD1
 70
     0
  9
$DIMSD2
 70
     0
  9
$DIMTOLJ
 70
     0
  9
$DIMTZIN
 70
     8
  9
$DIMALTZ
 70
     0
  9
$DIMALTTZ
 70
     0
  9
$DIMUPT
 70
     0
  9
$DIMDEC
 70
     2
  9
$DIMTDEC
 70
     2
  9
$DIMALTU
 70
     2
  9
$DIMALTTD
 70
     2
  9
$DIMTXSTY
  7
Standard
  9
$DIMAUNIT
 70
     0
  9
$DIMADEC
 70
     2
  9
$DIMALTRND
 40
0.0
  9
$DIMAZIN
 70
     0
  9
$DIMDSEP
 70
    44
  9
$DIMATFIT
 70
     3
  9
$DIMFRAC
 70
     0
  9
$DIMLDRBLK
  1

  9
$DIMLUNIT
 70
     2
  9
$DIMLWD
 70
    -2
  9
$DIMLWE
 70
    -2
  9
$DIMTMOVE
 70
     0
  9
$DIMFXL
 40
1.0
  9
$DIMFXLON
 70
     0
  9
$DIMJOGANG
 40
0.7853981633974483
  9
$DIMTFILL
 70
     0
  9
$DIMTFILLCLR
 70
     0
  9
$DIMARCSYM
 70
     0
  9
$DIMLTYPE
  6

  9
$DIMLTEX1
  6

  9
$DIMLTEX2
  6

  9
$DIMTXTDIRECTION
 70
     0
  9
$LUNITS
 70
     2
  9
$LUPREC
 70
     4
  9
$SKETCHINC
 40
1.0
  9
$FILLETRAD
 40
2.0
  9
$AUNITS
 70
     0
  9
$AUPREC
 70
     0
  9
$MENU
  1
.
  9
$ELEVATION
 40
0.0
  9
$PELEVATION
 40
0.0
  9
$THICKNESS
 40
0.0
  9
$LIMCHECK
 70
     0
  9
$CHAMFERA
 40
0.0
  9
$CHAMFERB
 40
0.0
  9
$CHAMFERC
 40
0.0
  9
$CHAMFERD
 40
0.0
  9
$SKPOLY
 70
     0
  9
$TDCREATE
 40
2453649.060439815
  9
$TDUCREATE
 40
2453649.352115521
  9
$TDUPDATE
 40
2457969.443807870
  9
$TDUUPDATE
 40
2457969.735474537
  9
$TDINDWG
 40
0.6143113426
  9
$TDUSRTIMER
 40
0.6143066435
  9
$USRTIMER
 70
     1
  9
$ANGBASE
 50
0.0
  9
$ANGDIR
 70
     0
  9
$PDMODE
 70
     0
  9
$PDSIZE
 40
0.0
  9
$PLINEWID
 40
0.0
  9
$SPLFRAME
 70
     0
  9
$SPLINETYPE
 70
     6
  9
$SPLINESEGS
 70
     8
  9
$HANDSEED
  5
41D7
  9
$SURFTAB1
 70
     6
  9
$SURFTAB2
 70
     6
  9
$SURFTYPE
 70
     6
  9
$SURFU
 70
     6
  9
$SURFV
 70
     6
  9
$UCSBASE
  2

  9
$UCSNAME
  2

  9
$UCSORG
 10
20135.92273348905
 20
3420.432723209263
 30
0.0
  9
$UCSXDIR
 10
1.0
 20
0.0
 30
0.0
  9
$UCSYDIR
 10
0.0
 20
1.0
 30
0.0
  9
$UCSORTHOREF
  2

  9
$UCSORTHOVIEW
 70
     0
  9
$UCSORGTOP
 10
0.0
 20
0.0
 30
0.0
  9
$UCSORGBOTTOM
 10
0.0
 20
0.0
 30
0.0
  9
$UCSORGLEFT
 10
0.0
 20
0.0
 30
0.0
  9
$UCSORGRIGHT
 10
0.0
 20
0.0
 30
0.0
  9
$UCSORGFRONT
 10
0.0
 20
0.0
 30
0.0
  9
$UCSORGBACK
 10
0.0
 20
0.0
 30
0.0
  9
$PUCSBASE
  2

  9
$PUCSNAME
  2

  9
$PUCSORG
 10
0.0
 20
0.0
 30
0.0
  9
$PUCSXDIR
 10
1.0
 20
0.0
 30
0.0
  9
$PUCSYDIR
 10
0.0
 20
1.0
 30
0.0
  9
$PUCSORTHOREF
  2

  9
$PUCSORTHOVIEW
 70
     0
  9
$PUCSORGTOP
 10
0.0
 20
0.0
 30
0.0
  9
$PUCSORGBOTTOM
 10
0.0
 20
0.0
 30
0.0
  9
$PUCSORGLEFT
 10
0.0
 20
0.0
 30
0.0
  9
$PUCSORGRIGHT
 10
0.0
 20
0.0
 30
0.0
  9
$PUCSORGFRONT
 10
0.0
 20
0.0
 30
0.0
  9
$PUCSORGBACK
 10
0.0
 20
0.0
 30
0.0
  9
$USERI1
 70
     0
  9
$USERI2
 70
     0
  9
$USERI3
 70
     0
  9
$USERI4
 70
     0
  9
$USERI5
 70
     0
  9
$USERR1
 40
0.0
  9
$USERR2
 40
0.0
  9
$USERR3
 40
0.0
  9
$USERR4
 40
0.0
  9
$USERR5
 40
2.5
  9
$WORLDVIEW
 70
     1
  9
$SHADEDGE
 70
     3
  9
$SHADEDIF
 70
    70
  9
$TILEMODE
 70
     1
  9
$MAXACTVP
 70
    64
  9
$PINSBASE
 10
0.0
 20
0.0
 30
0.0
  9
$PLIMCHECK
 70
     0
  9
$PEXTMIN
 10
0.0
 20
0.0
 30
0.0
  9
$PEXTMAX
 10
0.0
 20
0.0
 30
0.0
  9
$PLIMMIN
 10
0.0
 20
0.0
  9
$PLIMMAX
 10
12.0
 20
9.0
  9
$UNITMODE
 70
     0
  9
$VISRETAIN
 70
     1
  9
$PLINEGEN
 70
     0
  9
$PSLTSCALE
 70
     1
  9
$TREEDEPTH
 70
  3020
  9
$CMLSTYLE
  2
Standard
  9
$CMLJUST
 70
     0
  9
$CMLSCALE
 40
20.0
  9
$PROXYGRAPHICS
 70
     1
  9
$MEASUREMENT
 70
     1
  9
$CELWEIGHT
370
    -1
  9
$ENDCAPS
280
     0
  9
$JOINSTYLE
280
     0
  9
$LWDISPLAY
290
     0
  9
$INSUNITS
 70
     4
  9
$HYPERLINKBASE
  1

  9
$STYLESHEET
  1

  9
$XEDIT
290
     1
  9
$CEPSNTYPE
380
     0
  9
$PSTYLEMODE
290
     1
  9
$FINGERPRINTGUID
  2
{FDEAD578-A652-11D2-9A35-0060089B3A3F}
  9
$VERSIONGUID
  2
{6AA1BB3A-4057-7F45-B685-217E958CC340}
  9
$EXTNAMES
290
     1
  9
$PSVPSCALE
 40
0.0
  9
$OLESTARTUP
290
     0
  9
$SORTENTS
280
   127
  9
$INDEXCTL
280
     0
  9
$HIDETEXT
280
     1
  9
$XCLIPFRAME
280
     0
  9
$HALOGAP
280
     0
  9
$OBSCOLOR
 70
   257
  9
$OBSLTYPE
280
     0
  9
$INTERSECTIONDISPLAY
280
     0
  9
$INTERSECTIONCOLOR
 70
   257
  9
$DIMASSOC
280
     2
  9
$PROJECTNAME
  1

  9
$CAMERADISPLAY
290
     0
  9
$LENSLENGTH
 40
50.0
  9
$CAMERAHEIGHT
 40
0.0
  9
$STEPSPERSEC
 40
2.0
  9
$STEPSIZE
 40
6.0
  9
$3DDWFPREC
 40
2.0
  9
$PSOLWIDTH
 40
0.25
  9
$PSOLHEIGHT
 40
4.0
  9
$LOFTANG1
 40
1.570796326794896
  9
$LOFTANG2
 40
1.570796326794896
  9
$LOFTMAG1
 40
0.0
  9
$LOFTMAG2
 40
0.0
  9
$LOFTPARAM
 70
     7
  9
$LOFTNORMALS
280
     1
  9
$LATITUDE
 40
37.795
  9
$LONGITUDE
 40
-122.394
  9
$NORTHDIRECTION
 40
0.0
  9
$TIMEZONE
 70
 -8000
  9
$LIGHTGLYPHDISPLAY
280
     1
  9
$TILEMODELIGHTSYNCH
280
     1
  9
$CMATERIAL
347
40E9
  9
$SOLIDHIST
280
     1
  9
$SHOWHIST
280
     1
  9
$DWFFRAME
280
     2
  9
$DGNFRAME
280
     0
  9
$REALWORLDSCALE
290
     1
  9
$INTERFERECOLOR
 62
     1
  9
$INTERFEREOBJVS
345
40F6
  9
$INTERFEREVPVS
346
418B
  9
$CSHADOW
280
     0
  9
$SHADOWPLANELOCATION
 40
0.0
  0
ENDSEC
  0
SECTION
  2
CLASSES
  0
CLASS
  1
ACDBDICTIONARYWDFLT
  2
AcDbDictionaryWithDefault
  3
ObjectDBX Classes
 90
        0
 91
        1
280
     0
281
     0
  0
CLASS
  1
ACDBPLACEHOLDER
  2
AcDbPlaceHolder
  3
ObjectDBX Classes
 90
        0
 91
        1
280
     0
281
     0
  0
CLASS
  1
LAYOUT
  2
AcDbLayout
  3
ObjectDBX Classes
 90
        0
 91
        3
280
     0
281
     0
  0
CLASS
  1
DICTIONARYVAR
  2
AcDbDictionaryVar
  3
ObjectDBX Classes
 90
        0
 91
       20
280
     0
281
     0
  0
CLASS
  1
DIMASSOC
  2
AcDbDimAssoc
  3
"AcDbDimAssoc|Product Desc:     AcDim ARX App For Dimension|Company:          Autodesk, Inc.|WEB Address:      www.autodesk.com"
 90
        0
 91
       19
280
     0
281
     0
  0
CLASS
  1
MATERIAL
  2
AcDbMaterial
  3
ObjectDBX Classes
 90
     1153
 91
        3
280
     0
281
     0
  0
CLASS
  1
VISUALSTYLE
  2
AcDbVisualStyle
  3
ObjectDBX Classes
 90
     4095
 91
       26
280
     0
281
     0
  0
CLASS
  1
TABLESTYLE
  2
AcDbTableStyle
  3
ObjectDBX Classes
 90
     4095
 91
        1
280
     0
281
     0
  0
CLASS
  1
VLO-VL
  2
vlo_VL
  3
VL|AutoLISP based application
 90
      129
 91
        2
280
     0
281
     0
  0
CLASS
  1
SORTENTSTABLE
  2
AcDbSortentsTable
  3
ObjectDBX Classes
 90
        0
 91
        1
280
     0
281
     0
  0
CLASS
  1
SCALE
  2
AcDbScale
  3
ObjectDBX Classes
 90
     1153
 91
       17
280
     0
281
     0
  0
CLASS
  1
MLEADERSTYLE
  2
AcDbMLeaderStyle
  3
ACDB_MLEADERSTYLE_CLASS
 90
     4095
 91
        1
280
     0
281
     0
  0
CLASS
  1
ACDBSECTIONVIEWSTYLE
  2
AcDbSectionViewStyle
  3
ObjectDBX Classes
 90
     1025
 91
        1
280
     0
281
     0
  0
CLASS
  1
ACDBDETAILVIEWSTYLE
  2
AcDbDetailViewStyle
  3
ObjectDBX Classes
 90
     1025
 91
        1
280
     0
281
     0
  0
CLASS
  1
CELLSTYLEMAP
  2
AcDbCellStyleMap
  3
ObjectDBX Classes
 90
     1152
 91
        2
280
     0
281
     0
  0
ENDSEC
  0
SECTION
  2
TABLES
  0
TABLE
  2
VPORT
  5
8
330
0
100
AcDbSymbolTable
 70
     1
  0
VPORT
  5
40E7
330
8
100
AcDbSymbolTableRecord
100
AcDbViewportTableRecord
  2
*Active
 70
     0
 10
0.0
 20
0.0
 11
1.0
 21
1.0
 12
35274.70732445961
 22
3537.170255698737
 13
0.0
 23
0.0
 14
10.0
 24
10.0
 15
10.0
 25
10.0
 16
0.0
 26
0.0
 36
1.0
 17
0.0
 27
0.0
 37
0.0
 40
958.8392896250272
 41
2.283154121863799
 42
50.0
 43
0.0
 44
0.0
 50
0.0
 51
0.0
 71
     0
 72
  1000
 73
     1
 74
     3
 75
     0
 76
     0
 77
     0
 78
     0
281
     0
 65
     1
110
20135.92273348905
120
3420.432723209263
130
0.0
111
1.0
121
0.0
131
0.0
112
0.0
122
1.0
132
0.0
 79
     0
146
0.0
348
40F2
 60
     3
 61
     5
292
     1
282
     1
141
0.0
142
0.0
 63
   250
421
  3355443
1001
ACAD_NAV_VCDISPLAY
1070
     3
  0
ENDTAB
  0
TABLE
  2
LTYPE
  5
5
330
0
100
AcDbSymbolTable
 70
     3
  0
LTYPE
  5
14
330
5
100
AcDbSymbolTableRecord
100
AcDbLinetypeTableRecord
  2
ByBlock
 70
     0
  3

 72
    65
 73
     0
 40
0.0
  0
LTYPE
  5
15
330
5
100
AcDbSymbolTableRecord
100
AcDbLinetypeTableRecord
  2
ByLayer
 70
     0
  3

 72
    65
 73
     0
 40
0.0
  0
LTYPE
  5
16
330
5
100
AcDbSymbolTableRecord
100
AcDbLinetypeTableRecord
  2
Continuous
 70
     0
  3
Solid line
 72
    65
 73
     0
 40
0.0
  0
LTYPE
  5
8F
330
5
100
AcDbSymbolTableRecord
100
AcDbLinetypeTableRecord
  2
ACAD_ISO02W100
 70
     0
  3
ISO dash __ __ __ __ __ __ __ __ __ __ __ __ __
 72
    65
 73
     2
 40
15.0
 49
12.0
 74
     0
 49
-3.0
 74
     0
  0
LTYPE
  5
2E41
330
5
100
AcDbSymbolTableRecord
100
AcDbLinetypeTableRecord
  2
CENTER
 70
     0
  3
Center ____ _ ____ _ ____ _ ____ _ ____ _ ____
 72
    65
 73
     4
 40
50.8
 49
31.75
 74
     0
 49
-6.349999999999999
 74
     0
 49
6.349999999999999
 74
     0
 49
-6.349999999999999
 74
     0
  0
ENDTAB
  0
TABLE
  2
LAYER
  5
2
102
{ACAD_XDICTIONARY
360
4149
102
}
330
0
100
AcDbSymbolTable
 70
     4
  0
LAYER
  5
10
102
{ACAD_XDICTIONARY
360
41B3
102
}
330
2
100
AcDbSymbolTableRecord
100
AcDbLayerTableRecord
  2
0
 70
     0
 62
     7
  6
Continuous
370
    25
390
F
347
40EB
348
0
  0
LAYER
  5
84
102
{ACAD_XDICTIONARY
360
41B5
102
}
330
2
100
AcDbSymbolTableRecord
100
AcDbLayerTableRecord
  2
base
 70
     0
 62
     4
  6
Continuous
370
    40
390
F
347
40EB
348
0
  0
LAYER
  5
1DA
330
2
100
AcDbSymbolTableRecord
100
AcDbLayerTableRecord
  2
Defpoints
 70
     0
 62
     7
  6
Continuous
290
     0
370
    -3
390
F
347
40EB
348
0
  0
LAYER
  5
2D93
102
{ACAD_XDICTIONARY
360
41B7
102
}
330
2
100
AcDbSymbolTableRecord
100
AcDbLayerTableRecord
  2
DIM
 70
     0
 62
     7
  6
Continuous
370
     9
390
F
347
40EB
348
0
  0
ENDTAB
  0
TABLE
  2
STYLE
  5
3
330
0
100
AcDbSymbolTable
 70
     2
  0
STYLE
  5
11
330
3
100
AcDbSymbolTableRecord
100
AcDbTextStyleTableRecord
  2
Standard
 70
     0
 40
0.0
 41
1.0
 50
0.0
 71
     0
 42
2.5
  3
txt
  4

  0
STYLE
  5
2E40
330
3
100
AcDbSymbolTableRecord
100
AcDbTextStyleTableRecord
  2

 70
     1
 40
0.0
 41
1.0
 50
0.0
 71
     0
 42
2.5
  3
ltypeshp.shx
  4

  0
ENDTAB
  0
TABLE
  2
VIEW
  5
6
330
0
100
AcDbSymbolTable
 70
     1
  0
ENDTAB
  0
TABLE
  2
UCS
  5
7
330
0
100
AcDbSymbolTable
 70
     0
  0
ENDTAB
  0
TABLE
  2
APPID
  5
9
330
0
100
AcDbSymbolTable
 70
     4
  0
APPID
  5
12
330
9
100
AcDbSymbolTableRecord
100
AcDbRegAppTableRecord
  2
ACAD
 70
     0
  0
APPID
  5
411A
330
9
100
AcDbSymbolTableRecord
100
AcDbRegAppTableRecord
  2
ACAD_EXEMPT_FROM_CAD_STANDARDS
 70
     0
  0
APPID
  5
4148
330
9
100
AcDbSymbolTableRecord
100
AcDbRegAppTableRecord
  2
ACAD_PSEXT
 70
     0
  0
APPID
  5
41B9
330
9
100
AcDbSymbolTableRecord
100
AcDbRegAppTableRecord
  2
ACAD_NAV_VCDISPLAY
 70
     0
  0
ENDTAB
  0
TABLE
  2
DIMSTYLE
  5
A
330
0
100
AcDbSymbolTable
 70
     3
100
AcDbDimStyleTable
 71
     1
340
27
  0
DIMSTYLE
105
27
102
{ACAD_REACTORS
330
35D1
330
35E9
330
3601
330
373E
330
3894
330
38A4
330
38C8
330
38E0
330
38F0
330
3918
330
393F
330
3957
330
3985
330
399D
330
39B5
330
39CD
330
3A1C
330
3A3D
330
3A52
330
3A70
330
3A85
330
3BFC
330
3C7C
102
}
330
A
100
AcDbSymbolTableRecord
100
AcDbDimStyleTableRecord
  2
ISO-25
 70
     0
 41
2.0
 42
1.0
 43
3.75
 44
1.25
 73
     0
 74
     0
 77
     1
 78
     8
140
3.0
141
2.5
143
0.03937007874016
147
5.0
171
     3
172
     1
271
     2
272
     2
274
     3
278
    44
283
     0
284
     8
340
11
  0
DIMSTYLE
105
4146
330
A
100
AcDbSymbolTableRecord
100
AcDbDimStyleTableRecord
  2
Standard
 70
     0
 41
25.0
 42
5.0
 43
2.0
 44
5.0
 73
     0
 74
     0
 77
     1
 78
    12
 79
     3
140
30.0
141
4.0
147
8.0
179
     2
340
11
  0
DIMSTYLE
105
4147
330
A
100
AcDbSymbolTableRecord
100
AcDbDimStyleTableRecord
  2
123
 70
     0
 41
10.0
 42
3.0
 43
2.0
 44
3.0
 73
     0
 74
     0
 77
     1
 78
    12
 79
     3
140
20.0
141
4.0
147
1.0
179
     2
271
     2
272
     2
340
11
  0
ENDTAB
  0
TABLE
  2
BLOCK_RECORD
  5
1
330
0
100
AcDbSymbolTable
 70
    58
  0
BLOCK_RECORD
  5
1F
102
{ACAD_XDICTIONARY
360
4122
102
}
330
1
100
AcDbSymbolTableRecord
100
AcDbBlockTableRecord
  2
*Model_Space
340
22
 70
     0
280
     1
281
     0
  0
BLOCK_RECORD
  5
50
330
1
100
AcDbSymbolTableRecord
100
AcDbBlockTableRecord
  2
*Paper_Space
340
51
 70
     0
280
     1
281
     0
  0
BLOCK_RECORD
  5
55
330
1
100
AcDbSymbolTableRecord
100
AcDbBlockTableRecord
  2
*Paper_Space0
340
56
 70
     0
280
     1
281
     0
  0
BLOCK_RECORD
  5
35D2
330
1
100
AcDbSymbolTableRecord
100
AcDbBlockTableRecord
  2
*D1
340
0
 70
     0
280
     1
281
     0
  0
BLOCK_RECORD
  5
35EA
330
1
100
AcDbSymbolTableRecord
100
AcDbBlockTableRecord
  2
*D2
340
0
 70
     0
280
     1
281
     0
  0
BLOCK_RECORD
  5
3602
330
1
100
AcDbSymbolTableRecord
100
AcDbBlockTableRecord
  2
*D3
340
0
 70
     0
280
     1
281
     0
  0
BLOCK_RECORD
  5
373F
330
1
100
AcDbSymbolTableRecord
100
AcDbBlockTableRecord
  2
*D4
340
0
 70
     0
280
     1
281
     0
  0
BLOCK_RECORD
  5
3895
330
1
100
AcDbSymbolTableRecord
100
AcDbBlockTableRecord
  2
*D5
340
0
 70
     0
280
     1
281
     0
  0
BLOCK_RECORD
  5
38A5
330
1
100
AcDbSymbolTableRecord
100
AcDbBlockTableRecord
  2
*D6
340
0
 70
     0
280
     1
281
     0
  0
BLOCK_RECORD
  5
38C9
330
1
100
AcDbSymbolTableRecord
100
AcDbBlockTableRecord
  2
*D7
340
0
 70
     0
280
     1
281
     0
  0
BLOCK_RECORD
  5
38E1
330
1
100
AcDbSymbolTableRecord
100
AcDbBlockTableRecord
  2
*D8
340
0
 70
     0
280
     1
281
     0
  0
BLOCK_RECORD
  5
38F1
330
1
100
AcDbSymbolTableRecord
100
AcDbBlockTableRecord
  2
*D9
340
0
 70
     0
280
     1
281
     0
  0
BLOCK_RECORD
  5
3919
330
1
100
AcDbSymbolTableRecord
100
AcDbBlockTableRecord
  2
*D10
340
0
 70
     0
280
     1
281
     0
  0
BLOCK_RECORD
  5
3940
330
1
100
AcDbSymbolTableRecord
100
AcDbBlockTableRecord
  2
*D11
340
0
 70
     0
280
     1
281
     0
  0
BLOCK_RECORD
  5
3958
330
1
100
AcDbSymbolTableRecord
100
AcDbBlockTableRecord
  2
*D12
340
0
 70
     0
280
     1
281
     0
  0
BLOCK_RECORD
  5
3986
330
1
100
AcDbSymbolTableRecord
100
AcDbBlockTableRecord
  2
*D13
340
0
 70
     0
280
     1
281
     0
  0
BLOCK_RECORD
  5
399E
330
1
100
AcDbSymbolTableRecord
100
AcDbBlockTableRecord
  2
*D14
340
0
 70
     0
280
     1
281
     0
  0
BLOCK_RECORD
  5
39B6
330
1
100
AcDbSymbolTableRecord
100
AcDbBlockTableRecord
  2
*D15
340
0
 70
     0
280
     1
281
     0
  0
BLOCK_RECORD
  5
39CE
330
1
100
AcDbSymbolTableRecord
100
AcDbBlockTableRecord
  2
*D16
340
0
 70
     0
280
     1
281
     0
  0
BLOCK_RECORD
  5
3A1D
330
1
100
AcDbSymbolTableRecord
100
AcDbBlockTableRecord
  2
*D17
340
0
 70
     0
280
     1
281
     0
  0
BLOCK_RECORD
  5
3A3E
330
1
100
AcDbSymbolTableRecord
100
AcDbBlockTableRecord
  2
*D18
340
0
 70
     0
280
     1
281
     0
  0
BLOCK_RECORD
  5
3A53
330
1
100
AcDbSymbolTableRecord
100
AcDbBlockTableRecord
  2
*D19
340
0
 70
     0
280
     1
281
     0
  0
BLOCK_RECORD
  5
3A71
330
1
100
AcDbSymbolTableRecord
100
AcDbBlockTableRecord
  2
*D20
340
0
 70
     0
280
     1
281
     0
  0
BLOCK_RECORD
  5
3A86
330
1
100
AcDbSymbolTableRecord
100
AcDbBlockTableRecord
  2
*D21
340
0
 70
     0
280
     1
281
     0
  0
BLOCK_RECORD
  5
3BFD
330
1
100
AcDbSymbolTableRecord
100
AcDbBlockTableRecord
  2
*D22
340
0
 70
     0
280
     1
281
     0
  0
BLOCK_RECORD
  5
3C7D
330
1
100
AcDbSymbolTableRecord
100
AcDbBlockTableRecord
  2
*D23
340
0
 70
     0
280
     1
281
     0
  0
ENDTAB
  0
ENDSEC
  0
SECTION
  2
BLOCKS
  0
BLOCK
  5
20
330
1F
100
AcDbEntity
  8
0
100
AcDbBlockBegin
  2
*Model_Space
 70
     0
 10
0.0
 20
0.0
 30
0.0
  3
*Model_Space
  1

  0
ENDBLK
  5
21
330
1F
100
AcDbEntity
  8
0
100
AcDbBlockEnd
  0
BLOCK
  5
52
330
50
100
AcDbEntity
 67
     1
  8
0
100
AcDbBlockBegin
  2
*Paper_Space
 70
     0
 10
0.0
 20
0.0
 30
0.0
  3
*Paper_Space
  1

  0
ENDBLK
  5
53
330
50
100
AcDbEntity
 67
     1
  8
0
100
AcDbBlockEnd
  0
BLOCK
  5
57
330
55
100
AcDbEntity
 67
     1
  8
0
100
AcDbBlockBegin
  2
*Paper_Space0
 70
     0
 10
0.0
 20
0.0
 30
0.0
  3
*Paper_Space0
  1

  0
ENDBLK
  5
58
330
55
100
AcDbEntity
 67
     1
  8
0
100
AcDbBlockEnd
  0
BLOCK
  5
35DC
330
35D2
100
AcDbEntity
  8
0
100
AcDbBlockBegin
  2
*D1
 70
     1
 10
0.0
 20
0.0
 30
0.0
  3
*D1
  1

  0
LINE
  5
412E
330
35D2
100
AcDbEntity
  8
DIM
 62
     0
440
 16777216
370
    -2
100
AcDbLine
 10
34748.97405862224
 20
3036.623609547259
 30
0.0
 11
34748.97405862224
 21
2997.77633194215
 31
0.0
  0
LINE
  5
412F
330
35D2
100
AcDbEntity
  8
DIM
 62
     0
440
 16777216
370
    -2
100
AcDbLine
 10
34924.97405862224
 20
3037.223609547258
 30
0.0
 11
34924.97405862224
 21
2997.77633194215
 31
0.0
  0
LINE
  5
4130
330
35D2
100
AcDbEntity
  8
DIM
 62
     0
440
 16777216
370
    -2
100
AcDbLine
 10
34756.97405862224
 20
2999.02633194215
 30
0.0
 11
34916.97405862224
 21
2999.02633194215
 31
0.0
  0
SOLID
  5
4131
330
35D2
100
AcDbEntity
  8
DIM
 62
     0
440
 16777216
100
AcDbTrace
 10
34756.97405862224
 20
3000.359665275484
 30
0.0
 11
34756.97405862224
 21
2997.692998608817
 31
0.0
 12
34748.97405862224
 22
2999.02633194215
 32
0.0
 13
34748.97405862224
 23
2999.02633194215
 33
0.0
  0
SOLID
  5
4132
330
35D2
100
AcDbEntity
  8
DIM
 62
     0
440
 16777216
100
AcDbTrace
 10
34916.97405862224
 20
3000.359665275484
 30
0.0
 11
34916.97405862224
 21
2997.692998608817
 31
0.0
 12
34924.97405862224
 22
2999.02633194215
 32
0.0
 13
34924.97405862224
 23
2999.02633194215
 33
0.0
  0
MTEXT
  5
4133
330
35D2
100
AcDbEntity
  8
DIM
 62
     0
440
 16777216
100
AcDbMText
 10
34836.97405862224
 20
3009.52633194215
 30
0.0
 40
15.0
 41
0.0
 46
0.0
 71
     5
 72
     1
  1
%%C90[3.46]
 73
     1
 44
1.0
  0
POINT
  5
4134
330
35D2
100
AcDbEntity
  8
Defpoints
 62
     0
440
 16777216
100
AcDbPoint
 10
34748.97405862224
 20
3037.623609547259
 30
0.0
  0
POINT
  5
4135
330
35D2
100
AcDbEntity
  8
Defpoints
 62
     0
440
 16777216
100
AcDbPoint
 10
34924.97405862224
 20
3038.223609547258
 30
0.0
  0
POINT
  5
4136
330
35D2
100
AcDbEntity
  8
Defpoints
 62
     0
440
 16777216
100
AcDbPoint
 10
34924.97405862224
 20
2999.02633194215
 30
0.0
  0
ENDBLK
  5
35DD
330
35D2
100
AcDbEntity
  8
0
100
AcDbBlockEnd
  0
BLOCK
  5
35F4
330
35EA
100
AcDbEntity
  8
0
100
AcDbBlockBegin
  2
*D2
 70
     1
 10
0.0
 20
0.0
 30
0.0
  3
*D2
  1

  0
LINE
  5
3C36
330
35EA
100
AcDbEntity
  8
DIM
 62
     0
440
 16777216
370
    -2
100
AcDbLine
 10
34723.08249206419
 20
3041.595949249577
 30
0.0
 11
34723.08249206419
 21
3080.292567618686
 31
0.0
  0
LINE
  5
3C37
330
35EA
100
AcDbEntity
  8
DIM
 62
     0
440
 16777216
370
    -2
100
AcDbLine
 10
34950.884707664
 20
3041.623609547259
 30
0.0
 11
34950.884707664
 21
3080.292567618686
 31
0.0
  0
LINE
  5
3C38
330
35EA
100
AcDbEntity
  8
DIM
 62
     0
440
 16777216
370
    -2
100
AcDbLine
 10
34731.08249206418
 20
3079.042567618686
 30
0.0
 11
34942.884707664
 21
3079.042567618686
 31
0.0
  0
SOLID
  5
3C39
330
35EA
100
AcDbEntity
  8
DIM
 62
     0
440
 16777216
100
AcDbTrace
 10
34731.08249206418
 20
3080.37590095202
 30
0.0
 11
34731.08249206418
 21
3077.709234285352
 31
0.0
 12
34723.08249206419
 22
3079.042567618686
 32
0.0
 13
34723.08249206419
 23
3079.042567618686
 33
0.0
  0
SOLID
  5
3C3A
330
35EA
100
AcDbEntity
  8
DIM
 62
     0
440
 16777216
100
AcDbTrace
 10
34942.884707664
 20
3080.37590095202
 30
0.0
 11
34942.884707664
 21
3077.709234285352
 31
0.0
 12
34950.884707664
 22
3079.042567618686
 32
0.0
 13
34950.884707664
 23
3079.042567618686
 33
0.0
  0
MTEXT
  5
3C3B
330
35EA
100
AcDbEntity
  8
DIM
 62
     0
440
 16777216
100
AcDbMText
 10
34836.98359986409
 20
3089.542567618686
 30
0.0
 40
15.0
 41
0.0
 46
0.0
 71
     5
 72
     1
  1
%%C114[4.49]
 73
     1
 44
1.0
  0
POINT
  5
3C3C
330
35EA
100
AcDbEntity
  8
Defpoints
 62
     0
440
 16777216
100
AcDbPoint
 10
34723.08249206419
 20
3040.595949249577
 30
0.0
  0
POINT
  5
3C3D
330
35EA
100
AcDbEntity
  8
Defpoints
 62
     0
440
 16777216
100
AcDbPoint
 10
34950.884707664
 20
3040.623609547259
 30
0.0
  0
POINT
  5
3C3E
330
35EA
100
AcDbEntity
  8
Defpoints
 62
     0
440
 16777216
100
AcDbPoint
 10
34950.884707664
 20
3079.042567618686
 30
0.0
  0
ENDBLK
  5
35F5
330
35EA
100
AcDbEntity
  8
0
100
AcDbBlockEnd
  0
BLOCK
  5
360C
330
3602
100
AcDbEntity
  8
0
100
AcDbBlockBegin
  2
*D3
 70
     1
 10
0.0
 20
0.0
 30
0.0
  3
*D3
  1

  0
LINE
  5
3C2D
330
3602
100
AcDbEntity
  8
DIM
 62
     0
440
 16777216
370
    -2
100
AcDbLine
 10
34716.97405862224
 20
3044.222146640942
 30
0.0
 11
34716.97405862224
 21
2956.550430962418
 31
0.0
  0
LINE
  5
3C2E
330
3602
100
AcDbEntity
  8
DIM
 62
     0
440
 16777216
370
    -2
100
AcDbLine
 10
34956.97405862224
 20
3044.222146640942
 30
0.0
 11
34956.97405862224
 21
2956.550430962418
 31
0.0
  0
LINE
  5
3C2F
330
3602
100
AcDbEntity
  8
DIM
 62
     0
440
 16777216
370
    -2
100
AcDbLine
 10
34724.97405862224
 20
2957.800430962418
 30
0.0
 11
34948.97405862224
 21
2957.800430962418
 31
0.0
  0
SOLID
  5
3C30
330
3602
100
AcDbEntity
  8
DIM
 62
     0
440
 16777216
100
AcDbTrace
 10
34724.97405862224
 20
2959.133764295751
 30
0.0
 11
34724.97405862224
 21
2956.467097629084
 31
0.0
 12
34716.97405862224
 22
2957.800430962418
 32
0.0
 13
34716.97405862224
 23
2957.800430962418
 33
0.0
  0
SOLID
  5
3C31
330
3602
100
AcDbEntity
  8
DIM
 62
     0
440
 16777216
100
AcDbTrace
 10
34948.97405862224
 20
2959.133764295751
 30
0.0
 11
34948.97405862224
 21
2956.467097629084
 31
0.0
 12
34956.97405862224
 22
2957.800430962418
 32
0.0
 13
34956.97405862224
 23
2957.800430962418
 33
0.0
  0
MTEXT
  5
3C32
330
3602
100
AcDbEntity
  8
DIM
 62
     0
440
 16777216
100
AcDbMText
 10
34836.97405862224
 20
2968.300430962418
 30
0.0
 40
15.0
 41
0.0
 46
0.0
 71
     5
 72
     1
  1
%%C120[4.72]
 73
     1
 44
1.0
  0
POINT
  5
3C33
330
3602
100
AcDbEntity
  8
Defpoints
 62
     0
440
 16777216
100
AcDbPoint
 10
34716.97405862224
 20
3045.222146640942
 30
0.0
  0
POINT
  5
3C34
330
3602
100
AcDbEntity
  8
Defpoints
 62
     0
440
 16777216
100
AcDbPoint
 10
34956.97405862224
 20
3045.222146640942
 30
0.0
  0
POINT
  5
3C35
330
3602
100
AcDbEntity
  8
Defpoints
 62
     0
440
 16777216
100
AcDbPoint
 10
34956.97405862224
 20
2957.800430962418
 30
0.0
  0
ENDBLK
  5
360D
330
3602
100
AcDbEntity
  8
0
100
AcDbBlockEnd
  0
BLOCK
  5
374B
330
373F
100
AcDbEntity
  8
0
100
AcDbBlockBegin
  2
*D4
 70
     1
 10
0.0
 20
0.0
 30
0.0
  3
*D4
  1

  0
LINE
  5
3C22
330
373F
100
AcDbEntity
  8
DIM
 62
     0
440
 16777216
370
    -2
100
AcDbLine
 10
34925.97405862228
 20
3037.623609547259
 30
0.0
 11
35054.92098750075
 21
3037.623609547259
 31
0.0
  0
LINE
  5
3C23
330
373F
100
AcDbEntity
  8
DIM
 62
     0
440
 16777216
370
    -2
100
AcDbLine
 10
34956.68280967275
 20
3047.578518140338
 30
0.0
 11
35054.92098750075
 21
3047.578518140338
 31
0.0
  0
LINE
  5
3C24
330
373F
100
AcDbEntity
  8
DIM
 62
     0
440
 16777216
370
    -2
100
AcDbLine
 10
35053.67098750074
 20
3029.623609547259
 30
0.0
 11
35053.67098750074
 21
3021.623609547259
 31
0.0
  0
LINE
  5
3C25
330
373F
100
AcDbEntity
  8
DIM
 62
     0
440
 16777216
370
    -2
100
AcDbLine
 10
35053.67098750074
 20
3055.578518140338
 30
0.0
 11
35053.67098750074
 21
3132.078518140338
 31
0.0
  0
LINE
  5
3C26
330
373F
100
AcDbEntity
  8
DIM
 62
     0
440
 16777216
370
    -2
100
AcDbLine
 10
35053.67098750074
 20
3037.623609547259
 30
0.0
 11
35053.67098750074
 21
3047.578518140338
 31
0.0
  0
SOLID
  5
3C27
330
373F
100
AcDbEntity
  8
DIM
 62
     0
440
 16777216
100
AcDbTrace
 10
35052.33765416741
 20
3029.623609547259
 30
0.0
 11
35055.00432083408
 21
3029.623609547259
 31
0.0
 12
35053.67098750074
 22
3037.623609547259
 32
0.0
 13
35053.67098750074
 23
3037.623609547259
 33
0.0
  0
SOLID
  5
3C28
330
373F
100
AcDbEntity
  8
DIM
 62
     0
440
 16777216
100
AcDbTrace
 10
35052.33765416741
 20
3055.578518140338
 30
0.0
 11
35055.00432083408
 21
3055.578518140338
 31
0.0
 12
35053.67098750074
 22
3047.578518140338
 32
0.0
 13
35053.67098750074
 23
3047.578518140338
 33
0.0
  0
MTEXT
  5
3C29
330
373F
100
AcDbEntity
  8
DIM
 62
     0
440
 16777216
100
AcDbMText
 10
35043.17098750075
 20
3097.828518140343
 30
0.0
 40
15.0
 41
0.0
 46
0.0
 71
     5
 72
     1
  1
5[0.2]
 11
0.0000000000000001
 21
1.0
 31
0.0
 73
     1
 44
1.0
  0
POINT
  5
3C2A
330
373F
100
AcDbEntity
  8
Defpoints
 62
     0
440
 16777216
100
AcDbPoint
 10
34924.97405862228
 20
3037.623609547259
 30
0.0
  0
POINT
  5
3C2B
330
373F
100
AcDbEntity
  8
Defpoints
 62
     0
440
 16777216
100
AcDbPoint
 10
34955.68280967276
 20
3047.578518140338
 30
0.0
  0
POINT
  5
3C2C
330
373F
100
AcDbEntity
  8
Defpoints
 62
     0
440
 16777216
100
AcDbPoint
 10
35053.67098750074
 20
3047.578518140338
 30
0.0
  0
ENDBLK
  5
374C
330
373F
100
AcDbEntity
  8
0
100
AcDbBlockEnd
  0
BLOCK
  5
389B
330
3895
100
AcDbEntity
  8
0
100
AcDbBlockBegin
  2
*D5
 70
     1
 10
0.0
 20
0.0
 30
0.0
  3
*D5
  1

  0
LINE
  5
3B32
330
3895
100
AcDbEntity
  8
DIM
 62
     0
440
 16777216
370
    -2
100
AcDbLine
 10
34520.01487446441
 20
4329.24108396779
 30
0.0
 11
34419.2323288157
 21
4219.496478211669
 31
0.0
  0
MTEXT
  5
3B33
330
3895
100
AcDbEntity
  8
DIM
 62
     0
440
 16777216
100
AcDbMText
 10
34463.67481684113
 20
4285.262561857496
 30
0.0
 40
15.0
 41
0.0
 46
0.0
 71
     5
 72
     1
  1
R50 [R1,97]
 11
0.6763929238168258
 21
0.7365409782289957
 31
0.0
 73
     1
 44
1.0
  0
SOLID
  5
3B34
330
3895
100
AcDbEntity
  8
DIM
 62
     0
440
 16777216
100
AcDbTrace
 10
34418.25027417806
 20
4220.398335443424
 30
0.0
 11
34420.21438345334
 21
4218.594620979914
 31
0.0
 12
34413.82118542517
 22
4213.604150385839
 32
0.0
 13
34413.82118542517
 23
4213.604150385839
 33
0.0
  0
POINT
  5
3B35
330
3895
100
AcDbEntity
  8
Defpoints
 62
     0
440
 16777216
100
AcDbPoint
 10
34413.82118542517
 20
4213.604150385839
 30
0.0
  0
POINT
  5
3B36
330
3895
100
AcDbEntity
  8
Defpoints
 62
     0
440
 16777216
100
AcDbPoint
 10
34447.64083161603
 20
4250.431199297305
 30
0.0
  0
ENDBLK
  5
389C
330
3895
100
AcDbEntity
  8
0
100
AcDbBlockEnd
  0
BLOCK
  5
38B5
330
38A5
100
AcDbEntity
  8
0
100
AcDbBlockBegin
  2
*D6
 70
     1
 10
0.0
 20
0.0
 30
0.0
  3
*D6
  1

  0
LINE
  5
3B19
330
38A5
100
AcDbEntity
  8
DIM
 62
     0
440
 16777216
370
    -2
100
AcDbLine
 10
34444.89646595388
 20
4200.49655744305
 30
0.0
 11
34347.01108225261
 21
4203.914790363894
 31
0.0
  0
LINE
  5
3B1A
330
38A5
100
AcDbEntity
  8
DIM
 62
     0
440
 16777216
370
    -2
100
AcDbLine
 10
34601.64083161603
 20
4194.988002811141
 30
0.0
 11
34346.85526459627
 21
4194.988002811139
 31
0.0
  0
ARC
  5
3B1B
330
38A5
100
AcDbEntity
  8
DIM
 62
     0
440
 16777216
370
    -2
100
AcDbCircle
 10
34602.64083161603
 20
4194.98800281114
 30
0.0
 40
254.5355670197597
100
AcDbArc
 50
174.3978178780123
 51
178.0
  0
LINE
  5
3B1C
330
38A5
100
AcDbEntity
  8
DIM
 62
     0
440
 16777216
370
    -2
100
AcDbLine
 10
34349.32100720445
 20
4219.835969290349
 30
0.0
 11
34355.5199282036
 21
4283.032673147799
 31
0.0
  0
ARC
  5
3B1D
330
38A5
100
AcDbEntity
  8
DIM
 62
     0
440
 16777216
370
    -2
100
AcDbCircle
 10
34602.64083161603
 20
4194.98800281114
 30
0.0
 40
254.5355670197597
100
AcDbArc
 50
174.3982628458011
 51
176.1991314229005
  0
ARC
  5
3B1E
330
38A5
100
AcDbEntity
  8
DIM
 62
     0
440
 16777216
370
    -2
100
AcDbCircle
 10
34602.64083161603
 20
4194.98800281114
 30
0.0
 40
254.5355670197597
100
AcDbArc
 50
181.8008685770996
 51
183.6017371541991
  0
ARC
  5
3B1F
330
38A5
100
AcDbEntity
  8
DIM
 62
     0
440
 16777216
370
    -2
100
AcDbCircle
 10
34602.64083161603
 20
4194.98800281114
 30
0.0
 40
254.5355670197597
100
AcDbArc
 50
178.0
 51
180.0000000000002
  0
SOLID
  5
3B20
330
38A5
100
AcDbEntity
  8
DIM
 62
     0
440
 16777216
100
AcDbTrace
 10
34349.99675016568
 20
4211.793450435554
 30
0.0
 11
34347.33349956923
 21
4211.928385129243
 31
0.0
 12
34348.26032078639
 22
4203.871165993016
 32
0.0
 13
34348.26032078639
 23
4203.871165993016
 33
0.0
  0
SOLID
  5
3B21
330
38A5
100
AcDbEntity
  8
DIM
 62
     0
440
 16777216
100
AcDbTrace
 10
34346.89781508089
 20
4186.968037509124
 30
0.0
 11
34349.56415244994
 21
4187.009943898834
 31
0.0
 12
34348.10526459628
 22
4194.98800281114
 32
0.0
 13
34348.10526459628
 23
4194.98800281114
 33
0.0
  0
MTEXT
  5
3B22
330
38A5
100
AcDbEntity
  8
DIM
 62
     0
440
 16777216
100
AcDbMText
 10
34340.72658943119
 20
4252.581365655921
 30
0.0
 40
15.0
 41
0.0
 46
0.0
 71
     5
 72
     1
  1
2,00°
 11
0.0976208031362457
 21
0.9952236827944933
 31
0.0
 73
     1
 44
1.0
  0
POINT
  5
3B23
330
38A5
100
AcDbEntity
  8
Defpoints
 62
     0
440
 16777216
100
AcDbPoint
 10
34348.12249461692
 20
4197.949591789323
 30
0.0
  0
POINT
  5
3B24
330
38A5
100
AcDbEntity
  8
Defpoints
 62
     0
440
 16777216
100
AcDbPoint
 10
34602.64083161603
 20
4194.98800281114
 30
0.0
  0
POINT
  5
3B25
330
38A5
100
AcDbEntity
  8
Defpoints
 62
     0
440
 16777216
100
AcDbPoint
 10
34602.64083161603
 20
4194.98800281114
 30
0.0
  0
POINT
  5
3B26
330
38A5
100
AcDbEntity
  8
Defpoints
 62
     0
440
 16777216
100
AcDbPoint
 10
34445.89585678091
 20
4200.461657946347
 30
0.0
  0
POINT
  5
3B27
330
38A5
100
AcDbEntity
  8
Defpoints
 62
     0
440
 16777216
100
AcDbPoint
 10
34722.64083161602
 20
4194.988002811141
 30
0.0
  0
ENDBLK
  5
38B6
330
38A5
100
AcDbEntity
  8
0
100
AcDbBlockEnd
  0
BLOCK
  5
38D3
330
38C9
100
AcDbEntity
  8
0
100
AcDbBlockBegin
  2
*D7
 70
     1
 10
0.0
 20
0.0
 30
0.0
  3
*D7
  1

  0
LINE
  5
4124
330
38C9
100
AcDbEntity
  8
DIM
 62
     0
440
 16777216
370
    -2
100
AcDbLine
 10
34602.27090209986
 20
4194.988002811139
 30
0.0
 11
34305.96360854624
 21
4194.988002811139
 31
0.0
  0
LINE
  5
4125
330
38C9
100
AcDbEntity
  8
DIM
 62
     0
440
 16777216
370
    -2
100
AcDbLine
 10
34371.64083161604
 20
4424.988002811139
 30
0.0
 11
34305.96360854624
 21
4424.988002811139
 31
0.0
  0
LINE
  5
4126
330
38C9
100
AcDbEntity
  8
DIM
 62
     0
440
 16777216
370
    -2
100
AcDbLine
 10
34307.21360854624
 20
4202.988002811139
 30
0.0
 11
34307.21360854624
 21
4416.988002811139
 31
0.0
  0
SOLID
  5
4127
330
38C9
100
AcDbEntity
  8
DIM
 62
     0
440
 16777216
100
AcDbTrace
 10
34305.88027521291
 20
4202.988002811139
 30
0.0
 11
34308.54694187958
 21
4202.988002811139
 31
0.0
 12
34307.21360854624
 22
4194.988002811139
 32
0.0
 13
34307.21360854624
 23
4194.988002811139
 33
0.0
  0
SOLID
  5
4128
330
38C9
100
AcDbEntity
  8
DIM
 62
     0
440
 16777216
100
AcDbTrace
 10
34305.88027521291
 20
4416.988002811139
 30
0.0
 11
34308.54694187958
 21
4416.988002811139
 31
0.0
 12
34307.21360854624
 22
4424.988002811139
 32
0.0
 13
34307.21360854624
 23
4424.988002811139
 33
0.0
  0
MTEXT
  5
4129
330
38C9
100
AcDbEntity
  8
DIM
 62
     0
440
 16777216
100
AcDbMText
 10
34295.46360854624
 20
4309.988002811144
 30
0.0
 40
15.0
 41
0.0
 46
0.0
 71
     5
 72
     1
  1
230 [9,06]
 11
0.0000000000000001
 21
1.0
 31
0.0
 73
     1
 44
1.0
  0
POINT
  5
412A
330
38C9
100
AcDbEntity
  8
Defpoints
 62
     0
440
 16777216
100
AcDbPoint
 10
34603.27090209986
 20
4194.988002811139
 30
0.0
  0
POINT
  5
412B
330
38C9
100
AcDbEntity
  8
Defpoints
 62
     0
440
 16777216
100
AcDbPoint
 10
34372.64083161604
 20
4424.988002811139
 30
0.0
  0
POINT
  5
412C
330
38C9
100
AcDbEntity
  8
Defpoints
 62
     0
440
 16777216
100
AcDbPoint
 10
34307.21360854624
 20
4424.988002811139
 30
0.0
  0
ENDBLK
  5
38D4
330
38C9
100
AcDbEntity
  8
0
100
AcDbBlockEnd
  0
BLOCK
  5
38E7
330
38E1
100
AcDbEntity
  8
0
100
AcDbBlockBegin
  2
*D8
 70
     1
 10
0.0
 20
0.0
 30
0.0
  3
*D8
  1

  0
LINE
  5
3B2D
330
38E1
100
AcDbEntity
  8
DIM
 62
     0
440
 16777216
370
    -2
100
AcDbLine
 10
35081.93476666181
 20
4374.186237918268
 30
0.0
 11
34978.478726271
 21
4266.958220559671
 31
0.0
  0
MTEXT
  5
3B2E
330
38E1
100
AcDbEntity
  8
DIM
 62
     0
440
 16777216
100
AcDbMText
 10
35024.52818913487
 20
4331.609279870015
 30
0.0
 40
15.0
 41
0.0
 46
0.0
 71
     5
 72
     1
  1
R50 [R1,97]
 11
0.6943358415490558
 21
0.7196511232120497
 31
0.0
 73
     1
 44
1.0
  0
SOLID
  5
3B2F
330
38E1
100
AcDbEntity
  8
DIM
 62
     0
440
 16777216
100
AcDbTrace
 10
34977.51919144005
 20
4267.884001681736
 30
0.0
 11
34979.43826110196
 21
4266.032439437605
 31
0.0
 12
34972.92403953862
 22
4261.201011573976
 32
0.0
 13
34972.92403953862
 23
4261.201011573976
 33
0.0
  0
POINT
  5
3B30
330
38E1
100
AcDbEntity
  8
Defpoints
 62
     0
440
 16777216
100
AcDbPoint
 10
34972.92403953862
 20
4261.201011573976
 30
0.0
  0
POINT
  5
3B31
330
38E1
100
AcDbEntity
  8
Defpoints
 62
     0
440
 16777216
100
AcDbPoint
 10
35007.64083161605
 20
4297.183567734566
 30
0.0
  0
ENDBLK
  5
38E8
330
38E1
100
AcDbEntity
  8
0
100
AcDbBlockEnd
  0
BLOCK
  5
38FB
330
38F1
100
AcDbEntity
  8
0
100
AcDbBlockBegin
  2
*D9
 70
     1
 10
0.0
 20
0.0
 30
0.0
  3
*D9
  1

  0
LINE
  5
4110
330
38F1
100
AcDbEntity
  8
DIM
 62
     0
440
 16777216
370
    -2
100
AcDbLine
 10
35327.64083161604
 20
4423.788002811138
 30
0.0
 11
35362.98355866334
 21
4423.788002811138
 31
0.0
  0
LINE
  5
4111
330
38F1
100
AcDbEntity
  8
DIM
 62
     0
440
 16777216
370
    -2
100
AcDbLine
 10
35190.0107611322
 20
4244.988002811139
 30
0.0
 11
35362.98355866334
 21
4244.988002811139
 31
0.0
  0
LINE
  5
4112
330
38F1
100
AcDbEntity
  8
DIM
 62
     0
440
 16777216
370
    -2
100
AcDbLine
 10
35361.73355866333
 20
4415.788002811138
 30
0.0
 11
35361.73355866333
 21
4252.988002811139
 31
0.0
  0
SOLID
  5
4113
330
38F1
100
AcDbEntity
  8
DIM
 62
     0
440
 16777216
100
AcDbTrace
 10
35360.40022533
 20
4415.788002811138
 30
0.0
 11
35363.06689199667
 21
4415.788002811138
 31
0.0
 12
35361.73355866333
 22
4423.788002811138
 32
0.0
 13
35361.73355866333
 23
4423.788002811138
 33
0.0
  0
SOLID
  5
4114
330
38F1
100
AcDbEntity
  8
DIM
 62
     0
440
 16777216
100
AcDbTrace
 10
35360.40022533
 20
4252.988002811139
 30
0.0
 11
35363.06689199667
 21
4252.988002811139
 31
0.0
 12
35361.73355866333
 22
4244.988002811139
 32
0.0
 13
35361.73355866333
 23
4244.988002811139
 33
0.0
  0
MTEXT
  5
4115
330
38F1
100
AcDbEntity
  8
DIM
 62
     0
440
 16777216
100
AcDbMText
 10
35349.98355866334
 20
4334.388002811145
 30
0.0
 40
15.0
 41
0.0
 46
0.0
 71
     5
 72
     1
  1
178,8 [7,04]
 11
0.0000000000000001
 21
1.0
 31
0.0
 73
     1
 44
1.0
  0
POINT
  5
4116
330
38F1
100
AcDbEntity
  8
Defpoints
 62
     0
440
 16777216
100
AcDbPoint
 10
35326.64083161605
 20
4423.788002811138
 30
0.0
  0
POINT
  5
4117
330
38F1
100
AcDbEntity
  8
Defpoints
 62
     0
440
 16777216
100
AcDbPoint
 10
35189.0107611322
 20
4244.988002811139
 30
0.0
  0
POINT
  5
4118
330
38F1
100
AcDbEntity
  8
Defpoints
 62
     0
440
 16777216
100
AcDbPoint
 10
35361.73355866333
 20
4244.988002811139
 30
0.0
  0
ENDBLK
  5
38FC
330
38F1
100
AcDbEntity
  8
0
100
AcDbBlockEnd
  0
BLOCK
  5
3929
330
3919
100
AcDbEntity
  8
0
100
AcDbBlockBegin
  2
*D10
 70
     1
 10
0.0
 20
0.0
 30
0.0
  3
*D10
  1

  0
LINE
  5
3AF3
330
3919
100
AcDbEntity
  8
DIM
 62
     0
440
 16777216
370
    -2
100
AcDbLine
 10
35190.64083161604
 20
4244.988002811139
 30
0.0
 11
35334.72590666931
 21
4244.988002811139
 31
0.0
  0
LINE
  5
3AF4
330
3919
100
AcDbEntity
  8
DIM
 62
     0
440
 16777216
370
    -2
100
AcDbLine
 10
35254.38519727819
 20
4247.248925880317
 30
0.0
 11
35334.63752476166
 21
4250.051398909544
 31
0.0
  0
ARC
  5
3AF5
330
3919
100
AcDbEntity
  8
DIM
 62
     0
440
 16777216
370
    -2
100
AcDbCircle
 10
35189.64083161603
 20
4244.988002811139
 30
0.0
 40
143.8350750532818
100
AcDbArc
 50
353.623211978706
 51
359.9999999999997
  0
LINE
  5
3AF6
330
3919
100
AcDbEntity
  8
DIM
 62
     0
440
 16777216
370
    -2
100
AcDbLine
 10
35332.58599855787
 20
4229.012769994269
 30
0.0
 11
35325.5332870861
 21
4165.90564471593
 31
0.0
  0
ARC
  5
3AF7
330
3919
100
AcDbEntity
  8
DIM
 62
     0
440
 16777216
370
    -2
100
AcDbCircle
 10
35189.64083161603
 20
4244.988002811139
 30
0.0
 40
143.8350750532818
100
AcDbArc
 50
353.6256808287252
 51
356.8128404143624
  0
ARC
  5
3AF8
330
3919
100
AcDbEntity
  8
DIM
 62
     0
440
 16777216
370
    -2
100
AcDbCircle
 10
35189.64083161603
 20
4244.988002811139
 30
0.0
 40
143.8350750532818
100
AcDbArc
 50
5.18715958563731
 51
8.374319171274617
  0
ARC
  5
3AF9
330
3919
100
AcDbEntity
  8
DIM
 62
     0
440
 16777216
370
    -2
100
AcDbCircle
 10
35189.64083161603
 20
4244.988002811139
 30
0.0
 40
143.8350750532818
100
AcDbArc
 50
359.9999999999997
 51
1.99999999999999
  0
SOLID
  5
3AFA
330
3919
100
AcDbEntity
  8
DIM
 62
     0
440
 16777216
100
AcDbTrace
 10
35331.92061199146
 20
4237.028176415869
 30
0.0
 11
35334.58624729143
 21
4236.954017406582
 31
0.0
 12
35333.47590666931
 22
4244.988002811139
 32
0.0
 13
35333.47590666931
 23
4244.988002811139
 33
0.0
  0
SOLID
  5
3AFB
330
3919
100
AcDbEntity
  8
DIM
 62
     0
440
 16777216
100
AcDbTrace
 10
35334.21756841336
 20
4258.075616185266
 30
0.0
 11
35331.5561450585
 21
4257.908473021283
 31
0.0
 12
35333.38828622789
 22
4250.007774538666
 32
0.0
 13
35333.38828622789
 23
4250.007774538666
 33
0.0
  0
MTEXT
  5
3AFC
330
3919
100
AcDbEntity
  8
DIM
 62
     0
440
 16777216
100
AcDbMText
 10
35340.73694553097
 20
4196.15417806702
 30
0.0
 40
15.0
 41
0.0
 46
0.0
 71
     5
 72
     1
  1
2,00°
 11
-0.1110663223900869
 21
-0.9938129965092736
 31
0.0
 73
     1
 44
1.0
  0
POINT
  5
3AFD
330
3919
100
AcDbEntity
  8
Defpoints
 62
     0
440
 16777216
100
AcDbPoint
 10
35333.43696205404
 20
4248.334894897613
 30
0.0
  0
POINT
  5
3AFE
330
3919
100
AcDbEntity
  8
Defpoints
 62
     0
440
 16777216
100
AcDbPoint
 10
35069.64083161605
 20
4244.988002811139
 30
0.0
  0
POINT
  5
3AFF
330
3919
100
AcDbEntity
  8
Defpoints
 62
     0
440
 16777216
100
AcDbPoint
 10
35188.99520714128
 20
4244.965457107679
 30
0.0
  0
POINT
  5
3B00
330
3919
100
AcDbEntity
  8
Defpoints
 62
     0
440
 16777216
100
AcDbPoint
 10
35253.38580645117
 20
4247.214026383614
 30
0.0
  0
POINT
  5
3B01
330
3919
100
AcDbEntity
  8
Defpoints
 62
     0
440
 16777216
100
AcDbPoint
 10
35189.64083161604
 20
4244.988002811139
 30
0.0
  0
ENDBLK
  5
392A
330
3919
100
AcDbEntity
  8
0
100
AcDbBlockEnd
  0
BLOCK
  5
394A
330
3940
100
AcDbEntity
  8
0
100
AcDbBlockBegin
  2
*D11
 70
     1
 10
0.0
 20
0.0
 30
0.0
  3
*D11
  1

  0
LINE
  5
3BAE
330
3940
100
AcDbEntity
  8
DIM
 62
     0
440
 16777216
370
    -2
100
AcDbLine
 10
34661.64083161603
 20
3759.376304561451
 30
0.0
 11
34606.95803171068
 21
3759.376304561451
 31
0.0
  0
LINE
  5
3BAF
330
3940
100
AcDbEntity
  8
DIM
 62
     0
440
 16777216
370
    -2
100
AcDbLine
 10
34661.64083161604
 20
3899.376304561452
 30
0.0
 11
34606.95803171068
 21
3899.376304561452
 31
0.0
  0
LINE
  5
3BB0
330
3940
100
AcDbEntity
  8
DIM
 62
     0
440
 16777216
370
    -2
100
AcDbLine
 10
34608.20803171067
 20
3767.376304561451
 30
0.0
 11
34608.20803171067
 21
3891.376304561453
 31
0.0
  0
LINE
  5
3BB1
330
3940
100
AcDbEntity
  8
DIM
 62
     0
440
 16777216
370
    -2
100
AcDbLine
 10
34608.20803171067
 20
3899.376304561452
 30
0.0
 11
34608.20803171067
 21
4081.296649780688
 31
0.0
  0
SOLID
  5
3BB2
330
3940
100
AcDbEntity
  8
DIM
 62
     0
440
 16777216
100
AcDbTrace
 10
34606.87469837734
 20
3767.376304561451
 30
0.0
 11
34609.54136504401
 21
3767.376304561451
 31
0.0
 12
34608.20803171067
 22
3759.376304561451
 32
0.0
 13
34608.20803171067
 23
3759.376304561451
 33
0.0
  0
SOLID
  5
3BB3
330
3940
100
AcDbEntity
  8
DIM
 62
     0
440
 16777216
100
AcDbTrace
 10
34606.87469837734
 20
3891.376304561453
 30
0.0
 11
34609.54136504401
 21
3891.376304561453
 31
0.0
 12
34608.20803171067
 22
3899.376304561452
 32
0.0
 13
34608.20803171067
 23
3899.376304561452
 33
0.0
  0
MTEXT
  5
3BB4
330
3940
100
AcDbEntity
  8
DIM
 62
     0
440
 16777216
100
AcDbMText
 10
34596.45803171067
 20
4020.796649780693
 30
0.0
 40
15.0
 41
0.0
 46
0.0
 71
     5
 72
     1
  1
140 [5,51]
 11
0.0000000000000001
 21
1.0
 31
0.0
 73
     1
 44
1.0
  0
POINT
  5
3BB5
330
3940
100
AcDbEntity
  8
Defpoints
 62
     0
440
 16777216
100
AcDbPoint
 10
34662.64083161603
 20
3759.376304561451
 30
0.0
  0
POINT
  5
3BB6
330
3940
100
AcDbEntity
  8
Defpoints
 62
     0
440
 16777216
100
AcDbPoint
 10
34662.64083161604
 20
3899.376304561452
 30
0.0
  0
POINT
  5
3BB7
330
3940
100
AcDbEntity
  8
Defpoints
 62
     0
440
 16777216
100
AcDbPoint
 10
34608.20803171067
 20
3899.376304561452
 30
0.0
  0
ENDBLK
  5
394B
330
3940
100
AcDbEntity
  8
0
100
AcDbBlockEnd
  0
BLOCK
  5
3963
330
3958
100
AcDbEntity
  8
0
100
AcDbBlockBegin
  2
*D12
 70
     1
 10
0.0
 20
0.0
 30
0.0
  3
*D12
  1

  0
LINE
  5
397B
330
3958
100
AcDbEntity
  8
DIM
 62
     0
440
 16777216
370
    -2
100
AcDbLine
 10
35130.64083161606
 20
3824.376304561452
 30
0.0
 11
35202.73277738745
 21
3824.376304561452
 31
0.0
  0
LINE
  5
397C
330
3958
100
AcDbEntity
  8
DIM
 62
     0
440
 16777216
370
    -2
100
AcDbLine
 10
35201.46994879117
 20
3704.376304561453
 30
0.0
 11
35200.23277738745
 21
3704.376304561453
 31
0.0
  0
LINE
  5
397D
330
3958
100
AcDbEntity
  8
DIM
 62
     0
440
 16777216
370
    -2
100
AcDbLine
 10
35201.48277738745
 20
3712.376304561452
 30
0.0
 11
35201.48277738745
 21
3816.376304561453
 31
0.0
  0
LINE
  5
397E
330
3958
100
AcDbEntity
  8
DIM
 62
     0
440
 16777216
370
    -2
100
AcDbLine
 10
35201.48277738745
 20
3824.376304561452
 30
0.0
 11
35201.48277738745
 21
4024.910001855316
 31
0.0
  0
SOLID
  5
397F
330
3958
100
AcDbEntity
  8
DIM
 62
     0
440
 16777216
100
AcDbTrace
 10
35200.14944405411
 20
3712.376304561452
 30
0.0
 11
35202.81611072078
 21
3712.376304561452
 31
0.0
 12
35201.48277738745
 22
3704.376304561453
 32
0.0
 13
35201.48277738745
 23
3704.376304561453
 33
0.0
  0
SOLID
  5
3980
330
3958
100
AcDbEntity
  8
DIM
 62
     0
440
 16777216
100
AcDbTrace
 10
35200.14944405411
 20
3816.376304561453
 30
0.0
 11
35202.81611072078
 21
3816.376304561453
 31
0.0
 12
35201.48277738745
 22
3824.376304561452
 32
0.0
 13
35201.48277738745
 23
3824.376304561452
 33
0.0
  0
MTEXT
  5
3981
330
3958
100
AcDbEntity
  8
DIM
 62
     0
440
 16777216
100
AcDbMText
 10
35189.73277738745
 20
3961.910001855322
 30
0.0
 40
15.0
 41
0.0
 46
0.0
 71
     5
 72
     1
  1
120 [4,72]
 11
0.0000000000000001
 21
1.0
 31
0.0
 73
     1
 44
1.0
  0
POINT
  5
3982
330
3958
100
AcDbEntity
  8
Defpoints
 62
     0
440
 16777216
100
AcDbPoint
 10
35129.64083161605
 20
3824.376304561452
 30
0.0
  0
POINT
  5
3983
330
3958
100
AcDbEntity
  8
Defpoints
 62
     0
440
 16777216
100
AcDbPoint
 10
35202.46994879117
 20
3704.376304561453
 30
0.0
  0
POINT
  5
3984
330
3958
100
AcDbEntity
  8
Defpoints
 62
     0
440
 16777216
100
AcDbPoint
 10
35201.48277738745
 20
3704.376304561453
 30
0.0
  0
ENDBLK
  5
3964
330
3958
100
AcDbEntity
  8
0
100
AcDbBlockEnd
  0
BLOCK
  5
3990
330
3986
100
AcDbEntity
  8
0
100
AcDbBlockBegin
  2
*D13
 70
     1
 10
0.0
 20
0.0
 30
0.0
  3
*D13
  1

  0
LINE
  5
3993
330
3986
100
AcDbEntity
  8
DIM
 62
     0
440
 16777216
370
    -2
100
AcDbLine
 10
34957.64083161605
 20
3623.376304561457
 30
0.0
 11
34957.64083161605
 21
3327.01325585584
 31
0.0
  0
LINE
  5
3994
330
3986
100
AcDbEntity
  8
DIM
 62
     0
440
 16777216
370
    -2
100
AcDbLine
 10
35301.64083161604
 20
3623.376304561452
 30
0.0
 11
35301.64083161604
 21
3327.01325585584
 31
0.0
  0
LINE
  5
3995
330
3986
100
AcDbEntity
  8
DIM
 62
     0
440
 16777216
370
    -2
100
AcDbLine
 10
34965.64083161605
 20
3328.26325585584
 30
0.0
 11
35293.64083161604
 21
3328.26325585584
 31
0.0
  0
SOLID
  5
3996
330
3986
100
AcDbEntity
  8
DIM
 62
     0
440
 16777216
100
AcDbTrace
 10
34965.64083161605
 20
3329.596589189173
 30
0.0
 11
34965.64083161605
 21
3326.929922522506
 31
0.0
 12
34957.64083161605
 22
3328.26325585584
 32
0.0
 13
34957.64083161605
 23
3328.26325585584
 33
0.0
  0
SOLID
  5
3997
330
3986
100
AcDbEntity
  8
DIM
 62
     0
440
 16777216
100
AcDbTrace
 10
35293.64083161604
 20
3329.596589189173
 30
0.0
 11
35293.64083161604
 21
3326.929922522506
 31
0.0
 12
35301.64083161604
 22
3328.26325585584
 32
0.0
 13
35301.64083161604
 23
3328.26325585584
 33
0.0
  0
MTEXT
  5
3998
330
3986
100
AcDbEntity
  8
DIM
 62
     0
440
 16777216
100
AcDbMText
 10
35129.64083161604
 20
3340.01325585584
 30
0.0
 40
15.0
 41
0.0
 46
0.0
 71
     5
 72
     1
  1
344 [13,54]
 73
     1
 44
1.0
  0
POINT
  5
3999
330
3986
100
AcDbEntity
  8
Defpoints
 62
     0
440
 16777216
100
AcDbPoint
 10
34957.64083161605
 20
3624.376304561457
 30
0.0
  0
POINT
  5
399A
330
3986
100
AcDbEntity
  8
Defpoints
 62
     0
440
 16777216
100
AcDbPoint
 10
35301.64083161604
 20
3624.376304561452
 30
0.0
  0
POINT
  5
399B
330
3986
100
AcDbEntity
  8
Defpoints
 62
     0
440
 16777216
100
AcDbPoint
 10
35301.64083161604
 20
3328.26325585584
 30
0.0
  0
ENDBLK
  5
3991
330
3986
100
AcDbEntity
  8
0
100
AcDbBlockEnd
  0
BLOCK
  5
39A8
330
399E
100
AcDbEntity
  8
0
100
AcDbBlockBegin
  2
*D14
 70
     1
 10
0.0
 20
0.0
 30
0.0
  3
*D14
  1

  0
LINE
  5
39AB
330
399E
100
AcDbEntity
  8
DIM
 62
     0
440
 16777216
370
    -2
100
AcDbLine
 10
34927.64083161603
 20
3623.376304561452
 30
0.0
 11
34927.64083161603
 21
3327.01325585584
 31
0.0
  0
LINE
  5
39AC
330
399E
100
AcDbEntity
  8
DIM
 62
     0
440
 16777216
370
    -2
100
AcDbLine
 10
34397.64083161604
 20
3623.376304561452
 30
0.0
 11
34397.64083161604
 21
3327.01325585584
 31
0.0
  0
LINE
  5
39AD
330
399E
100
AcDbEntity
  8
DIM
 62
     0
440
 16777216
370
    -2
100
AcDbLine
 10
34919.64083161602
 20
3328.26325585584
 30
0.0
 11
34405.64083161604
 21
3328.26325585584
 31
0.0
  0
SOLID
  5
39AE
330
399E
100
AcDbEntity
  8
DIM
 62
     0
440
 16777216
100
AcDbTrace
 10
34919.64083161602
 20
3329.596589189173
 30
0.0
 11
34919.64083161602
 21
3326.929922522506
 31
0.0
 12
34927.64083161603
 22
3328.26325585584
 32
0.0
 13
34927.64083161603
 23
3328.26325585584
 33
0.0
  0
SOLID
  5
39AF
330
399E
100
AcDbEntity
  8
DIM
 62
     0
440
 16777216
100
AcDbTrace
 10
34405.64083161604
 20
3329.596589189173
 30
0.0
 11
34405.64083161604
 21
3326.929922522506
 31
0.0
 12
34397.64083161604
 22
3328.26325585584
 32
0.0
 13
34397.64083161604
 23
3328.26325585584
 33
0.0
  0
MTEXT
  5
39B0
330
399E
100
AcDbEntity
  8
DIM
 62
     0
440
 16777216
100
AcDbMText
 10
34662.64083161603
 20
3340.01325585584
 30
0.0
 40
15.0
 41
0.0
 46
0.0
 71
     5
 72
     1
  1
530 [20,87]
 73
     1
 44
1.0
  0
POINT
  5
39B1
330
399E
100
AcDbEntity
  8
Defpoints
 62
     0
440
 16777216
100
AcDbPoint
 10
34927.64083161603
 20
3624.376304561452
 30
0.0
  0
POINT
  5
39B2
330
399E
100
AcDbEntity
  8
Defpoints
 62
     0
440
 16777216
100
AcDbPoint
 10
34397.64083161604
 20
3624.376304561452
 30
0.0
  0
POINT
  5
39B3
330
399E
100
AcDbEntity
  8
Defpoints
 62
     0
440
 16777216
100
AcDbPoint
 10
34397.64083161604
 20
3328.26325585584
 30
0.0
  0
ENDBLK
  5
39A9
330
399E
100
AcDbEntity
  8
0
100
AcDbBlockEnd
  0
BLOCK
  5
39C0
330
39B6
100
AcDbEntity
  8
0
100
AcDbBlockBegin
  2
*D15
 70
     1
 10
0.0
 20
0.0
 30
0.0
  3
*D15
  1

  0
LINE
  5
39F2
330
39B6
100
AcDbEntity
  8
DIM
 62
     0
440
 16777216
370
    -2
100
AcDbLine
 10
34372.64083161604
 20
3504.376304561456
 30
0.0
 11
34372.64083161604
 21
3262.90887454592
 31
0.0
  0
LINE
  5
39F3
330
39B6
100
AcDbEntity
  8
DIM
 62
     0
440
 16777216
370
    -2
100
AcDbLine
 10
35326.64083161605
 20
3504.37630456145
 30
0.0
 11
35326.64083161605
 21
3262.90887454592
 31
0.0
  0
LINE
  5
39F4
330
39B6
100
AcDbEntity
  8
DIM
 62
     0
440
 16777216
370
    -2
100
AcDbLine
 10
34380.64083161604
 20
3264.15887454592
 30
0.0
 11
35318.64083161605
 21
3264.15887454592
 31
0.0
  0
SOLID
  5
39F5
330
39B6
100
AcDbEntity
  8
DIM
 62
     0
440
 16777216
100
AcDbTrace
 10
34380.64083161604
 20
3265.492207879253
 30
0.0
 11
34380.64083161604
 21
3262.825541212586
 31
0.0
 12
34372.64083161604
 22
3264.15887454592
 32
0.0
 13
34372.64083161604
 23
3264.15887454592
 33
0.0
  0
SOLID
  5
39F6
330
39B6
100
AcDbEntity
  8
DIM
 62
     0
440
 16777216
100
AcDbTrace
 10
35318.64083161605
 20
3265.492207879253
 30
0.0
 11
35318.64083161605
 21
3262.825541212586
 31
0.0
 12
35326.64083161605
 22
3264.15887454592
 32
0.0
 13
35326.64083161605
 23
3264.15887454592
 33
0.0
  0
MTEXT
  5
39F7
330
39B6
100
AcDbEntity
  8
DIM
 62
     0
440
 16777216
100
AcDbMText
 10
34849.64083161604
 20
3275.908874545919
 30
0.0
 40
15.0
 41
0.0
 46
0.0
 71
     5
 72
     1
  1
954 [37,56]
 73
     1
 44
1.0
  0
POINT
  5
39F8
330
39B6
100
AcDbEntity
  8
Defpoints
 62
     0
440
 16777216
100
AcDbPoint
 10
34372.64083161604
 20
3505.376304561456
 30
0.0
  0
POINT
  5
39F9
330
39B6
100
AcDbEntity
  8
Defpoints
 62
     0
440
 16777216
100
AcDbPoint
 10
35326.64083161605
 20
3505.37630456145
 30
0.0
  0
POINT
  5
39FA
330
39B6
100
AcDbEntity
  8
Defpoints
 62
     0
440
 16777216
100
AcDbPoint
 10
35326.64083161605
 20
3264.15887454592
 30
0.0
  0
ENDBLK
  5
39C1
330
39B6
100
AcDbEntity
  8
0
100
AcDbBlockEnd
  0
BLOCK
  5
39D8
330
39CE
100
AcDbEntity
  8
0
100
AcDbBlockBegin
  2
*D16
 70
     1
 10
0.0
 20
0.0
 30
0.0
  3
*D16
  1

  0
LINE
  5
3A13
330
39CE
100
AcDbEntity
  8
DIM
 62
     0
440
 16777216
370
    -2
100
AcDbLine
 10
34477.64083161604
 20
3399.376304561452
 30
0.0
 11
34259.83540352941
 21
3399.376304561452
 31
0.0
  0
LINE
  5
3A14
330
39CE
100
AcDbEntity
  8
DIM
 62
     0
440
 16777216
370
    -2
100
AcDbLine
 10
34661.64083161603
 20
3924.376304561454
 30
0.0
 11
34259.83540352941
 21
3924.376304561454
 31
0.0
  0
LINE
  5
3A15
330
39CE
100
AcDbEntity
  8
DIM
 62
     0
440
 16777216
370
    -2
100
AcDbLine
 10
34261.08540352941
 20
3407.376304561452
 30
0.0
 11
34261.08540352941
 21
3916.376304561453
 31
0.0
  0
SOLID
  5
3A16
330
39CE
100
AcDbEntity
  8
DIM
 62
     0
440
 16777216
100
AcDbTrace
 10
34259.75207019607
 20
3407.376304561452
 30
0.0
 11
34262.41873686275
 21
3407.376304561452
 31
0.0
 12
34261.08540352941
 22
3399.376304561452
 32
0.0
 13
34261.08540352941
 23
3399.376304561452
 33
0.0
  0
SOLID
  5
3A17
330
39CE
100
AcDbEntity
  8
DIM
 62
     0
440
 16777216
100
AcDbTrace
 10
34259.75207019607
 20
3916.376304561453
 30
0.0
 11
34262.41873686275
 21
3916.376304561453
 31
0.0
 12
34261.08540352941
 22
3924.376304561454
 32
0.0
 13
34261.08540352941
 23
3924.376304561454
 33
0.0
  0
MTEXT
  5
3A18
330
39CE
100
AcDbEntity
  8
DIM
 62
     0
440
 16777216
100
AcDbMText
 10
34249.33540352941
 20
3661.876304561459
 30
0.0
 40
15.0
 41
0.0
 46
0.0
 71
     5
 72
     1
  1
525 [20,67]
 11
0.0000000000000001
 21
1.0
 31
0.0
 73
     1
 44
1.0
  0
POINT
  5
3A19
330
39CE
100
AcDbEntity
  8
Defpoints
 62
     0
440
 16777216
100
AcDbPoint
 10
34478.64083161604
 20
3399.376304561452
 30
0.0
  0
POINT
  5
3A1A
330
39CE
100
AcDbEntity
  8
Defpoints
 62
     0
440
 16777216
100
AcDbPoint
 10
34662.64083161603
 20
3924.376304561454
 30
0.0
  0
POINT
  5
3A1B
330
39CE
100
AcDbEntity
  8
Defpoints
 62
     0
440
 16777216
100
AcDbPoint
 10
34261.08540352941
 20
3924.376304561454
 30
0.0
  0
ENDBLK
  5
39D9
330
39CE
100
AcDbEntity
  8
0
100
AcDbBlockEnd
  0
BLOCK
  5
3A27
330
3A1D
100
AcDbEntity
  8
0
100
AcDbBlockBegin
  2
*D17
 70
     1
 10
0.0
 20
0.0
 30
0.0
  3
*D17
  1

  0
LINE
  5
3A34
330
3A1D
100
AcDbEntity
  8
DIM
 62
     0
440
 16777216
370
    -2
100
AcDbLine
 10
34661.64083161603
 20
3899.376304561453
 30
0.0
 11
34306.25488410132
 21
3899.376304561453
 31
0.0
  0
LINE
  5
3A35
330
3A1D
100
AcDbEntity
  8
DIM
 62
     0
440
 16777216
370
    -2
100
AcDbLine
 10
34661.64083161603
 20
3424.376304561452
 30
0.0
 11
34306.25488410132
 21
3424.376304561452
 31
0.0
  0
LINE
  5
3A36
330
3A1D
100
AcDbEntity
  8
DIM
 62
     0
440
 16777216
370
    -2
100
AcDbLine
 10
34307.50488410132
 20
3891.376304561453
 30
0.0
 11
34307.50488410132
 21
3432.376304561453
 31
0.0
  0
SOLID
  5
3A37
330
3A1D
100
AcDbEntity
  8
DIM
 62
     0
440
 16777216
100
AcDbTrace
 10
34306.17155076798
 20
3891.376304561453
 30
0.0
 11
34308.83821743466
 21
3891.376304561453
 31
0.0
 12
34307.50488410132
 22
3899.376304561453
 32
0.0
 13
34307.50488410132
 23
3899.376304561453
 33
0.0
  0
SOLID
  5
3A38
330
3A1D
100
AcDbEntity
  8
DIM
 62
     0
440
 16777216
100
AcDbTrace
 10
34306.17155076798
 20
3432.376304561453
 30
0.0
 11
34308.83821743466
 21
3432.376304561453
 31
0.0
 12
34307.50488410132
 22
3424.376304561452
 32
0.0
 13
34307.50488410132
 23
3424.376304561452
 33
0.0
  0
MTEXT
  5
3A39
330
3A1D
100
AcDbEntity
  8
DIM
 62
     0
440
 16777216
100
AcDbMText
 10
34295.75488410132
 20
3661.876304561459
 30
0.0
 40
15.0
 41
0.0
 46
0.0
 71
     5
 72
     1
  1
475 [18,70]
 11
0.0000000000000001
 21
1.0
 31
0.0
 73
     1
 44
1.0
  0
POINT
  5
3A3A
330
3A1D
100
AcDbEntity
  8
Defpoints
 62
     0
440
 16777216
100
AcDbPoint
 10
34662.64083161603
 20
3899.376304561453
 30
0.0
  0
POINT
  5
3A3B
330
3A1D
100
AcDbEntity
  8
Defpoints
 62
     0
440
 16777216
100
AcDbPoint
 10
34662.64083161603
 20
3424.376304561452
 30
0.0
  0
POINT
  5
3A3C
330
3A1D
100
AcDbEntity
  8
Defpoints
 62
     0
440
 16777216
100
AcDbPoint
 10
34307.50488410132
 20
3424.376304561452
 30
0.0
  0
ENDBLK
  5
3A28
330
3A1D
100
AcDbEntity
  8
0
100
AcDbBlockEnd
  0
BLOCK
  5
3A44
330
3A3E
100
AcDbEntity
  8
0
100
AcDbBlockBegin
  2
*D18
 70
     1
 10
0.0
 20
0.0
 30
0.0
  3
*D18
  1

  0
LINE
  5
3A4D
330
3A3E
100
AcDbEntity
  8
DIM
 62
     0
440
 16777216
370
    -2
100
AcDbLine
 10
34562.41584661706
 20
3593.089544483435
 30
0.0
 11
34430.95460321266
 21
3460.801255196111
 31
0.0
  0
MTEXT
  5
3A4E
330
3A3E
100
AcDbEntity
  8
DIM
 62
     0
440
 16777216
100
AcDbMText
 10
34491.17025212394
 20
3538.065092961233
 30
0.0
 40
15.0
 41
0.0
 46
0.0
 71
     5
 72
     1
  1
2-R83 [R3,27]
 11
0.7048860236161348
 21
0.7093205859910129
 31
0.0
 73
     1
 44
1.0
  0
SOLID
  5
3A4F
330
3A3E
100
AcDbEntity
  8
DIM
 62
     0
440
 16777216
100
AcDbTrace
 10
34430.00884243134
 20
3461.741103227597
 30
0.0
 11
34431.90036399398
 21
3459.861407164625
 31
0.0
 12
34425.31551502373
 22
3455.126690508183
 32
0.0
 13
34425.31551502373
 23
3455.126690508183
 33
0.0
  0
POINT
  5
3A50
330
3A3E
100
AcDbEntity
  8
Defpoints
 62
     0
440
 16777216
100
AcDbPoint
 10
34425.31551502373
 20
3455.126690508183
 30
0.0
  0
POINT
  5
3A51
330
3A3E
100
AcDbEntity
  8
Defpoints
 62
     0
440
 16777216
100
AcDbPoint
 10
34483.82105498389
 20
3514.000299145453
 30
0.0
  0
ENDBLK
  5
3A45
330
3A3E
100
AcDbEntity
  8
0
100
AcDbBlockEnd
  0
BLOCK
  5
3A5A
330
3A53
100
AcDbEntity
  8
0
100
AcDbBlockBegin
  2
*D19
 70
     1
 10
0.0
 20
0.0
 30
0.0
  3
*D19
  1

  0
LINE
  5
3A6A
330
3A53
100
AcDbEntity
  8
DIM
 62
     0
440
 16777216
370
    -2
100
AcDbLine
 10
34208.93754476891
 20
4050.833170710459
 30
0.0
 11
34414.22539800931
 21
3862.148187306537
 31
0.0
  0
MTEXT
  5
3A6B
330
3A53
100
AcDbEntity
  8
DIM
 62
     0
440
 16777216
100
AcDbMText
 10
34284.44000267336
 20
3997.396256031676
 30
0.0
 40
15.0
 41
0.0
 46
0.0
 71
     5
 72
     1
  1
2-R180 [R7,09]
 11
0.7362523064187697
 21
-0.6767071311084598
 31
0.0
 73
     1
 44
1.0
  0
LINE
  5
3A6C
330
3A53
100
AcDbEntity
  8
DIM
 62
     0
440
 16777216
370
    -2
100
AcDbLine
 10
34552.64083161605
 20
3734.927246658133
 30
0.0
 11
34420.11541646066
 21
3856.73453025767
 31
0.0
  0
SOLID
  5
3A6D
330
3A53
100
AcDbEntity
  8
DIM
 62
     0
440
 16777216
100
AcDbTrace
 10
34415.12767418411
 20
3863.129857048427
 30
0.0
 11
34413.3231218345
 21
3861.166517564647
 31
0.0
 12
34420.11541646066
 22
3856.73453025767
 32
0.0
 13
34420.11541646066
 23
3856.73453025767
 33
0.0
  0
POINT
  5
3A6E
330
3A53
100
AcDbEntity
  8
Defpoints
 62
     0
440
 16777216
100
AcDbPoint
 10
34420.11541646066
 20
3856.73453025767
 30
0.0
  0
POINT
  5
3A6F
330
3A53
100
AcDbEntity
  8
Defpoints
 62
     0
440
 16777216
100
AcDbPoint
 10
34552.64083161605
 20
3734.927246658133
 30
0.0
  0
ENDBLK
  5
3A5B
330
3A53
100
AcDbEntity
  8
0
100
AcDbBlockEnd
  0
BLOCK
  5
3A77
330
3A71
100
AcDbEntity
  8
0
100
AcDbBlockBegin
  2
*D20
 70
     1
 10
0.0
 20
0.0
 30
0.0
  3
*D20
  1

  0
LINE
  5
3A80
330
3A71
100
AcDbEntity
  8
DIM
 62
     0
440
 16777216
370
    -2
100
AcDbLine
 10
34574.01340972797
 20
3697.561549296708
 30
0.0
 11
34492.90902849132
 21
3868.274991486305
 31
0.0
  0
MTEXT
  5
3A81
330
3A71
100
AcDbEntity
  8
DIM
 62
     0
440
 16777216
100
AcDbMText
 10
34545.79085122961
 20
3784.347491083425
 30
0.0
 40
15.0
 41
0.0
 46
0.0
 71
     5
 72
     1
  1
2-R155 [R6,10]
 11
0.4291237102468176
 21
-0.9032457258708758
 31
0.0
 73
     1
 44
1.0
  0
SOLID
  5
3A82
330
3A71
100
AcDbEntity
  8
DIM
 62
     0
440
 16777216
100
AcDbTrace
 10
34494.11335612582
 20
3868.847156433302
 30
0.0
 11
34491.70470085683
 21
3867.702826539307
 31
0.0
 12
34489.47603880935
 22
3875.500957293272
 32
0.0
 13
34489.47603880935
 23
3875.500957293272
 33
0.0
  0
POINT
  5
3A83
330
3A71
100
AcDbEntity
  8
Defpoints
 62
     0
440
 16777216
100
AcDbPoint
 10
34489.47603880935
 20
3875.500957293272
 30
0.0
  0
POINT
  5
3A84
330
3A71
100
AcDbEntity
  8
Defpoints
 62
     0
440
 16777216
100
AcDbPoint
 10
34555.9902138976
 20
3735.497869783292
 30
0.0
  0
ENDBLK
  5
3A78
330
3A71
100
AcDbEntity
  8
0
100
AcDbBlockEnd
  0
BLOCK
  5
3A8C
330
3A86
100
AcDbEntity
  8
0
100
AcDbBlockBegin
  2
*D21
 70
     1
 10
0.0
 20
0.0
 30
0.0
  3
*D21
  1

  0
LINE
  5
3A8F
330
3A86
100
AcDbEntity
  8
DIM
 62
     0
440
 16777216
370
    -2
100
AcDbLine
 10
34979.54001904049
 20
3998.313435586504
 30
0.0
 11
34913.16215907863
 21
3864.915610615918
 31
0.0
  0
MTEXT
  5
3A90
330
3A86
100
AcDbEntity
  8
DIM
 62
     0
440
 16777216
100
AcDbMText
 10
34937.61341789475
 20
3940.430168432986
 30
0.0
 40
15.0
 41
0.0
 46
0.0
 71
     5
 72
     1
  1
R80 [R3,15]
 11
0.445488993032624
 21
0.8952874159099851
 31
0.0
 73
     1
 44
1.0
  0
SOLID
  5
3A91
330
3A86
100
AcDbEntity
  8
DIM
 62
     0
440
 16777216
100
AcDbTrace
 10
34911.96844252409
 20
3865.50959593996
 30
0.0
 11
34914.35587563318
 21
3864.321625291874
 31
0.0
 12
34909.59824713438
 22
3857.753311288638
 32
0.0
 13
34909.59824713438
 23
3857.753311288638
 33
0.0
  0
POINT
  5
3A92
330
3A86
100
AcDbEntity
  8
Defpoints
 62
     0
440
 16777216
100
AcDbPoint
 10
34909.59824713438
 20
3857.753311288638
 30
0.0
  0
POINT
  5
3A93
330
3A86
100
AcDbEntity
  8
Defpoints
 62
     0
440
 16777216
100
AcDbPoint
 10
34945.23736657698
 20
3929.376304561451
 30
0.0
  0
ENDBLK
  5
3A8D
330
3A86
100
AcDbEntity
  8
0
100
AcDbBlockEnd
  0
BLOCK
  5
3C04
330
3BFD
100
AcDbEntity
  8
0
100
AcDbBlockBegin
  2
*D22
 70
     1
 10
0.0
 20
0.0
 30
0.0
  3
*D22
  1

  0
LINE
  5
3C14
330
3BFD
100
AcDbEntity
  8
DIM
 62
     0
440
 16777216
370
    -2
100
AcDbLine
 10
35453.2507482488
 20
3937.545371830425
 30
0.0
 11
35308.15743391352
 21
3816.430013038882
 31
0.0
  0
MTEXT
  5
3C15
330
3BFD
100
AcDbEntity
  8
DIM
 62
     0
440
 16777216
100
AcDbMText
 10
35376.2451905073
 20
3888.571332003996
 30
0.0
 40
15.0
 41
0.0
 46
0.0
 71
     5
 72
     1
  1
3-R106 [R4,17]
 11
0.7676894938374513
 21
0.640822004188057
 31
0.0
 73
     1
 44
1.0
  0
LINE
  5
3C16
330
3BFD
100
AcDbEntity
  8
DIM
 62
     0
440
 16777216
370
    -2
100
AcDbLine
 10
35220.64083161607
 20
3743.37630456146
 30
0.0
 11
35302.01591796282
 21
3811.303437005378
 31
0.0
  0
SOLID
  5
3C17
330
3BFD
100
AcDbEntity
  8
DIM
 62
     0
440
 16777216
100
AcDbTrace
 10
35307.30300457461
 20
3817.453599030665
 30
0.0
 11
35309.01186325244
 21
3815.406427047099
 31
0.0
 12
35302.01591796282
 22
3811.303437005378
 32
0.0
 13
35302.01591796282
 23
3811.303437005378
 33
0.0
  0
POINT
  5
3C18
330
3BFD
100
AcDbEntity
  8
Defpoints
 62
     0
440
 16777216
100
AcDbPoint
 10
35302.01591796282
 20
3811.303437005378
 30
0.0
  0
POINT
  5
3C19
330
3BFD
100
AcDbEntity
  8
Defpoints
 62
     0
440
 16777216
100
AcDbPoint
 10
35220.64083161607
 20
3743.37630456146
 30
0.0
  0
ENDBLK
  5
3C05
330
3BFD
100
AcDbEntity
  8
0
100
AcDbBlockEnd
  0
BLOCK
  5
3C87
330
3C7D
100
AcDbEntity
  8
0
100
AcDbBlockBegin
  2
*D23
 70
     1
 10
0.0
 20
0.0
 30
0.0
  3
*D23
  1

  0
LINE
  5
3C8A
330
3C7D
100
AcDbEntity
  8
DIM
 62
     0
440
 16777216
370
    -2
100
AcDbLine
 10
35130.64083161605
 20
3824.376304561454
 30
0.0
 11
35391.39328401822
 21
3824.376304561454
 31
0.0
  0
LINE
  5
3C8B
330
3C7D
100
AcDbEntity
  8
DIM
 62
     0
440
 16777216
370
    -2
100
AcDbLine
 10
35130.64083161605
 20
3424.376304561452
 30
0.0
 11
35391.39328401822
 21
3424.376304561452
 31
0.0
  0
LINE
  5
3C8C
330
3C7D
100
AcDbEntity
  8
DIM
 62
     0
440
 16777216
370
    -2
100
AcDbLine
 10
35390.14328401822
 20
3816.376304561453
 30
0.0
 11
35390.14328401822
 21
3432.376304561453
 31
0.0
  0
SOLID
  5
3C8D
330
3C7D
100
AcDbEntity
  8
DIM
 62
     0
440
 16777216
100
AcDbTrace
 10
35388.80995068488
 20
3816.376304561453
 30
0.0
 11
35391.47661735155
 21
3816.376304561453
 31
0.0
 12
35390.14328401822
 22
3824.376304561454
 32
0.0
 13
35390.14328401822
 23
3824.376304561454
 33
0.0
  0
SOLID
  5
3C8E
330
3C7D
100
AcDbEntity
  8
DIM
 62
     0
440
 16777216
100
AcDbTrace
 10
35388.80995068488
 20
3432.376304561453
 30
0.0
 11
35391.47661735155
 21
3432.376304561453
 31
0.0
 12
35390.14328401822
 22
3424.376304561452
 32
0.0
 13
35390.14328401822
 23
3424.376304561452
 33
0.0
  0
MTEXT
  5
3C8F
330
3C7D
100
AcDbEntity
  8
DIM
 62
     0
440
 16777216
100
AcDbMText
 10
35378.39328401822
 20
3624.376304561458
 30
0.0
 40
15.0
 41
0.0
 46
0.0
 71
     5
 72
     1
  1
400 [15,75]
 11
0.0000000000000001
 21
1.0
 31
0.0
 73
     1
 44
1.0
  0
POINT
  5
3C90
330
3C7D
100
AcDbEntity
  8
Defpoints
 62
     0
440
 16777216
100
AcDbPoint
 10
35129.64083161604
 20
3824.376304561454
 30
0.0
  0
POINT
  5
3C91
330
3C7D
100
AcDbEntity
  8
Defpoints
 62
     0
440
 16777216
100
AcDbPoint
 10
35129.64083161604
 20
3424.376304561452
 30
0.0
  0
POINT
  5
3C92
330
3C7D
100
AcDbEntity
  8
Defpoints
 62
     0
440
 16777216
100
AcDbPoint
 10
35390.14328401822
 20
3424.376304561452
 30
0.0
  0
ENDBLK
  5
3C88
330
3C7D
100
AcDbEntity
  8
0
100
AcDbBlockEnd
  0
ENDSEC
  0
SECTION
  2
ENTITIES
  0
LINE
  5
35C2
330
1F
100
AcDbEntity
  8
base
370
     9
100
AcDbLine
 10
34956.97405862224
 20
3047.623609547259
 30
0.0
 11
34716.97405862224
 21
3047.623609547259
 31
0.0
  0
LINE
  5
35C3
330
1F
100
AcDbEntity
  8
base
100
AcDbLine
 10
34955.68280967276
 20
3047.578518140338
 30
0.0
 11
35027.02331474255
 21
3050.069783473305
 31
0.0
  0
LINE
  5
35C4
102
{ACAD_REACTORS
330
3618
102
}
330
1F
100
AcDbEntity
  8
base
100
AcDbLine
 10
34956.97405862224
 20
3045.222146640942
 30
0.0
 11
35027.02331474256
 21
3047.668320566989
 31
0.0
  0
LINE
  5
35CB
102
{ACAD_REACTORS
330
3600
102
}
330
1F
100
AcDbEntity
  8
base
100
AcDbLine
 10
34718.23419958991
 20
3047.623609547259
 30
0.0
 11
34723.08249206419
 21
3040.595949249577
 31
0.0
  0
LINE
  5
35CC
330
1F
100
AcDbEntity
  8
base
100
AcDbLine
 10
34716.97524380175
 20
3045.22210525356
 30
0.0
 11
34721.80341599941
 21
3038.22360954726
 31
0.0
  0
LINE
  5
35CD
102
{ACAD_REACTORS
330
3618
102
}
330
1F
100
AcDbEntity
  8
base
100
AcDbLine
 10
34716.97405862224
 20
3045.222146640942
 30
0.0
 11
34646.92480250193
 21
3047.668320566988
 31
0.0
  0
LINE
  5
35CE
330
1F
100
AcDbEntity
  8
base
100
AcDbLine
 10
34716.97405862224
 20
3047.623609547259
 30
0.0
 11
34646.92480250193
 21
3050.069783473305
 31
0.0
  0
LINE
  5
35CF
330
1F
100
AcDbEntity
  8
base
100
AcDbLine
 10
34646.92480250193
 20
3050.069783473305
 30
0.0
 11
34646.92480250193
 21
3047.668320566988
 31
0.0
  0
LINE
  5
35D0
330
1F
100
AcDbEntity
  8
base
100
AcDbLine
 10
35027.02331474255
 20
3050.069783473305
 30
0.0
 11
35027.02331474255
 21
3047.668320566988
 31
0.0
  0
DIMENSION
  5
35D1
330
1F
100
AcDbEntity
  8
DIM
100
AcDbDimension
280
     0
  2
*D1
 10
34924.97405862224
 20
2999.02633194215
 30
0.0
 11
34836.97405862224
 21
3009.52633194215
 31
0.0
 70
    32
  1
%%C90[3.46]
 71
     5
 42
176.0
 73
     0
 74
     0
 75
     0
  3
ISO-25
100
AcDbAlignedDimension
 13
34748.97405862224
 23
3037.623609547259
 33
0.0
 14
34924.97405862224
 24
3038.223609547258
 34
0.0
100
AcDbRotatedDimension
1001
ACAD
1000
DSTYLE
1002
{
1070
    41
1040
8.0
1070
   140
1040
15.0
1070
   141
1040
0.5
1070
   143
1040
0.03937007874
1070
   147
1040
3.0
1070
   170
1070
     1
1070
   171
1070
     2
1070
   179
1070
     2
1070
   274
1070
     2
1002
}
  0
DIMENSION
  5
35E9
102
{ACAD_XDICTIONARY
360
35F6
102
}
102
{ACAD_REACTORS
330
3600
102
}
330
1F
100
AcDbEntity
  8
DIM
100
AcDbDimension
280
     0
  2
*D2
 10
34950.884707664
 20
3079.042567618686
 30
0.0
 11
34836.98359986409
 21
3089.542567618686
 31
0.0
 70
    32
  1
%%C114[4.49]
 71
     5
 42
227.8022155998187
 73
     0
 74
     0
 75
     0
  3
ISO-25
100
AcDbAlignedDimension
 13
34723.08249206419
 23
3040.595949249577
 33
0.0
 14
34950.884707664
 24
3040.623609547259
 34
0.0
100
AcDbRotatedDimension
1001
ACAD
1000
DSTYLE
1002
{
1070
    41
1040
8.0
1070
   140
1040
15.0
1070
   141
1040
0.5
1070
   143
1040
0.03937007874
1070
   147
1040
3.0
1070
   170
1070
     1
1070
   171
1070
     2
1070
   179
1070
     2
1070
   274
1070
     2
1002
}
  0
DIMENSION
  5
3601
102
{ACAD_XDICTIONARY
360
360E
102
}
102
{ACAD_REACTORS
330
3618
102
}
330
1F
100
AcDbEntity
  8
DIM
100
AcDbDimension
280
     0
  2
*D3
 10
34956.97405862224
 20
2957.800430962418
 30
0.0
 11
34836.97405862224
 21
2968.300430962418
 31
0.0
 70
    32
  1
%%C120[4.72]
 71
     5
 42
240.0
 73
     0
 74
     0
 75
     0
  3
ISO-25
100
AcDbAlignedDimension
 13
34716.97405862224
 23
3045.222146640942
 33
0.0
 14
34956.97405862224
 24
3045.222146640942
 34
0.0
100
AcDbRotatedDimension
1001
ACAD
1000
DSTYLE
1002
{
1070
    41
1040
8.0
1070
   140
1040
15.0
1070
   141
1040
0.5
1070
   143
1040
0.03937007874
1070
   147
1040
3.0
1070
   170
1070
     1
1070
   171
1070
     2
1070
   179
1070
     2
1070
   274
1070
     2
1002
}
  0
POINT
  5
36A0
330
1F
100
AcDbEntity
  8
0
 48
3.0
370
     5
100
AcDbPoint
 10
35554.20041399084
 20
4668.13199531414
 30
0.0
  0
LINE
  5
3715
102
{ACAD_REACTORS
330
3759
102
}
330
1F
100
AcDbEntity
  8
base
370
     9
100
AcDbLine
 10
34924.97405862228
 20
3037.623609547259
 30
0.0
 11
34748.97405862222
 21
3037.62360954726
 31
0.0
  0
LINE
  5
371F
330
1F
100
AcDbEntity
  8
base
100
AcDbLine
 10
34748.97405862224
 20
3037.623609547259
 30
0.0
 11
34721.80341599941
 21
3038.22360954726
 31
0.0
  0
LINE
  5
3720
330
1F
100
AcDbEntity
  8
base
100
AcDbLine
 10
34749.02704408323
 20
3040.023024588665
 30
0.0
 11
34723.08249206419
 21
3040.595949249577
 31
0.0
  0
LINE
  5
372A
330
1F
100
AcDbEntity
  8
base
100
AcDbLine
 10
34748.97405862224
 20
3037.623609547259
 30
0.0
 11
34749.02704408322
 21
3040.023024588665
 31
0.0
  0
LINE
  5
3739
330
1F
100
AcDbEntity
  8
base
100
AcDbLine
 10
34924.97405862225
 20
3037.623609547259
 30
0.0
 11
34924.92107316127
 21
3040.023024588665
 31
0.0
  0
LINE
  5
373A
330
1F
100
AcDbEntity
  8
base
100
AcDbLine
 10
34924.92107316126
 20
3040.023024588665
 30
0.0
 11
34950.8656251803
 21
3040.595949249577
 31
0.0
  0
LINE
  5
373B
330
1F
100
AcDbEntity
  8
base
100
AcDbLine
 10
34924.97405862228
 20
3037.623609547259
 30
0.0
 11
34952.14470124508
 21
3038.22360954726
 31
0.0
  0
LINE
  5
373C
330
1F
100
AcDbEntity
  8
base
100
AcDbLine
 10
34956.97287344273
 20
3045.22210525356
 30
0.0
 11
34952.14470124508
 21
3038.22360954726
 31
0.0
  0
LINE
  5
373D
102
{ACAD_REACTORS
330
3759
102
}
330
1F
100
AcDbEntity
  8
base
100
AcDbLine
 10
34955.68280967276
 20
3047.578518140338
 30
0.0
 11
34950.8656251803
 21
3040.595949249577
 31
0.0
  0
DIMENSION
  5
373E
102
{ACAD_XDICTIONARY
360
374D
102
}
102
{ACAD_REACTORS
330
3759
102
}
330
1F
100
AcDbEntity
  8
DIM
100
AcDbDimension
280
     0
  2
*D4
 10
35053.67098750074
 20
3047.578518140338
 30
0.0
 11
35043.17098750075
 21
3097.828518140343
 31
0.0
 70
    32
  1
5[0.2]
 71
     5
 42
9.954908593078471
 73
     0
 74
     0
 75
     0
  3
ISO-25
100
AcDbAlignedDimension
 13
34924.97405862228
 23
3037.623609547259
 33
0.0
 14
34955.68280967276
 24
3047.578518140338
 34
0.0
 50
90.0
100
AcDbRotatedDimension
1001
ACAD
1000
DSTYLE
1002
{
1070
    41
1040
8.0
1070
   140
1040
15.0
1070
   141
1040
0.5
1070
   143
1040
0.03937007874
1070
   147
1040
3.0
1070
   170
1070
     1
1070
   171
1070
     2
1070
   179
1070
     2
1070
   274
1070
     2
1002
}
  0
LINE
  5
379B
330
1F
100
AcDbEntity
  8
DIM
  6
CENTER
100
AcDbLine
 10
34836.97405862224
 20
3064.689356657051
 30
0.0
 11
34836.97405862224
 21
3023.448954163516
 31
0.0
  0
LINE
  5
37C6
330
1F
100
AcDbEntity
  8
base
100
AcDbLine
 10
34749.02704408322
 20
3040.023024588665
 30
0.0
 11
34924.92107316127
 21
3040.023024588665
 31
0.0
  0
LINE
  5
37F1
102
{ACAD_REACTORS
330
399C
102
}
330
1F
100
AcDbEntity
  8
DIM
  6
CENTER
100
AcDbLine
 10
35326.64083161605
 20
3624.376304561452
 30
0.0
 11
34943.92363290298
 21
3624.376304561452
 31
0.0
  0
LINE
  5
37F2
102
{ACAD_REACTORS
330
3C93
102
}
330
1F
100
AcDbEntity
  8
DIM
  6
CENTER
100
AcDbLine
 10
35129.64083161604
 20
3849.376304561453
 30
0.0
 11
35129.64083161604
 21
3399.376304561452
 31
0.0
  0
LWPOLYLINE
  5
37FD
102
{ACAD_REACTORS
330
3970
330
399C
330
3C93
102
}
330
1F
100
AcDbEntity
  8
base
100
AcDbPolyline
 90
        8
 70
     1
 43
0.0
 10
35221.68373820688
 20
3425.743040790745
 42
0.3941453424552673
 10
35299.24665211416
 20
3502.564232843724
 42
0.0196546981601901
 10
35299.24665211416
 20
3746.18837627918
 42
0.3941453424552723
 10
35221.68373820688
 20
3823.009568332161
 42
0.0148489034072716
 10
35037.59792502521
 20
3823.009568332161
 42
0.394145342455269
 10
34960.03501111793
 20
3746.188376279181
 42
0.0196546981601901
 10
34960.03501111793
 20
3502.564232843725
 42
0.3941453424552723
 10
35037.59792502521
 20
3425.743040790745
 42
0.0148489034072716
  0
LINE
  5
3813
330
1F
100
AcDbEntity
  8
DIM
  6
CENTER
100
AcDbLine
 10
34662.64083161603
 20
3399.376304561452
 30
0.0
 11
34662.64083161603
 21
3924.376304561454
 31
0.0
  0
LINE
  5
3814
330
1F
100
AcDbEntity
  8
DIM
  6
CENTER
100
AcDbLine
 10
35326.64083161605
 20
3661.876304561452
 30
0.0
 11
34372.64083161604
 21
3661.876304561452
 31
0.0
  0
LINE
  5
3822
330
1F
100
AcDbEntity
  8
DIM
  6
CENTER
100
AcDbLine
 10
34726.08003501645
 20
3759.376304561452
 30
0.0
 11
34589.81171444091
 21
3759.376304561452
 31
0.0
  0
CIRCLE
  5
3823
330
1F
100
AcDbEntity
  8
base
100
AcDbCircle
 10
34662.64083161603
 20
3759.376304561451
 30
0.0
 40
44.0
  0
CIRCLE
  5
3824
330
1F
100
AcDbEntity
  8
base
100
AcDbCircle
 10
34662.64083161603
 20
3759.376304561451
 30
0.0
 40
57.0
  0
CIRCLE
  5
3825
330
1F
100
AcDbEntity
  8
base
100
AcDbCircle
 10
34662.64083161603
 20
3759.376304561451
 30
0.0
 40
60.0
  0
CIRCLE
  5
3827
330
1F
100
AcDbEntity
  8
base
100
AcDbCircle
 10
35129.64083161604
 20
3704.376304561451
 30
0.0
 40
60.0
  0
CIRCLE
  5
3828
330
1F
100
AcDbEntity
  8
base
100
AcDbCircle
 10
35129.64083161604
 20
3704.376304561451
 30
0.0
 40
57.0
  0
CIRCLE
  5
3829
330
1F
100
AcDbEntity
  8
base
100
AcDbCircle
 10
35129.64083161604
 20
3704.376304561451
 30
0.0
 40
44.0
  0
LINE
  5
382A
102
{ACAD_REACTORS
330
3970
102
}
330
1F
100
AcDbEntity
  8
DIM
  6
CENTER
100
AcDbLine
 10
35202.46994879117
 20
3704.376304561453
 30
0.0
 11
35056.81171444092
 21
3704.376304561453
 31
0.0
  0
LINE
  5
382D
330
1F
100
AcDbEntity
  8
base
100
AcDbLine
 10
35326.64083161605
 20
4424.98800281114
 30
0.0
 11
34372.64083161604
 21
4424.98800281114
 31
0.0
  0
LINE
  5
382E
102
{ACAD_REACTORS
330
38DF
102
}
330
1F
100
AcDbEntity
  8
base
100
AcDbLine
 10
34372.64083161604
 20
4424.98800281114
 30
0.0
 11
34372.64083161604
 21
4423.78800281114
 31
0.0
  0
LINE
  5
3831
102
{ACAD_REACTORS
330
39B4
102
}
330
1F
100
AcDbEntity
  8
DIM
  6
CENTER
100
AcDbLine
 10
34927.64083161603
 20
3624.376304561452
 30
0.0
 11
34397.64083161604
 21
3624.376304561452
 31
0.0
  0
LINE
  5
3835
330
1F
100
AcDbEntity
  8
DIM
  6
CENTER
100
AcDbLine
 10
35129.64083161604
 20
4447.077899031472
 30
0.0
 11
35129.64083161604
 21
4204.173557607679
 31
0.0
  0
LINE
  5
384B
330
1F
100
AcDbEntity
  8
base
100
AcDbLine
 10
35069.64142420578
 20
4243.787250664293
 30
0.0
 11
35072.05551030463
 21
4240.288002811141
 31
0.0
  0
LINE
  5
384C
330
1F
100
AcDbEntity
  8
base
100
AcDbLine
 10
35070.27090209987
 20
4244.988002811139
 30
0.0
 11
35072.69504833701
 21
4241.474172662299
 31
0.0
  0
LINE
  5
384D
330
1F
100
AcDbEntity
  8
base
100
AcDbLine
 10
35085.64083161604
 20
4239.98800281114
 30
0.0
 11
35085.64083161604
 21
4241.188295361742
 31
0.0
  0
LINE
  5
384E
330
1F
100
AcDbEntity
  8
base
100
AcDbLine
 10
35173.64083161602
 20
4239.98800281114
 30
0.0
 11
35085.64083161604
 21
4239.98800281114
 31
0.0
  0
LINE
  5
384F
330
1F
100
AcDbEntity
  8
base
100
AcDbLine
 10
35085.64083161604
 20
4239.98800281114
 30
0.0
 11
35072.05551030463
 21
4240.288002811141
 31
0.0
  0
LINE
  5
3850
330
1F
100
AcDbEntity
  8
base
100
AcDbLine
 10
35085.64083161604
 20
4241.188295361742
 30
0.0
 11
35072.69504833701
 21
4241.474172662299
 31
0.0
  0
LINE
  5
3851
330
1F
100
AcDbEntity
  8
base
100
AcDbLine
 10
35173.64083161604
 20
4241.188295361742
 30
0.0
 11
35186.58661489507
 21
4241.474172662299
 31
0.0
  0
LINE
  5
3852
330
1F
100
AcDbEntity
  8
base
100
AcDbLine
 10
35173.64083161604
 20
4239.98800281114
 30
0.0
 11
35187.22615292745
 21
4240.288002811141
 31
0.0
  0
LINE
  5
3853
330
1F
100
AcDbEntity
  8
base
100
AcDbLine
 10
35173.64083161604
 20
4239.98800281114
 30
0.0
 11
35173.64083161604
 21
4241.188295361742
 31
0.0
  0
LINE
  5
3854
102
{ACAD_REACTORS
330
3907
102
}
330
1F
100
AcDbEntity
  8
base
100
AcDbLine
 10
35189.0107611322
 20
4244.988002811139
 30
0.0
 11
35186.58661489507
 21
4241.474172662299
 31
0.0
  0
LINE
  5
3855
330
1F
100
AcDbEntity
  8
base
100
AcDbLine
 10
35189.64023902628
 20
4243.787250664291
 30
0.0
 11
35187.22615292745
 21
4240.288002811141
 31
0.0
  0
LINE
  5
3856
330
1F
100
AcDbEntity
  8
base
100
AcDbLine
 10
35173.64083161602
 20
4241.188295361741
 30
0.0
 11
35085.64083161604
 21
4241.188295361742
 31
0.0
  0
LINE
  5
3859
102
{ACAD_REACTORS
330
393B
102
}
330
1F
100
AcDbEntity
  8
base
100
AcDbLine
 10
35069.64083161605
 20
4244.988002811139
 30
0.0
 11
35189.64083161604
 21
4244.988002811139
 31
0.0
  0
LINE
  5
385A
102
{ACAD_REACTORS
330
393B
102
}
330
1F
100
AcDbEntity
  8
base
100
AcDbLine
 10
35188.99520714128
 20
4244.965457107679
 30
0.0
 11
35253.38580645117
 21
4247.214026383614
 31
0.0
  0
LINE
  5
385C
330
1F
100
AcDbEntity
  8
base
100
AcDbLine
 10
35189.64023902628
 20
4243.787250664292
 30
0.0
 11
35253.42768584721
 21
4246.014757391193
 31
0.0
  0
LINE
  5
3860
330
1F
100
AcDbEntity
  8
base
100
AcDbLine
 10
35301.64083161604
 20
4297.183567734569
 30
0.0
 11
35301.64083161604
 21
4420.588002811141
 31
0.0
  0
LINE
  5
3861
330
1F
100
AcDbEntity
  8
base
100
AcDbLine
 10
35302.84083161604
 20
4297.183567734568
 30
0.0
 11
35302.84083161604
 21
4420.588002811141
 31
0.0
  0
ARC
  5
3862
330
1F
100
AcDbEntity
  8
base
100
AcDbCircle
 10
35251.64083161604
 20
4297.183567734568
 30
0.0
 40
50.0
100
AcDbArc
 50
272.0000000000037
 51
0.0000000000020844
  0
ARC
  5
3863
330
1F
100
AcDbEntity
  8
base
100
AcDbCircle
 10
35251.64083161604
 20
4297.183567734568
 30
0.0
 40
51.2
100
AcDbArc
 50
272.0000000000037
 51
0.0000000000020844
  0
LINE
  5
3864
330
1F
100
AcDbEntity
  8
base
100
AcDbLine
 10
34952.44083161606
 20
4422.58800281114
 30
0.0
 11
34932.84083161602
 21
4422.58800281114
 31
0.0
  0
LINE
  5
3866
330
1F
100
AcDbEntity
  8
base
100
AcDbLine
 10
35304.84083161603
 20
4422.58800281114
 30
0.0
 11
35311.64083161603
 21
4422.58800281114
 31
0.0
  0
ARC
  5
3869
330
1F
100
AcDbEntity
  8
base
100
AcDbCircle
 10
35007.64083161605
 20
4297.183567734568
 30
0.0
 40
51.2
100
AcDbArc
 50
179.9999999999979
 51
267.9999999999962
  0
ARC
  5
386A
102
{ACAD_REACTORS
330
38EF
102
}
330
1F
100
AcDbEntity
  8
base
100
AcDbCircle
 10
35007.64083161605
 20
4297.183567734568
 30
0.0
 40
50.0
100
AcDbArc
 50
179.9999999999979
 51
267.9999999999962
  0
LINE
  5
386B
330
1F
100
AcDbEntity
  8
base
100
AcDbLine
 10
34956.44083161606
 20
4297.183567734568
 30
0.0
 11
34956.44083161606
 21
4420.588002811141
 31
0.0
  0
LINE
  5
386C
330
1F
100
AcDbEntity
  8
base
100
AcDbLine
 10
34957.64083161605
 20
4297.183567734569
 30
0.0
 11
34957.64083161605
 21
4420.588002811141
 31
0.0
  0
LINE
  5
386D
330
1F
100
AcDbEntity
  8
base
100
AcDbLine
 10
35069.64142420578
 20
4243.787250664293
 30
0.0
 11
35005.85397738488
 21
4246.014757391193
 31
0.0
  0
LINE
  5
386E
330
1F
100
AcDbEntity
  8
base
100
AcDbLine
 10
35070.28645609081
 20
4244.965457107679
 30
0.0
 11
35005.89585678092
 21
4247.214026383614
 31
0.0
  0
LINE
  5
3872
330
1F
100
AcDbEntity
  8
base
100
AcDbLine
 10
34927.64083161603
 20
4250.431199297312
 30
0.0
 11
34927.64083161603
 21
4420.588002811141
 31
0.0
  0
LINE
  5
3873
330
1F
100
AcDbEntity
  8
base
100
AcDbLine
 10
34928.84083161602
 20
4250.431199297309
 30
0.0
 11
34928.84083161602
 21
4420.588002811141
 31
0.0
  0
LINE
  5
3875
102
{ACAD_REACTORS
330
38C7
102
}
330
1F
100
AcDbEntity
  8
base
100
AcDbLine
 10
34602.64083161603
 20
4194.98800281114
 30
0.0
 11
34722.64083161602
 21
4194.98800281114
 31
0.0
  0
LINE
  5
3876
330
1F
100
AcDbEntity
  8
base
100
AcDbLine
 10
34706.640831616
 20
4191.188295361741
 30
0.0
 11
34618.64083161602
 21
4191.188295361742
 31
0.0
  0
LINE
  5
3877
330
1F
100
AcDbEntity
  8
base
100
AcDbLine
 10
34722.64023902627
 20
4193.787250664292
 30
0.0
 11
34720.22615292743
 21
4190.288002811141
 31
0.0
  0
LINE
  5
3878
330
1F
100
AcDbEntity
  8
base
100
AcDbLine
 10
34722.01076113219
 20
4194.98800281114
 30
0.0
 11
34719.58661489505
 21
4191.474172662299
 31
0.0
  0
LINE
  5
3879
330
1F
100
AcDbEntity
  8
base
100
AcDbLine
 10
34706.64083161603
 20
4189.988002811141
 30
0.0
 11
34706.64083161603
 21
4191.188295361742
 31
0.0
  0
LINE
  5
387A
330
1F
100
AcDbEntity
  8
base
100
AcDbLine
 10
34706.64083161603
 20
4189.988002811141
 30
0.0
 11
34720.22615292743
 21
4190.288002811141
 31
0.0
  0
LINE
  5
387B
330
1F
100
AcDbEntity
  8
base
100
AcDbLine
 10
34706.64083161603
 20
4191.188295361742
 30
0.0
 11
34719.58661489505
 21
4191.474172662299
 31
0.0
  0
LINE
  5
387C
330
1F
100
AcDbEntity
  8
base
100
AcDbLine
 10
34618.64083161602
 20
4191.188295361742
 30
0.0
 11
34605.695048337
 21
4191.474172662299
 31
0.0
  0
LINE
  5
387D
330
1F
100
AcDbEntity
  8
base
100
AcDbLine
 10
34618.64083161602
 20
4189.988002811141
 30
0.0
 11
34605.05551030462
 21
4190.288002811141
 31
0.0
  0
LINE
  5
387E
330
1F
100
AcDbEntity
  8
base
100
AcDbLine
 10
34706.640831616
 20
4189.98800281114
 30
0.0
 11
34618.64083161602
 21
4189.988002811141
 31
0.0
  0
LINE
  5
387F
330
1F
100
AcDbEntity
  8
base
100
AcDbLine
 10
34618.64083161602
 20
4189.988002811141
 30
0.0
 11
34618.64083161602
 21
4191.188295361742
 31
0.0
  0
LINE
  5
3880
102
{ACAD_REACTORS
330
38DF
102
}
330
1F
100
AcDbEntity
  8
base
100
AcDbLine
 10
34603.27090209986
 20
4194.98800281114
 30
0.0
 11
34605.695048337
 21
4191.474172662299
 31
0.0
  0
LINE
  5
3881
330
1F
100
AcDbEntity
  8
base
100
AcDbLine
 10
34602.64142420577
 20
4193.787250664292
 30
0.0
 11
34605.05551030462
 21
4190.288002811141
 31
0.0
  0
LINE
  5
3882
330
1F
100
AcDbEntity
  8
base
100
AcDbLine
 10
34722.64083161602
 20
4194.98800281114
 30
0.0
 11
34879.38580645115
 21
4200.461657946347
 31
0.0
  0
ARC
  5
3883
330
1F
100
AcDbEntity
  8
base
100
AcDbCircle
 10
34877.64083161602
 20
4250.431199297309
 30
0.0
 40
50.0
100
AcDbArc
 50
272.0000000000122
 51
0.0000000000041688
  0
ARC
  5
3884
330
1F
100
AcDbEntity
  8
base
100
AcDbCircle
 10
34877.64083161602
 20
4250.431199297309
 30
0.0
 40
51.2
100
AcDbArc
 50
272.0000000000122
 51
0.0000000000041688
  0
LINE
  5
3885
330
1F
100
AcDbEntity
  8
base
100
AcDbLine
 10
34722.64023902627
 20
4193.787250664292
 30
0.0
 11
34879.42768584719
 21
4199.262388953925
 31
0.0
  0
LINE
  5
3888
330
1F
100
AcDbEntity
  8
base
100
AcDbLine
 10
34394.44083161603
 20
4422.58800281114
 30
0.0
 11
34387.64083161602
 21
4422.58800281114
 31
0.0
  0
ARC
  5
388B
330
1F
100
AcDbEntity
  8
base
100
AcDbCircle
 10
34447.64083161603
 20
4250.431199297309
 30
0.0
 40
51.2
100
AcDbArc
 50
179.9999999999958
 51
267.9999999999878
  0
ARC
  5
388C
102
{ACAD_REACTORS
330
38A3
102
}
330
1F
100
AcDbEntity
  8
base
100
AcDbCircle
 10
34447.64083161603
 20
4250.431199297309
 30
0.0
 40
50.0
100
AcDbArc
 50
179.9999999999958
 51
267.9999999999878
  0
LINE
  5
388D
330
1F
100
AcDbEntity
  8
base
100
AcDbLine
 10
34396.44083161603
 20
4250.431199297309
 30
0.0
 11
34396.44083161603
 21
4420.588002811141
 31
0.0
  0
LINE
  5
388E
330
1F
100
AcDbEntity
  8
base
100
AcDbLine
 10
34397.64083161602
 20
4250.431199297312
 30
0.0
 11
34397.64083161602
 21
4420.588002811141
 31
0.0
  0
LINE
  5
388F
330
1F
100
AcDbEntity
  8
base
100
AcDbLine
 10
34602.64142420577
 20
4193.787250664292
 30
0.0
 11
34445.85397738486
 21
4199.262388953925
 31
0.0
  0
LINE
  5
3890
102
{ACAD_REACTORS
330
38C7
102
}
330
1F
100
AcDbEntity
  8
base
100
AcDbLine
 10
34602.64083161603
 20
4194.98800281114
 30
0.0
 11
34445.89585678091
 21
4200.461657946347
 31
0.0
  0
LINE
  5
3891
330
1F
100
AcDbEntity
  8
DIM
  6
CENTER
100
AcDbLine
 10
34662.64083161603
 20
4457.844402326183
 30
0.0
 11
34662.64083161603
 21
4149.120900410398
 31
0.0
  0
DIMENSION
  5
3894
102
{ACAD_XDICTIONARY
360
389D
102
}
102
{ACAD_REACTORS
330
38A3
102
}
330
1F
100
AcDbEntity
  8
DIM
100
AcDbDimension
280
     0
  2
*D5
 10
34447.64083161603
 20
4250.431199297305
 30
0.0
 11
34472.32917333533
 21
4277.314945002649
 31
0.0
 70
   164
 71
     5
 42
50.00000000002547
 73
     0
 74
     0
 75
     0
  3
ISO-25
100
AcDbRadialDimension
 15
34413.82118542517
 25
4213.604150385839
 35
0.0
 40
0.0
1001
ACAD
1000
DSTYLE
1002
{
1070
    41
1040
8.0
1070
   140
1040
15.0
1070
   141
1040
0.5
1070
   143
1040
0.03937007874
1070
   147
1040
3.0
1070
   170
1070
     1
1070
   171
1070
     2
1070
   179
1070
     2
1070
   274
1070
     2
1070
   288
1070
     1
1002
}
  0
DIMENSION
  5
38A4
102
{ACAD_XDICTIONARY
360
38B7
102
}
102
{ACAD_REACTORS
330
38C7
102
}
330
1F
100
AcDbEntity
  8
DIM
100
AcDbDimension
280
     0
  2
*D6
 10
34722.64083161602
 20
4194.98800281114
 30
0.0
 11
34340.72658943119
 21
4252.581365655924
 31
0.0
 70
    34
 71
     5
 42
0.03490658503989
 73
     0
 74
     0
 75
     0
  3
ISO-25
100
AcDb2LineAngularDimension
 13
34602.64083161603
 23
4194.98800281114
 33
0.0
 14
34445.89585678091
 24
4200.461657946347
 34
0.0
 15
34602.64083161603
 25
4194.98800281114
 35
0.0
 16
34348.12249461692
 26
4197.949591789323
 36
0.0
1001
ACAD
1000
DSTYLE
1002
{
1070
    41
1040
8.0
1070
   140
1040
15.0
1070
   141
1040
0.5
1070
   143
1040
0.03937007874
1070
   147
1040
3.0
1070
   170
1070
     1
1070
   171
1070
     2
1070
   179
1070
     2
1070
   274
1070
     2
1002
}
  0
DIMENSION
  5
38C8
102
{ACAD_XDICTIONARY
360
38D5
102
}
102
{ACAD_REACTORS
330
38DF
102
}
330
1F
100
AcDbEntity
  8
DIM
100
AcDbDimension
280
     0
  2
*D7
 10
34307.21360854624
 20
4424.988002811139
 30
0.0
 11
34295.46360854624
 21
4309.988002811144
 31
0.0
 70
    32
 71
     5
 42
230.0
 73
     0
 74
     0
 75
     0
  3
ISO-25
100
AcDbAlignedDimension
 13
34603.27090209986
 23
4194.98800281114
 33
0.0
 14
34372.64083161604
 24
4424.98800281114
 34
0.0
 50
90.0
100
AcDbRotatedDimension
1001
ACAD
1000
DSTYLE
1002
{
1070
    41
1040
8.0
1070
   140
1040
15.0
1070
   141
1040
0.5
1070
   143
1040
0.03937007874
1070
   147
1040
3.0
1070
   170
1070
     1
1070
   171
1070
     2
1070
   179
1070
     2
1070
   274
1070
     2
1002
}
  0
DIMENSION
  5
38E0
102
{ACAD_XDICTIONARY
360
38E9
102
}
102
{ACAD_REACTORS
330
38EF
102
}
330
1F
100
AcDbEntity
  8
DIM
100
AcDbDimension
280
     0
  2
*D8
 10
35007.64083161605
 20
4297.183567734566
 30
0.0
 11
35032.98408983261
 21
4323.450833731814
 31
0.0
 70
   164
 71
     5
 42
49.99999999998545
 73
     0
 74
     0
 75
     0
  3
ISO-25
100
AcDbRadialDimension
 15
34972.92403953862
 25
4261.201011573976
 35
0.0
 40
0.0
1001
ACAD
1000
DSTYLE
1002
{
1070
    41
1040
8.0
1070
   140
1040
15.0
1070
   141
1040
0.5
1070
   143
1040
0.03937007874
1070
   147
1040
3.0
1070
   170
1070
     1
1070
   171
1070
     2
1070
   179
1070
     2
1070
   274
1070
     2
1070
   288
1070
     1
1002
}
  0
DIMENSION
  5
38F0
102
{ACAD_XDICTIONARY
360
38FD
102
}
102
{ACAD_REACTORS
330
3907
102
}
330
1F
100
AcDbEntity
  8
DIM
100
AcDbDimension
280
     0
  2
*D9
 10
35361.73355866333
 20
4244.988002811139
 30
0.0
 11
35349.98355866334
 21
4334.388002811145
 31
0.0
 70
    32
 71
     5
 42
178.8000000000002
 73
     0
 74
     0
 75
     0
  3
ISO-25
100
AcDbAlignedDimension
 13
35326.64083161605
 23
4423.78800281114
 33
0.0
 14
35189.0107611322
 24
4244.988002811139
 34
0.0
 50
90.0
100
AcDbRotatedDimension
1001
ACAD
1000
DSTYLE
1002
{
1070
    41
1040
8.0
1070
   140
1040
15.0
1070
   141
1040
0.5
1070
   143
1040
0.03937007874
1070
   147
1040
3.0
1070
   170
1070
     1
1070
   171
1070
     2
1070
   179
1070
     2
1070
   274
1070
     2
1002
}
  0
DIMENSION
  5
3918
102
{ACAD_XDICTIONARY
360
392B
102
}
102
{ACAD_REACTORS
330
393B
102
}
330
1F
100
AcDbEntity
  8
DIM
100
AcDbDimension
280
     0
  2
*D10
 10
35189.64083161604
 20
4244.988002811139
 30
0.0
 11
35340.73694553098
 21
4196.154178067018
 31
0.0
 70
    34
 71
     5
 42
0.0349065850398909
 73
     0
 74
     0
 75
     0
  3
ISO-25
100
AcDb2LineAngularDimension
 13
35188.99520714128
 23
4244.965457107679
 33
0.0
 14
35253.38580645117
 24
4247.214026383614
 34
0.0
 15
35069.64083161605
 25
4244.988002811139
 35
0.0
 16
35333.43696205404
 26
4248.334894897613
 36
0.0
1001
ACAD
1000
DSTYLE
1002
{
1070
    41
1040
8.0
1070
   140
1040
15.0
1070
   141
1040
0.5
1070
   143
1040
0.03937007874
1070
   147
1040
3.0
1070
   170
1070
     1
1070
   171
1070
     2
1070
   179
1070
     2
1070
   274
1070
     2
1002
}
  0
CIRCLE
  5
393C
330
1F
100
AcDbEntity
  8
DIM
100
AcDbCircle
 10
34662.64083161601
 20
4189.98800281114
 30
0.0
 40
71.68353376346203
  0
LEADER
  5
393D
330
1F
100
AcDbEntity
  8
DIM
100
AcDbLeader
  3
ISO-25
 73
     0
 40
15.0
 41
5.0
 76
     2
 10
34629.28936864767
 20
4152.164488198446
 30
0.0
 10
34576.45663219025
 20
4152.164488198446
 30
0.0
340
393E
213
0.0
223
7.5
233
0.0
1001
ACAD
1000
DSTYLE
1002
{
1070
    77
1070
     0
1070
    41
1040
8.0
1070
   140
1040
15.0
1070
   141
1040
0.5
1070
   143
1040
0.03937007874
1070
   147
1040
3.0
1070
   170
1070
     1
1070
   171
1070
     2
1070
   179
1070
     2
1070
   274
1070
     2
1002
}
  0
MTEXT
  5
393E
102
{ACAD_REACTORS
330
393D
102
}
330
1F
100
AcDbEntity
  8
DIM
100
AcDbMText
 10
34573.45663219025
 20
4144.664488198446
 30
0.0
 40
15.0
 41
0.0
 46
0.0
 71
     9
 72
     1
  1
I
 73
     1
 44
1.0
  0
DIMENSION
  5
393F
330
1F
100
AcDbEntity
  8
DIM
100
AcDbDimension
280
     0
  2
*D11
 10
34608.20803171067
 20
3899.376304561452
 30
0.0
 11
34608.20803171067
 21
4020.796649780693
 31
0.0
 70
   160
 71
     5
 42
140.0000000000018
 73
     0
 74
     0
 75
     0
  3
ISO-25
100
AcDbAlignedDimension
 13
34662.64083161603
 23
3759.376304561451
 33
0.0
 14
34662.64083161604
 24
3899.376304561452
 34
0.0
 50
90.0
100
AcDbRotatedDimension
1001
ACAD
1000
DSTYLE
1002
{
1070
    41
1040
8.0
1070
   140
1040
15.0
1070
   141
1040
0.5
1070
   143
1040
0.03937007874
1070
   147
1040
3.0
1070
   170
1070
     1
1070
   171
1070
     2
1070
   179
1070
     2
1070
   274
1070
     2
1002
}
  0
DIMENSION
  5
3957
102
{ACAD_XDICTIONARY
360
3965
102
}
102
{ACAD_REACTORS
330
3970
102
}
330
1F
100
AcDbEntity
  8
DIM
100
AcDbDimension
280
     0
  2
*D12
 10
35201.48277738745
 20
3704.376304561453
 30
0.0
 11
35201.48277738745
 21
3961.910001855322
 31
0.0
 70
   160
 71
     5
 42
120.0
 73
     0
 74
     0
 75
     0
  3
ISO-25
100
AcDbAlignedDimension
 13
35129.64083161605
 23
3824.376304561452
 33
0.0
 14
35202.46994879117
 24
3704.376304561453
 34
0.0
 50
90.0
100
AcDbRotatedDimension
1001
ACAD
1000
DSTYLE
1002
{
1070
    41
1040
8.0
1070
   140
1040
15.0
1070
   141
1040
0.5
1070
   143
1040
0.03937007874
1070
   147
1040
3.0
1070
   170
1070
     1
1070
   171
1070
     2
1070
   179
1070
     2
1070
   274
1070
     2
1002
}
  0
DIMENSION
  5
3985
102
{ACAD_XDICTIONARY
360
3992
102
}
102
{ACAD_REACTORS
330
399C
102
}
330
1F
100
AcDbEntity
  8
DIM
100
AcDbDimension
280
     0
  2
*D13
 10
35301.64083161604
 20
3328.26325585584
 30
0.0
 11
35129.64083161604
 21
3340.01325585584
 31
0.0
 70
    32
 71
     5
 42
343.9999999999855
 73
     0
 74
     0
 75
     0
  3
ISO-25
100
AcDbAlignedDimension
 13
34957.64083161605
 23
3624.376304561457
 33
0.0
 14
35301.64083161604
 24
3624.376304561452
 34
0.0
100
AcDbRotatedDimension
1001
ACAD
1000
DSTYLE
1002
{
1070
    41
1040
8.0
1070
   140
1040
15.0
1070
   141
1040
0.5
1070
   143
1040
0.03937007874
1070
   147
1040
3.0
1070
   170
1070
     1
1070
   171
1070
     2
1070
   179
1070
     2
1070
   274
1070
     2
1002
}
  0
DIMENSION
  5
399D
102
{ACAD_XDICTIONARY
360
39AA
102
}
102
{ACAD_REACTORS
330
39B4
102
}
330
1F
100
AcDbEntity
  8
DIM
100
AcDbDimension
280
     0
  2
*D14
 10
34397.64083161604
 20
3328.26325585584
 30
0.0
 11
34662.64083161603
 21
3340.01325585584
 31
0.0
 70
    32
 71
     5
 42
529.9999999999854
 73
     0
 74
     0
 75
     0
  3
ISO-25
100
AcDbAlignedDimension
 13
34927.64083161603
 23
3624.376304561452
 33
0.0
 14
34397.64083161604
 24
3624.376304561452
 34
0.0
100
AcDbRotatedDimension
1001
ACAD
1000
DSTYLE
1002
{
1070
    41
1040
8.0
1070
   140
1040
15.0
1070
   141
1040
0.5
1070
   143
1040
0.03937007874
1070
   147
1040
3.0
1070
   170
1070
     1
1070
   171
1070
     2
1070
   179
1070
     2
1070
   274
1070
     2
1002
}
  0
DIMENSION
  5
39B5
330
1F
100
AcDbEntity
  8
DIM
100
AcDbDimension
280
     0
  2
*D15
 10
35326.64083161605
 20
3264.15887454592
 30
0.0
 11
34849.64083161604
 21
3275.908874545919
 31
0.0
 70
    32
 71
     5
 42
954.0000000000073
 73
     0
 74
     0
 75
     0
  3
ISO-25
100
AcDbAlignedDimension
 13
34372.64083161604
 23
3505.376304561456
 33
0.0
 14
35326.64083161605
 24
3505.37630456145
 34
0.0
100
AcDbRotatedDimension
1001
ACAD
1000
DSTYLE
1002
{
1070
    41
1040
8.0
1070
   140
1040
15.0
1070
   141
1040
0.5
1070
   143
1040
0.03937007874
1070
   147
1040
3.0
1070
   170
1070
     1
1070
   171
1070
     2
1070
   179
1070
     2
1070
   274
1070
     2
1002
}
  0
DIMENSION
  5
39CD
330
1F
100
AcDbEntity
  8
DIM
100
AcDbDimension
280
     0
  2
*D16
 10
34261.08540352941
 20
3924.376304561454
 30
0.0
 11
34249.33540352941
 21
3661.876304561459
 31
0.0
 70
    32
 71
     5
 42
525.0000000000013
 73
     0
 74
     0
 75
     0
  3
ISO-25
100
AcDbAlignedDimension
 13
34478.64083161604
 23
3399.376304561452
 33
0.0
 14
34662.64083161603
 24
3924.376304561454
 34
0.0
 50
90.0
100
AcDbRotatedDimension
1001
ACAD
1000
DSTYLE
1002
{
1070
    41
1040
8.0
1070
   140
1040
15.0
1070
   141
1040
0.5
1070
   143
1040
0.03937007874
1070
   147
1040
3.0
1070
   170
1070
     1
1070
   171
1070
     2
1070
   179
1070
     2
1070
   274
1070
     2
1002
}
  0
ARC
  5
39E6
330
1F
100
AcDbEntity
  8
base
100
AcDbCircle
 10
34662.64083161603
 20
3099.376304561453
 30
0.0
 40
825.0
100
AcDbArc
 50
80.18062947052888
 51
99.81937052947165
  0
LINE
  5
39E7
330
1F
100
AcDbEntity
  8
base
100
AcDbLine
 10
34372.64083161604
 20
3505.376304561452
 30
0.0
 11
34372.64083161604
 21
3734.927246658152
 31
0.0
  0
LINE
  5
39EC
330
1F
100
AcDbEntity
  8
base
100
AcDbLine
 10
34945.23736657695
 20
3849.376304561452
 30
0.0
 11
35220.64083161605
 21
3849.376304561453
 31
0.0
  0
ARC
  5
39ED
102
{ACAD_REACTORS
330
3C0D
102
}
330
1F
100
AcDbEntity
  8
base
100
AcDbCircle
 10
35220.64083161605
 20
3743.376304561453
 30
0.0
 40
106.0
100
AcDbArc
 50
0.0
 51
90.0
  0
LINE
  5
39EE
330
1F
100
AcDbEntity
  8
base
100
AcDbLine
 10
35326.64083161605
 20
3743.376304561453
 30
0.0
 11
35326.64083161605
 21
3505.37630456145
 31
0.0
  0
ARC
  5
39EF
330
1F
100
AcDbEntity
  8
base
100
AcDbCircle
 10
35220.64083161605
 20
3505.376304561452
 30
0.0
 40
106.0
100
AcDbArc
 50
270.0
 51
359.9999999999988
  0
LINE
  5
39F0
330
1F
100
AcDbEntity
  8
base
100
AcDbLine
 10
35220.64083161605
 20
3399.376304561452
 30
0.0
 11
34478.64083161604
 21
3399.376304561452
 31
0.0
  0
ARC
  5
39F1
330
1F
100
AcDbEntity
  8
base
100
AcDbCircle
 10
34478.64083161604
 20
3505.376304561452
 30
0.0
 40
106.0
100
AcDbArc
 50
180.0
 51
270.0
  0
ARC
  5
3A05
102
{ACAD_REACTORS
330
3A63
102
}
330
1F
100
AcDbEntity
  8
base
100
AcDbCircle
 10
34552.64083161604
 20
3734.927246658152
 30
0.0
 40
180.0
100
AcDbArc
 50
99.81937052947175
 51
180.0
  0
ARC
  5
3A06
330
1F
100
AcDbEntity
  8
base
100
AcDbCircle
 10
34772.64083161602
 20
3734.927246658153
 30
0.0
 40
180.0
100
AcDbArc
 50
48.40715476576871
 51
80.18062947052825
  0
ARC
  5
3A07
102
{ACAD_REACTORS
330
3A94
102
}
330
1F
100
AcDbEntity
  8
base
100
AcDbCircle
 10
34945.23736657695
 20
3929.376304561452
 30
0.0
 40
80.0
100
AcDbArc
 50
228.4071547657705
 51
270.0
  0
ARC
  5
3A08
102
{ACAD_REACTORS
330
3A4C
102
}
330
1F
100
AcDbEntity
  8
base
100
AcDbCircle
 10
34483.82105498388
 20
3514.000299145444
 30
0.0
 40
83.00000000000368
100
AcDbArc
 50
183.3007713721456
 51
265.757141733286
  0
ARC
  5
3A09
102
{ACAD_REACTORS
330
3A33
102
}
330
1F
100
AcDbEntity
  8
base
100
AcDbCircle
 10
34662.64083161603
 20
5924.376304561459
 30
0.0
 40
2500.000000000007
100
AcDbArc
 50
265.7571417332919
 51
274.2428582667082
  0
ARC
  5
3A0A
330
1F
100
AcDbEntity
  8
base
100
AcDbCircle
 10
34841.46060824819
 20
3514.000299145447
 30
0.0
 40
83.00000000000197
100
AcDbArc
 50
274.2428582667088
 51
356.699228627851
  0
ARC
  5
3A0B
330
1F
100
AcDbEntity
  8
base
100
AcDbCircle
 10
32927.64083161602
 20
3624.376304561457
 30
0.0
 40
2000.000000000003
100
AcDbArc
 50
356.6992286278525
 51
3.452928035513121
  0
ARC
  5
3A0F
330
1F
100
AcDbEntity
  8
base
100
AcDbCircle
 10
36397.64083161604
 20
3624.376304561518
 30
0.0
 40
1999.999999999999
100
AcDbArc
 50
176.5470719644888
 51
183.3007713721492
  0
ARC
  5
3A10
102
{ACAD_REACTORS
330
3A33
102
}
330
1F
100
AcDbEntity
  8
base
100
AcDbCircle
 10
34662.64083161603
 20
3099.376304561453
 30
0.0
 40
800.0
100
AcDbArc
 50
80.48244463732741
 51
99.51755536267256
  0
ARC
  5
3A11
102
{ACAD_REACTORS
330
3A7F
102
}
330
1F
100
AcDbEntity
  8
base
100
AcDbCircle
 10
34555.99021389761
 20
3735.497869783291
 30
0.0
 40
155.0
100
AcDbArc
 50
99.51755536267302
 51
176.5470719644886
  0
ARC
  5
3A12
330
1F
100
AcDbEntity
  8
base
100
AcDbCircle
 10
34769.29144933445
 20
3735.497869783291
 30
0.0
 40
155.0
100
AcDbArc
 50
3.452928035513086
 51
80.48244463732695
  0
DIMENSION
  5
3A1C
102
{ACAD_XDICTIONARY
360
3A29
102
}
102
{ACAD_REACTORS
330
3A33
102
}
330
1F
100
AcDbEntity
  8
DIM
100
AcDbDimension
280
     0
  2
*D17
 10
34307.50488410132
 20
3424.376304561452
 30
0.0
 11
34295.75488410132
 21
3661.876304561459
 31
0.0
 70
    32
 71
     5
 42
475.0000000000008
 73
     0
 74
     0
 75
     0
  3
ISO-25
100
AcDbAlignedDimension
 13
34662.64083161603
 23
3899.376304561453
 33
0.0
 14
34662.64083161603
 24
3424.376304561452
 34
0.0
 50
90.0
100
AcDbRotatedDimension
1001
ACAD
1000
DSTYLE
1002
{
1070
    41
1040
8.0
1070
   140
1040
15.0
1070
   141
1040
0.5
1070
   143
1040
0.03937007874
1070
   147
1040
3.0
1070
   170
1070
     1
1070
   171
1070
     2
1070
   179
1070
     2
1070
   274
1070
     2
1002
}
  0
DIMENSION
  5
3A3D
102
{ACAD_XDICTIONARY
360
3A46
102
}
102
{ACAD_REACTORS
330
3A4C
102
}
330
1F
100
AcDbEntity
  8
DIM
100
AcDbDimension
280
     0
  2
*D18
 10
34483.82105498389
 20
3514.000299145453
 30
0.0
 11
34499.50476900933
 21
3529.782682183743
 31
0.0
 70
   164
  1
2-<>
 71
     5
 42
83.00000000002183
 73
     0
 74
     0
 75
     0
  3
ISO-25
100
AcDbRadialDimension
 15
34425.31551502373
 25
3455.126690508183
 35
0.0
 40
0.0
1001
ACAD
1000
DSTYLE
1002
{
1070
    41
1040
8.0
1070
   140
1040
15.0
1070
   141
1040
0.5
1070
   143
1040
0.03937007874
1070
   147
1040
3.0
1070
   170
1070
     1
1070
   171
1070
     2
1070
   179
1070
     2
1070
   274
1070
     2
1070
   288
1070
     1
1002
}
  0
DIMENSION
  5
3A52
102
{ACAD_XDICTIONARY
360
3A5C
102
}
102
{ACAD_REACTORS
330
3A63
102
}
330
1F
100
AcDbEntity
  8
DIM
100
AcDbDimension
280
     0
  2
*D19
 10
34552.64083161605
 20
3734.927246658133
 30
0.0
 11
34276.48869388283
 21
3988.745291431256
 31
0.0
 70
   164
  1
2-<>
 71
     5
 42
180.0000000000218
 73
     0
 74
     0
 75
     0
  3
ISO-25
100
AcDbRadialDimension
 15
34420.11541646066
 25
3856.73453025767
 35
0.0
 40
0.0
1001
ACAD
1000
DSTYLE
1002
{
1070
    41
1040
8.0
1070
   140
1040
15.0
1070
   141
1040
0.5
1070
   143
1040
0.03937007874
1070
   147
1040
3.0
1070
   170
1070
     1
1070
   171
1070
     2
1070
   179
1070
     2
1070
   274
1070
     2
1070
   288
1070
     1
1002
}
  0
DIMENSION
  5
3A70
102
{ACAD_XDICTIONARY
360
3A79
102
}
102
{ACAD_REACTORS
330
3A7F
102
}
330
1F
100
AcDbEntity
  8
DIM
100
AcDbDimension
280
     0
  2
*D20
 10
34555.9902138976
 20
3735.497869783292
 30
0.0
 11
34535.17771395063
 21
3779.305287488025
 31
0.0
 70
   164
  1
2-<>
 71
     5
 42
154.9999999999927
 73
     0
 74
     0
 75
     0
  3
ISO-25
100
AcDbRadialDimension
 15
34489.47603880935
 25
3875.500957293272
 35
0.0
 40
0.0
1001
ACAD
1000
DSTYLE
1002
{
1070
    41
1040
8.0
1070
   140
1040
15.0
1070
   141
1040
0.5
1070
   143
1040
0.03937007874
1070
   147
1040
3.0
1070
   170
1070
     1
1070
   171
1070
     2
1070
   179
1070
     2
1070
   274
1070
     2
1070
   288
1070
     1
1002
}
  0
DIMENSION
  5
3A85
102
{ACAD_XDICTIONARY
360
3A8E
102
}
102
{ACAD_REACTORS
330
3A94
102
}
330
1F
100
AcDbEntity
  8
DIM
100
AcDbDimension
280
     0
  2
*D21
 10
34945.23736657698
 20
3929.376304561451
 30
0.0
 11
34948.1330450317
 21
3935.195672764852
 31
0.0
 70
   164
 71
     5
 42
80.00000000001818
 73
     0
 74
     0
 75
     0
  3
ISO-25
100
AcDbRadialDimension
 15
34909.59824713438
 25
3857.753311288638
 35
0.0
 40
0.0
1001
ACAD
1000
DSTYLE
1002
{
1070
    41
1040
8.0
1070
   140
1040
15.0
1070
   141
1040
0.5
1070
   143
1040
0.03937007874
1070
   147
1040
3.0
1070
   170
1070
     1
1070
   171
1070
     2
1070
   179
1070
     2
1070
   274
1070
     2
1070
   288
1070
     1
1002
}
  0
LINE
  5
3ADB
330
1F
100
AcDbEntity
  8
DIM
100
AcDbLine
 10
34695.59620697997
 20
3669.441275125923
 30
0.0
 11
34918.62341057068
 21
3688.378063810281
 31
0.0
  0
MTEXT
  5
3ADC
330
1F
100
AcDbEntity
  8
DIM
100
AcDbMText
 10
34816.99143490246
 20
3691.54097730512
 30
0.0
 40
15.0
 41
0.0
 46
0.0
 71
     5
 72
     1
  1
2-R2000 [R78,74]
 11
0.9964146919562427
 21
0.0846035557984766
 31
0.0
 73
     1
 44
1.0
  0
SOLID
  5
3ADD
330
1F
100
AcDbEntity
  8
DIM
100
AcDbTrace
 10
34918.51060582962
 20
3689.706616732889
 30
0.0
 11
34918.73621531174
 21
3687.049510887673
 31
0.0
 12
34926.59472810632
 22
3689.054892256669
 32
0.0
 13
34926.59472810632
 23
3689.054892256669
 33
0.0
  0
LINE
  5
3ADF
330
1F
100
AcDbEntity
  8
DIM
100
AcDbLine
 10
34695.59620697997
 20
3669.441275125923
 30
0.0
 11
34738.97621365351
 21
3655.287848479908
 31
0.0
  0
LINE
  5
3AE0
330
1F
100
AcDbEntity
  8
DIM
100
AcDbLine
 10
34738.97621365351
 20
3655.287848479908
 30
0.0
 11
34483.11081595281
 21
3624.376304561452
 31
0.0
  0
LINE
  5
3B37
330
1F
100
AcDbEntity
  8
DIM
100
AcDbLine
 10
34515.81606176082
 20
4106.69925025358
 30
0.0
 11
34563.35953994022
 21
3926.361046639911
 31
0.0
  0
MTEXT
  5
3B38
330
1F
100
AcDbEntity
  8
DIM
100
AcDbMText
 10
34549.92989189472
 20
4023.393358543593
 30
0.0
 40
15.0
 41
0.0
 46
0.0
 71
     5
 72
     1
  1
R825 [R32,48]
 11
0.2549248159752854
 21
-0.9669608772850983
 31
0.0
 73
     1
 44
1.0
  0
LINE
  5
3B39
330
1F
100
AcDbEntity
  8
DIM
100
AcDbLine
 10
34662.64083161603
 20
3468.493989855844
 30
0.0
 11
34565.39893846802
 21
3918.625359621629
 31
0.0
  0
SOLID
  5
3B3A
330
1F
100
AcDbEntity
  8
DIM
100
AcDbTrace
 10
34564.64882110995
 20
3926.700946394543
 30
0.0
 11
34562.0702587705
 21
3926.021146885274
 31
0.0
 12
34565.39893846802
 22
3918.625359621627
 32
0.0
 13
34565.39893846802
 23
3918.625359621627
 33
0.0
  0
LINE
  5
3B5F
330
1F
100
AcDbEntity
  8
DIM
100
AcDbLine
 10
34712.6968257034
 20
3626.040228179036
 30
0.0
 11
34753.99668905319
 21
3433.929397439879
 31
0.0
  0
MTEXT
  5
3B60
330
1F
100
AcDbEntity
  8
DIM
100
AcDbMText
 10
34746.44532741365
 20
3526.564893037749
 30
0.0
 40
15.0
 41
0.0
 46
0.0
 71
     5
 72
     1
  1
R2500 [R98,43]
 11
0.2101774216274303
 21
-0.977663260759064
 31
0.0
 73
     1
 44
1.0
  0
SOLID
  5
3B61
330
1F
100
AcDbEntity
  8
DIM
100
AcDbTrace
 10
34755.30024006754
 20
3434.20963400205
 30
0.0
 11
34752.69313803884
 21
3433.64916087771
 31
0.0
 12
34755.67810842621
 22
3426.108091353807
 32
0.0
 13
34755.67810842621
 23
3426.108091353807
 33
0.0
  0
LINE
  5
3B62
330
1F
100
AcDbEntity
  8
DIM
100
AcDbLine
 10
34712.6968257034
 20
3626.040228179036
 30
0.0
 11
34703.02503039183
 21
3596.012978337313
 31
0.0
  0
LINE
  5
3B63
330
1F
100
AcDbEntity
  8
DIM
100
AcDbLine
 10
34703.02503039183
 20
3596.012978337313
 30
0.0
 11
34662.64083161604
 21
3850.273290548571
 31
0.0
  0
MTEXT
  5
3BC2
102
{ACAD_REACTORS
330
3BC3
102
}
330
1F
100
AcDbEntity
  8
DIM
100
AcDbMText
 10
35040.45663219026
 20
4199.717145395727
 30
0.0
 40
15.0
 41
0.0
 46
0.0
 71
     9
 72
     1
  1
I
 73
     1
 44
1.0
  0
LEADER
  5
3BC3
330
1F
100
AcDbEntity
  8
DIM
100
AcDbLeader
  3
ISO-25
 73
     0
 40
15.0
 41
5.0
 76
     2
 10
35096.28936864768
 20
4207.217145395727
 30
0.0
 10
35043.45663219026
 20
4207.217145395727
 30
0.0
340
3BC2
213
0.0
223
7.5
233
0.0
1001
ACAD
1000
DSTYLE
1002
{
1070
    77
1070
     0
1070
    41
1040
8.0
1070
   140
1040
15.0
1070
   141
1040
0.5
1070
   143
1040
0.03937007874
1070
   147
1040
3.0
1070
   170
1070
     1
1070
   171
1070
     2
1070
   179
1070
     2
1070
   274
1070
     2
1002
}
  0
CIRCLE
  5
3BC4
330
1F
100
AcDbEntity
  8
DIM
100
AcDbCircle
 10
35129.64083161603
 20
4245.04066000842
 30
0.0
 40
71.68353376346203
  0
LINE
  5
3BF9
330
1F
100
AcDbEntity
  8
DIM
100
AcDbLine
 10
35141.14152452333
 20
3540.549919101952
 30
0.0
 11
34971.8973613062
 21
3482.262585855948
 31
0.0
  0
MTEXT
  5
3BFA
330
1F
100
AcDbEntity
  8
DIM
100
AcDbMText
 10
35042.13400213625
 20
3519.232292677888
 30
0.0
 40
13.0
 41
0.0
 46
0.0
 71
     5
 72
     1
  1
4-R80 [R3,15]
 11
0.9454981185314949
 21
0.3256275600335503
 31
0.0
 73
     1
 44
1.0
  0
SOLID
  5
3BFB
330
1F
100
AcDbEntity
  8
DIM
100
AcDbTrace
 10
34971.46319122615
 20
3483.52325001399
 30
0.0
 11
34972.33153138624
 21
3481.001921697906
 31
0.0
 12
34964.33337635795
 22
3479.657565375679
 32
0.0
 13
34964.33337635795
 23
3479.657565375679
 33
0.0
  0
DIMENSION
  5
3BFC
102
{ACAD_XDICTIONARY
360
3C06
102
}
102
{ACAD_REACTORS
330
3C0D
102
}
330
1F
100
AcDbEntity
  8
DIM
100
AcDbDimension
280
     0
  2
*D22
 10
35220.64083161607
 20
3743.37630456146
 30
0.0
 11
35376.2451905073
 21
3888.571332003996
 31
0.0
 70
    36
  1
3-<>
 71
     5
 42
105.9999999999745
 73
     0
 74
     0
 75
     0
  3
ISO-25
100
AcDbRadialDimension
 15
35302.01591796282
 25
3811.303437005378
 35
0.0
 40
0.0
1001
ACAD
1000
DSTYLE
1002
{
1070
    41
1040
8.0
1070
   140
1040
15.0
1070
   141
1040
0.5
1070
   143
1040
0.03937007874
1070
   147
1040
3.0
1070
   170
1070
     1
1070
   171
1070
     2
1070
   179
1070
     2
1070
   274
1070
     2
1070
   288
1070
     1
1002
}
  0
LINE
  5
3C1A
330
1F
100
AcDbEntity
  8
DIM
100
AcDbLine
 10
35161.29709198775
 20
3612.558026340391
 30
0.0
 11
34965.91683900687
 21
3574.775004424143
 31
0.0
  0
MTEXT
  5
3C1B
330
1F
100
AcDbEntity
  8
DIM
100
AcDbMText
 10
35049.93808433873
 20
3602.891312152382
 30
0.0
 40
12.0
 41
0.0
 46
0.0
 71
     5
 72
     1
  1
4-R3100 [R122,05]
 11
0.981810316486883
 21
0.1898644317399302
 31
0.0
 73
     1
 44
1.0
  0
SOLID
  5
3C1C
330
1F
100
AcDbEntity
  8
DIM
100
AcDbTrace
 10
34965.66368643123
 20
3576.084084846126
 30
0.0
 11
34966.16999158252
 21
3573.46592400216
 31
0.0
 12
34958.06235647497
 22
3573.256088970224
 32
0.0
 13
34958.06235647497
 23
3573.256088970224
 33
0.0
  0
LINE
  5
3C1D
330
1F
100
AcDbEntity
  8
DIM
100
AcDbLine
 10
35161.29709198775
 20
3612.558026340391
 30
0.0
 11
35147.23109647707
 21
3600.39052446552
 31
0.0
  0
LINE
  5
3C1E
330
1F
100
AcDbEntity
  8
DIM
100
AcDbLine
 10
35147.23109647707
 20
3600.39052446552
 30
0.0
 11
35266.57467658034
 21
3624.376304561452
 31
0.0
  0
LINE
  5
3C1F
330
1F
100
AcDbEntity
  8
DIM
100
AcDbLine
 10
34746.01151721316
 20
3711.726962912584
 30
0.0
 11
34769.48481704147
 21
3884.136371574554
 31
0.0
  0
MTEXT
  5
3C20
330
1F
100
AcDbEntity
  8
DIM
100
AcDbMText
 10
34745.56596166128
 20
3795.553354820208
 30
0.0
 40
15.0
 41
0.0
 46
0.0
 71
     5
 72
     1
  1
R800 [R31,50]
 11
0.1349040220018369
 21
0.9908586704710858
 31
0.0
 73
     1
 44
1.0
  0
SOLID
  5
3C21
330
1F
100
AcDbEntity
  8
DIM
100
AcDbTrace
 10
34768.16367214751
 20
3884.31624360389
 30
0.0
 11
34770.80596193544
 21
3883.956499545217
 31
0.0
 12
34770.56404921749
 22
3892.063240938322
 32
0.0
 13
34770.56404921749
 23
3892.063240938322
 33
0.0
  0
DIMENSION
  5
3C7C
102
{ACAD_XDICTIONARY
360
3C89
102
}
102
{ACAD_REACTORS
330
3C93
102
}
330
1F
100
AcDbEntity
  8
DIM
100
AcDbDimension
280
     0
  2
*D23
 10
35390.14328401822
 20
3424.376304561452
 30
0.0
 11
35378.39328401822
 21
3624.376304561458
 31
0.0
 70
    32
 71
     5
 42
400.0000000000008
 73
     0
 74
     0
 75
     0
  3
ISO-25
100
AcDbAlignedDimension
 13
35129.64083161604
 23
3824.376304561454
 33
0.0
 14
35129.64083161604
 24
3424.376304561452
 34
0.0
 50
90.0
100
AcDbRotatedDimension
1001
ACAD
1000
DSTYLE
1002
{
1070
    41
1040
8.0
1070
   140
1040
15.0
1070
   141
1040
0.5
1070
   143
1040
0.03937007874
1070
   147
1040
3.0
1070
   170
1070
     1
1070
   171
1070
     2
1070
   179
1070
     2
1070
   274
1070
     2
1002
}
  0
LINE
  5
4120
330
1F
100
AcDbEntity
  8
base
100
AcDbLine
 10
34372.64083161604
 20
4423.78800281114
 30
0.0
 11
34394.44083161603
 21
4423.78800281114
 31
0.0
  0
LINE
  5
4121
330
1F
100
AcDbEntity
  8
base
100
AcDbLine
 10
34387.64083161602
 20
4422.58800281114
 30
0.0
 11
34387.64083161602
 21
4423.78800281114
 31
0.0
  0
ARC
  5
4137
330
1F
100
AcDbEntity
  8
base
100
AcDbCircle
 10
34394.44083161603
 20
4420.588002811141
 30
0.0
 40
2.0
100
AcDbArc
 50
0.0
 51
90.0
  0
ARC
  5
4138
330
1F
100
AcDbEntity
  8
base
100
AcDbCircle
 10
34394.44083161603
 20
4420.588002811141
 30
0.0
 40
3.2
100
AcDbArc
 50
0.0
 51
90.0
  0
LINE
  5
4173
330
1F
100
AcDbEntity
  8
base
100
AcDbLine
 10
34396.62322394883
 20
4422.928336912439
 30
0.0
 11
34394.13124298774
 21
4425.019357217797
 31
0.0
  0
LINE
  5
4175
330
1F
100
AcDbEntity
  8
base
100
AcDbLine
 10
34930.84083161603
 20
4422.58800281114
 30
0.0
 11
34937.64083161603
 21
4422.58800281114
 31
0.0
  0
ARC
  5
4176
330
1F
100
AcDbEntity
  8
base
100
AcDbCircle
 10
34930.84083161603
 20
4420.588002811141
 30
0.0
 40
1.999999999999999
100
AcDbArc
 50
90.0
 51
180.0
  0
ARC
  5
4177
330
1F
100
AcDbEntity
  8
base
100
AcDbCircle
 10
34930.84083161603
 20
4420.588002811141
 30
0.0
 40
3.199999999999999
100
AcDbArc
 50
90.0
 51
180.0
  0
LINE
  5
4178
330
1F
100
AcDbEntity
  8
base
100
AcDbLine
 10
34937.64083161603
 20
4422.58800281114
 30
0.0
 11
34937.64083161603
 21
4423.78800281114
 31
0.0
  0
LINE
  5
4179
330
1F
100
AcDbEntity
  8
base
100
AcDbLine
 10
34954.44083161606
 20
4423.78800281114
 30
0.0
 11
34930.84083161603
 21
4423.78800281114
 31
0.0
  0
LINE
  5
417A
330
1F
100
AcDbEntity
  8
base
100
AcDbLine
 10
34928.65843928322
 20
4422.928336912439
 30
0.0
 11
34931.15042024432
 21
4425.019357217797
 31
0.0
  0
LINE
  5
417B
330
1F
100
AcDbEntity
  8
base
100
AcDbLine
 10
34954.44083161606
 20
4422.58800281114
 30
0.0
 11
34945.84083161601
 21
4422.58800281114
 31
0.0
  0
ARC
  5
417C
330
1F
100
AcDbEntity
  8
base
100
AcDbCircle
 10
34954.44083161606
 20
4420.588002811141
 30
0.0
 40
1.999999999999999
100
AcDbArc
 50
0.000000000000007
 51
90.0
  0
ARC
  5
417D
330
1F
100
AcDbEntity
  8
base
100
AcDbCircle
 10
34954.44083161606
 20
4420.588002811141
 30
0.0
 40
3.199999999999999
100
AcDbArc
 50
0.000000000000007
 51
90.0
  0
LINE
  5
417E
330
1F
100
AcDbEntity
  8
base
100
AcDbLine
 10
34947.64083161606
 20
4422.58800281114
 30
0.0
 11
34947.64083161606
 21
4423.78800281114
 31
0.0
  0
LINE
  5
417F
330
1F
100
AcDbEntity
  8
base
100
AcDbLine
 10
34956.70357331587
 20
4422.850744510937
 30
0.0
 11
34954.21159235477
 21
4424.941764816295
 31
0.0
  0
ARC
  5
4180
330
1F
100
AcDbEntity
  8
base
100
AcDbCircle
 10
34954.44083161606
 20
4420.588002811141
 30
0.0
 40
2.0
100
AcDbArc
 50
0.0
 51
90.0
  0
ARC
  5
4181
330
1F
100
AcDbEntity
  8
base
100
AcDbCircle
 10
35304.84083161603
 20
4420.588002811141
 30
0.0
 40
2.0
100
AcDbArc
 50
90.0
 51
180.0
  0
ARC
  5
4183
330
1F
100
AcDbEntity
  8
base
100
AcDbCircle
 10
35304.84083161603
 20
4420.588002811141
 30
0.0
 40
1.999999999999999
100
AcDbArc
 50
90.0
 51
180.0
  0
ARC
  5
4184
330
1F
100
AcDbEntity
  8
base
100
AcDbCircle
 10
35304.84083161603
 20
4420.588002811141
 30
0.0
 40
3.199999999999999
100
AcDbArc
 50
90.0
 51
180.0
  0
LINE
  5
4185
330
1F
100
AcDbEntity
  8
base
100
AcDbLine
 10
35311.64083161603
 20
4422.58800281114
 30
0.0
 11
35311.64083161603
 21
4423.78800281114
 31
0.0
  0
LINE
  5
4186
330
1F
100
AcDbEntity
  8
base
100
AcDbLine
 10
35302.57808991623
 20
4422.850744510937
 30
0.0
 11
35305.07007087732
 21
4424.941764816295
 31
0.0
  0
LINE
  5
4187
330
1F
100
AcDbEntity
  8
0
100
AcDbLine
 10
35304.84083161603
 20
4423.78800281114
 30
0.0
 11
35326.64083161605
 21
4423.78800281114
 31
0.0
  0
LINE
  5
4188
330
1F
100
AcDbEntity
  8
0
100
AcDbLine
 10
35326.64083161605
 20
4423.78800281114
 30
0.0
 11
35326.64083161605
 21
4424.98800281114
 31
0.0
  0
ENDSEC
  0
SECTION
  2
OBJECTS
  0
DICTIONARY
  5
C
330
0
100
AcDbDictionary
281
     1
  3
ACAD_CIP_PREVIOUS_PRODUCT_INFO
350
41B2
  3
ACAD_COLOR
350
6B
  3
ACAD_DETAILVIEWSTYLE
350
41AB
  3
ACAD_GROUP
350
D
  3
ACAD_LAYOUT
350
1A
  3
ACAD_MATERIAL
350
6A
  3
ACAD_MLEADERSTYLE
350
41A7
  3
ACAD_MLINESTYLE
350
17
  3
ACAD_PLOTSETTINGS
350
19
  3
ACAD_PLOTSTYLENAME
350
E
  3
ACAD_SCALELIST
350
4195
  3
ACAD_SECTIONVIEWSTYLE
350
41A9
  3
ACAD_TABLESTYLE
350
40FD
  3
ACAD_VISUALSTYLE
350
40EC
  3
AcadDim
350
1BCC
  3
ACDB_RECOMPOSE_DATA
350
41D6
  3
AcDbVariableDictionary
350
5E
  3
lxx_dict
350
4105
  0
DICTIONARY
  5
4149
330
2
100
AcDbDictionary
280
     1
281
     1
  3
ACAD_LAYERSTATES
360
414A
  0
DICTIONARY
  5
41B3
330
10
100
AcDbDictionary
280
     1
281
     1
  3
ADSK_XREC_LAYER_RECONCILED
360
41B4
  0
DICTIONARY
  5
41B5
330
84
100
AcDbDictionary
280
     1
281
     1
  3
ADSK_XREC_LAYER_RECONCILED
360
41B6
  0
DICTIONARY
  5
41B7
330
2D93
100
AcDbDictionary
280
     1
281
     1
  3
ADSK_XREC_LAYER_RECONCILED
360
41B8
  0
DICTIONARY
  5
4122
330
1F
100
AcDbDictionary
280
     1
281
     1
  3
ACAD_SORTENTS
360
4123
  0
DICTIONARY
  5
35F6
330
35E9
100
AcDbDictionary
280
     1
281
     1
  3
ACAD_DIMASSOC
360
3600
  0
DICTIONARY
  5
360E
330
3601
100
AcDbDictionary
280
     1
281
     1
  3
ACAD_DIMASSOC
360
3618
  0
DICTIONARY
  5
374D
330
373E
100
AcDbDictionary
280
     1
281
     1
  3
ACAD_DIMASSOC
360
3759
  0
DICTIONARY
  5
389D
330
3894
100
AcDbDictionary
280
     1
281
     1
  3
ACAD_DIMASSOC
360
38A3
  0
DICTIONARY
  5
38B7
330
38A4
100
AcDbDictionary
280
     1
281
     1
  3
ACAD_DIMASSOC
360
38C7
  0
DICTIONARY
  5
38D5
330
38C8
100
AcDbDictionary
280
     1
281
     1
  3
ACAD_DIMASSOC
360
38DF
  0
DICTIONARY
  5
38E9
330
38E0
100
AcDbDictionary
280
     1
281
     1
  3
ACAD_DIMASSOC
360
38EF
  0
DICTIONARY
  5
38FD
330
38F0
100
AcDbDictionary
280
     1
281
     1
  3
ACAD_DIMASSOC
360
3907
  0
DICTIONARY
  5
392B
330
3918
100
AcDbDictionary
280
     1
281
     1
  3
ACAD_DIMASSOC
360
393B
  0
DICTIONARY
  5
3965
330
3957
100
AcDbDictionary
280
     1
281
     1
  3
ACAD_DIMASSOC
360
3970
  0
DICTIONARY
  5
3992
330
3985
100
AcDbDictionary
280
     1
281
     1
  3
ACAD_DIMASSOC
360
399C
  0
DICTIONARY
  5
39AA
330
399D
100
AcDbDictionary
280
     1
281
     1
  3
ACAD_DIMASSOC
360
39B4
  0
DICTIONARY
  5
3A29
330
3A1C
100
AcDbDictionary
280
     1
281
     1
  3
ACAD_DIMASSOC
360
3A33
  0
DICTIONARY
  5
3A46
330
3A3D
100
AcDbDictionary
280
     1
281
     1
  3
ACAD_DIMASSOC
360
3A4C
  0
DICTIONARY
  5
3A5C
330
3A52
100
AcDbDictionary
280
     1
281
     1
  3
ACAD_DIMASSOC
360
3A63
  0
DICTIONARY
  5
3A79
330
3A70
100
AcDbDictionary
280
     1
281
     1
  3
ACAD_DIMASSOC
360
3A7F
  0
DICTIONARY
  5
3A8E
330
3A85
100
AcDbDictionary
280
     1
281
     1
  3
ACAD_DIMASSOC
360
3A94
  0
DICTIONARY
  5
3C06
330
3BFC
100
AcDbDictionary
280
     1
281
     1
  3
ACAD_DIMASSOC
360
3C0D
  0
DICTIONARY
  5
3C89
330
3C7C
100
AcDbDictionary
280
     1
281
     1
  3
ACAD_DIMASSOC
360
3C93
  0
XRECORD
  5
41B2
102
{ACAD_REACTORS
330
C
102
}
330
C
100
AcDbXrecord
280
     1
300
ACDLT
300
2018
300

  0
DICTIONARY
  5
6B
102
{ACAD_REACTORS
330
C
102
}
330
C
100
AcDbDictionary
281
     1
  0
DICTIONARY
  5
41AB
102
{ACAD_REACTORS
330
C
102
}
330
C
100
AcDbDictionary
281
     1
  3
Metric50
350
41AC
  0
DICTIONARY
  5
D
102
{ACAD_REACTORS
330
C
102
}
330
C
100
AcDbDictionary
281
     1
  0
DICTIONARY
  5
1A
102
{ACAD_REACTORS
330
C
102
}
330
C
100
AcDbDictionary
281
     1
  3
Layout1
350
51
  3
Layout2
350
56
  3
Model
350
22
  0
DICTIONARY
  5
6A
102
{ACAD_REACTORS
330
C
102
}
330
C
100
AcDbDictionary
281
     1
  3
ByBlock
350
40EA
  3
ByLayer
350
40E9
  3
Global
350
40EB
  0
DICTIONARY
  5
41A7
102
{ACAD_REACTORS
330
C
102
}
330
C
100
AcDbDictionary
281
     1
  3
Standard
350
41A8
  0
DICTIONARY
  5
17
102
{ACAD_REACTORS
330
C
102
}
330
C
100
AcDbDictionary
281
     1
  3
Standard
350
18
  0
DICTIONARY
  5
19
102
{ACAD_REACTORS
330
C
102
}
330
C
100
AcDbDictionary
281
     1
  0
ACDBDICTIONARYWDFLT
  5
E
102
{ACAD_REACTORS
330
C
102
}
330
C
100
AcDbDictionary
281
     1
  3
Normal
350
F
100
AcDbDictionaryWithDefault
340
F
  0
DICTIONARY
  5
4195
102
{ACAD_REACTORS
330
C
102
}
330
C
100
AcDbDictionary
281
     1
  3
A0
350
4196
  3
A1
350
4197
  3
A2
350
4198
  3
A3
350
4199
  3
A4
350
419A
  3
A5
350
419B
  3
A6
350
419C
  3
A7
350
419D
  3
A8
350
419E
  3
A9
350
419F
  3
B0
350
41A0
  3
B1
350
41A1
  3
B2
350
41A2
  3
B3
350
41A3
  3
B4
350
41A4
  3
B5
350
41A5
  3
B6
350
41A6
  0
DICTIONARY
  5
41A9
102
{ACAD_REACTORS
330
C
102
}
330
C
100
AcDbDictionary
281
     1
  3
Metric50
350
41AA
  0
DICTIONARY
  5
40FD
102
{ACAD_REACTORS
330
C
102
}
330
C
100
AcDbDictionary
281
     1
  3
Standard
350
40FE
  0
DICTIONARY
  5
40EC
102
{ACAD_REACTORS
330
C
102
}
330
C
100
AcDbDictionary
281
     1
  3
2dWireframe
350
40F2
  3
3D Hidden
350
40F4
  3
3dWireframe
350
40F3
  3
Basic
350
40F1
  3
Brighten
350
40F8
  3
ColorChange
350
40FC
  3
Conceptual
350
40F5
  3
Dim
350
40F7
  3
EdgeColorOff
350
4194
  3
Facepattern
350
40FB
  3
Flat
350
40ED
  3
FlatWithEdges
350
40EE
  3
Gouraud
350
40EF
  3
GouraudWithEdges
350
40F0
  3
Hidden
350
418C
  3
JitterOff
350
4192
  3
Linepattern
350
40FA
  3
OverhangOff
350
4193
  3
Realistic
350
40F6
  3
Shaded
350
4191
  3
Shaded with edges
350
4190
  3
Shades of Gray
350
418D
  3
Sketchy
350
418E
  3
Thicken
350
40F9
  3
Wireframe
350
418B
  3
X-Ray
350
418F
  0
XRECORD
  5
1BCC
102
{ACAD_REACTORS
330
C
102
}
330
C
100
AcDbXrecord
280
     1
 90
   990106
  3

 60
     0
 61
     0
 62
     1
 63
     3
 64
     0
 65
     0
 66
     0
 67
     3
 68
     1
 69
     0
 70
     0
 71
     0
 72
     0
 40
0.0
170
     0
340
393E
  0
XRECORD
  5
41D6
102
{ACAD_REACTORS
330
C
102
}
330
C
100
AcDbXrecord
280
     1
 90
        1
330
40FE
  0
DICTIONARY
  5
5E
102
{ACAD_REACTORS
330
C
102
}
330
C
100
AcDbDictionary
281
     1
  3
CANNOSCALE
350
41C6
  3
CMLEADERSTYLE
350
41C2
  3
CTABLESTYLE
350
4189
  3
CVIEWDETAILSTYLE
350
41C3
  3
CVIEWSECTIONSTYLE
350
41C4
  3
DIMASSOC
350
5F
  3
HIDETEXT
350
63
  3
LAYEREVAL
350
41C8
  3
LAYERNOTIFY
350
41C9
  3
LIGHTINGUNITS
350
41C7
  3
MSLTSCALE
350
41C5
  3
PROJECTNAME
350
1CF
  0
DICTIONARY
  5
4105
102
{ACAD_REACTORS
330
C
102
}
330
C
100
AcDbDictionary
281
     1
  3
lxx_dimth
350
4106
  0
DICTIONARY
  5
414A
102
{ACAD_REACTORS
330
4149
102
}
330
4149
100
AcDbDictionary
281
     1
  0
XRECORD
  5
41B4
102
{ACAD_REACTORS
330
41B3
102
}
330
41B3
100
AcDbXrecord
280
     1
290
     1
  0
XRECORD
  5
41B6
102
{ACAD_REACTORS
330
41B5
102
}
330
41B5
100
AcDbXrecord
280
     1
290
     1
  0
XRECORD
  5
41B8
102
{ACAD_REACTORS
330
41B7
102
}
330
41B7
100
AcDbXrecord
280
     1
290
     1
  0
SORTENTSTABLE
  5
4123
102
{ACAD_REACTORS
330
4122
102
}
330
4122
100
AcDbSortentsTable
330
1F
331
393D
  5
3985
331
3A10
  5
3A3D
331
3891
  5
38E0
331
37F1
  5
37F1
331
38E0
  5
393D
331
3850
  5
3850
331
3854
  5
3854
331
3720
  5
3720
331
3A1C
  5
3A85
331
385C
  5
385C
331
3BC4
  5
3BFC
331
35C4
  5
35C4
331
3ADD
  5
3B38
331
3861
  5
3861
331
38A4
  5
3918
331
3BF9
  5
3C1A
331
3739
  5
3739
331
39EC
  5
39F0
331
3869
  5
3869
331
3814
  5
3814
331
386D
  5
386E
331
373D
  5
373D
331
399D
  5
39E7
331
35CC
  5
35CC
331
35D0
  5
35D0
331
3A70
  5
3ADD
331
39F0
  5
3A07
331
3875
  5
3876
331
3824
  5
3824
331
3828
  5
3828
331
3B38
  5
3B60
331
3879
  5
387A
331
3A3D
  5
3ADB
331
387D
  5
387E
331
39B5
  5
39EC
331
3C7C
  5
4137
331
36A0
  5
36A0
331
3918
  5
393F
331
3880
  5
3881
331
3A07
  5
3A0B
331
3884
  5
3885
331
3A0B
  5
3A12
331
3B63
  5
3BF9
331
384B
  5
384B
331
3888
  5
388B
331
3A0F
  5
3A1C
331
384F
  5
384F
331
388C
  5
388D
331
3C1C
  5
3C20
331
3C20
  5
4121
331
417B
  5
417C
331
417F
  5
4180
331
393C
  5
3957
331
3853
  5
3853
331
3890
  5
38C8
331
371F
  5
371F
331
3894
  5
38F0
331
3BC3
  5
3BFB
331
35C3
  5
35C3
331
3ADC
  5
3B37
331
3AE0
  5
3B3A
331
3860
  5
3860
331
38F0
  5
393E
331
39E7
  5
39EF
331
3864
  5
3864
331
3813
  5
3813
331
39EF
  5
3A06
331
386C
  5
386D
331
3BFC
  5
3C1D
331
373C
  5
373C
331
3B37
  5
3B5F
331
4121
  5
3894
331
35CB
  5
35CB
331
35CF
  5
35CF
331
3823
  5
3823
331
3827
  5
3827
331
3957
  5
39CD
331
3878
  5
3879
331
387C
  5
387D
331
3B5F
  5
3B63
331
4173
  5
4174
331
4177
  5
4178
331
4138
  5
3890
331
3883
  5
3884
331
3A06
  5
3A0A
331
379B
  5
379B
331
3A0A
  5
3A11
331
3C1B
  5
3C1F
331
3B62
  5
3BC4
331
388B
  5
388C
331
3C1F
  5
4120
331
388F
  5
38A4
331
384E
  5
384E
331
417A
  5
417B
331
417E
  5
417F
331
393F
  5
39B5
331
3A12
  5
3A70
331
3852
  5
3852
331
3856
  5
3856
331
385A
  5
385A
331
3BC2
  5
3BFA
331
35C2
  5
35C2
331
3ADB
  5
3AE0
331
3ADF
  5
3B39
331
39E6
  5
39EE
331
3863
  5
3863
331
3BFB
  5
3C1C
331
386B
  5
386B
331
39EE
  5
3A05
331
373B
  5
373B
331
4120
  5
4138
331
35CE
  5
35CE
331
3873
  5
3875
331
3822
  5
3822
331
3877
  5
3878
331
382A
  5
382A
331
3B3A
  5
3B62
331
387B
  5
387C
331
382E
  5
382E
331
387F
  5
3880
331
4176
  5
4177
331
4137
  5
388F
331
35E9
  5
35E9
331
3A85
  5
3ADF
331
3A05
  5
3A09
331
3831
  5
3831
331
3882
  5
3883
331
3A09
  5
3A10
331
3835
  5
3835
331
3B61
  5
3BC3
331
384D
  5
384D
331
3715
  5
3715
331
3C1A
  5
3C1E
331
388E
  5
3891
331
3C1E
  5
3C7C
331
37C6
  5
37C6
331
4179
  5
417A
331
417D
  5
417E
331
3601
  5
3601
331
3A11
  5
3A52
331
3851
  5
3851
331
393E
  5
399D
331
3A52
  5
3ADC
331
3855
  5
3855
331
37F2
  5
37F2
331
3859
  5
3859
331
3985
  5
39E6
331
3862
  5
3862
331
372A
  5
372A
331
37FD
  5
37FD
331
3866
  5
3866
331
39ED
  5
39F1
331
386A
  5
386A
331
3BFA
  5
3C1B
331
373A
  5
373A
331
386E
  5
3872
331
373E
  5
373E
331
35CD
  5
35CD
331
35D1
  5
35D1
331
39F1
  5
3A08
331
3825
  5
3825
331
3872
  5
3873
331
3B39
  5
3B61
331
3829
  5
3829
331
3876
  5
3877
331
382D
  5
382D
331
387A
  5
387B
331
387E
  5
387F
331
4175
  5
4176
331
38C8
  5
393C
331
3881
  5
3882
331
3A08
  5
3A0F
331
3885
  5
3888
331
3B60
  5
3BC2
331
3C1D
  5
3C21
331
388D
  5
388E
331
384C
  5
384C
331
3C21
  5
412D
331
39CD
  5
39ED
331
4178
  5
4179
331
417C
  5
417D
331
4180
  5
386C
  0
DIMASSOC
  5
3600
102
{ACAD_REACTORS
330
35F6
102
}
330
35F6
100
AcDbDimAssoc
330
35E9
 90
        1
 70
     0
 71
     0
  1
AcDbOsnapPointRef
 72
     1
331
35CB
 73
     2
 91
        0
 40
0.9999999999999998
 10
0.0
 20
0.0
 30
2.000000000000000E+50
 75
     0
  0
DIMASSOC
  5
3618
102
{ACAD_REACTORS
330
360E
102
}
330
360E
100
AcDbDimAssoc
330
3601
 90
        3
 70
     0
 71
     0
  1
AcDbOsnapPointRef
 72
    13
331
35CD
 73
     2
 91
        0
 40
0.0
 10
0.0
 20
0.0
 30
2.000000000000000E+50
 75
     0
  1
AcDbOsnapPointRef
 72
    13
331
35C4
 73
     2
 91
        0
 40
0.0
 10
0.0
 20
0.0
 30
2.000000000000000E+50
 75
     0
  0
DIMASSOC
  5
3759
102
{ACAD_REACTORS
330
374D
102
}
330
374D
100
AcDbDimAssoc
330
373E
 90
        3
 70
     0
 71
     0
  1
AcDbOsnapPointRef
 72
    13
331
3715
 73
     2
 91
        0
 40
0.0
 10
0.0
 20
0.0
 30
2.000000000000000E+50
 75
     0
  1
AcDbOsnapPointRef
 72
    13
331
373D
 73
     2
 91
        0
 40
0.0
 10
0.0
 20
0.0
 30
2.000000000000000E+50
 75
     0
  0
DIMASSOC
  5
38A3
102
{ACAD_REACTORS
330
389D
102
}
330
389D
100
AcDbDimAssoc
330
3894
 90
        2
 70
     0
 71
     0
  1
AcDbOsnapPointRef
 72
     3
331
388C
 73
     2
 91
        0
 40
0.0
 10
0.0
 20
0.0
 30
0.0
 75
     0
  0
DIMASSOC
  5
38C7
102
{ACAD_REACTORS
330
38B7
102
}
330
38B7
100
AcDbDimAssoc
330
38A4
 90
       15
 70
     0
 71
     0
  1
AcDbOsnapPointRef
 72
    13
331
3890
 73
     2
 91
        0
 40
0.0
 10
0.0
 20
0.0
 30
2.000000000000000E+50
 75
     0
  1
AcDbOsnapPointRef
 72
     1
331
3890
 73
     2
 91
        0
 40
0.9999999999999998
 10
0.0
 20
0.0
 30
2.000000000000000E+50
 75
     0
  1
AcDbOsnapPointRef
 72
    13
331
3875
 73
     2
 91
        0
 40
0.0
 10
0.0
 20
0.0
 30
2.000000000000000E+50
 75
     0
  1
AcDbOsnapPointRef
 72
     1
331
3875
 73
     2
 91
        0
 40
0.9999999999999998
 10
0.0
 20
0.0
 30
2.000000000000000E+50
 75
     0
  0
DIMASSOC
  5
38DF
102
{ACAD_REACTORS
330
38D5
102
}
330
38D5
100
AcDbDimAssoc
330
38C8
 90
        3
 70
     0
 71
     0
  1
AcDbOsnapPointRef
 72
    13
331
3880
 73
     2
 91
        0
 40
0.0
 10
0.0
 20
0.0
 30
2.000000000000000E+50
 75
     0
  1
AcDbOsnapPointRef
 72
    13
331
382E
 73
     2
 91
        0
 40
0.0
 10
0.0
 20
0.0
 30
2.000000000000000E+50
 75
     0
  0
DIMASSOC
  5
38EF
102
{ACAD_REACTORS
330
38E9
102
}
330
38E9
100
AcDbDimAssoc
330
38E0
 90
        2
 70
     0
 71
     0
  1
AcDbOsnapPointRef
 72
     3
331
386A
 73
     2
 91
        0
 40
0.0
 10
0.0
 20
0.0
 30
0.0
 75
     0
  0
DIMASSOC
  5
3907
102
{ACAD_REACTORS
330
38FD
102
}
330
38FD
100
AcDbDimAssoc
330
38F0
 90
        2
 70
     0
 71
     0
  1
AcDbOsnapPointRef
 72
    13
331
3854
 73
     2
 91
        0
 40
0.0
 10
0.0
 20
0.0
 30
2.000000000000000E+50
 75
     0
  0
DIMASSOC
  5
393B
102
{ACAD_REACTORS
330
392B
102
}
330
392B
100
AcDbDimAssoc
330
3918
 90
       15
 70
     0
 71
     0
  1
AcDbOsnapPointRef
 72
    13
331
385A
 73
     2
 91
        0
 40
0.0
 10
0.0
 20
0.0
 30
2.000000000000000E+50
 75
     0
  1
AcDbOsnapPointRef
 72
     1
331
385A
 73
     2
 91
        0
 40
1.0
 10
0.0
 20
0.0
 30
2.000000000000000E+50
 75
     0
  1
AcDbOsnapPointRef
 72
    13
331
3859
 73
     2
 91
        0
 40
0.0
 10
0.0
 20
0.0
 30
2.000000000000000E+50
 75
     0
  1
AcDbOsnapPointRef
 72
     1
331
3859
 73
     2
 91
        0
 40
0.9999999999999998
 10
0.0
 20
0.0
 30
2.000000000000000E+50
 75
     0
  0
DIMASSOC
  5
3970
102
{ACAD_REACTORS
330
3965
102
}
330
3965
100
AcDbDimAssoc
330
3957
 90
        3
 70
     0
 71
     0
  1
AcDbOsnapPointRef
 72
     2
331
37FD
 73
     2
 91
        4
 40
1.570796326794894
 10
0.0
 20
0.0
 30
0.0
 75
     0
  1
AcDbOsnapPointRef
 72
    13
331
382A
 73
     2
 91
        0
 40
0.0
 10
0.0
 20
0.0
 30
2.000000000000000E+50
 75
     0
  0
DIMASSOC
  5
399C
102
{ACAD_REACTORS
330
3992
102
}
330
3992
100
AcDbDimAssoc
330
3985
 90
        3
 70
     0
 71
     0
  1
AcDbOsnapPointRef
 72
     2
331
37FD
 73
     2
 91
        6
 40
3.141592653589792
 10
0.0
 20
0.0
 30
0.0
 75
     0
  1
AcDbOsnapPointRef
 72
     6
331
37F1
 73
     2
 91
        0
 40
0.0653223844762477
 10
0.0
 20
0.0
 30
0.0
332
37FD
 74
     2
 92
        2
 75
     0
  0
DIMASSOC
  5
39B4
102
{ACAD_REACTORS
330
39AA
102
}
330
39AA
100
AcDbDimAssoc
330
399D
 90
        2
 70
     0
 71
     0
  1
AcDbOsnapPointRef
 72
     1
331
3831
 73
     2
 91
        0
 40
1.0
 10
0.0
 20
0.0
 30
2.000000000000000E+50
 75
     0
  0
DIMASSOC
  5
3A33
102
{ACAD_REACTORS
330
3A29
102
}
330
3A29
100
AcDbDimAssoc
330
3A1C
 90
        3
 70
     0
 71
     0
  1
AcDbOsnapPointRef
 72
     2
331
3A10
 73
     2
 91
        0
 40
1.570796326794896
 10
0.0
 20
0.0
 30
0.0
 75
     0
  1
AcDbOsnapPointRef
 72
     2
331
3A09
 73
     2
 91
        0
 40
4.712388980384689
 10
0.0
 20
0.0
 30
0.0
 75
     0
  0
DIMASSOC
  5
3A4C
102
{ACAD_REACTORS
330
3A46
102
}
330
3A46
100
AcDbDimAssoc
330
3A3D
 90
        2
 70
     0
 71
     0
  1
AcDbOsnapPointRef
 72
     3
331
3A08
 73
     2
 91
        0
 40
0.0
 10
0.0
 20
0.0
 30
0.0
 75
     0
  0
DIMASSOC
  5
3A63
102
{ACAD_REACTORS
330
3A5C
102
}
330
3A5C
100
AcDbDimAssoc
330
3A52
 90
        2
 70
     0
 71
     0
  1
AcDbOsnapPointRef
 72
     3
331
3A05
 73
     2
 91
        0
 40
0.0
 10
0.0
 20
0.0
 30
0.0
 75
     0
  0
DIMASSOC
  5
3A7F
102
{ACAD_REACTORS
330
3A79
102
}
330
3A79
100
AcDbDimAssoc
330
3A70
 90
        2
 70
     0
 71
     0
  1
AcDbOsnapPointRef
 72
     3
331
3A11
 73
     2
 91
        0
 40
0.0
 10
0.0
 20
0.0
 30
0.0
 75
     0
  0
DIMASSOC
  5
3A94
102
{ACAD_REACTORS
330
3A8E
102
}
330
3A8E
100
AcDbDimAssoc
330
3A85
 90
        2
 70
     0
 71
     0
  1
AcDbOsnapPointRef
 72
     3
331
3A07
 73
     2
 91
        0
 40
0.0
 10
0.0
 20
0.0
 30
0.0
 75
     0
  0
DIMASSOC
  5
3C0D
102
{ACAD_REACTORS
330
3C06
102
}
330
3C06
100
AcDbDimAssoc
330
3BFC
 90
        2
 70
     0
 71
     0
  1
AcDbOsnapPointRef
 72
     3
331
39ED
 73
     2
 91
        0
 40
0.0
 10
0.0
 20
0.0
 30
0.0
 75
     0
  0
DIMASSOC
  5
3C93
102
{ACAD_REACTORS
330
3C89
102
}
330
3C89
100
AcDbDimAssoc
330
3C7C
 90
        3
 70
     0
 71
     0
  1
AcDbOsnapPointRef
 72
     6
331
37F2
 73
     2
 91
        0
 40
0.0555555555555545
 10
0.0
 20
0.0
 30
0.0
332
37FD
 74
     2
 92
        4
 75
     0
  1
AcDbOsnapPointRef
 72
     6
331
37F2
 73
     2
 91
        0
 40
0.9444444444444446
 10
0.0
 20
0.0
 30
0.0
332
37FD
 74
     2
 92
        8
 75
     0
  0
ACDBDETAILVIEWSTYLE
  5
41AC
102
{ACAD_REACTORS
330
41AB
102
}
330
41AB
100
AcDbModelDocViewStyle
 70
     0
  3
Metric50
290
     1
300
Metric50
 90
        0
100
AcDbDetailViewStyle
 70
     0
 71
     0
 90
        3
 71
     1
340
11
 62
   256
 40
5.0
340
0
 62
   256
 40
5.0
300

 40
0.0
280
     1
 71
     2
340
16
 90
       25
 62
   256
 71
     3
340
11
 62
   256
 40
5.0
 90
        0
 40
15.0
 90
        1
300
%<\AcVar ViewDetailId>% (%<\AcVar ViewScale \f "%sn">%)
 71
     4
340
16
 90
       25
 62
   256
340
16
 90
       25
 62
   256
280
     0
  0
LAYOUT
  5
51
102
{ACAD_REACTORS
330
1A
102
}
330
1A
100
AcDbPlotSettings
  1

  2
None
  4

  6

 40
0.0
 41
0.0
 42
0.0
 43
0.0
 44
0.0
 45
0.0
 46
0.0
 47
0.0
 48
0.0
 49
0.0
140
0.0
141
0.0
142
1.0
143
1.0
 70
   688
 72
     0
 73
     0
 74
     5
  7

 75
    16
147
1.0
 76
     0
 77
     2
 78
   300
148
0.0
149
0.0
100
AcDbLayout
  1
Layout1
 70
     1
 71
     1
 10
0.0
 20
0.0
 11
12.0
 21
9.0
 12
0.0
 22
0.0
 32
0.0
 14
0.0
 24
0.0
 34
0.0
 15
0.0
 25
0.0
 35
0.0
146
0.0
 13
0.0
 23
0.0
 33
0.0
 16
1.0
 26
0.0
 36
0.0
 17
0.0
 27
1.0
 37
0.0
 76
     0
330
50
  0
LAYOUT
  5
56
102
{ACAD_REACTORS
330
1A
102
}
330
1A
100
AcDbPlotSettings
  1

  2
None
  4

  6

 40
0.0
 41
0.0
 42
0.0
 43
0.0
 44
0.0
 45
0.0
 46
0.0
 47
0.0
 48
0.0
 49
0.0
140
0.0
141
0.0
142
1.0
143
1.0
 70
   688
 72
     0
 73
     0
 74
     5
  7

 75
    16
147
1.0
 76
     0
 77
     2
 78
   300
148
0.0
149
0.0
100
AcDbLayout
  1
Layout2
 70
     1
 71
     2
 10
0.0
 20
0.0
 11
12.0
 21
9.0
 12
0.0
 22
0.0
 32
0.0
 14
0.0
 24
0.0
 34
0.0
 15
0.0
 25
0.0
 35
0.0
146
0.0
 13
0.0
 23
0.0
 33
0.0
 16
1.0
 26
0.0
 36
0.0
 17
0.0
 27
1.0
 37
0.0
 76
     0
330
55
  0
LAYOUT
  5
22
102
{ACAD_REACTORS
330
1A
102
}
330
1A
100
AcDbPlotSettings
  1

  2
none_device
  4
ANSI_A_(8.50_x_11.00_Inches)
  6

 40
6.349999904632568
 41
19.04999923706055
 42
6.350006103515625
 43
19.04998779296875
 44
215.8999938964844
 45
279.3999938964844
 46
0.0
 47
0.0
 48
0.0
 49
0.0
140
0.0
141
0.0
142
1.0
143
78.436453180766
 70
 11952
 72
     0
 73
     1
 74
     0
  7

 75
     0
147
0.0127491741332998
 76
     0
 77
     2
 78
   300
148
0.0
149
0.0
100
AcDbLayout
  1
Model
 70
     1
 71
     0
 10
0.0
 20
0.0
 11
12.0
 21
9.0
 12
0.0
 22
0.0
 32
0.0
 14
0.0
 24
0.0
 34
0.0
 15
0.0
 25
0.0
 35
0.0
146
0.0
 13
0.0
 23
0.0
 33
0.0
 16
1.0
 26
0.0
 36
0.0
 17
0.0
 27
1.0
 37
0.0
 76
     0
330
1F
331
40E7
  0
MATERIAL
  5
40EA
102
{ACAD_REACTORS
330
6A
102
}
330
6A
100
AcDbMaterial
  1
ByBlock
 73
     1
 78
     1
172
     1
176
     1
270
     1
274
     1
 94
       63
  0
MATERIAL
  5
40E9
102
{ACAD_REACTORS
330
6A
102
}
330
6A
100
AcDbMaterial
  1
ByLayer
 73
     1
 78
     1
172
     1
176
     1
270
     1
274
     1
 94
       63
  0
MATERIAL
  5
40EB
102
{ACAD_REACTORS
330
6A
102
}
330
6A
100
AcDbMaterial
  1
Global
 73
     1
 78
     1
172
     1
176
     1
270
     1
274
     1
 94
       63
  0
MLEADERSTYLE
  5
41A8
102
{ACAD_REACTORS
330
41A7
102
}
330
41A7
100
AcDbMLeaderStyle
179
     2
170
     2
171
     1
172
     0
 90
        2
 40
0.0
 41
0.0
173
     1
 91
-1056964608
340
14
 92
       -2
290
     1
 42
2.0
291
     1
 43
0.36
  3
Standard
 44
4.0
300

342
11
174
     1
178
     6
175
     1
176
     0
 93
-1056964608
 45
4.0
292
     0
297
     0
 46
4.0
 94
-1056964608
 47
1.0
 49
1.0
140
1.0
293
     1
141
0.0
294
     1
177
     0
142
1.0
295
     1
296
     0
143
0.125
271
     0
272
     9
273
     9
298
     1
  0
MLINESTYLE
  5
18
102
{ACAD_REACTORS
330
17
102
}
330
17
100
AcDbMlineStyle
  2
STANDARD
 70
     0
  3

 62
   256
 51
90.0
 52
90.0
 71
     2
 49
0.5
 62
   256
  6
BYLAYER
 49
-0.5
 62
   256
  6
BYLAYER
  0
ACDBPLACEHOLDER
  5
F
102
{ACAD_REACTORS
330
E
102
}
330
E
  0
SCALE
  5
4196
102
{ACAD_REACTORS
330
4195
102
}
330
4195
100
AcDbScale
 70
     0
300
1:1
140
1.0
141
1.0
290
     1
  0
SCALE
  5
4197
102
{ACAD_REACTORS
330
4195
102
}
330
4195
100
AcDbScale
 70
     0
300
1:2
140
1.0
141
2.0
290
     0
  0
SCALE
  5
4198
102
{ACAD_REACTORS
330
4195
102
}
330
4195
100
AcDbScale
 70
     0
300
1:4
140
1.0
141
4.0
290
     0
  0
SCALE
  5
4199
102
{ACAD_REACTORS
330
4195
102
}
330
4195
100
AcDbScale
 70
     0
300
1:5
140
1.0
141
5.0
290
     0
  0
SCALE
  5
419A
102
{ACAD_REACTORS
330
4195
102
}
330
4195
100
AcDbScale
 70
     0
300
1:8
140
1.0
141
8.0
290
     0
  0
SCALE
  5
419B
102
{ACAD_REACTORS
330
4195
102
}
330
4195
100
AcDbScale
 70
     0
300
1:10
140
1.0
141
10.0
290
     0
  0
SCALE
  5
419C
102
{ACAD_REACTORS
330
4195
102
}
330
4195
100
AcDbScale
 70
     0
300
1:16
140
1.0
141
16.0
290
     0
  0
SCALE
  5
419D
102
{ACAD_REACTORS
330
4195
102
}
330
4195
100
AcDbScale
 70
     0
300
1:20
140
1.0
141
20.0
290
     0
  0
SCALE
  5
419E
102
{ACAD_REACTORS
330
4195
102
}
330
4195
100
AcDbScale
 70
     0
300
1:30
140
1.0
141
30.0
290
     0
  0
SCALE
  5
419F
102
{ACAD_REACTORS
330
4195
102
}
330
4195
100
AcDbScale
 70
     0
300
1:40
140
1.0
141
40.0
290
     0
  0
SCALE
  5
41A0
102
{ACAD_REACTORS
330
4195
102
}
330
4195
100
AcDbScale
 70
     0
300
1:50
140
1.0
141
50.0
290
     0
  0
SCALE
  5
41A1
102
{ACAD_REACTORS
330
4195
102
}
330
4195
100
AcDbScale
 70
     0
300
1:100
140
1.0
141
100.0
290
     0
  0
SCALE
  5
41A2
102
{ACAD_REACTORS
330
4195
102
}
330
4195
100
AcDbScale
 70
     0
300
2:1
140
2.0
141
1.0
290
     0
  0
SCALE
  5
41A3
102
{ACAD_REACTORS
330
4195
102
}
330
4195
100
AcDbScale
 70
     0
300
4:1
140
4.0
141
1.0
290
     0
  0
SCALE
  5
41A4
102
{ACAD_REACTORS
330
4195
102
}
330
4195
100
AcDbScale
 70
     0
300
8:1
140
8.0
141
1.0
290
     0
  0
SCALE
  5
41A5
102
{ACAD_REACTORS
330
4195
102
}
330
4195
100
AcDbScale
 70
     0
300
10:1
140
10.0
141
1.0
290
     0
  0
SCALE
  5
41A6
102
{ACAD_REACTORS
330
4195
102
}
330
4195
100
AcDbScale
 70
     0
300
100:1
140
100.0
141
1.0
290
     0
  0
ACDBSECTIONVIEWSTYLE
  5
41AA
102
{ACAD_REACTORS
330
41A9
102
}
330
41A9
100
AcDbModelDocViewStyle
 70
     0
  3
Metric50
290
     1
300
Metric50
 90
        0
100
AcDbSectionViewStyle
 70
     0
 71
     0
 90
      102
 71
     1
340
11
 62
   256
 40
5.0
340
0
340
0
 62
   256
 40
5.0
300
I, O, Q, S, X, Z
 40
10.0
 90
        0
 40
2.5
 90
        0
 71
     2
340
16
 90
       25
 62
   256
340
16
 90
       50
 62
   256
 40
5.0
 40
2.5
 40
5.0
 71
     3
340
11
 62
   256
 40
5.0
 90
        0
 40
15.0
 90
        1
300
%<\AcVar ViewSectionStartId>%-%<\AcVar ViewSectionEndId>% (%<\AcVar ViewScale \f "%sn">%)
 71
     4
 62
   256
 62
   257
300
ANSI31
 40
1.0
 90
        0
290
     0
290
     0
 90
        6
 40
0.0
 40
1.570796326794896
 40
0.2617993877991494
 40
1.308996938995747
 40
-0.2617993877991494
 40
1.832595714594046
  0
TABLESTYLE
  5
40FE
102
{ACAD_XDICTIONARY
360
41D4
102
}
102
{ACAD_REACTORS
330
40FD
102
}
330
40FD
100
AcDbTableStyle
280
     0
  3
Standard
 70
     0
 71
     0
 40
1.5
 41
1.5
280
     0
281
     0
  7
Standard
140
4.5
170
     2
 62
     0
 63
     7
283
     0
 90
      512
 91
        0
  1

274
    -2
284
     1
 64
     0
275
    -2
285
     1
 65
     0
276
    -2
286
     1
 66
     0
277
    -2
287
     1
 67
     0
278
    -2
288
     1
 68
     0
279
    -2
289
     1
 69
     0
  7
Standard
140
6.0
170
     5
 62
     0
 63
     7
283
     0
 90
      512
 91
        0
  1

274
    -2
284
     1
 64
     0
275
    -2
285
     1
 65
     0
276
    -2
286
     1
 66
     0
277
    -2
287
     1
 67
     0
278
    -2
288
     1
 68
     0
279
    -2
289
     1
 69
     0
  7
Standard
140
4.5
170
     5
 62
     0
 63
     7
283
     0
 90
      512
 91
        0
  1

274
    -2
284
     1
 64
     0
275
    -2
285
     1
 65
     0
276
    -2
286
     1
 66
     0
277
    -2
287
     1
 67
     0
278
    -2
288
     1
 68
     0
279
    -2
289
     1
 69
     0
  0
VISUALSTYLE
  5
40F2
102
{ACAD_REACTORS
330
40EC
102
}
330
40EC
100
AcDbVisualStyle
  2
2dWireframe
 70
     4
177
     3
291
     0
 70
    58
 90
        0
176
     1
 90
        2
176
     1
 90
        0
176
     1
 90
        0
176
     1
 40
0.6
176
     1
 40
30.0
176
     1
 62
     7
420
 16777215
176
     1
 90
        1
176
     1
 90
        4
176
     1
 62
     7
176
     1
 62
   257
176
     1
 90
        1
176
     1
 90
        1
176
     1
 40
1.0
176
     1
 90
        0
176
     1
 62
   257
176
     1
 40
1.0
176
     1
 90
        1
176
     1
 90
        6
176
     1
 90
        2
176
     1
 62
     7
176
     1
 90
        5
176
     1
 90
        0
176
     1
 90
        0
176
     1
290
     0
176
     1
 90
        1
176
     1
 40
0.0
176
     1
 90
        0
176
     1
290
     1
176
     1
290
     1
176
     1
290
     0
176
     1
290
     0
176
     1
290
     0
176
     1
290
     0
176
     1
290
     0
176
     1
290
     0
176
     1
290
     0
176
     1
 90
       50
176
     1
 40
0.0
176
     1
 40
1.0
176
     1
 90
        0
176
     1
 62
    18
420
        0
176
     1
 90
       50
176
     1
 90
        3
176
     1
 62
     5
420
      255
176
     1
290
     0
176
     1
 90
       50
176
     1
 90
       50
176
     1
 90
       50
176
     1
290
     0
176
     1
 90
       50
176
     1
 62
   256
176
     0
 40
1.0
176
     0
 90
        2
176
     1
  1
strokes_ogs.tif
176
     1
290
     0
176
     1
 40
1.0
176
     1
 40
1.0
176
     1
  0
VISUALSTYLE
  5
40F4
102
{ACAD_REACTORS
330
40EC
102
}
330
40EC
100
AcDbVisualStyle
  2
3D Hidden
 70
     6
177
     3
291
     0
 70
    58
 90
        1
176
     1
 90
        2
176
     1
 90
        2
176
     1
 90
        0
176
     1
 40
0.6
176
     1
 40
30.0
176
     1
 62
     7
420
 16777215
176
     1
 90
        2
176
     1
 90
        2
176
     1
 62
     7
176
     1
 62
   257
176
     1
 90
        2
176
     1
 90
        1
176
     1
 40
40.0
176
     1
 90
        0
176
     1
 62
   257
176
     1
 40
1.0
176
     1
 90
        1
176
     1
 90
        6
176
     1
 90
        2
176
     1
 62
     7
176
     1
 90
        3
176
     1
 90
        0
176
     1
 90
        0
176
     1
290
     0
176
     1
 90
        1
176
     1
 40
0.0
176
     1
 90
        0
176
     1
290
     0
176
     1
290
     1
176
     1
290
     1
176
     1
290
     0
176
     1
290
     0
176
     1
290
     0
176
     1
290
     0
176
     1
290
     0
176
     1
290
     0
176
     1
 90
       50
176
     1
 40
0.0
176
     1
 40
1.0
176
     1
 90
        0
176
     1
 62
    18
420
        0
176
     1
 90
       50
176
     1
 90
        3
176
     1
 62
     5
420
      255
176
     1
290
     0
176
     1
 90
       50
176
     1
 90
       50
176
     1
 90
       50
176
     1
290
     0
176
     1
 90
       50
176
     1
 62
   256
176
     0
 40
1.0
176
     0
 90
        2
176
     1
  1
strokes_ogs.tif
176
     1
290
     0
176
     1
 40
1.0
176
     1
 40
1.0
176
     1
  0
VISUALSTYLE
  5
40F3
102
{ACAD_REACTORS
330
40EC
102
}
330
40EC
100
AcDbVisualStyle
  2
3dWireframe
 70
     5
177
     3
291
     0
 70
    58
 90
        0
176
     1
 90
        2
176
     1
 90
        0
176
     1
 90
        0
176
     1
 40
0.6
176
     1
 40
30.0
176
     1
 62
     7
420
 16777215
176
     1
 90
        1
176
     1
 90
        4
176
     1
 62
     7
176
     1
 62
   257
176
     1
 90
        1
176
     1
 90
        1
176
     1
 40
1.0
176
     1
 90
        0
176
     1
 62
   257
176
     1
 40
1.0
176
     1
 90
        1
176
     1
 90
        6
176
     1
 90
        2
176
     1
 62
     7
176
     1
 90
        5
176
     1
 90
        0
176
     1
 90
        0
176
     1
290
     0
176
     1
 90
        1
176
     1
 40
0.0
176
     1
 90
        0
176
     1
290
     0
176
     1
290
     1
176
     1
290
     1
176
     1
290
     0
176
     1
290
     0
176
     1
290
     0
176
     1
290
     0
176
     1
290
     0
176
     1
290
     0
176
     1
 90
       50
176
     1
 40
0.0
176
     1
 40
1.0
176
     1
 90
        0
176
     1
 62
    18
420
        0
176
     1
 90
       50
176
     1
 90
        3
176
     1
 62
     5
420
      255
176
     1
290
     0
176
     1
 90
       50
176
     1
 90
       50
176
     1
 90
       50
176
     1
290
     0
176
     1
 90
       50
176
     1
 62
   256
176
     0
 40
1.0
176
     0
 90
        2
176
     1
  1
strokes_ogs.tif
176
     1
290
     0
176
     1
 40
1.0
176
     1
 40
1.0
176
     1
  0
VISUALSTYLE
  5
40F1
102
{ACAD_REACTORS
330
40EC
102
}
330
40EC
100
AcDbVisualStyle
  2
Basic
 70
     7
177
     3
291
     1
 70
    58
 90
        1
176
     1
 90
        0
176
     1
 90
        1
176
     1
 90
        0
176
     1
 40
0.6
176
     1
 40
30.0
176
     1
 62
     7
420
 16777215
176
     1
 90
        0
176
     1
 90
        4
176
     1
 62
     7
176
     1
 62
   257
176
     1
 90
        1
176
     1
 90
        1
176
     1
 40
1.0
176
     1
 90
        8
176
     1
 62
     7
176
     1
 40
1.0
176
     1
 90
        1
176
     1
 90
        6
176
     1
 90
        2
176
     1
 62
     7
176
     1
 90
        5
176
     1
 90
        0
176
     1
 90
        0
176
     1
290
     0
176
     1
 90
        1
176
     1
 40
0.0
176
     1
 90
        0
176
     1
290
     0
176
     1
290
     1
176
     1
290
     1
176
     1
290
     0
176
     1
290
     0
176
     1
290
     0
176
     1
290
     0
176
     1
290
     0
176
     1
290
     0
176
     1
 90
       50
176
     1
 40
0.0
176
     1
 40
1.0
176
     1
 90
        0
176
     1
 62
    18
420
        0
176
     1
 90
       50
176
     1
 90
        3
176
     1
 62
     5
420
      255
176
     1
290
     0
176
     1
 90
       50
176
     1
 90
       50
176
     1
 90
       50
176
     1
290
     0
176
     1
 90
       50
176
     1
 62
   256
176
     0
 40
1.0
176
     0
 90
        2
176
     1
  1
strokes_ogs.tif
176
     1
290
     0
176
     1
 40
1.0
176
     1
 40
1.0
176
     1
  0
VISUALSTYLE
  5
40F8
102
{ACAD_REACTORS
330
40EC
102
}
330
40EC
100
AcDbVisualStyle
  2
Brighten
 70
    12
177
     3
291
     1
 70
    58
 90
        2
176
     1
 90
        2
176
     1
 90
        0
176
     1
 90
        0
176
     1
 40
0.6
176
     1
 40
30.0
176
     1
 62
     7
420
 16777215
176
     1
 90
        1
176
     1
 90
        4
176
     1
 62
     7
176
     1
 62
   257
176
     1
 90
        1
176
     1
 90
        1
176
     1
 40
1.0
176
     1
 90
        8
176
     1
 62
     7
176
     1
 40
1.0
176
     1
 90
        1
176
     1
 90
        6
176
     1
 90
        2
176
     1
 62
     7
176
     1
 90
        5
176
     1
 90
        0
176
     1
 90
        0
176
     1
290
     0
176
     1
 90
        1
176
     1
 40
50.0
176
     1
 90
        0
176
     1
290
     0
176
     1
290
     1
176
     1
290
     1
176
     1
290
     0
176
     1
290
     0
176
     1
290
     0
176
     1
290
     0
176
     1
290
     0
176
     1
290
     0
176
     1
 90
       50
176
     1
 40
0.0
176
     1
 40
1.0
176
     1
 90
        0
176
     1
 62
    18
420
        0
176
     1
 90
       50
176
     1
 90
        3
176
     1
 62
     5
420
      255
176
     1
290
     0
176
     1
 90
       50
176
     1
 90
       50
176
     1
 90
       50
176
     1
290
     0
176
     1
 90
       50
176
     1
 62
   256
176
     0
 40
1.0
176
     0
 90
        2
176
     1
  1
strokes_ogs.tif
176
     1
290
     0
176
     1
 40
1.0
176
     1
 40
1.0
176
     1
  0
VISUALSTYLE
  5
40FC
102
{ACAD_REACTORS
330
40EC
102
}
330
40EC
100
AcDbVisualStyle
  2
ColorChange
 70
    16
177
     3
291
     1
 70
    58
 90
        2
176
     1
 90
        2
176
     1
 90
        3
176
     1
 90
        0
176
     1
 40
0.6
176
     1
 40
30.0
176
     1
 62
     8
420
  8421504
176
     1
 90
        1
176
     1
 90
        4
176
     1
 62
     7
176
     1
 62
   257
176
     1
 90
        1
176
     1
 90
        1
176
     1
 40
1.0
176
     1
 90
        8
176
     1
 62
     8
420
  8421504
176
     1
 40
1.0
176
     1
 90
        1
176
     1
 90
        6
176
     1
 90
        2
176
     1
 62
     7
176
     1
 90
        5
176
     1
 90
        0
176
     1
 90
        0
176
     1
290
     0
176
     1
 90
        1
176
     1
 40
0.0
176
     1
 90
        0
176
     1
290
     0
176
     1
290
     1
176
     1
290
     1
176
     1
290
     0
176
     1
290
     0
176
     1
290
     0
176
     1
290
     0
176
     1
290
     0
176
     1
290
     0
176
     1
 90
       50
176
     1
 40
0.0
176
     1
 40
1.0
176
     1
 90
        0
176
     1
 62
    18
420
        0
176
     1
 90
       50
176
     1
 90
        3
176
     1
 62
     5
420
      255
176
     1
290
     0
176
     1
 90
       50
176
     1
 90
       50
176
     1
 90
       50
176
     1
290
     0
176
     1
 90
       50
176
     1
 62
   256
176
     0
 40
1.0
176
     0
 90
        2
176
     1
  1
strokes_ogs.tif
176
     1
290
     0
176
     1
 40
1.0
176
     1
 40
1.0
176
     1
  0
VISUALSTYLE
  5
40F5
102
{ACAD_REACTORS
330
40EC
102
}
330
40EC
100
AcDbVisualStyle
  2
Conceptual
 70
     9
177
     3
291
     0
 70
    58
 90
        3
176
     1
 90
        2
176
     1
 90
        0
176
     1
 90
        0
176
     1
 40
0.6
176
     1
 40
30.0
176
     1
 62
     7
420
 16777215
176
     1
 90
        2
176
     1
 90
        2
176
     1
 62
     7
176
     1
 62
   257
176
     1
 90
        1
176
     1
 90
        1
176
     1
 40
40.0
176
     1
 90
        8
176
     1
 62
     7
176
     1
 40
1.0
176
     1
 90
        1
176
     1
 90
        6
176
     1
 90
        2
176
     1
 62
     7
176
     1
 90
        3
176
     1
 90
        0
176
     1
 90
        0
176
     1
290
     0
176
     1
 90
        1
176
     1
 40
0.0
176
     1
 90
        0
176
     1
290
     0
176
     1
290
     1
176
     1
290
     1
176
     1
290
     0
176
     1
290
     0
176
     1
290
     0
176
     1
290
     0
176
     1
290
     0
176
     1
290
     0
176
     1
 90
       50
176
     1
 40
0.0
176
     1
 40
1.0
176
     1
 90
        0
176
     1
 62
    18
420
        0
176
     1
 90
       50
176
     1
 90
        3
176
     1
 62
     5
420
      255
176
     1
290
     0
176
     1
 90
       50
176
     1
 90
       50
176
     1
 90
       50
176
     1
290
     0
176
     1
 90
       50
176
     1
 62
   256
176
     0
 40
1.0
176
     0
 90
        2
176
     1
  1
strokes_ogs.tif
176
     1
290
     0
176
     1
 40
1.0
176
     1
 40
1.0
176
     1
  0
VISUALSTYLE
  5
40F7
102
{ACAD_REACTORS
330
40EC
102
}
330
40EC
100
AcDbVisualStyle
  2
Dim
 70
    11
177
     3
291
     1
 70
    58
 90
        2
176
     1
 90
        2
176
     1
 90
        0
176
     1
 90
        0
176
     1
 40
0.6
176
     1
 40
30.0
176
     1
 62
     7
420
 16777215
176
     1
 90
        1
176
     1
 90
        4
176
     1
 62
     7
176
     1
 62
   257
176
     1
 90
        1
176
     1
 90
        1
176
     1
 40
1.0
176
     1
 90
        8
176
     1
 62
     7
176
     1
 40
1.0
176
     1
 90
        1
176
     1
 90
        6
176
     1
 90
        2
176
     1
 62
     7
176
     1
 90
        5
176
     1
 90
        0
176
     1
 90
        0
176
     1
290
     0
176
     1
 90
        1
176
     1
 40
-50.0
176
     1
 90
        0
176
     1
290
     0
176
     1
290
     1
176
     1
290
     1
176
     1
290
     0
176
     1
290
     0
176
     1
290
     0
176
     1
290
     0
176
     1
290
     0
176
     1
290
     0
176
     1
 90
       50
176
     1
 40
0.0
176
     1
 40
1.0
176
     1
 90
        0
176
     1
 62
    18
420
        0
176
     1
 90
       50
176
     1
 90
        3
176
     1
 62
     5
420
      255
176
     1
290
     0
176
     1
 90
       50
176
     1
 90
       50
176
     1
 90
       50
176
     1
290
     0
176
     1
 90
       50
176
     1
 62
   256
176
     0
 40
1.0
176
     0
 90
        2
176
     1
  1
strokes_ogs.tif
176
     1
290
     0
176
     1
 40
1.0
176
     1
 40
1.0
176
     1
  0
VISUALSTYLE
  5
4194
102
{ACAD_REACTORS
330
40EC
102
}
330
40EC
100
AcDbVisualStyle
  2
EdgeColorOff
 70
    22
177
     3
291
     1
 70
    58
 90
        2
176
     0
 90
        2
176
     0
 90
        0
176
     0
 90
        0
176
     0
 40
0.6
176
     0
 40
30.0
176
     0
 62
     7
420
 16777215
176
     0
 90
        1
176
     0
 90
        4
176
     0
 62
     7
176
     0
 62
   257
176
     0
 90
        1
176
     0
 90
        1
176
     0
 40
1.0
176
     0
 90
        8
176
     2
 62
     7
176
     0
 40
1.0
176
     0
 90
        1
176
     0
 90
        6
176
     0
 90
        2
176
     0
 62
     7
176
     0
 90
        5
176
     0
 90
        0
176
     0
 90
        0
176
     0
290
     0
176
     0
 90
        1
176
     0
 40
0.0
176
     0
 90
        0
176
     0
290
     0
176
     0
290
     1
176
     0
290
     1
176
     0
290
     0
176
     0
290
     0
176
     0
290
     0
176
     0
290
     0
176
     0
290
     0
176
     0
290
     0
176
     0
 90
       50
176
     0
 40
0.0
176
     0
 40
1.0
176
     0
 90
        0
176
     0
 62
    18
420
        0
176
     0
 90
       50
176
     0
 90
        3
176
     0
 62
     5
420
      255
176
     0
290
     0
176
     0
 90
       50
176
     0
 90
       50
176
     0
 90
       50
176
     0
290
     0
176
     0
 90
       50
176
     0
 62
   256
176
     0
 40
1.0
176
     0
 90
        2
176
     0
  1
strokes_ogs.tif
176
     0
290
     0
176
     0
 40
1.0
176
     0
 40
1.0
176
     0
  0
VISUALSTYLE
  5
40FB
102
{ACAD_REACTORS
330
40EC
102
}
330
40EC
100
AcDbVisualStyle
  2
Facepattern
 70
    15
177
     3
291
     1
 70
    58
 90
        2
176
     1
 90
        2
176
     1
 90
        0
176
     1
 90
        0
176
     1
 40
0.6
176
     1
 40
30.0
176
     1
 62
     7
420
 16777215
176
     1
 90
        1
176
     1
 90
        4
176
     1
 62
     7
176
     1
 62
   257
176
     1
 90
        1
176
     1
 90
        1
176
     1
 40
1.0
176
     1
 90
        8
176
     1
 62
     7
176
     1
 40
1.0
176
     1
 90
        1
176
     1
 90
        6
176
     1
 90
        2
176
     1
 62
     7
176
     1
 90
        5
176
     1
 90
        0
176
     1
 90
        0
176
     1
290
     0
176
     1
 90
        1
176
     1
 40
0.0
176
     1
 90
        0
176
     1
290
     0
176
     1
290
     1
176
     1
290
     1
176
     1
290
     0
176
     1
290
     0
176
     1
290
     0
176
     1
290
     0
176
     1
290
     0
176
     1
290
     0
176
     1
 90
       50
176
     1
 40
0.0
176
     1
 40
1.0
176
     1
 90
        0
176
     1
 62
    18
420
        0
176
     1
 90
       50
176
     1
 90
        3
176
     1
 62
     5
420
      255
176
     1
290
     0
176
     1
 90
       50
176
     1
 90
       50
176
     1
 90
       50
176
     1
290
     0
176
     1
 90
       50
176
     1
 62
   256
176
     0
 40
1.0
176
     0
 90
        2
176
     1
  1
strokes_ogs.tif
176
     1
290
     0
176
     1
 40
1.0
176
     1
 40
1.0
176
     1
  0
VISUALSTYLE
  5
40ED
102
{ACAD_REACTORS
330
40EC
102
}
330
40EC
100
AcDbVisualStyle
  2
Flat
 70
     0
177
     3
291
     1
 70
    58
 90
        2
176
     1
 90
        1
176
     1
 90
        1
176
     1
 90
        2
176
     1
 40
0.6
176
     1
 40
30.0
176
     1
 62
     7
420
 16777215
176
     1
 90
        0
176
     1
 90
        4
176
     1
 62
     7
176
     1
 62
   257
176
     1
 90
        1
176
     1
 90
        1
176
     1
 40
1.0
176
     1
 90
        8
176
     1
 62
     7
176
     1
 40
1.0
176
     1
 90
        1
176
     1
 90
        6
176
     1
 90
        2
176
     1
 62
     7
176
     1
 90
        5
176
     1
 90
        0
176
     1
 90
        0
176
     1
290
     0
176
     1
 90
       13
176
     1
 40
0.0
176
     1
 90
        0
176
     1
290
     0
176
     1
290
     1
176
     1
290
     1
176
     1
290
     0
176
     1
290
     0
176
     1
290
     0
176
     1
290
     0
176
     1
290
     0
176
     1
290
     0
176
     1
 90
       50
176
     1
 40
0.0
176
     1
 40
1.0
176
     1
 90
        0
176
     1
 62
    18
420
        0
176
     1
 90
       50
176
     1
 90
        3
176
     1
 62
     5
420
      255
176
     1
290
     0
176
     1
 90
       50
176
     1
 90
       50
176
     1
 90
       50
176
     1
290
     0
176
     1
 90
       50
176
     1
 62
   256
176
     0
 40
1.0
176
     0
 90
        2
176
     1
  1
strokes_ogs.tif
176
     1
290
     0
176
     1
 40
1.0
176
     1
 40
1.0
176
     1
  0
VISUALSTYLE
  5
40EE
102
{ACAD_REACTORS
330
40EC
102
}
330
40EC
100
AcDbVisualStyle
  2
FlatWithEdges
 70
     1
177
     3
291
     1
 70
    58
 90
        2
176
     1
 90
        1
176
     1
 90
        1
176
     1
 90
        2
176
     1
 40
0.6
176
     1
 40
30.0
176
     1
 62
     7
420
 16777215
176
     1
 90
        1
176
     1
 90
        4
176
     1
 62
     7
176
     1
 62
   257
176
     1
 90
        1
176
     1
 90
        1
176
     1
 40
1.0
176
     1
 90
        0
176
     1
 62
   257
176
     1
 40
1.0
176
     1
 90
        1
176
     1
 90
        6
176
     1
 90
        2
176
     1
 62
     7
176
     1
 90
        5
176
     1
 90
        0
176
     1
 90
        0
176
     1
290
     0
176
     1
 90
       13
176
     1
 40
0.0
176
     1
 90
        0
176
     1
290
     0
176
     1
290
     1
176
     1
290
     1
176
     1
290
     0
176
     1
290
     0
176
     1
290
     0
176
     1
290
     0
176
     1
290
     0
176
     1
290
     0
176
     1
 90
       50
176
     1
 40
0.0
176
     1
 40
1.0
176
     1
 90
        0
176
     1
 62
    18
420
        0
176
     1
 90
       50
176
     1
 90
        3
176
     1
 62
     5
420
      255
176
     1
290
     0
176
     1
 90
       50
176
     1
 90
       50
176
     1
 90
       50
176
     1
290
     0
176
     1
 90
       50
176
     1
 62
   256
176
     0
 40
1.0
176
     0
 90
        2
176
     1
  1
strokes_ogs.tif
176
     1
290
     0
176
     1
 40
1.0
176
     1
 40
1.0
176
     1
  0
VISUALSTYLE
  5
40EF
102
{ACAD_REACTORS
330
40EC
102
}
330
40EC
100
AcDbVisualStyle
  2
Gouraud
 70
     2
177
     3
291
     1
 70
    58
 90
        2
176
     1
 90
        2
176
     1
 90
        1
176
     1
 90
        2
176
     1
 40
0.6
176
     1
 40
30.0
176
     1
 62
     7
420
 16777215
176
     1
 90
        0
176
     1
 90
        4
176
     1
 62
     7
176
     1
 62
   257
176
     1
 90
        1
176
     1
 90
        1
176
     1
 40
1.0
176
     1
 90
        0
176
     1
 62
     7
176
     1
 40
1.0
176
     1
 90
        1
176
     1
 90
        6
176
     1
 90
        2
176
     1
 62
     7
176
     1
 90
        5
176
     1
 90
        0
176
     1
 90
        0
176
     1
290
     0
176
     1
 90
       13
176
     1
 40
0.0
176
     1
 90
        0
176
     1
290
     0
176
     1
290
     1
176
     1
290
     1
176
     1
290
     0
176
     1
290
     0
176
     1
290
     0
176
     1
290
     0
176
     1
290
     0
176
     1
290
     0
176
     1
 90
       50
176
     1
 40
0.0
176
     1
 40
1.0
176
     1
 90
        0
176
     1
 62
    18
420
        0
176
     1
 90
       50
176
     1
 90
        3
176
     1
 62
     5
420
      255
176
     1
290
     0
176
     1
 90
       50
176
     1
 90
       50
176
     1
 90
       50
176
     1
290
     0
176
     1
 90
       50
176
     1
 62
   256
176
     0
 40
1.0
176
     0
 90
        2
176
     1
  1
strokes_ogs.tif
176
     1
290
     0
176
     1
 40
1.0
176
     1
 40
1.0
176
     1
  0
VISUALSTYLE
  5
40F0
102
{ACAD_REACTORS
330
40EC
102
}
330
40EC
100
AcDbVisualStyle
  2
GouraudWithEdges
 70
     3
177
     3
291
     1
 70
    58
 90
        2
176
     1
 90
        2
176
     1
 90
        1
176
     1
 90
        2
176
     1
 40
0.6
176
     1
 40
30.0
176
     1
 62
     7
420
 16777215
176
     1
 90
        1
176
     1
 90
        4
176
     1
 62
     7
176
     1
 62
   257
176
     1
 90
        1
176
     1
 90
        1
176
     1
 40
1.0
176
     1
 90
        0
176
     1
 62
   257
176
     1
 40
1.0
176
     1
 90
        1
176
     1
 90
        6
176
     1
 90
        2
176
     1
 62
     7
176
     1
 90
        5
176
     1
 90
        0
176
     1
 90
        0
176
     1
290
     0
176
     1
 90
       13
176
     1
 40
0.0
176
     1
 90
        0
176
     1
290
     0
176
     1
290
     1
176
     1
290
     1
176
     1
290
     0
176
     1
290
     0
176
     1
290
     0
176
     1
290
     0
176
     1
290
     0
176
     1
290
     0
176
     1
 90
       50
176
     1
 40
0.0
176
     1
 40
1.0
176
     1
 90
        0
176
     1
 62
    18
420
        0
176
     1
 90
       50
176
     1
 90
        3
176
     1
 62
     5
420
      255
176
     1
290
     0
176
     1
 90
       50
176
     1
 90
       50
176
     1
 90
       50
176
     1
290
     0
176
     1
 90
       50
176
     1
 62
   256
176
     0
 40
1.0
176
     0
 90
        2
176
     1
  1
strokes_ogs.tif
176
     1
290
     0
176
     1
 40
1.0
176
     1
 40
1.0
176
     1
  0
VISUALSTYLE
  5
418C
102
{ACAD_REACTORS
330
40EC
102
}
330
40EC
100
AcDbVisualStyle
  2
Hidden
 70
     6
177
     3
291
     0
 70
    58
 90
        1
176
     1
 90
        2
176
     1
 90
        2
176
     1
 90
        0
176
     1
 40
0.6
176
     1
 40
30.0
176
     1
 62
     7
420
 16777215
176
     1
 90
        2
176
     1
 90
        2
176
     1
 62
     7
176
     1
 62
   257
176
     1
 90
        2
176
     1
 90
        1
176
     1
 40
40.0
176
     1
 90
        0
176
     1
 62
   257
176
     1
 40
1.0
176
     1
 90
        1
176
     1
 90
        6
176
     1
 90
        2
176
     1
 62
     7
176
     1
 90
        3
176
     1
 90
        0
176
     1
 90
        0
176
     1
290
     0
176
     1
 90
        1
176
     1
 40
0.0
176
     1
 90
        0
176
     1
290
     0
176
     1
290
     1
176
     1
290
     1
176
     1
290
     0
176
     1
290
     0
176
     1
290
     0
176
     1
290
     0
176
     1
290
     0
176
     1
290
     0
176
     1
 90
       50
176
     1
 40
0.0
176
     1
 40
1.0
176
     1
 90
        0
176
     1
 62
    18
420
        0
176
     1
 90
       50
176
     1
 90
        3
176
     1
 62
     5
420
      255
176
     1
290
     0
176
     1
 90
       50
176
     1
 90
       50
176
     1
 90
       50
176
     1
290
     0
176
     1
 90
       50
176
     1
 62
   256
176
     0
 40
1.0
176
     0
 90
        2
176
     1
  1
strokes_ogs.tif
176
     1
290
     0
176
     1
 40
1.0
176
     1
 40
1.0
176
     1
  0
VISUALSTYLE
  5
4192
102
{ACAD_REACTORS
330
40EC
102
}
330
40EC
100
AcDbVisualStyle
  2
JitterOff
 70
    20
177
     3
291
     1
 70
    58
 90
        2
176
     0
 90
        2
176
     0
 90
        0
176
     0
 90
        0
176
     0
 40
0.6
176
     0
 40
30.0
176
     0
 62
     7
420
 16777215
176
     0
 90
        1
176
     0
 90
        4
176
     0
 62
     7
176
     0
 62
   257
176
     0
 90
        1
176
     0
 90
        1
176
     0
 40
1.0
176
     0
 90
       10
176
     2
 62
     7
176
     0
 40
1.0
176
     0
 90
        1
176
     0
 90
        6
176
     0
 90
        2
176
     0
 62
     7
176
     0
 90
        5
176
     0
 90
        0
176
     0
 90
        0
176
     0
290
     0
176
     0
 90
        1
176
     0
 40
0.0
176
     0
 90
        0
176
     0
290
     0
176
     0
290
     1
176
     0
290
     1
176
     0
290
     0
176
     0
290
     0
176
     0
290
     0
176
     0
290
     0
176
     0
290
     0
176
     0
290
     0
176
     0
 90
       50
176
     0
 40
0.0
176
     0
 40
1.0
176
     0
 90
        0
176
     0
 62
    18
420
        0
176
     0
 90
       50
176
     0
 90
        3
176
     0
 62
     5
420
      255
176
     0
290
     0
176
     0
 90
       50
176
     0
 90
       50
176
     0
 90
       50
176
     0
290
     0
176
     0
 90
       50
176
     0
 62
   256
176
     0
 40
1.0
176
     0
 90
        2
176
     0
  1
strokes_ogs.tif
176
     0
290
     0
176
     0
 40
1.0
176
     0
 40
1.0
176
     0
  0
VISUALSTYLE
  5
40FA
102
{ACAD_REACTORS
330
40EC
102
}
330
40EC
100
AcDbVisualStyle
  2
Linepattern
 70
    14
177
     3
291
     1
 70
    58
 90
        2
176
     1
 90
        2
176
     1
 90
        0
176
     1
 90
        0
176
     1
 40
0.6
176
     1
 40
30.0
176
     1
 62
     7
420
 16777215
176
     1
 90
        1
176
     1
 90
        4
176
     1
 62
     7
176
     1
 62
   257
176
     1
 90
        7
176
     1
 90
        7
176
     1
 40
1.0
176
     1
 90
        8
176
     1
 62
     7
176
     1
 40
1.0
176
     1
 90
        1
176
     1
 90
        6
176
     1
 90
        2
176
     1
 62
     7
176
     1
 90
        5
176
     1
 90
        0
176
     1
 90
        0
176
     1
290
     0
176
     1
 90
        1
176
     1
 40
0.0
176
     1
 90
        0
176
     1
290
     0
176
     1
290
     1
176
     1
290
     1
176
     1
290
     0
176
     1
290
     0
176
     1
290
     0
176
     1
290
     0
176
     1
290
     0
176
     1
290
     0
176
     1
 90
       50
176
     1
 40
0.0
176
     1
 40
1.0
176
     1
 90
        0
176
     1
 62
    18
420
        0
176
     1
 90
       50
176
     1
 90
        3
176
     1
 62
     5
420
      255
176
     1
290
     0
176
     1
 90
       50
176
     1
 90
       50
176
     1
 90
       50
176
     1
290
     0
176
     1
 90
       50
176
     1
 62
   256
176
     0
 40
1.0
176
     0
 90
        2
176
     1
  1
strokes_ogs.tif
176
     1
290
     0
176
     1
 40
1.0
176
     1
 40
1.0
176
     1
  0
VISUALSTYLE
  5
4193
102
{ACAD_REACTORS
330
40EC
102
}
330
40EC
100
AcDbVisualStyle
  2
OverhangOff
 70
    21
177
     3
291
     1
 70
    58
 90
        2
176
     0
 90
        2
176
     0
 90
        0
176
     0
 90
        0
176
     0
 40
0.6
176
     0
 40
30.0
176
     0
 62
     7
420
 16777215
176
     0
 90
        1
176
     0
 90
        4
176
     0
 62
     7
176
     0
 62
   257
176
     0
 90
        1
176
     0
 90
        1
176
     0
 40
1.0
176
     0
 90
        9
176
     2
 62
     7
176
     0
 40
1.0
176
     0
 90
        1
176
     0
 90
        6
176
     0
 90
        2
176
     0
 62
     7
176
     0
 90
        5
176
     0
 90
        0
176
     0
 90
        0
176
     0
290
     0
176
     0
 90
        1
176
     0
 40
0.0
176
     0
 90
        0
176
     0
290
     0
176
     0
290
     1
176
     0
290
     1
176
     0
290
     0
176
     0
290
     0
176
     0
290
     0
176
     0
290
     0
176
     0
290
     0
176
     0
290
     0
176
     0
 90
       50
176
     0
 40
0.0
176
     0
 40
1.0
176
     0
 90
        0
176
     0
 62
    18
420
        0
176
     0
 90
       50
176
     0
 90
        3
176
     0
 62
     5
420
      255
176
     0
290
     0
176
     0
 90
       50
176
     0
 90
       50
176
     0
 90
       50
176
     0
290
     0
176
     0
 90
       50
176
     0
 62
   256
176
     0
 40
1.0
176
     0
 90
        2
176
     0
  1
strokes_ogs.tif
176
     0
290
     0
176
     0
 40
1.0
176
     0
 40
1.0
176
     0
  0
VISUALSTYLE
  5
40F6
102
{ACAD_REACTORS
330
40EC
102
}
330
40EC
100
AcDbVisualStyle
  2
Realistic
 70
     8
177
     3
291
     0
 70
    58
 90
        2
176
     1
 90
        2
176
     1
 90
        0
176
     1
 90
        0
176
     1
 40
0.6
176
     1
 40
30.0
176
     1
 62
     7
420
 16777215
176
     1
 90
        1
176
     1
 90
        0
176
     1
 62
     7
176
     1
 62
   257
176
     1
 90
        1
176
     1
 90
        1
176
     1
 40
1.0
176
     1
 90
        8
176
     1
 62
     8
420
  7895160
176
     1
 40
1.0
176
     1
 90
        1
176
     1
 90
        6
176
     1
 90
        2
176
     1
 62
     7
176
     1
 90
        5
176
     1
 90
        0
176
     1
 90
        0
176
     1
290
     0
176
     1
 90
       13
176
     1
 40
0.0
176
     1
 90
        0
176
     1
290
     0
176
     1
290
     1
176
     1
290
     1
176
     1
290
     0
176
     1
290
     0
176
     1
290
     0
176
     1
290
     0
176
     1
290
     0
176
     1
290
     0
176
     1
 90
       50
176
     1
 40
0.0
176
     1
 40
1.0
176
     1
 90
        0
176
     1
 62
    18
420
        0
176
     1
 90
       50
176
     1
 90
        3
176
     1
 62
     5
420
      255
176
     1
290
     0
176
     1
 90
       50
176
     1
 90
       50
176
     1
 90
       50
176
     1
290
     0
176
     1
 90
       50
176
     1
 62
   256
176
     0
 40
1.0
176
     0
 90
        2
176
     1
  1
strokes_ogs.tif
176
     1
290
     0
176
     1
 40
1.0
176
     1
 40
1.0
176
     1
  0
VISUALSTYLE
  5
4191
102
{ACAD_REACTORS
330
40EC
102
}
330
40EC
100
AcDbVisualStyle
  2
Shaded
 70
    27
177
     3
291
     0
 70
    58
 90
        2
176
     1
 90
        2
176
     1
 90
        1
176
     1
 90
        2
176
     1
 40
0.6
176
     1
 40
30.0
176
     1
 62
     7
420
 16777215
176
     1
 90
        0
176
     1
 90
        4
176
     1
 62
     7
176
     1
 62
   257
176
     1
 90
        1
176
     1
 90
        1
176
     1
 40
1.0
176
     1
 90
        8
176
     1
 62
   257
176
     1
 40
1.0
176
     1
 90
        1
176
     1
 90
        6
176
     1
 90
        2
176
     1
 62
     8
420
  7895160
176
     1
 90
        3
176
     1
 90
        0
176
     1
 90
        0
176
     1
290
     0
176
     1
 90
        5
176
     1
 40
0.0
176
     1
 90
        0
176
     1
290
     0
176
     1
290
     1
176
     1
290
     1
176
     1
290
     0
176
     1
290
     0
176
     1
290
     0
176
     1
290
     0
176
     1
290
     0
176
     1
290
     0
176
     1
 90
       50
176
     1
 40
0.0
176
     1
 40
1.0
176
     1
 90
        0
176
     1
 62
    18
420
        0
176
     1
 90
       50
176
     1
 90
        3
176
     1
 62
     5
420
      255
176
     1
290
     0
176
     1
 90
       50
176
     1
 90
       50
176
     1
 90
       50
176
     1
290
     0
176
     1
 90
       50
176
     1
 62
   256
176
     0
 40
1.0
176
     0
 90
        2
176
     1
  1
strokes_ogs.tif
176
     1
290
     0
176
     1
 40
1.0
176
     1
 40
1.0
176
     1
  0
VISUALSTYLE
  5
4190
102
{ACAD_REACTORS
330
40EC
102
}
330
40EC
100
AcDbVisualStyle
  2
Shaded with edges
 70
    26
177
     3
291
     0
 70
    58
 90
        2
176
     1
 90
        2
176
     1
 90
        1
176
     1
 90
        2
176
     1
 40
0.6
176
     1
 40
30.0
176
     1
 62
     7
420
 16777215
176
     1
 90
        1
176
     1
 90
        2
176
     1
 62
     7
176
     1
 62
   257
176
     1
 90
        2
176
     1
 90
        1
176
     1
 40
1.0
176
     1
 90
        8
176
     1
 62
   257
176
     1
 40
1.0
176
     1
 90
        1
176
     1
 90
        6
176
     1
 90
        2
176
     1
 62
     7
176
     1
 90
        3
176
     1
 90
        0
176
     1
 90
        0
176
     1
290
     0
176
     1
 90
        5
176
     1
 40
0.0
176
     1
 90
        0
176
     1
290
     0
176
     1
290
     1
176
     1
290
     1
176
     1
290
     0
176
     1
290
     0
176
     1
290
     0
176
     1
290
     0
176
     1
290
     0
176
     1
290
     0
176
     1
 90
       50
176
     1
 40
0.0
176
     1
 40
1.0
176
     1
 90
        0
176
     1
 62
    18
420
        0
176
     1
 90
       50
176
     1
 90
        3
176
     1
 62
     5
420
      255
176
     1
290
     0
176
     1
 90
       50
176
     1
 90
       50
176
     1
 90
       50
176
     1
290
     0
176
     1
 90
       50
176
     1
 62
   256
176
     0
 40
1.0
176
     0
 90
        2
176
     1
  1
strokes_ogs.tif
176
     1
290
     0
176
     1
 40
1.0
176
     1
 40
1.0
176
     1
  0
VISUALSTYLE
  5
418D
102
{ACAD_REACTORS
330
40EC
102
}
330
40EC
100
AcDbVisualStyle
  2
Shades of Gray
 70
    23
177
     3
291
     0
 70
    58
 90
        2
176
     1
 90
        2
176
     1
 90
        3
176
     1
 90
        0
176
     1
 40
0.6
176
     1
 40
30.0
176
     1
 62
     7
420
 16777215
176
     1
 90
        2
176
     1
 90
        2
176
     1
 62
     7
176
     1
 62
     7
176
     1
 90
        1
176
     1
 90
        1
176
     1
 40
40.0
176
     1
 90
        8
176
     1
 62
     7
176
     1
 40
1.0
176
     1
 90
        1
176
     1
 90
        6
176
     1
 90
        2
176
     1
 62
     7
176
     1
 90
        3
176
     1
 90
        0
176
     1
 90
        0
176
     1
290
     0
176
     1
 90
        1
176
     1
 40
0.0
176
     1
 90
        0
176
     1
290
     0
176
     1
290
     1
176
     1
290
     1
176
     1
290
     0
176
     1
290
     0
176
     1
290
     0
176
     1
290
     0
176
     1
290
     0
176
     1
290
     0
176
     1
 90
       50
176
     1
 40
0.0
176
     1
 40
1.0
176
     1
 90
        0
176
     1
 62
    18
420
        0
176
     1
 90
       50
176
     1
 90
        3
176
     1
 62
     5
420
      255
176
     1
290
     0
176
     1
 90
       50
176
     1
 90
       50
176
     1
 90
       50
176
     1
290
     0
176
     1
 90
       50
176
     1
 62
   256
176
     0
 40
1.0
176
     0
 90
        2
176
     1
  1
strokes_ogs.tif
176
     1
290
     0
176
     1
 40
1.0
176
     1
 40
1.0
176
     1
  0
VISUALSTYLE
  5
418E
102
{ACAD_REACTORS
330
40EC
102
}
330
40EC
100
AcDbVisualStyle
  2
Sketchy
 70
    24
177
     3
291
     0
 70
    58
 90
        1
176
     1
 90
        2
176
     1
 90
        2
176
     1
 90
        0
176
     1
 40
0.6
176
     1
 40
30.0
176
     1
 62
     7
420
 16777215
176
     1
 90
        2
176
     1
 90
        2
176
     1
 62
     7
176
     1
 62
     7
176
     1
 90
        1
176
     1
 90
        1
176
     1
 40
40.0
176
     1
 90
       11
176
     1
 62
     7
176
     1
 40
1.0
176
     1
 90
        1
176
     1
 90
        6
176
     1
 90
        2
176
     1
 62
     7
176
     1
 90
        6
176
     1
 90
        0
176
     1
 90
        0
176
     1
290
     0
176
     1
 90
        1
176
     1
 40
0.0
176
     1
 90
        0
176
     1
290
     0
176
     1
290
     1
176
     1
290
     1
176
     1
290
     0
176
     1
290
     0
176
     1
290
     0
176
     1
290
     0
176
     1
290
     0
176
     1
290
     0
176
     1
 90
       50
176
     1
 40
0.0
176
     1
 40
1.0
176
     1
 90
        0
176
     1
 62
    18
420
        0
176
     1
 90
       50
176
     1
 90
        3
176
     1
 62
     5
420
      255
176
     1
290
     0
176
     1
 90
       50
176
     1
 90
       50
176
     1
 90
       50
176
     1
290
     0
176
     1
 90
       50
176
     1
 62
   256
176
     0
 40
1.0
176
     0
 90
        2
176
     1
  1
strokes_ogs.tif
176
     1
290
     0
176
     1
 40
1.0
176
     1
 40
1.0
176
     1
  0
VISUALSTYLE
  5
40F9
102
{ACAD_REACTORS
330
40EC
102
}
330
40EC
100
AcDbVisualStyle
  2
Thicken
 70
    13
177
     3
291
     1
 70
    58
 90
        2
176
     1
 90
        2
176
     1
 90
        0
176
     1
 90
        0
176
     1
 40
0.6
176
     1
 40
30.0
176
     1
 62
     7
420
 16777215
176
     1
 90
        1
176
     1
 90
        4
176
     1
 62
     7
176
     1
 62
   257
176
     1
 90
        1
176
     1
 90
        1
176
     1
 40
1.0
176
     1
 90
       12
176
     1
 62
     7
176
     1
 40
1.0
176
     1
 90
        1
176
     1
 90
        6
176
     1
 90
        2
176
     1
 62
     7
176
     1
 90
        5
176
     1
 90
        0
176
     1
 90
        0
176
     1
290
     0
176
     1
 90
        1
176
     1
 40
0.0
176
     1
 90
        0
176
     1
290
     0
176
     1
290
     1
176
     1
290
     1
176
     1
290
     0
176
     1
290
     0
176
     1
290
     0
176
     1
290
     0
176
     1
290
     0
176
     1
290
     0
176
     1
 90
       50
176
     1
 40
0.0
176
     1
 40
1.0
176
     1
 90
        0
176
     1
 62
    18
420
        0
176
     1
 90
       50
176
     1
 90
        3
176
     1
 62
     5
420
      255
176
     1
290
     0
176
     1
 90
       50
176
     1
 90
       50
176
     1
 90
       50
176
     1
290
     0
176
     1
 90
       50
176
     1
 62
   256
176
     0
 40
1.0
176
     0
 90
        2
176
     1
  1
strokes_ogs.tif
176
     1
290
     0
176
     1
 40
1.0
176
     1
 40
1.0
176
     1
  0
VISUALSTYLE
  5
418B
102
{ACAD_REACTORS
330
40EC
102
}
330
40EC
100
AcDbVisualStyle
  2
Wireframe
 70
     5
177
     3
291
     0
 70
    58
 90
        0
176
     1
 90
        2
176
     1
 90
        0
176
     1
 90
        0
176
     1
 40
0.6
176
     1
 40
30.0
176
     1
 62
     7
420
 16777215
176
     1
 90
        1
176
     1
 90
        4
176
     1
 62
     7
176
     1
 62
   257
176
     1
 90
        1
176
     1
 90
        1
176
     1
 40
1.0
176
     1
 90
        0
176
     1
 62
   257
176
     1
 40
1.0
176
     1
 90
        1
176
     1
 90
        6
176
     1
 90
        2
176
     1
 62
     7
176
     1
 90
        3
176
     1
 90
        0
176
     1
 90
        0
176
     1
290
     0
176
     1
 90
        1
176
     1
 40
0.0
176
     1
 90
        0
176
     1
290
     0
176
     1
290
     1
176
     1
290
     1
176
     1
290
     0
176
     1
290
     0
176
     1
290
     0
176
     1
290
     0
176
     1
290
     0
176
     1
290
     0
176
     1
 90
       50
176
     1
 40
0.0
176
     1
 40
1.0
176
     1
 90
        0
176
     1
 62
    18
420
        0
176
     1
 90
       50
176
     1
 90
        3
176
     1
 62
     5
420
      255
176
     1
290
     0
176
     1
 90
       50
176
     1
 90
       50
176
     1
 90
       50
176
     1
290
     0
176
     1
 90
       50
176
     1
 62
   256
176
     0
 40
1.0
176
     0
 90
        2
176
     1
  1
strokes_ogs.tif
176
     1
290
     0
176
     1
 40
1.0
176
     1
 40
1.0
176
     1
  0
VISUALSTYLE
  5
418F
102
{ACAD_REACTORS
330
40EC
102
}
330
40EC
100
AcDbVisualStyle
  2
X-Ray
 70
    25
177
     3
291
     0
 70
    58
 90
        2
176
     1
 90
        2
176
     1
 90
        1
176
     1
 90
        1
176
     1
 40
0.5
176
     1
 40
30.0
176
     1
 62
     7
420
 16777215
176
     1
 90
        1
176
     1
 90
        0
176
     1
 62
     7
176
     1
 62
   257
176
     1
 90
        1
176
     1
 90
        1
176
     1
 40
1.0
176
     1
 90
        8
176
     1
 62
     7
176
     1
 40
1.0
176
     1
 90
        1
176
     1
 90
        6
176
     1
 90
        2
176
     1
 62
     7
176
     1
 90
        3
176
     1
 90
        0
176
     1
 90
        0
176
     1
290
     0
176
     1
 90
       13
176
     1
 40
0.0
176
     1
 90
        0
176
     1
290
     0
176
     1
290
     1
176
     1
290
     1
176
     1
290
     0
176
     1
290
     0
176
     1
290
     0
176
     1
290
     0
176
     1
290
     0
176
     1
290
     0
176
     1
 90
       50
176
     1
 40
0.0
176
     1
 40
1.0
176
     1
 90
        0
176
     1
 62
    18
420
        0
176
     1
 90
       50
176
     1
 90
        3
176
     1
 62
     5
420
      255
176
     1
290
     0
176
     1
 90
       50
176
     1
 90
       50
176
     1
 90
       50
176
     1
290
     0
176
     1
 90
       50
176
     1
 62
   256
176
     0
 40
1.0
176
     0
 90
        2
176
     1
  1
strokes_ogs.tif
176
     1
290
     0
176
     1
 40
1.0
176
     1
 40
1.0
176
     1
  0
DICTIONARYVAR
  5
41C6
102
{ACAD_REACTORS
330
5E
102
}
330
5E
100
DictionaryVariables
280
     0
  1
1:1
  0
DICTIONARYVAR
  5
41C2
102
{ACAD_REACTORS
330
5E
102
}
330
5E
100
DictionaryVariables
280
     0
  1
STANDARD
  0
DICTIONARYVAR
  5
4189
102
{ACAD_REACTORS
330
5E
102
}
330
5E
100
DictionaryVariables
280
     0
  1
STANDARD
  0
DICTIONARYVAR
  5
41C3
102
{ACAD_REACTORS
330
5E
102
}
330
5E
100
DictionaryVariables
280
     0
  1
Metric50
  0
DICTIONARYVAR
  5
41C4
102
{ACAD_REACTORS
330
5E
102
}
330
5E
100
DictionaryVariables
280
     0
  1
Metric50
  0
DICTIONARYVAR
  5
5F
102
{ACAD_REACTORS
330
5E
102
}
330
5E
100
DictionaryVariables
280
     0
  1
2
  0
DICTIONARYVAR
  5
63
102
{ACAD_REACTORS
330
5E
102
}
330
5E
100
DictionaryVariables
280
     0
  1
1
  0
DICTIONARYVAR
  5
41C8
102
{ACAD_REACTORS
330
5E
102
}
330
5E
100
DictionaryVariables
280
     0
  1
1
  0
DICTIONARYVAR
  5
41C9
102
{ACAD_REACTORS
330
5E
102
}
330
5E
100
DictionaryVariables
280
     0
  1
15
  0
DICTIONARYVAR
  5
41C7
102
{ACAD_REACTORS
330
5E
102
}
330
5E
100
DictionaryVariables
280
     0
  1
0
  0
DICTIONARYVAR
  5
41C5
102
{ACAD_REACTORS
330
5E
102
}
330
5E
100
DictionaryVariables
280
     0
  1
0
  0
DICTIONARYVAR
  5
1CF
102
{ACAD_REACTORS
330
5E
102
}
330
5E
100
DictionaryVariables
280
     0
  1

  0
ACAD_PROXY_OBJECT
  5
4106
102
{ACAD_REACTORS
330
4105
102
}
330
4105
100
AcDbProxyObject
 90
      499
 91
      508
 71
    27
 97
        1
 70
     0
162
                 0
161
               224
310
00013FFFD0C4040800000000000004402826564C4F2D52202E20302979
 94
        0
  0
DICTIONARY
  5
41D4
330
40FE
100
AcDbDictionary
280
     1
281
     1
  3
ACAD_ROUNDTRIP_2008_TABLESTYLE_CELLSTYLEMAP
360
41D5
  0
CELLSTYLEMAP
  5
41D5
102
{ACAD_REACTORS
330
41D4
102
}
330
41D4
100
AcDbCellStyleMap
 90
        3
300
CELLSTYLE
  1
TABLEFORMAT_BEGIN
 90
        5
170
     1
 91
        0
 92
    32768
 62
   257
 93
        1
300
CONTENTFORMAT
  1
CONTENTFORMAT_BEGIN
 90
        0
 91
        0
 92
      512
 93
        0
300

 40
0.0
140
1.0
 94
        5
 62
     0
340
11
144
6.0
309
CONTENTFORMAT_END
171
     1
301
MARGIN
  1
CELLMARGIN_BEGIN
 40
1.5
 40
1.5
 40
1.5
 40
1.5
 40
0.18
 40
0.18
309
CELLMARGIN_END
 94
        6
 95
        1
302
GRIDFORMAT
  1
GRIDFORMAT_BEGIN
 90
        0
 91
        1
 62
     0
 92
       -2
340
0
 93
        0
 40
0.045
309
GRIDFORMAT_END
 95
        2
302
GRIDFORMAT
  1
GRIDFORMAT_BEGIN
 90
        0
 91
        1
 62
     0
 92
       -2
340
0
 93
        0
 40
0.045
309
GRIDFORMAT_END
 95
        4
302
GRIDFORMAT
  1
GRIDFORMAT_BEGIN
 90
        0
 91
        1
 62
     0
 92
       -2
340
0
 93
        0
 40
0.045
309
GRIDFORMAT_END
 95
        8
302
GRIDFORMAT
  1
GRIDFORMAT_BEGIN
 90
        0
 91
        1
 62
     0
 92
       -2
340
0
 93
        0
 40
0.045
309
GRIDFORMAT_END
 95
       16
302
GRIDFORMAT
  1
GRIDFORMAT_BEGIN
 90
        0
 91
        1
 62
     0
 92
       -2
340
0
 93
        0
 40
0.045
309
GRIDFORMAT_END
 95
       32
302
GRIDFORMAT
  1
GRIDFORMAT_BEGIN
 90
        0
 91
        1
 62
     0
 92
       -2
340
0
 93
        0
 40
0.045
309
GRIDFORMAT_END
309
TABLEFORMAT_END
  1
CELLSTYLE_BEGIN
 90
        1
 91
        1
300
_TITLE
309
CELLSTYLE_END
300
CELLSTYLE
  1
TABLEFORMAT_BEGIN
 90
        5
170
     1
 91
        0
 92
        0
 62
   257
 93
        1
300
CONTENTFORMAT
  1
CONTENTFORMAT_BEGIN
 90
        0
 91
        0
 92
      512
 93
        0
300

 40
0.0
140
1.0
 94
        5
 62
     0
340
11
144
4.5
309
CONTENTFORMAT_END
171
     1
301
MARGIN
  1
CELLMARGIN_BEGIN
 40
1.5
 40
1.5
 40
1.5
 40
1.5
 40
0.18
 40
0.18
309
CELLMARGIN_END
 94
        6
 95
        1
302
GRIDFORMAT
  1
GRIDFORMAT_BEGIN
 90
        0
 91
        1
 62
     0
 92
       -2
340
0
 93
        0
 40
0.045
309
GRIDFORMAT_END
 95
        2
302
GRIDFORMAT
  1
GRIDFORMAT_BEGIN
 90
        0
 91
        1
 62
     0
 92
       -2
340
0
 93
        0
 40
0.045
309
GRIDFORMAT_END
 95
        4
302
GRIDFORMAT
  1
GRIDFORMAT_BEGIN
 90
        0
 91
        1
 62
     0
 92
       -2
340
0
 93
        0
 40
0.045
309
GRIDFORMAT_END
 95
        8
302
GRIDFORMAT
  1
GRIDFORMAT_BEGIN
 90
        0
 91
        1
 62
     0
 92
       -2
340
0
 93
        0
 40
0.045
309
GRIDFORMAT_END
 95
       16
302
GRIDFORMAT
  1
GRIDFORMAT_BEGIN
 90
        0
 91
        1
 62
     0
 92
       -2
340
0
 93
        0
 40
0.045
309
GRIDFORMAT_END
 95
       32
302
GRIDFORMAT
  1
GRIDFORMAT_BEGIN
 90
        0
 91
        1
 62
     0
 92
       -2
340
0
 93
        0
 40
0.045
309
GRIDFORMAT_END
309
TABLEFORMAT_END
  1
CELLSTYLE_BEGIN
 90
        2
 91
        1
300
_HEADER
309
CELLSTYLE_END
300
CELLSTYLE
  1
TABLEFORMAT_BEGIN
 90
        5
170
     1
 91
        0
 92
        0
 62
   257
 93
        1
300
CONTENTFORMAT
  1
CONTENTFORMAT_BEGIN
 90
        0
 91
        0
 92
      512
 93
        0
300

 40
0.0
140
1.0
 94
        2
 62
     0
340
11
144
4.5
309
CONTENTFORMAT_END
171
     1
301
MARGIN
  1
CELLMARGIN_BEGIN
 40
1.5
 40
1.5
 40
1.5
 40
1.5
 40
0.18
 40
0.18
309
CELLMARGIN_END
 94
        6
 95
        1
302
GRIDFORMAT
  1
GRIDFORMAT_BEGIN
 90
        0
 91
        1
 62
     0
 92
       -2
340
0
 93
        0
 40
0.045
309
GRIDFORMAT_END
 95
        2
302
GRIDFORMAT
  1
GRIDFORMAT_BEGIN
 90
        0
 91
        1
 62
     0
 92
       -2
340
0
 93
        0
 40
0.045
309
GRIDFORMAT_END
 95
        4
302
GRIDFORMAT
  1
GRIDFORMAT_BEGIN
 90
        0
 91
        1
 62
     0
 92
       -2
340
0
 93
        0
 40
0.045
309
GRIDFORMAT_END
 95
        8
302
GRIDFORMAT
  1
GRIDFORMAT_BEGIN
 90
        0
 91
        1
 62
     0
 92
       -2
340
0
 93
        0
 40
0.045
309
GRIDFORMAT_END
 95
       16
302
GRIDFORMAT
  1
GRIDFORMAT_BEGIN
 90
        0
 91
        1
 62
     0
 92
       -2
340
0
 93
        0
 40
0.045
309
GRIDFORMAT_END
 95
       32
302
GRIDFORMAT
  1
GRIDFORMAT_BEGIN
 90
        0
 91
        1
 62
     0
 92
       -2
340
0
 93
        0
 40
0.045
309
GRIDFORMAT_END
309
TABLEFORMAT_END
  1
CELLSTYLE_BEGIN
 90
        3
 91
        2
300
_DATA
309
CELLSTYLE_END
  0
ENDSEC
  0
SECTION
  2
ACDSDATA
 70
     2
 71
     8
  0
ACDSSCHEMA
 90
        0
  1
AcDb_Thumbnail_Schema
  2
AcDbDs::ID
280
    10
 91
        8
  2
Thumbnail_Data
280
    15
 91
        0
101
ACDSRECORD
 95
        0
 90
        1
  2
AcDbDs::TreatedAsObjectData
280
     1
291
     1
101
ACDSRECORD
 95
        0
 90
        2
  2
AcDbDs::Legacy
280
     1
291
     1
101
ACDSRECORD
  1
AcDbDs::ID
 90
        3
  2
AcDs:Indexable
280
     1
291
     1
101
ACDSRECORD
  1
AcDbDs::ID
 90
        4
  2
AcDbDs::HandleAttribute
280
     7
282
     1
  0
ACDSSCHEMA
 90
        1
  1
AcDbDs::TreatedAsObjectDataSchema
  2
AcDbDs::TreatedAsObjectData
280
     1
 91
        0
  0
ACDSSCHEMA
 90
        2
  1
AcDbDs::LegacySchema
  2
AcDbDs::Legacy
280
     1
 91
        0
  0
ACDSSCHEMA
 90
        3
  1
AcDbDs::IndexedPropertySchema
  2
AcDs:Indexable
280
     1
 91
        0
  0
ACDSSCHEMA
 90
        4
  1
AcDbDs::HandleAttributeSchema
  2
AcDbDs::HandleAttribute
280
     7
 91
        1
284
     1
  0
ACDSRECORD
 90
        0
  2
AcDbDs::ID
280
    10
320
22
  2
Thumbnail_Data
280
    15
 94
     2103
310
89504E470D0A1A0A0000000D4948445200000100000000700803000000C6F95E2100000300504C5445212830FFFFFF2128300000000000000000000000000000000000000000000000000000330000660000990000CC0000FF0033000033330033660033990033CC0033FF0066000066330066660066990066CC0066FF0099
310
000099330099660099990099CC0099FF00CC0000CC3300CC6600CC9900CCCC00CCFF00FF0000FF3300FF6600FF9900FFCC00FFFF3300003300333300663300993300CC3300FF3333003333333333663333993333CC3333FF3366003366333366663366993366CC3366FF3399003399333399663399993399CC3399FF33CC00
310
33CC3333CC6633CC9933CCCC33CCFF33FF0033FF3333FF6633FF9933FFCC33FFFF6600006600336600666600996600CC6600FF6633006633336633666633996633CC6633FF6666006666336666666666996666CC6666FF6699006699336699666699996699CC6699FF66CC0066CC3366CC6666CC9966CCCC66CCFF66FF0066
310
FF3366FF6666FF9966FFCC66FFFF9900009900339900669900999900CC9900FF9933009933339933669933999933CC9933FF9966009966339966669966999966CC9966FF9999009999339999669999999999CC9999FF99CC0099CC3399CC6699CC9999CCCC99CCFF99FF0099FF3399FF6699FF9999FFCC99FFFFCC0000CC00
310
33CC0066CC0099CC00CCCC00FFCC3300CC3333CC3366CC3399CC33CCCC33FFCC6600CC6633CC6666CC6699CC66CCCC66FFCC9900CC9933CC9966CC9999CC99CCCC99FFCCCC00CCCC33CCCC66CCCC99CCCCCCCCCCFFCCFF00CCFF33CCFF66CCFF99CCFFCCCCFFFFFF0000FF0033FF0066FF0099FF00CCFF00FFFF3300FF3333
310
FF3366FF3399FF33CCFF33FFFF6600FF6633FF6666FF6699FF66CCFF66FFFF9900FF9933FF9966FF9999FF99CCFF99FFFFCC00FFCC33FFCC66FFCC99FFCCCCFFCCFFFFFF00FFFF33FFFF66FFFF99FFFFCCFFFFFF0000000D0D0D1A1A1A2828283535354343435050505D5D5D6B6B6B787878868686939393A1A1A1AEAEAEBB
310
BBBBC9C9C9D6D6D6E4E4E4F1F1F1FFFFFF0000000000000000000000000000000000000000000000000000000000002E4550F1000004F24944415478DAED9D5996E3200C45B521ED7F65EFBFDA363342C819DAB2833EEA74554802978710423E4D74187623CDF6D7A7AD4CF6910FF9B06D7D9A02D81B98FB8E5B013808C022
310
01FB07E24E00B66E11E6881E0C80267EE09C0F505B3A0540FA2A384674460174330518089815301713DD6F1504097C6205B805A012380160A614C7EA984AE0CB0080EB09E8AFE0CD4F99F8C7CB14009B716B2F887C0C0017CE7FF1C55217F6C1621B2FEA36220818624A6FF287AADF6380C51280D8C0EA01E497AF5DFE38B3
310
10F25AC8EF2D10CC07027F1B4033B1682737AD81BAE1FE57C426E699841C68931F00C508F77FE635D035DCCF501582F94CC293FB930114BAFE37C3C87FEB4901A5506893C45900D7EFFE826FDBE6F51041EA9EAC80D8F7806027760E8083F14BCE1D714E73F7200210F6029E9AB7C3810060173E57F1D90440D4CC74E651B0
310
9A67E32E03B0F5B396282467D1BCC9066017891BFD8B00B8EC70CE88A21E75D77D7E23E076058083065A09CC00740424078038FD2C6DBD2E0070AD8106C03684A103E7618CDC2C012A193B04C04D8C9C00947328099707C3AF01C428839C038869800C603F1322383115006B4E30841845234F00989A8EA5581061DC294C14
310
BACD5600E8BEC7258040202821B8065487641100D3040092AB710E80F29D4808732300680A980140F3458E01108AEBE12227000D008B79A52C29905F00DC753FDE0B822D0A60610728B367A8CEDB7C0700F13C00AE7C801CBE318B0111853D34C753F1007D3980A6FA8159F2E0A504F2762802105640DAF499BB90DB1F0039
310
A60F1723BC6789428ED80A80735CC9EC10001901A4489019E393BC0480C935804301A403288EEECD20AAA35EF6EFE333A0370021298B1980F24793484F1524717C9A02C8A50268B6046A0A4D54406808683E400270EDB588C9090A005A7D1B77814700502A4678901839B610FF00B085B88CD78DB5DB34E9955B29209D8EC7
310
793C1E2507A5EB74170A6842610D802587390430582F4E00680A28478D3A47F20800DD12F8860F50DA7B01502C01CC7DC0B8AC907B8134ABA6F8057E14504682DAFD2612001800A00D159A77C1671CD001A88B889086A60128875C04CC1D4E2FA1B0A68072B68D00841811B29E3C6E83E0C139B04A68E900FA58F1D600FA25
310
30BCD94D0AB06C83770080CE6F81340930C683BD2380CEDB7F0500B905D0EF762F011815C2B9D805A60AA011003A1108C993EC1D8018EE29F5110200FDFCE41C80DCED2AA6D50154BBE1FD008C66CD08A08D7D6F0380299DD00685DDA4AD018EF7E9ADF26558EC0E006285DCB8B25F0370DC196C8762E1E02301803B007BB7
310
B4674941CA1AC800FAED43689B6BD17C01D86B84E905009CD6BF2110720E80DE01A05488546D5D0220D63B041A3A01CE4923B60060F20BC0F4505873D5593E59C1AC038885141E01843860846000A0DCD0A47B4074C3DF179B4B00A9D46B66E5D384E5A7817A84DDA348C78EE113805AF73DCFF2F48F164A4F4C30390360B6
310
F9A7C921B4F372F936E7C5061F700A40E502B849B05D6AF6A7853F657D86D18FBDDDA79329B1DF01400BC002B000DC1B40AC9148579E3600286A51FB5B96DB0100D535A1060035377A0A8061C64800501756DE00C07B7626ACF609E0D1DFB7002C000BC0673B54EC722F1DEC9F04809E01E07F1B2D5BB66CD9B265CB962D5B
310
B66CD9B2658FB31F3FEEFEFC797F01F80100E19E50FE7F787E00007E1600A4EABAF295E70330647A1F0D60FCDB02708B40E80F684E0C3243D7ADEF0000000049454E44AE426082
  0
ENDSEC
  0
EOF
