  0
SECTION
  2
HEADER
  9
$ACADVER
  1
AC1032
  9
$ACADMAINTVER
 90
        4
  9
$DWGCODEPAGE
  3
ANSI_1252
  9
$LASTSAVEDBY
  1
Siqi
  9
$REQUIREDVERSIONS
160
                 0
  9
$INSBASE
 10
0.0
 20
0.0
 30
0.0
  9
$EXTMIN
 10
-951.0054819976526
 20
719.4159679396029
 30
0.0
  9
$EXTMAX
 10
4439.105648270722
 20
3580.781366336655
 30
0.0
  9
$LIMMIN
 10
0.0
 20
0.0
  9
$LIMMAX
 10
420.0
 20
297.0
  9
$ORTHOMODE
 70
     0
  9
$REGENMODE
 70
     1
  9
$FILLMODE
 70
     1
  9
$QTEXTMODE
 70
     0
  9
$MIRRTEXT
 70
     1
  9
$LTSCALE
 40
1.0
  9
$ATTMODE
 70
     1
  9
$TEXTSIZE
 40
2.5
  9
$TRACEWID
 40
1.0
  9
$TEXTSTYLE
  7
样式 2
  9
$CLAYER
  8
图层3
  9
$CELTYPE
  6
ByLayer
  9
$CECOLOR
 62
   256
  9
$CELTSCALE
 40
1.0
  9
$DISPSILH
 70
     0
  9
$DIMSCALE
 40
1.0
  9
$DIMASZ
 40
16.0
  9
$DIMEXO
 40
3.0
  9
$DIMDLI
 40
3.75
  9
$DIMRND
 40
0.0
  9
$DIMDLE
 40
0.0
  9
$DIMEXE
 40
1.25
  9
$DIMTP
 40
0.0
  9
$DIMTM
 40
0.0
  9
$DIMTXT
 40
18.0
  9
$DIMCEN
 40
80.0
  9
$DIMTSZ
 40
0.0
  9
$DIMTOL
 70
     0
  9
$DIMLIM
 70
     0
  9
$DIMTIH
 70
     0
  9
$DIMTOH
 70
     1
  9
$DIMSE1
 70
     0
  9
$DIMSE2
 70
     0
  9
$DIMTAD
 70
     1
  9
$DIMZIN
 70
     8
  9
$DIMBLK
  1

  9
$DIMASO
 70
     1
  9
$DIMSHO
 70
     1
  9
$DIMPOST
  1

  9
$DIMAPOST
  1

  9
$DIMALT
 70
     0
  9
$DIMALTD
 70
     3
  9
$DIMALTF
 40
0.03937007874016
  9
$DIMLFAC
 40
1.0
  9
$DIMTOFL
 70
     1
  9
$DIMTVP
 40
0.0
  9
$DIMTIX
 70
     0
  9
$DIMSOXD
 70
     0
  9
$DIMSAH
 70
     0
  9
$DIMBLK1
  1

  9
$DIMBLK2
  1

  9
$DIMSTYLE
  2
ISO-25
  9
$DIMCLRD
 70
     0
  9
$DIMCLRE
 70
     0
  9
$DIMCLRT
 70
     0
  9
$DIMTFAC
 40
1.0
  9
$DIMGAP
 40
7.0
  9
$DIMJUST
 70
     0
  9
$DIMSD1
 70
     0
  9
$DIMSD2
 70
     0
  9
$DIMTOLJ
 70
     0
  9
$DIMTZIN
 70
     8
  9
$DIMALTZ
 70
     0
  9
$DIMALTTZ
 70
     0
  9
$DIMUPT
 70
     0
  9
$DIMDEC
 70
     2
  9
$DIMTDEC
 70
     2
  9
$DIMALTU
 70
     7
  9
$DIMALTTD
 70
     3
  9
$DIMTXSTY
  7
Standard
  9
$DIMAUNIT
 70
     0
  9
$DIMADEC
 70
     0
  9
$DIMALTRND
 40
0.0
  9
$DIMAZIN
 70
     0
  9
$DIMDSEP
 70
    46
  9
$DIMATFIT
 70
     3
  9
$DIMFRAC
 70
     0
  9
$DIMLDRBLK
  1

  9
$DIMLUNIT
 70
     2
  9
$DIMLWD
 70
    -2
  9
$DIMLWE
 70
    -2
  9
$DIMTMOVE
 70
     0
  9
$DIMFXL
 40
1.0
  9
$DIMFXLON
 70
     0
  9
$DIMJOGANG
 40
0.7853981633974483
  9
$DIMTFILL
 70
     0
  9
$DIMTFILLCLR
 70
     0
  9
$DIMARCSYM
 70
     0
  9
$DIMLTYPE
  6

  9
$DIMLTEX1
  6

  9
$DIMLTEX2
  6

  9
$DIMTXTDIRECTION
 70
     0
  9
$LUNITS
 70
     2
  9
$LUPREC
 70
     4
  9
$SKETCHINC
 40
1.0
  9
$FILLETRAD
 40
2.5
  9
$AUNITS
 70
     0
  9
$AUPREC
 70
     0
  9
$MENU
  1
.
  9
$ELEVATION
 40
0.0
  9
$PELEVATION
 40
0.0
  9
$THICKNESS
 40
0.0
  9
$LIMCHECK
 70
     0
  9
$CHAMFERA
 40
58.0
  9
$CHAMFERB
 40
58.0
  9
$CHAMFERC
 40
20.0
  9
$CHAMFERD
 40
0.0
  9
$SKPOLY
 70
     0
  9
$TDCREATE
 40
2453995.012893519
  9
$TDUCREATE
 40
2453995.304561054
  9
$TDUPDATE
 40
2457973.692777778
  9
$TDUUPDATE
 40
2457973.984444445
  9
$TDINDWG
 40
0.3270179514
  9
$TDUSRTIMER
 40
0.3270166667
  9
$USRTIMER
 70
     1
  9
$ANGBASE
 50
0.0
  9
$ANGDIR
 70
     0
  9
$PDMODE
 70
     0
  9
$PDSIZE
 40
0.0
  9
$PLINEWID
 40
0.0
  9
$SPLFRAME
 70
     0
  9
$SPLINETYPE
 70
     6
  9
$SPLINESEGS
 70
     8
  9
$HANDSEED
  5
2AAB
  9
$SURFTAB1
 70
     6
  9
$SURFTAB2
 70
     6
  9
$SURFTYPE
 70
     6
  9
$SURFU
 70
     6
  9
$SURFV
 70
     6
  9
$UCSBASE
  2

  9
$UCSNAME
  2

  9
$UCSORG
 10
0.0
 20
0.0
 30
0.0
  9
$UCSXDIR
 10
1.0
 20
0.0
 30
0.0
  9
$UCSYDIR
 10
0.0
 20
1.0
 30
0.0
  9
$UCSORTHOREF
  2

  9
$UCSORTHOVIEW
 70
     0
  9
$UCSORGTOP
 10
0.0
 20
0.0
 30
0.0
  9
$UCSORGBOTTOM
 10
0.0
 20
0.0
 30
0.0
  9
$UCSORGLEFT
 10
0.0
 20
0.0
 30
0.0
  9
$UCSORGRIGHT
 10
0.0
 20
0.0
 30
0.0
  9
$UCSORGFRONT
 10
0.0
 20
0.0
 30
0.0
  9
$UCSORGBACK
 10
0.0
 20
0.0
 30
0.0
  9
$PUCSBASE
  2

  9
$PUCSNAME
  2

  9
$PUCSORG
 10
0.0
 20
0.0
 30
0.0
  9
$PUCSXDIR
 10
1.0
 20
0.0
 30
0.0
  9
$PUCSYDIR
 10
0.0
 20
1.0
 30
0.0
  9
$PUCSORTHOREF
  2

  9
$PUCSORTHOVIEW
 70
     0
  9
$PUCSORGTOP
 10
0.0
 20
0.0
 30
0.0
  9
$PUCSORGBOTTOM
 10
0.0
 20
0.0
 30
0.0
  9
$PUCSORGLEFT
 10
0.0
 20
0.0
 30
0.0
  9
$PUCSORGRIGHT
 10
0.0
 20
0.0
 30
0.0
  9
$PUCSORGFRONT
 10
0.0
 20
0.0
 30
0.0
  9
$PUCSORGBACK
 10
0.0
 20
0.0
 30
0.0
  9
$USERI1
 70
     0
  9
$USERI2
 70
     0
  9
$USERI3
 70
     0
  9
$USERI4
 70
     0
  9
$USERI5
 70
     0
  9
$USERR1
 40
0.0
  9
$USERR2
 40
0.0
  9
$USERR3
 40
0.0
  9
$USERR4
 40
0.0
  9
$USERR5
 40
0.0
  9
$WORLDVIEW
 70
     1
  9
$SHADEDGE
 70
     3
  9
$SHADEDIF
 70
    70
  9
$TILEMODE
 70
     1
  9
$MAXACTVP
 70
    64
  9
$PINSBASE
 10
0.0
 20
0.0
 30
0.0
  9
$PLIMCHECK
 70
     0
  9
$PEXTMIN
 10
0.0
 20
0.0
 30
0.0
  9
$PEXTMAX
 10
0.0
 20
0.0
 30
0.0
  9
$PLIMMIN
 10
0.0
 20
0.0
  9
$PLIMMAX
 10
12.0
 20
9.0
  9
$UNITMODE
 70
     0
  9
$VISRETAIN
 70
     1
  9
$PLINEGEN
 70
     0
  9
$PSLTSCALE
 70
     1
  9
$TREEDEPTH
 70
  3020
  9
$CMLSTYLE
  2
Standard
  9
$CMLJUST
 70
     0
  9
$CMLSCALE
 40
20.0
  9
$PROXYGRAPHICS
 70
     1
  9
$MEASUREMENT
 70
     1
  9
$CELWEIGHT
370
    -1
  9
$ENDCAPS
280
     0
  9
$JOINSTYLE
280
     0
  9
$LWDISPLAY
290
     0
  9
$INSUNITS
 70
     4
  9
$HYPERLINKBASE
  1

  9
$STYLESHEET
  1

  9
$XEDIT
290
     1
  9
$CEPSNTYPE
380
     0
  9
$PSTYLEMODE
290
     1
  9
$FINGERPRINTGUID
  2
{FDEAD578-A652-11D2-9A35-0060089B3A3F}
  9
$VERSIONGUID
  2
{2F0A223B-3370-AA46-998B-93A74654E32F}
  9
$EXTNAMES
290
     1
  9
$PSVPSCALE
 40
0.0
  9
$OLESTARTUP
290
     0
  9
$SORTENTS
280
   127
  9
$INDEXCTL
280
     0
  9
$HIDETEXT
280
     1
  9
$XCLIPFRAME
280
     0
  9
$HALOGAP
280
     0
  9
$OBSCOLOR
 70
   257
  9
$OBSLTYPE
280
     0
  9
$INTERSECTIONDISPLAY
280
     0
  9
$INTERSECTIONCOLOR
 70
   257
  9
$DIMASSOC
280
     2
  9
$PROJECTNAME
  1

  9
$CAMERADISPLAY
290
     0
  9
$LENSLENGTH
 40
50.0
  9
$CAMERAHEIGHT
 40
0.0
  9
$STEPSPERSEC
 40
2.0
  9
$STEPSIZE
 40
6.0
  9
$3DDWFPREC
 40
2.0
  9
$PSOLWIDTH
 40
0.25
  9
$PSOLHEIGHT
 40
4.0
  9
$LOFTANG1
 40
1.570796326794896
  9
$LOFTANG2
 40
1.570796326794896
  9
$LOFTMAG1
 40
0.0
  9
$LOFTMAG2
 40
0.0
  9
$LOFTPARAM
 70
     7
  9
$LOFTNORMALS
280
     1
  9
$LATITUDE
 40
37.795
  9
$LONGITUDE
 40
-122.394
  9
$NORTHDIRECTION
 40
0.0
  9
$TIMEZONE
 70
 -8000
  9
$LIGHTGLYPHDISPLAY
280
     1
  9
$TILEMODELIGHTSYNCH
280
     1
  9
$CMATERIAL
347
2820
  9
$SOLIDHIST
280
     0
  9
$SHOWHIST
280
     1
  9
$DWFFRAME
280
     2
  9
$DGNFRAME
280
     0
  9
$REALWORLDSCALE
290
     1
  9
$INTERFERECOLOR
 62
     1
  9
$INTERFEREOBJVS
345
2842
  9
$INTERFEREVPVS
346
283F
  9
$CSHADOW
280
     0
  9
$SHADOWPLANELOCATION
 40
0.0
  0
ENDSEC
  0
SECTION
  2
CLASSES
  0
CLASS
  1
ACDBDICTIONARYWDFLT
  2
AcDbDictionaryWithDefault
  3
ObjectDBX Classes
 90
        0
 91
        1
280
     0
281
     0
  0
CLASS
  1
DICTIONARYVAR
  2
AcDbDictionaryVar
  3
ObjectDBX Classes
 90
        0
 91
       11
280
     0
281
     0
  0
CLASS
  1
DIMASSOC
  2
AcDbDimAssoc
  3
"AcDbDimAssoc|Product Desc:     AcDim ARX App For Dimension|Company:          Autodesk, Inc.|WEB Address:      www.autodesk.com"
 90
        0
 91
       19
280
     0
281
     0
  0
CLASS
  1
TABLESTYLE
  2
AcDbTableStyle
  3
ObjectDBX Classes
 90
     4095
 91
        1
280
     0
281
     0
  0
CLASS
  1
SORTENTSTABLE
  2
AcDbSortentsTable
  3
ObjectDBX Classes
 90
        0
 91
        3
280
     0
281
     0
  0
CLASS
  1
MATERIAL
  2
AcDbMaterial
  3
ObjectDBX Classes
 90
     1153
 91
        3
280
     0
281
     0
  0
CLASS
  1
VISUALSTYLE
  2
AcDbVisualStyle
  3
ObjectDBX Classes
 90
     4095
 91
       24
280
     0
281
     0
  0
CLASS
  1
SCALE
  2
AcDbScale
  3
ObjectDBX Classes
 90
     1153
 91
       17
280
     0
281
     0
  0
CLASS
  1
MLEADERSTYLE
  2
AcDbMLeaderStyle
  3
ACDB_MLEADERSTYLE_CLASS
 90
     4095
 91
        1
280
     0
281
     0
  0
CLASS
  1
ACDBSECTIONVIEWSTYLE
  2
AcDbSectionViewStyle
  3
ObjectDBX Classes
 90
     1025
 91
        1
280
     0
281
     0
  0
CLASS
  1
ACDBDETAILVIEWSTYLE
  2
AcDbDetailViewStyle
  3
ObjectDBX Classes
 90
     1025
 91
        1
280
     0
281
     0
  0
CLASS
  1
CELLSTYLEMAP
  2
AcDbCellStyleMap
  3
ObjectDBX Classes
 90
     1152
 91
        2
280
     0
281
     0
  0
ENDSEC
  0
SECTION
  2
TABLES
  0
TABLE
  2
VPORT
  5
8
330
0
100
AcDbSymbolTable
 70
     1
  0
VPORT
  5
281E
330
8
100
AcDbSymbolTableRecord
100
AcDbViewportTableRecord
  2
*Active
 70
     0
 10
0.0
 20
0.0
 11
1.0
 21
1.0
 12
1330.242594909919
 22
1032.284724364383
 13
0.0
 23
0.0
 14
10.0
 24
10.0
 15
10.0
 25
10.0
 16
0.0
 26
0.0
 36
1.0
 17
0.0
 27
0.0
 37
0.0
 40
1170.648009453534
 41
1.913595933926302
 42
50.0
 43
0.0
 44
0.0
 50
0.0
 51
0.0
 71
     0
 72
 10000
 73
     1
 74
     3
 75
     0
 76
     0
 77
     0
 78
     0
281
     0
 65
     1
110
0.0
120
0.0
130
0.0
111
1.0
121
0.0
131
0.0
112
0.0
122
1.0
132
0.0
 79
     0
146
0.0
348
283E
 60
     3
 61
     5
292
     1
282
     1
141
0.0
142
0.0
 63
   250
421
  3355443
1001
ACAD_NAV_VCDISPLAY
1070
     3
  0
ENDTAB
  0
TABLE
  2
LTYPE
  5
5
330
0
100
AcDbSymbolTable
 70
     5
  0
LTYPE
  5
14
330
5
100
AcDbSymbolTableRecord
100
AcDbLinetypeTableRecord
  2
ByBlock
 70
     0
  3

 72
    65
 73
     0
 40
0.0
  0
LTYPE
  5
15
330
5
100
AcDbSymbolTableRecord
100
AcDbLinetypeTableRecord
  2
ByLayer
 70
     0
  3

 72
    65
 73
     0
 40
0.0
  0
LTYPE
  5
16
330
5
100
AcDbSymbolTableRecord
100
AcDbLinetypeTableRecord
  2
Continuous
 70
     0
  3
Solid line
 72
    65
 73
     0
 40
0.0
  0
LTYPE
  5
5FA
330
5
100
AcDbSymbolTableRecord
100
AcDbLinetypeTableRecord
  2
CENTER2
 70
     0
  3
Center (.5x) ___ _ ___ _ ___ _ ___ _ ___ _ ___
 72
    65
 73
     4
 40
28.575
 49
19.05
 74
     0
 49
-3.174999999999999
 74
     0
 49
3.174999999999999
 74
     0
 49
-3.174999999999999
 74
     0
  0
LTYPE
  5
5FC
330
5
100
AcDbSymbolTableRecord
100
AcDbLinetypeTableRecord
  2
CENTER
 70
     0
  3
Center ____ _ ____ _ ____ _ ____ _ ____ _ ____
 72
    65
 73
     4
 40
50.8
 49
31.75
 74
     0
 49
-6.349999999999999
 74
     0
 49
6.349999999999999
 74
     0
 49
-6.349999999999999
 74
     0
  0
LTYPE
  5
1E9E
330
5
100
AcDbSymbolTableRecord
100
AcDbLinetypeTableRecord
  2
DASHED
 70
     0
  3
Dashed __ __ __ __ __ __ __ __ __ __ __ __ __ _
 72
    65
 73
     2
 40
19.05
 49
12.7
 74
     0
 49
-6.349999999999999
 74
     0
  0
ENDTAB
  0
TABLE
  2
LAYER
  5
2
102
{ACAD_XDICTIONARY
360
E27
102
}
330
0
100
AcDbSymbolTable
 70
     6
  0
LAYER
  5
10
102
{ACAD_XDICTIONARY
360
28D3
102
}
330
2
100
AcDbSymbolTableRecord
100
AcDbLayerTableRecord
  2
0
 70
     0
 62
     7
  6
Continuous
370
    -3
390
F
347
2830
348
0
  0
LAYER
  5
70
102
{ACAD_XDICTIONARY
360
28D5
102
}
330
2
100
AcDbSymbolTableRecord
100
AcDbLayerTableRecord
  2
图层1
 70
     0
 62
     7
  6
CENTER
370
    18
390
F
347
2830
348
0
1001
AcadStringInfo
1000
MIFCodePage
1070
     5
  0
LAYER
  5
71
102
{ACAD_XDICTIONARY
360
28D7
102
}
330
2
100
AcDbSymbolTableRecord
100
AcDbLayerTableRecord
  2
图层2
 70
     0
 62
     7
  6
Continuous
370
    30
390
F
347
2830
348
0
1001
AcadStringInfo
1000
MIFCodePage
1070
     5
  0
LAYER
  5
72
102
{ACAD_XDICTIONARY
360
28D9
102
}
330
2
100
AcDbSymbolTableRecord
100
AcDbLayerTableRecord
  2
图层3
 70
     0
 62
     7
  6
Continuous
370
    20
390
F
347
2830
348
0
1001
AcadStringInfo
1000
MIFCodePage
1070
     5
  0
LAYER
  5
79
330
2
100
AcDbSymbolTableRecord
100
AcDbLayerTableRecord
  2
Defpoints
 70
     0
 62
     7
  6
Continuous
290
     0
370
    -3
390
F
347
2830
348
0
  0
LAYER
  5
1E9C
102
{ACAD_XDICTIONARY
360
28DB
102
}
330
2
100
AcDbSymbolTableRecord
100
AcDbLayerTableRecord
  2
图层4
 70
     0
 62
     7
  6
DASHED
370
    18
390
F
347
2830
348
0
1001
AcAecLayerStandard
1000

1000

1001
AcadStringInfo
1000
MIFCodePage
1070
     5
  0
ENDTAB
  0
TABLE
  2
STYLE
  5
3
330
0
100
AcDbSymbolTable
 70
     4
  0
STYLE
  5
11
330
3
100
AcDbSymbolTableRecord
100
AcDbTextStyleTableRecord
  2
Standard
 70
     0
 40
0.0
 41
1.0
 50
0.0
 71
     0
 42
2.5
  3
txt
  4

  0
STYLE
  5
5F9
330
3
100
AcDbSymbolTableRecord
100
AcDbTextStyleTableRecord
  2

 70
     1
 40
0.0
 41
1.0
 50
0.0
 71
     0
 42
2.5
  3
ltypeshp.shx
  4

  0
STYLE
  5
20A6
330
3
100
AcDbSymbolTableRecord
100
AcDbTextStyleTableRecord
  2
样式 1
 70
     0
 40
0.0
 41
1.0
 50
0.0
 71
     0
 42
2.5
  3
txt.shx
  4

1001
AcadStringInfo
1000
MIFCodePage
1070
     5
  0
STYLE
  5
20A7
330
3
100
AcDbSymbolTableRecord
100
AcDbTextStyleTableRecord
  2
样式 2
 70
     0
 40
0.0
 41
0.35
 50
0.0
 71
     0
 42
2.5
  3
txt.shx
  4

1001
AcadStringInfo
1000
MIFCodePage
1070
     5
  0
ENDTAB
  0
TABLE
  2
VIEW
  5
6
330
0
100
AcDbSymbolTable
 70
     2
  0
ENDTAB
  0
TABLE
  2
UCS
  5
7
330
0
100
AcDbSymbolTable
 70
     0
  0
ENDTAB
  0
TABLE
  2
APPID
  5
9
330
0
100
AcDbSymbolTable
 70
     8
  0
APPID
  5
12
330
9
100
AcDbSymbolTableRecord
100
AcDbRegAppTableRecord
  2
ACAD
 70
     0
  0
APPID
  5
E30
330
9
100
AcDbSymbolTableRecord
100
AcDbRegAppTableRecord
  2
ACAD_DSTYLE_DIMTEXT_FILL
 70
     0
  0
APPID
  5
1E9D
330
9
100
AcDbSymbolTableRecord
100
AcDbRegAppTableRecord
  2
AcAecLayerStandard
 70
     0
  0
APPID
  5
20F3
330
9
100
AcDbSymbolTableRecord
100
AcDbRegAppTableRecord
  2
ACAD_PSEXT
 70
     0
  0
APPID
  5
2851
330
9
100
AcDbSymbolTableRecord
100
AcDbRegAppTableRecord
  2
AcadStringInfo
 70
     0
  0
APPID
  5
2876
330
9
100
AcDbSymbolTableRecord
100
AcDbRegAppTableRecord
  2
AcadAnnoMonitorAlertIconDisabled
 70
     0
  0
APPID
  5
2877
330
9
100
AcDbSymbolTableRecord
100
AcDbRegAppTableRecord
  2
ACAD_EXEMPT_FROM_CAD_STANDARDS
 70
     0
  0
APPID
  5
28DD
330
9
100
AcDbSymbolTableRecord
100
AcDbRegAppTableRecord
  2
ACAD_NAV_VCDISPLAY
 70
     0
  0
ENDTAB
  0
TABLE
  2
DIMSTYLE
  5
A
330
0
100
AcDbSymbolTable
 70
     1
100
AcDbDimStyleTable
 71
     1
340
27
  0
DIMSTYLE
105
27
102
{ACAD_REACTORS
330
1DDA
330
1EE5
330
1F03
330
1F9C
330
1FEB
330
20A8
330
212A
330
22AB
330
22E1
330
233C
330
2354
330
236C
330
2384
330
25D6
330
2603
330
2627
330
2641
330
25FF
330
278F
102
}
330
A
100
AcDbSymbolTableRecord
100
AcDbDimStyleTableRecord
  2
ISO-25
 70
     0
 41
16.0
 42
3.0
 43
3.75
 44
1.25
 73
     0
 77
     1
 78
     8
140
18.0
141
80.0
143
0.03937007874016
147
7.0
171
     3
172
     1
271
     2
272
     2
273
     7
274
     3
283
     0
284
     8
340
11
  0
ENDTAB
  0
TABLE
  2
BLOCK_RECORD
  5
1
330
0
100
AcDbSymbolTable
 70
    23
  0
BLOCK_RECORD
  5
1F
102
{ACAD_XDICTIONARY
360
F25
102
}
330
1
100
AcDbSymbolTableRecord
100
AcDbBlockTableRecord
  2
*Model_Space
340
22
 70
     0
280
     1
281
     0
  0
BLOCK_RECORD
  5
50
330
1
100
AcDbSymbolTableRecord
100
AcDbBlockTableRecord
  2
*Paper_Space
340
51
 70
     0
280
     1
281
     0
  0
BLOCK_RECORD
  5
55
330
1
100
AcDbSymbolTableRecord
100
AcDbBlockTableRecord
  2
*Paper_Space0
340
56
 70
     0
280
     1
281
     0
  0
BLOCK_RECORD
  5
315
330
1
100
AcDbSymbolTableRecord
100
AcDbBlockTableRecord
  2
a
340
0
 70
     0
280
     1
281
     0
  0
BLOCK_RECORD
  5
1DDB
330
1
100
AcDbSymbolTableRecord
100
AcDbBlockTableRecord
  2
*D2
340
0
 70
     0
280
     1
281
     0
  0
BLOCK_RECORD
  5
1EE6
330
1
100
AcDbSymbolTableRecord
100
AcDbBlockTableRecord
  2
*D3
340
0
 70
     0
280
     1
281
     0
  0
BLOCK_RECORD
  5
1F04
330
1
100
AcDbSymbolTableRecord
100
AcDbBlockTableRecord
  2
*D4
340
0
 70
     0
280
     1
281
     0
  0
BLOCK_RECORD
  5
1F9D
330
1
100
AcDbSymbolTableRecord
100
AcDbBlockTableRecord
  2
*D5
340
0
 70
     0
280
     1
281
     0
  0
BLOCK_RECORD
  5
1FEC
330
1
100
AcDbSymbolTableRecord
100
AcDbBlockTableRecord
  2
*D6
340
0
 70
     0
280
     1
281
     0
  0
BLOCK_RECORD
  5
20A9
330
1
100
AcDbSymbolTableRecord
100
AcDbBlockTableRecord
  2
*D7
340
0
 70
     0
280
     1
281
     0
  0
BLOCK_RECORD
  5
20F5
102
{ACAD_XDICTIONARY
360
2109
102
}
330
1
100
AcDbSymbolTableRecord
100
AcDbBlockTableRecord
  2
c
340
0
102
{BLKREFS
331
2111
102
}
 70
     4
280
     1
281
     0
  0
BLOCK_RECORD
  5
212B
330
1
100
AcDbSymbolTableRecord
100
AcDbBlockTableRecord
  2
*D9
340
0
 70
     0
280
     1
281
     0
  0
BLOCK_RECORD
  5
22AC
330
1
100
AcDbSymbolTableRecord
100
AcDbBlockTableRecord
  2
*D10
340
0
 70
     0
280
     1
281
     0
  0
BLOCK_RECORD
  5
22E2
330
1
100
AcDbSymbolTableRecord
100
AcDbBlockTableRecord
  2
*D11
340
0
 70
     0
280
     1
281
     0
  0
BLOCK_RECORD
  5
233D
330
1
100
AcDbSymbolTableRecord
100
AcDbBlockTableRecord
  2
*D12
340
0
 70
     0
280
     1
281
     0
  0
BLOCK_RECORD
  5
2355
330
1
100
AcDbSymbolTableRecord
100
AcDbBlockTableRecord
  2
*D13
340
0
 70
     0
280
     1
281
     0
  0
BLOCK_RECORD
  5
236D
330
1
100
AcDbSymbolTableRecord
100
AcDbBlockTableRecord
  2
*D14
340
0
 70
     0
280
     1
281
     0
  0
BLOCK_RECORD
  5
2385
330
1
100
AcDbSymbolTableRecord
100
AcDbBlockTableRecord
  2
*D15
340
0
 70
     0
280
     1
281
     0
  0
BLOCK_RECORD
  5
25D7
330
1
100
AcDbSymbolTableRecord
100
AcDbBlockTableRecord
  2
*D16
340
0
 70
     0
280
     1
281
     0
  0
BLOCK_RECORD
  5
2604
330
1
100
AcDbSymbolTableRecord
100
AcDbBlockTableRecord
  2
*D17
340
0
 70
     0
280
     1
281
     0
  0
BLOCK_RECORD
  5
2628
330
1
100
AcDbSymbolTableRecord
100
AcDbBlockTableRecord
  2
*D18
340
0
 70
     0
280
     1
281
     0
  0
BLOCK_RECORD
  5
2642
330
1
100
AcDbSymbolTableRecord
100
AcDbBlockTableRecord
  2
*D19
340
0
 70
     0
280
     1
281
     0
  0
BLOCK_RECORD
  5
2790
330
1
100
AcDbSymbolTableRecord
100
AcDbBlockTableRecord
  2
*D20
340
0
 70
     0
280
     1
281
     0
  0
BLOCK_RECORD
  5
27C5
330
1
100
AcDbSymbolTableRecord
100
AcDbBlockTableRecord
  2
h
340
0
310
2800000020000000200000000100080000000000000400000000000000000000000000000000000000000000000080000080000000808000800000008000800080800000C0C0C000C0DCC000F0CAA6000020400000206000002080000020A0000020C0000020E00000400000004020000040400000406000004080000040A0
310
000040C0000040E00000600000006020000060400000606000006080000060A0000060C0000060E00000800000008020000080400000806000008080000080A0000080C0000080E00000A0000000A0200000A0400000A0600000A0800000A0A00000A0C00000A0E00000C0000000C0200000C0400000C0600000C0800000C0
310
A00000C0C00000C0E00000E0000000E0200000E0400000E0600000E0800000E0A00000E0C00000E0E00040000000400020004000400040006000400080004000A0004000C0004000E00040200000402020004020400040206000402080004020A0004020C0004020E000404000004040200040404000404060004040800040
310
40A0004040C0004040E00040600000406020004060400040606000406080004060A0004060C0004060E00040800000408020004080400040806000408080004080A0004080C0004080E00040A0000040A0200040A0400040A0600040A0800040A0A00040A0C00040A0E00040C0000040C0200040C0400040C0600040C08000
310
40C0A00040C0C00040C0E00040E0000040E0200040E0400040E0600040E0800040E0A00040E0C00040E0E00080000000800020008000400080006000800080008000A0008000C0008000E00080200000802020008020400080206000802080008020A0008020C0008020E00080400000804020008040400080406000804080
310
008040A0008040C0008040E00080600000806020008060400080606000806080008060A0008060C0008060E00080800000808020008080400080806000808080008080A0008080C0008080E00080A0000080A0200080A0400080A0600080A0800080A0A00080A0C00080A0E00080C0000080C0200080C0400080C0600080C0
310
800080C0A00080C0C00080C0E00080E0000080E0200080E0400080E0600080E0800080E0A00080E0C00080E0E000C0000000C0002000C0004000C0006000C0008000C000A000C000C000C000E000C0200000C0202000C0204000C0206000C0208000C020A000C020C000C020E000C0400000C0402000C0404000C0406000C0
310
408000C040A000C040C000C040E000C0600000C0602000C0604000C0606000C0608000C060A000C060C000C060E000C0800000C0802000C0804000C0806000C0808000C080A000C080C000C080E000C0A00000C0A02000C0A04000C0A06000C0A08000C0A0A000C0A0C000C0A0E000C0C00000C0C02000C0C04000C0C06000
310
C0C08000C0C0A000F0FBFF00A4A0A000808080000000FF0000FF000000FFFF00FF000000FF00FF00FFFF0000FFFFFF0000000000000000000000000000000000000000000000000000000000000000000000000000000000000000000000000000000000000000000000000000000000000000000000000000000000000000
310
00000000000000000000000000000000000000000000000000000000000000000000000000000000000000000000000000000000000000000000000000000000000000000000000000000000000000000000000000000000000000000000000000000000000000000000000000000000000000000000000000000000000000
310
00000000000000000000000000000000000000000000000000000000000000000000000000000000000000000000000000000000000000000000000000000000000000000000000000000000000000000000000000000000000000000000000000000000000000000000000000000000000000000000000000000000000000
310
00000000000000000000000000000000000000000000000000000000000000000000000000000000000000000000000000000000000000000000000000000000000000000000000000000000000000000000000000000000000000000000000000000000000000000000000000000000000000000000000000000000000000
310
000000000000000000000000000000000000000000FAFAFAFAFAFAFAFAFAFAFAFAFAFAFAFAFAFAFAFAFAFAFAFAFAFAFA000000000000FAFAFAFAFAFAFAFAFAFAFAFAFAFAFAFAFAFAFAFAFAFAFAFAFAFA0000000000000000000000000000000000000000000000000000000000000000000000000000000000000000000000
310
00000000000000000000000000000000000000000000000000000000000000000000000000000000000000000000000000000000000000000000000000000000000000000000000000000000000000000000000000000000000000000000000000000000000000000000000000000000000000000000000000000000000000
310
00000000000000000000000000000000000000000000000000000000000000000000000000000000000000000000000000000000000000000000000000000000000000000000000000000000000000000000000000000000000000000000000000000000000000000000000000000000000000000000000000000000000000
310
00000000000000000000000000000000000000000000000000000000000000000000000000000000000000000000000000000000000000000000000000000000000000000000000000000000000000000000000000000000000000000000000000000000000000000000000000000000000000000000000000000000000000
310
0000000000000000000000000000000000000000000000000000000000000000000000000000000000000000000000000000000000000000
 70
     4
280
     1
281
     0
  0
BLOCK_RECORD
  5
27C9
102
{ACAD_XDICTIONARY
360
27E9
102
}
330
1
100
AcDbSymbolTableRecord
100
AcDbBlockTableRecord
  2
D
340
0
 70
     4
280
     1
281
     0
  0
ENDTAB
  0
ENDSEC
  0
SECTION
  2
BLOCKS
  0
BLOCK
  5
20
330
1F
100
AcDbEntity
  8
0
100
AcDbBlockBegin
  2
*Model_Space
 70
     0
 10
0.0
 20
0.0
 30
0.0
  3
*Model_Space
  1

  0
ENDBLK
  5
21
330
1F
100
AcDbEntity
  8
0
100
AcDbBlockEnd
  0
BLOCK
  5
52
330
50
100
AcDbEntity
 67
     1
  8
0
100
AcDbBlockBegin
  2
*Paper_Space
 70
     0
 10
0.0
 20
0.0
 30
0.0
  3
*Paper_Space
  1

  0
ENDBLK
  5
53
330
50
100
AcDbEntity
 67
     1
  8
0
100
AcDbBlockEnd
  0
BLOCK
  5
57
330
55
100
AcDbEntity
 67
     1
  8
0
100
AcDbBlockBegin
  2
*Paper_Space0
 70
     0
 10
0.0
 20
0.0
 30
0.0
  3
*Paper_Space0
  1

  0
ENDBLK
  5
58
330
55
100
AcDbEntity
 67
     1
  8
0
100
AcDbBlockEnd
  0
BLOCK
  5
328
330
315
100
AcDbEntity
  8
0
100
AcDbBlockBegin
  2
a
 70
     0
 10
0.0
 20
0.0
 30
0.0
  3
a
  1

  0
LINE
  5
316
330
315
100
AcDbEntity
  8
图层3
100
AcDbLine
 10
-51.58183479263425
 20
5.069342261306474
 30
0.0
 11
128.4181652073657
 21
5.069342261306474
 31
0.0
  0
LINE
  5
317
330
315
100
AcDbEntity
  8
图层3
100
AcDbLine
 10
-51.58183479263425
 20
-4.930657738693525
 30
0.0
 11
128.4181652073657
 21
-4.930657738693525
 31
0.0
  0
LINE
  5
318
330
315
100
AcDbEntity
  8
图层3
100
AcDbLine
 10
-51.58183479263425
 20
-14.93065773869352
 30
0.0
 11
128.4181652073657
 21
-14.93065773869352
 31
0.0
  0
LINE
  5
319
330
315
100
AcDbEntity
  8
图层3
100
AcDbLine
 10
-51.58183479263425
 20
-24.93065773869353
 30
0.0
 11
128.4181652073657
 21
-24.93065773869353
 31
0.0
  0
LINE
  5
31A
330
315
100
AcDbEntity
  8
图层3
100
AcDbLine
 10
-51.58183479263425
 20
-34.93065773869353
 30
0.0
 11
128.4181652073657
 21
-34.93065773869353
 31
0.0
  0
LINE
  5
31B
330
315
100
AcDbEntity
  8
图层3
100
AcDbLine
 10
-51.58183479263425
 20
5.069342261306474
 30
0.0
 11
-51.58183479263425
 21
-34.93065773869353
 31
0.0
  0
LINE
  5
31C
330
315
100
AcDbEntity
  8
图层3
100
AcDbLine
 10
128.4181652073657
 20
5.069342261306474
 30
0.0
 11
128.4181652073657
 21
-34.93065773869353
 31
0.0
  0
LINE
  5
31D
330
315
100
AcDbEntity
  8
图层3
100
AcDbLine
 10
-31.58183479263426
 20
-4.930657738693525
 30
0.0
 11
-31.58183479263426
 21
-34.93065773869353
 31
0.0
  0
LINE
  5
31E
330
315
100
AcDbEntity
  8
图层3
100
AcDbLine
 10
78.41816520736575
 20
-4.930657738693469
 30
0.0
 11
78.41816520736575
 21
-24.93065773869353
 31
0.0
  0
LINE
  5
31F
330
315
100
AcDbEntity
  8
图层3
100
AcDbLine
 10
58.41816520736575
 20
-4.930657738693525
 30
0.0
 11
58.41816520736575
 21
-34.93065773869353
 31
0.0
  0
LINE
  5
320
330
315
100
AcDbEntity
  8
图层3
100
AcDbLine
 10
38.41816520736586
 20
-24.93065773869364
 30
0.0
 11
38.41816520736575
 21
-34.93065773869364
 31
0.0
  0
MTEXT
  5
321
330
315
100
AcDbEntity
  8
图层3
100
AcDbMText
 10
-7.991267257440085
 20
3.638071533116089
 30
0.0
 40
5.0
 41
129.0054
 46
0.0
 71
     1
 72
     5
  1
{\f幼圆|b0|i0|c134|p49;江门市蓬江区荷塘合和五金厂}
 73
     1
 44
1.0
  0
MTEXT
  5
322
330
315
100
AcDbEntity
  8
图层3
100
AcDbMText
 10
-48.26895764370283
 20
-6.568323419867056
 30
0.0
 40
5.0
 41
16.6364
 46
0.0
 71
     1
 72
     5
  1
{\f幼圆|b0|i0|c134|p49;名称}
 73
     1
 44
1.0
  0
MTEXT
  5
323
330
315
100
AcDbEntity
  8
图层3
100
AcDbMText
 10
-47.9770915309241
 20
-16.19149345429582
 30
0.0
 40
5.0
 41
15.1771
 46
0.0
 71
     1
 72
     5
  1
{\f幼圆|b0|i0|c134|p49;材料}
 73
     1
 44
1.0
  0
MTEXT
  5
324
330
315
100
AcDbEntity
  8
图层3
100
AcDbMText
 10
-48.26895764370283
 20
-26.10627442497457
 30
0.0
 40
5.0
 41
16.3446
 46
0.0
 71
     1
 72
     5
  1
{\f幼圆|b0|i0|c134|p49;日期}
 73
     1
 44
1.0
  0
MTEXT
  5
325
330
315
100
AcDbEntity
  8
图层3
100
AcDbMText
 10
61.76502632027404
 20
-6.276710960589753
 30
0.0
 40
5.0
 41
16.3446
 46
0.0
 71
     1
 72
     5
  1
{\f幼圆|b0|i0|c134|p49;型号}
 73
     1
 44
1.0
  0
MTEXT
  5
326
330
315
100
AcDbEntity
  8
图层3
100
AcDbMText
 10
61.76502632027404
 20
-16.19149193126873
 30
0.0
 40
5.0
 41
16.0527
 46
0.0
 71
     1
 72
     5
  1
{\f幼圆|b0|i0|c134|p49;图号}
 73
     1
 44
1.0
  0
MTEXT
  5
327
330
315
100
AcDbEntity
  8
图层3
100
AcDbMText
 10
41.62617975974217
 20
-26.10627594800144
 30
0.0
 40
5.0
 41
16.9283
 46
0.0
 71
     1
 72
     5
  1
{\f幼圆|b0|i0|c134|p49;编号}
 73
     1
 44
1.0
  0
ENDBLK
  5
329
330
315
100
AcDbEntity
  8
0
100
AcDbBlockEnd
  0
BLOCK
  5
1DE1
330
1DDB
100
AcDbEntity
  8
0
100
AcDbBlockBegin
  2
*D2
 70
     1
 10
0.0
 20
0.0
 30
0.0
  3
*D2
  1

  0
LINE
  5
2755
330
1DDB
100
AcDbEntity
  8
图层3
 62
     0
440
 16777216
370
    -2
100
AcDbLine
 10
1416.20508631232
 20
1506.861048294557
 30
0.0
 11
1411.372109100611
 21
1398.9692398415
 31
0.0
  0
MTEXT
  5
2756
330
1DDB
100
AcDbEntity
  8
图层3
 62
     0
440
 16777216
100
AcDbMText
 10
1398.162624395769
 20
1461.623126503323
 30
0.0
 40
18.0
 41
0.0
 46
0.0
 71
     5
 72
     1
  1
R2200
 11
0.0447497889972998
 21
0.998998226417193
 31
0.0
 73
     1
 44
1.0
  0
SOLID
  5
2757
330
1DDB
100
AcDbEntity
  8
图层3
 62
     0
440
 16777216
100
AcDbTrace
 10
1408.708113830165
 20
1399.08857261216
 30
0.0
 11
1414.036104371057
 21
1398.84990707084
 31
0.0
 12
1410.656112476655
 22
1382.985268218825
 32
0.0
 13
1410.656112476655
 23
1382.985268218825
 33
0.0
  0
POINT
  5
2758
330
1DDB
100
AcDbEntity
  8
Defpoints
 62
     0
440
 16777216
100
AcDbPoint
 10
1410.656112476655
 20
1382.985268218825
 30
0.0
  0
POINT
  5
2759
330
1DDB
100
AcDbEntity
  8
Defpoints
 62
     0
440
 16777216
100
AcDbPoint
 10
1509.105648270716
 20
3580.781366336655
 30
0.0
  0
ENDBLK
  5
1DE2
330
1DDB
100
AcDbEntity
  8
0
100
AcDbBlockEnd
  0
BLOCK
  5
1EF3
330
1EE6
100
AcDbEntity
  8
0
100
AcDbBlockBegin
  2
*D3
 70
     1
 10
0.0
 20
0.0
 30
0.0
  3
*D3
  1

  0
LINE
  5
2A3E
330
1EE6
100
AcDbEntity
  8
图层3
 62
     0
440
 16777216
370
    -2
100
AcDbLine
 10
842.9992995442422
 20
1323.809032730287
 30
0.0
 11
842.9992995442422
 21
1256.636784924355
 31
0.0
  0
LINE
  5
2A3F
330
1EE6
100
AcDbEntity
  8
图层3
 62
     0
440
 16777216
370
    -2
100
AcDbLine
 10
853.599299544242
 20
1355.309032730287
 30
0.0
 11
853.599299544242
 21
1256.636784924355
 31
0.0
  0
LINE
  5
2A40
330
1EE6
100
AcDbEntity
  8
图层3
 62
     0
440
 16777216
370
    -2
100
AcDbLine
 10
826.9992995442422
 20
1257.886784924355
 30
0.0
 11
810.9992995442421
 21
1257.886784924355
 31
0.0
  0
LINE
  5
2A41
330
1EE6
100
AcDbEntity
  8
图层3
 62
     0
440
 16777216
370
    -2
100
AcDbLine
 10
869.599299544242
 20
1257.886784924355
 30
0.0
 11
1013.599299544242
 21
1257.886784924355
 31
0.0
  0
LINE
  5
2A42
330
1EE6
100
AcDbEntity
  8
图层3
 62
     0
440
 16777216
370
    -2
100
AcDbLine
 10
842.9992995442422
 20
1257.886784924355
 30
0.0
 11
853.599299544242
 21
1257.886784924355
 31
0.0
  0
SOLID
  5
2A43
330
1EE6
100
AcDbEntity
  8
图层3
 62
     0
440
 16777216
100
AcDbTrace
 10
826.9992995442422
 20
1260.553451591022
 30
0.0
 11
826.9992995442422
 21
1255.220118257688
 31
0.0
 12
842.9992995442422
 22
1257.886784924355
 32
0.0
 13
842.9992995442422
 23
1257.886784924355
 33
0.0
  0
SOLID
  5
2A44
330
1EE6
100
AcDbEntity
  8
图层3
 62
     0
440
 16777216
100
AcDbTrace
 10
869.599299544242
 20
1260.553451591022
 30
0.0
 11
869.599299544242
 21
1255.220118257688
 31
0.0
 12
853.599299544242
 22
1257.886784924355
 32
0.0
 13
853.599299544242
 23
1257.886784924355
 33
0.0
  0
MTEXT
  5
2A45
330
1EE6
100
AcDbEntity
  8
图层3
 62
     0
440
 16777216
100
AcDbMText
 10
949.5992995442421
 20
1273.886784924355
 30
0.0
 40
18.0
 41
0.0
 46
0.0
 71
     5
 72
     1
  1
5.3{\Ftxt|c134; [.2"]}
 73
     1
 44
1.0
  0
POINT
  5
2A46
330
1EE6
100
AcDbEntity
  8
Defpoints
 62
     0
440
 16777216
100
AcDbPoint
 10
842.9992995442422
 20
1326.809032730287
 30
0.0
  0
POINT
  5
2A47
330
1EE6
100
AcDbEntity
  8
Defpoints
 62
     0
440
 16777216
100
AcDbPoint
 10
853.599299544242
 20
1358.309032730287
 30
0.0
  0
POINT
  5
2A48
330
1EE6
100
AcDbEntity
  8
Defpoints
 62
     0
440
 16777216
100
AcDbPoint
 10
853.599299544242
 20
1257.886784924355
 30
0.0
  0
ENDBLK
  5
1EF4
330
1EE6
100
AcDbEntity
  8
0
100
AcDbBlockEnd
  0
BLOCK
  5
1F0E
330
1F04
100
AcDbEntity
  8
0
100
AcDbBlockBegin
  2
*D4
 70
     1
 10
0.0
 20
0.0
 30
0.0
  3
*D4
  1

  0
LINE
  5
2A2A
330
1F04
100
AcDbEntity
  8
图层3
 62
     0
440
 16777216
370
    -2
100
AcDbLine
 10
846.9992995442426
 20
1339.809032730288
 30
0.0
 11
691.3927139766947
 21
1339.809032730288
 31
0.0
  0
LINE
  5
2A2B
330
1F04
100
AcDbEntity
  8
图层3
 62
     0
440
 16777216
370
    -2
100
AcDbLine
 10
846.9992995442426
 20
1561.809032730288
 30
0.0
 11
691.3927139766947
 21
1561.809032730288
 31
0.0
  0
LINE
  5
2A2C
330
1F04
100
AcDbEntity
  8
图层3
 62
     0
440
 16777216
370
    -2
100
AcDbLine
 10
692.6427139766947
 20
1355.809032730288
 30
0.0
 11
692.6427139766947
 21
1545.809032730288
 31
0.0
  0
SOLID
  5
2A2D
330
1F04
100
AcDbEntity
  8
图层3
 62
     0
440
 16777216
100
AcDbTrace
 10
689.9760473100281
 20
1355.809032730288
 30
0.0
 11
695.3093806433614
 21
1355.809032730288
 31
0.0
 12
692.6427139766947
 22
1339.809032730288
 32
0.0
 13
692.6427139766947
 23
1339.809032730288
 33
0.0
  0
SOLID
  5
2A2E
330
1F04
100
AcDbEntity
  8
图层3
 62
     0
440
 16777216
100
AcDbTrace
 10
689.9760473100281
 20
1545.809032730288
 30
0.0
 11
695.3093806433614
 21
1545.809032730288
 31
0.0
 12
692.6427139766947
 22
1561.809032730288
 32
0.0
 13
692.6427139766947
 23
1561.809032730288
 33
0.0
  0
MTEXT
  5
2A2F
330
1F04
100
AcDbEntity
  8
图层3
 62
     0
440
 16777216
100
AcDbMText
 10
676.6427139766951
 20
1450.809032730287
 30
0.0
 40
18.0
 41
0.0
 46
0.0
 71
     5
 72
     1
  1
%%C111{\Ftxt|c134; [4.37"]}
 11
0.0000000000000001
 21
1.0
 31
0.0
 73
     1
 44
1.0
  0
POINT
  5
2A30
330
1F04
100
AcDbEntity
  8
Defpoints
 62
     0
440
 16777216
100
AcDbPoint
 10
849.9992995442426
 20
1339.809032730288
 30
0.0
  0
POINT
  5
2A31
330
1F04
100
AcDbEntity
  8
Defpoints
 62
     0
440
 16777216
100
AcDbPoint
 10
849.9992995442426
 20
1561.809032730288
 30
0.0
  0
POINT
  5
2A32
330
1F04
100
AcDbEntity
  8
Defpoints
 62
     0
440
 16777216
100
AcDbPoint
 10
692.6427139766947
 20
1561.809032730288
 30
0.0
  0
ENDBLK
  5
1F0F
330
1F04
100
AcDbEntity
  8
0
100
AcDbBlockEnd
  0
BLOCK
  5
1FA7
330
1F9D
100
AcDbEntity
  8
0
100
AcDbBlockBegin
  2
*D5
 70
     1
 10
0.0
 20
0.0
 30
0.0
  3
*D5
  1

  0
LINE
  5
2A18
330
1F9D
100
AcDbEntity
  8
图层3
 62
     0
440
 16777216
370
    -2
100
AcDbLine
 10
839.9992995442426
 20
1326.809032730287
 30
0.0
 11
653.6437560729045
 21
1326.809032730287
 31
0.0
  0
LINE
  5
2A19
330
1F9D
100
AcDbEntity
  8
图层3
 62
     0
440
 16777216
370
    -2
100
AcDbLine
 10
839.9992995442426
 20
1574.809032730288
 30
0.0
 11
653.6437560729045
 21
1574.809032730288
 31
0.0
  0
LINE
  5
2A1A
330
1F9D
100
AcDbEntity
  8
图层3
 62
     0
440
 16777216
370
    -2
100
AcDbLine
 10
654.8937560729045
 20
1342.809032730287
 30
0.0
 11
654.8937560729045
 21
1558.809032730288
 31
0.0
  0
SOLID
  5
2A1B
330
1F9D
100
AcDbEntity
  8
图层3
 62
     0
440
 16777216
100
AcDbTrace
 10
652.2270894062379
 20
1342.809032730287
 30
0.0
 11
657.5604227395712
 21
1342.809032730287
 31
0.0
 12
654.8937560729045
 22
1326.809032730287
 32
0.0
 13
654.8937560729045
 23
1326.809032730287
 33
0.0
  0
SOLID
  5
2A1C
330
1F9D
100
AcDbEntity
  8
图层3
 62
     0
440
 16777216
100
AcDbTrace
 10
652.2270894062379
 20
1558.809032730288
 30
0.0
 11
657.5604227395712
 21
1558.809032730288
 31
0.0
 12
654.8937560729045
 22
1574.809032730288
 32
0.0
 13
654.8937560729045
 23
1574.809032730288
 33
0.0
  0
MTEXT
  5
2A1D
330
1F9D
100
AcDbEntity
  8
图层3
 62
     0
440
 16777216
100
AcDbMText
 10
638.8937560729049
 20
1450.809032730287
 30
0.0
 40
18.0
 41
0.0
 46
0.0
 71
     5
 72
     1
  1
%%C124{\Ftxt|c134; [4.88"]}
 11
0.0000000000000001
 21
1.0
 31
0.0
 73
     1
 44
1.0
  0
POINT
  5
2A1E
330
1F9D
100
AcDbEntity
  8
Defpoints
 62
     0
440
 16777216
100
AcDbPoint
 10
842.9992995442425
 20
1326.809032730287
 30
0.0
  0
POINT
  5
2A1F
330
1F9D
100
AcDbEntity
  8
Defpoints
 62
     0
440
 16777216
100
AcDbPoint
 10
842.9992995442425
 20
1574.809032730288
 30
0.0
  0
POINT
  5
2A20
330
1F9D
100
AcDbEntity
  8
Defpoints
 62
     0
440
 16777216
100
AcDbPoint
 10
654.8937560729045
 20
1574.809032730288
 30
0.0
  0
ENDBLK
  5
1FA8
330
1F9D
100
AcDbEntity
  8
0
100
AcDbBlockEnd
  0
BLOCK
  5
1FF6
330
1FEC
100
AcDbEntity
  8
0
100
AcDbBlockBegin
  2
*D6
 70
     1
 10
0.0
 20
0.0
 30
0.0
  3
*D6
  1

  0
ARC
  5
26E3
330
1FEC
100
AcDbEntity
  8
图层3
 62
     0
440
 16777216
370
    -2
100
AcDbCircle
 10
1239.105648270716
 20
1608.781366336652
 30
0.0
 40
93.43449716878421
100
AcDbArc
 50
282.8235267646702
 51
350.1764732353298
  0
SOLID
  5
26E4
330
1FEC
100
AcDbEntity
  8
图层3
 62
     0
440
 16777216
100
AcDbTrace
 10
1260.210392683009
 20
1515.03600110615
 30
0.0
 11
1259.476270526252
 21
1520.318567632319
 31
0.0
 12
1243.995632026123
 22
1515.474917898961
 32
0.0
 13
1243.995632026123
 23
1515.474917898961
 33
0.0
  0
SOLID
  5
26E5
330
1FEC
100
AcDbEntity
  8
图层3
 62
     0
440
 16777216
100
AcDbTrace
 10
1328.513327778919
 20
1593.068446473064
 30
0.0
 11
1333.82707571633
 21
1592.611798575771
 31
0.0
 12
1332.540145439501
 22
1608.781366336652
 32
0.0
 13
1332.540145439501
 23
1608.781366336652
 33
0.0
  0
MTEXT
  5
26E6
330
1FEC
100
AcDbEntity
  8
图层3
 62
     0
440
 16777216
100
AcDbMText
 10
1295.274647949176
 20
1555.478975893974
 30
0.0
 40
18.0
 41
0.0
 46
0.0
 71
     5
 72
     1
  1
87°
 11
0.6883545756937546
 21
0.7253743710122871
 31
0.0
 73
     1
 44
1.0
  0
POINT
  5
26E7
330
1FEC
100
AcDbEntity
  8
Defpoints
 62
     0
440
 16777216
100
AcDbPoint
 10
1288.618388264398
 20
1529.544418897331
 30
0.0
  0
POINT
  5
26E8
330
1FEC
100
AcDbEntity
  8
Defpoints
 62
     0
440
 16777216
100
AcDbPoint
 10
1239.229810690815
 20
1606.412206227259
 30
0.0
  0
POINT
  5
26E9
330
1FEC
100
AcDbEntity
  8
Defpoints
 62
     0
440
 16777216
100
AcDbPoint
 10
1237.207719137286
 20
1608.781366336652
 30
0.0
  0
POINT
  5
26EA
330
1FEC
100
AcDbEntity
  8
Defpoints
 62
     0
440
 16777216
100
AcDbPoint
 10
1781.003577404146
 20
1608.781366336652
 30
0.0
  0
POINT
  5
26EB
330
1FEC
100
AcDbEntity
  8
Defpoints
 62
     0
440
 16777216
100
AcDbPoint
 10
1248.47565095257
 20
1429.99106439982
 30
0.0
  0
ENDBLK
  5
1FF7
330
1FEC
100
AcDbEntity
  8
0
100
AcDbBlockEnd
  0
BLOCK
  5
20B3
330
20A9
100
AcDbEntity
  8
0
100
AcDbBlockBegin
  2
*D7
 70
     1
 10
0.0
 20
0.0
 30
0.0
  3
*D7
  1

  0
ARC
  5
26EC
330
20A9
100
AcDbEntity
  8
图层3
 62
     0
440
 16777216
370
    -2
100
AcDbCircle
 10
626.2916598371098
 20
1184.336204356894
 30
0.0
 40
81.35711867621207
100
AcDbArc
 50
281.2862438059614
 51
345.7137561940386
  0
SOLID
  5
26ED
330
20A9
100
AcDbEntity
  8
图层3
 62
     0
440
 16777216
100
AcDbTrace
 10
642.4763370409699
 20
1101.898652934991
 30
0.0
 11
641.9519002447692
 21
1107.206139203577
 31
0.0
 12
626.2916598371098
 22
1102.979085680682
 32
0.0
 13
626.2916598371098
 23
1102.979085680682
 33
0.0
  0
SOLID
  5
26EE
330
20A9
100
AcDbEntity
  8
图层3
 62
     0
440
 16777216
100
AcDbTrace
 10
702.4964272600274
 20
1164.660750049569
 30
0.0
 11
707.7691929019242
 21
1163.859259606658
 31
0.0
 12
707.5372814097081
 22
1180.078301753804
 32
0.0
 13
707.5372814097081
 23
1180.078301753804
 33
0.0
  0
MTEXT
  5
26EF
330
20A9
100
AcDbEntity
  8
图层3
 62
     0
440
 16777216
100
AcDbMText
 10
671.2805315320399
 20
1136.927825505962
 30
0.0
 40
18.0
 41
0.0
 46
0.0
 71
     5
 72
     1
  1
87°
 11
0.7253743710122876
 21
0.6883545756937543
 31
0.0
 73
     1
 44
1.0
  0
POINT
  5
26F0
330
20A9
100
AcDbEntity
  8
Defpoints
 62
     0
440
 16777216
100
AcDbPoint
 10
665.7343736468602
 20
1113.179665046601
 30
0.0
  0
POINT
  5
26F1
330
20A9
100
AcDbEntity
  8
Defpoints
 62
     0
440
 16777216
100
AcDbPoint
 10
626.2916598371098
 20
1186.708615773682
 30
0.0
  0
POINT
  5
26F2
330
20A9
100
AcDbEntity
  8
Defpoints
 62
     0
440
 16777216
100
AcDbPoint
 10
628.6608199465024
 20
1184.212041936795
 30
0.0
  0
POINT
  5
26F3
330
20A9
100
AcDbEntity
  8
Defpoints
 62
     0
440
 16777216
100
AcDbPoint
 10
811.1448860444545
 20
1174.648457278061
 30
0.0
  0
POINT
  5
26F4
330
20A9
100
AcDbEntity
  8
Defpoints
 62
     0
440
 16777216
100
AcDbPoint
 10
626.2916598371096
 20
781.963792940111
 30
0.0
  0
ENDBLK
  5
20B4
330
20A9
100
AcDbEntity
  8
0
100
AcDbBlockEnd
  0
BLOCK
  5
210B
330
20F5
100
AcDbEntity
  8
0
100
AcDbBlockBegin
  2
c
 70
     0
 10
0.0
 20
0.0
 30
0.0
  3
c
  1

  0
MTEXT
  5
20F6
330
20F5
100
AcDbEntity
  8
图层3
100
AcDbMText
 10
54.71600927374021
 20
226.3160909522091
 30
0.0
 40
3.7
 41
320.0
 46
0.0
 71
     1
 72
     5
  1
{\fMS Reference Sans Serif|b0|i0|c0|p34;M\H1.027x;odel no:5052A\P\PSU3041.2mm\P\PMfg. date:XXXXX\P\PComplies with ASME A112.19.3 and CSA B45}
 73
     1
 44
1.0
  0
LINE
  5
20F7
330
20F5
100
AcDbEntity
  8
图层3
100
AcDbLine
 10
133.5798802168802
 20
221.116722845646
 30
0.0
 11
152.5798802168802
 21
221.116722845646
 31
0.0
  0
LINE
  5
20F8
330
20F5
100
AcDbEntity
  8
图层3
100
AcDbLine
 10
133.5798802168802
 20
221.116722845646
 30
0.0
 11
133.5798802168802
 21
213.116722845646
 31
0.0
  0
LINE
  5
20F9
330
20F5
100
AcDbEntity
  8
图层3
100
AcDbLine
 10
152.5798802168802
 20
221.116722845646
 30
0.0
 11
152.5798802168802
 21
213.116722845646
 31
0.0
  0
ARC
  5
20FA
330
20F5
100
AcDbEntity
  8
图层3
100
AcDbCircle
 10
152.8175005163763
 20
218.5860889160803
 30
0.0
 40
20.0
100
AcDbArc
 50
195.8707558324607
 51
240.8642149372622
  0
ARC
  5
20FB
330
20F5
100
AcDbEntity
  8
图层3
100
AcDbCircle
 10
133.0798802168803
 20
218.7938061789792
 30
0.0
 40
20.3095857952251
100
AcDbArc
 50
299.4970227370384
 51
343.7680064932391
  0
LINE
  5
20FC
330
20F5
100
AcDbEntity
  8
图层3
100
AcDbLine
 10
133.5798802168802
 20
221.116722845646
 30
0.0
 11
152.5798802168802
 21
213.116722845646
 31
0.0
  0
LINE
  5
20FD
330
20F5
100
AcDbEntity
  8
图层3
100
AcDbLine
 10
133.5798802168802
 20
214.6065560683549
 30
0.0
 11
150.2515382165315
 21
207.5869105948175
 31
0.0
  0
MTEXT
  5
20FE
330
20F5
100
AcDbEntity
  8
图层3
100
AcDbMText
 10
138.1416580824129
 20
216.860014701051
 30
0.0
 40
2.5
 41
4.719320932013005
 46
0.0
 71
     1
 72
     5
  1
{\fMS Reference Sans Serif|b0|i0|c0|p34;U}
 73
     1
 44
1.0
  0
MTEXT
  5
20FF
330
20F5
100
AcDbEntity
  8
图层3
100
AcDbMText
 10
142.1117902545913
 20
215.3487572451774
 30
0.0
 40
2.5
 41
1.316350149343662
 46
0.0
 71
     1
 72
     5
  1
{\fMS Reference Sans Serif|b0|i0|c0|p34;P}
 73
     1
 44
1.0
  0
MTEXT
  5
2100
330
20F5
100
AcDbEntity
  8
图层3
100
AcDbMText
 10
145.5147618524657
 20
213.4596856031385
 30
0.0
 40
2.5
 41
4.915402377500981
 46
0.0
 71
     1
 72
     5
  1
{\fMS Reference Sans Serif|b0|i0|c0|p34;C}
 73
     1
 44
1.0
  0
MTEXT
  5
2101
330
20F5
100
AcDbEntity
  8
图层3
100
AcDbMText
 10
132.4700397036948
 20
203.2586964128373
 30
0.0
 40
3.5
 41
5.104456174004042
 46
0.0
 71
     1
 72
     5
  1
{\fMS Reference Sans Serif|b0|i0|c0|p34;C}
 73
     1
 44
1.0
  0
CIRCLE
  5
2102
330
20F5
100
AcDbEntity
  8
图层3
100
AcDbCircle
 10
151.5644878241899
 20
201.7474389569638
 30
0.0
 40
1.946073200565057
  0
MTEXT
  5
2103
330
20F5
100
AcDbEntity
  8
图层3
100
AcDbMText
 10
151.0444204230561
 20
202.8808819896013
 30
0.0
 40
2.0
 41
0.9452693901175734
 46
0.0
 71
     1
 72
     5
  1
{\fSimHei|b0|i0|c134|p2;R}
 73
     1
 44
1.0
  0
LINE
  5
2104
330
20F5
100
AcDbEntity
  8
图层3
100
AcDbLine
 10
49.55519078950499
 20
169.0633290678566
 30
0.0
 11
177.555190789505
 21
169.0633290678566
 31
0.0
  0
LINE
  5
2105
330
20F5
100
AcDbEntity
  8
图层3
100
AcDbLine
 10
177.555190789505
 20
169.0633290678566
 30
0.0
 11
177.555190789505
 21
232.0633290678566
 31
0.0
  0
LINE
  5
2106
330
20F5
100
AcDbEntity
  8
图层3
100
AcDbLine
 10
177.555190789505
 20
232.0633290678566
 30
0.0
 11
49.55519078950499
 21
232.0633290678566
 31
0.0
  0
LINE
  5
2107
330
20F5
100
AcDbEntity
  8
图层3
100
AcDbLine
 10
49.55519078950499
 20
232.0633290678566
 30
0.0
 11
49.55519078950499
 21
169.0633290678566
 31
0.0
  0
MTEXT
  5
2108
330
20F5
100
AcDbEntity
  8
图层3
100
AcDbMText
 10
54.30222319700829
 20
178.23411561022
 30
0.0
 40
3.5
 41
123.2529675924967
 46
0.0
 71
     1
 72
     5
  1
{\fFranklin Gothic Medium|b0|i0|c0|p34;Jian\fMicrosoft Sans Serif|b0|i0|c0|p34;gmen XHHL Stainless Steel Manufacturing Co.Ltd.}
 73
     1
 44
1.0
  0
ENDBLK
  5
210C
330
20F5
100
AcDbEntity
  8
0
100
AcDbBlockEnd
  0
BLOCK
  5
2135
330
212B
100
AcDbEntity
  8
0
100
AcDbBlockBegin
  2
*D9
 70
     1
 10
0.0
 20
0.0
 30
0.0
  3
*D9
  1

  0
LINE
  5
2A82
330
212B
100
AcDbEntity
  8
图层3
 62
     0
440
 16777216
370
    -2
100
AcDbLine
 10
854.2916598371098
 20
981.336204356897
 30
0.0
 11
854.2916598371098
 21
720.8326346062695
 31
0.0
  0
LINE
  5
2A83
330
212B
100
AcDbEntity
  8
图层3
 62
     0
440
 16777216
370
    -2
100
AcDbLine
 10
626.2916598371098
 20
756.3362043568987
 30
0.0
 11
626.2916598371098
 21
720.8326346062695
 31
0.0
  0
LINE
  5
2A84
330
212B
100
AcDbEntity
  8
图层3
 62
     0
440
 16777216
370
    -2
100
AcDbLine
 10
838.2916598371098
 20
722.0826346062694
 30
0.0
 11
642.2916598371098
 21
722.0826346062694
 31
0.0
  0
SOLID
  5
2A85
330
212B
100
AcDbEntity
  8
图层3
 62
     0
440
 16777216
100
AcDbTrace
 10
838.2916598371098
 20
724.7493012729361
 30
0.0
 11
838.2916598371098
 21
719.4159679396029
 31
0.0
 12
854.2916598371098
 22
722.0826346062694
 32
0.0
 13
854.2916598371098
 23
722.0826346062694
 33
0.0
  0
SOLID
  5
2A86
330
212B
100
AcDbEntity
  8
图层3
 62
     0
440
 16777216
100
AcDbTrace
 10
642.2916598371098
 20
724.7493012729361
 30
0.0
 11
642.2916598371098
 21
719.4159679396029
 31
0.0
 12
626.2916598371098
 22
722.0826346062694
 32
0.0
 13
626.2916598371098
 23
722.0826346062694
 33
0.0
  0
MTEXT
  5
2A87
330
212B
100
AcDbEntity
  8
图层3
 62
     0
440
 16777216
100
AcDbMText
 10
739.799102557019
 20
738.0826346062694
 30
0.0
 40
18.0
 41
0.0
 46
0.0
 71
     5
 72
     1
  1
228{\Ftxt|c134; [9"]}
 73
     1
 44
1.0
  0
POINT
  5
2A88
330
212B
100
AcDbEntity
  8
Defpoints
 62
     0
440
 16777216
100
AcDbPoint
 10
854.2916598371098
 20
984.3362043568969
 30
0.0
  0
POINT
  5
2A89
330
212B
100
AcDbEntity
  8
Defpoints
 62
     0
440
 16777216
100
AcDbPoint
 10
626.2916598371098
 20
759.3362043568987
 30
0.0
  0
POINT
  5
2A8A
330
212B
100
AcDbEntity
  8
Defpoints
 62
     0
440
 16777216
100
AcDbPoint
 10
626.2916598371098
 20
722.0826346062694
 30
0.0
  0
ENDBLK
  5
2136
330
212B
100
AcDbEntity
  8
0
100
AcDbBlockEnd
  0
BLOCK
  5
22B3
330
22AC
100
AcDbEntity
  8
0
100
AcDbBlockBegin
  2
*D10
 70
     1
 10
0.0
 20
0.0
 30
0.0
  3
*D10
  1

  0
LINE
  5
2A91
330
22AC
100
AcDbEntity
  8
图层3
 62
     0
440
 16777216
370
    -2
100
AcDbLine
 10
1067.323924418577
 20
1561.440790289291
 30
0.0
 11
1200.323924418577
 21
1561.440790289291
 31
0.0
  0
LINE
  5
2A92
330
22AC
100
AcDbEntity
  8
图层3
 62
     0
440
 16777216
370
    -2
100
AcDbLine
 10
1200.323924418577
 20
1561.440790289291
 30
0.0
 11
1228.223567159978
 21
1595.801121983588
 31
0.0
  0
MTEXT
  5
2A93
330
22AC
100
AcDbEntity
  8
图层3
 62
     0
440
 16777216
100
AcDbMText
 10
1130.323924418577
 20
1577.440790289291
 30
0.0
 40
18.0
 41
0.0
 46
0.0
 71
     5
 72
     1
  1
R2.5{\Ftxt|c134; [.1"]}
 73
     1
 44
1.0
  0
SOLID
  5
2A94
330
22AC
100
AcDbEntity
  8
图层3
 62
     0
440
 16777216
100
AcDbTrace
 10
1226.153395435916
 20
1597.482044392269
 30
0.0
 11
1230.29373888404
 21
1594.120199574907
 31
0.0
 12
1238.309101612066
 22
1608.222152327957
 32
0.0
 13
1238.309101612066
 23
1608.222152327957
 33
0.0
  0
POINT
  5
2A95
330
22AC
100
AcDbEntity
  8
Defpoints
 62
     0
440
 16777216
100
AcDbPoint
 10
1238.309101612066
 20
1608.222152327957
 30
0.0
  0
POINT
  5
2A96
330
22AC
100
AcDbEntity
  8
Defpoints
 62
     0
440
 16777216
100
AcDbPoint
 10
1236.733236853929
 20
1606.281366336652
 30
0.0
  0
ENDBLK
  5
22B4
330
22AC
100
AcDbEntity
  8
0
100
AcDbBlockEnd
  0
BLOCK
  5
22E9
330
22E2
100
AcDbEntity
  8
0
100
AcDbBlockBegin
  2
*D11
 70
     1
 10
0.0
 20
0.0
 30
0.0
  3
*D11
  1

  0
LINE
  5
2A4F
330
22E2
100
AcDbEntity
  8
图层3
 62
     0
440
 16777216
370
    -2
100
AcDbLine
 10
790.3514969013187
 20
1224.663664276692
 30
0.0
 11
657.3514969013187
 21
1224.663664276692
 31
0.0
  0
LINE
  5
2A50
330
22E2
100
AcDbEntity
  8
图层3
 62
     0
440
 16777216
370
    -2
100
AcDbLine
 10
657.3514969013187
 20
1224.663664276692
 30
0.0
 11
636.9086661606217
 21
1197.495840085064
 31
0.0
  0
MTEXT
  5
2A51
330
22E2
100
AcDbEntity
  8
图层3
 62
     0
440
 16777216
100
AcDbMText
 10
727.3514969013185
 20
1240.663664276692
 30
0.0
 40
18.0
 41
0.0
 46
0.0
 71
     5
 72
     1
  1
R2.5{\Ftxt|c134; [.1"]}
 73
     1
 44
1.0
  0
SOLID
  5
2A52
330
22E2
100
AcDbEntity
  8
图层3
 62
     0
440
 16777216
100
AcDbTrace
 10
634.7778564201019
 20
1199.099199358844
 30
0.0
 11
639.0394759011416
 21
1195.892480811284
 31
0.0
 12
627.2885105179408
 22
1184.710981641944
 32
0.0
 13
627.2885105179408
 23
1184.710981641944
 33
0.0
  0
POINT
  5
2A53
330
22E2
100
AcDbEntity
  8
Defpoints
 62
     0
440
 16777216
100
AcDbPoint
 10
627.2885105179408
 20
1184.710981641944
 30
0.0
  0
POINT
  5
2A54
330
22E2
100
AcDbEntity
  8
Defpoints
 62
     0
440
 16777216
100
AcDbPoint
 10
628.7916598371095
 20
1186.708615773682
 30
0.0
  0
ENDBLK
  5
22EA
330
22E2
100
AcDbEntity
  8
0
100
AcDbBlockEnd
  0
BLOCK
  5
2347
330
233D
100
AcDbEntity
  8
0
100
AcDbBlockBegin
  2
*D12
 70
     1
 10
0.0
 20
0.0
 30
0.0
  3
*D12
  1

  0
LINE
  5
2882
330
233D
100
AcDbEntity
  8
图层3
 62
     0
440
 16777216
370
    -2
100
AcDbLine
 10
1239.105648270717
 20
987.3362043568954
 30
0.0
 11
1239.105648270717
 21
1246.210922785682
 31
0.0
  0
LINE
  5
2883
330
233D
100
AcDbEntity
  8
图层3
 62
     0
440
 16777216
370
    -2
100
AcDbLine
 10
1779.105648270716
 20
987.3362098681491
 30
0.0
 11
1779.105648270716
 21
1246.210922785682
 31
0.0
  0
LINE
  5
2884
330
233D
100
AcDbEntity
  8
图层3
 62
     0
440
 16777216
370
    -2
100
AcDbLine
 10
1255.105648270717
 20
1244.960922785682
 30
0.0
 11
1763.105648270716
 21
1244.960922785682
 31
0.0
  0
SOLID
  5
2885
330
233D
100
AcDbEntity
  8
图层3
 62
     0
440
 16777216
100
AcDbTrace
 10
1255.105648270717
 20
1247.627589452348
 30
0.0
 11
1255.105648270717
 21
1242.294256119015
 31
0.0
 12
1239.105648270717
 22
1244.960922785682
 32
0.0
 13
1239.105648270717
 23
1244.960922785682
 33
0.0
  0
SOLID
  5
2886
330
233D
100
AcDbEntity
  8
图层3
 62
     0
440
 16777216
100
AcDbTrace
 10
1763.105648270716
 20
1247.627589452348
 30
0.0
 11
1763.105648270716
 21
1242.294256119015
 31
0.0
 12
1779.105648270716
 22
1244.960922785682
 32
0.0
 13
1779.105648270716
 23
1244.960922785682
 33
0.0
  0
MTEXT
  5
2887
330
233D
100
AcDbEntity
  8
图层3
 62
     0
440
 16777216
100
AcDbMText
 10
1508.935582331434
 20
1260.960922785682
 30
0.0
 40
18.0
 41
0.0
 46
0.0
 71
     5
 72
     1
  1
540{\Ftxt|c134; [21.26"]}
 73
     1
 44
1.0
  0
POINT
  5
2888
330
233D
100
AcDbEntity
  8
Defpoints
 62
     0
440
 16777216
100
AcDbPoint
 10
1239.105648270717
 20
984.3362043568955
 30
0.0
  0
POINT
  5
2889
330
233D
100
AcDbEntity
  8
Defpoints
 62
     0
440
 16777216
100
AcDbPoint
 10
1779.105648270716
 20
984.3362098681492
 30
0.0
  0
POINT
  5
288A
330
233D
100
AcDbEntity
  8
Defpoints
 62
     0
440
 16777216
100
AcDbPoint
 10
1779.105648270716
 20
1244.960922785682
 30
0.0
  0
ENDBLK
  5
2348
330
233D
100
AcDbEntity
  8
0
100
AcDbBlockEnd
  0
BLOCK
  5
235F
330
2355
100
AcDbEntity
  8
0
100
AcDbBlockBegin
  2
*D13
 70
     1
 10
0.0
 20
0.0
 30
0.0
  3
*D13
  1

  0
LINE
  5
2894
330
2355
100
AcDbEntity
  8
图层3
 62
     0
440
 16777216
370
    -2
100
AcDbLine
 10
1214.105648270716
 20
987.3362043568956
 30
0.0
 11
1214.105648270716
 21
1286.56910645215
 31
0.0
  0
LINE
  5
2895
330
2355
100
AcDbEntity
  8
图层3
 62
     0
440
 16777216
370
    -2
100
AcDbLine
 10
1804.105648270716
 20
987.3362043568953
 30
0.0
 11
1804.105648270716
 21
1286.56910645215
 31
0.0
  0
LINE
  5
2896
330
2355
100
AcDbEntity
  8
图层3
 62
     0
440
 16777216
370
    -2
100
AcDbLine
 10
1230.105648270716
 20
1285.31910645215
 30
0.0
 11
1788.105648270716
 21
1285.31910645215
 31
0.0
  0
SOLID
  5
2897
330
2355
100
AcDbEntity
  8
图层3
 62
     0
440
 16777216
100
AcDbTrace
 10
1230.105648270716
 20
1287.985773118817
 30
0.0
 11
1230.105648270716
 21
1282.652439785484
 31
0.0
 12
1214.105648270716
 22
1285.31910645215
 32
0.0
 13
1214.105648270716
 23
1285.31910645215
 33
0.0
  0
SOLID
  5
2898
330
2355
100
AcDbEntity
  8
图层3
 62
     0
440
 16777216
100
AcDbTrace
 10
1788.105648270716
 20
1287.985773118817
 30
0.0
 11
1788.105648270716
 21
1282.652439785484
 31
0.0
 12
1804.105648270716
 22
1285.31910645215
 32
0.0
 13
1804.105648270716
 23
1285.31910645215
 33
0.0
  0
MTEXT
  5
2899
330
2355
100
AcDbEntity
  8
图层3
 62
     0
440
 16777216
100
AcDbMText
 10
1508.935582331434
 20
1301.31910645215
 30
0.0
 40
18.0
 41
0.0
 46
0.0
 71
     5
 72
     1
  1
590{\Ftxt|c134; [23.23"]}
 73
     1
 44
1.0
  0
POINT
  5
289A
330
2355
100
AcDbEntity
  8
Defpoints
 62
     0
440
 16777216
100
AcDbPoint
 10
1214.105648270716
 20
984.3362043568955
 30
0.0
  0
POINT
  5
289B
330
2355
100
AcDbEntity
  8
Defpoints
 62
     0
440
 16777216
100
AcDbPoint
 10
1804.105648270716
 20
984.3362043568953
 30
0.0
  0
POINT
  5
289C
330
2355
100
AcDbEntity
  8
Defpoints
 62
     0
440
 16777216
100
AcDbPoint
 10
1804.105648270716
 20
1285.31910645215
 30
0.0
  0
ENDBLK
  5
2360
330
2355
100
AcDbEntity
  8
0
100
AcDbBlockEnd
  0
BLOCK
  5
2377
330
236D
100
AcDbEntity
  8
0
100
AcDbBlockBegin
  2
*D14
 70
     1
 10
0.0
 20
0.0
 30
0.0
  3
*D14
  1

  0
LINE
  5
28A6
330
236D
100
AcDbEntity
  8
图层3
 62
     0
440
 16777216
370
    -2
100
AcDbLine
 10
1512.105629486378
 20
1184.336204356895
 30
0.0
 11
1877.939592561915
 21
1184.336204356895
 31
0.0
  0
LINE
  5
28A7
330
236D
100
AcDbEntity
  8
图层3
 62
     0
440
 16777216
370
    -2
100
AcDbLine
 10
1512.105629486378
 20
784.3362043568986
 30
0.0
 11
1877.939592561915
 21
784.3362043568987
 31
0.0
  0
LINE
  5
28A8
330
236D
100
AcDbEntity
  8
图层3
 62
     0
440
 16777216
370
    -2
100
AcDbLine
 10
1876.689592561915
 20
1168.336204356895
 30
0.0
 11
1876.689592561915
 21
800.3362043568987
 31
0.0
  0
SOLID
  5
28A9
330
236D
100
AcDbEntity
  8
图层3
 62
     0
440
 16777216
100
AcDbTrace
 10
1874.022925895249
 20
1168.336204356895
 30
0.0
 11
1879.356259228582
 21
1168.336204356895
 31
0.0
 12
1876.689592561915
 22
1184.336204356895
 32
0.0
 13
1876.689592561915
 23
1184.336204356895
 33
0.0
  0
SOLID
  5
28AA
330
236D
100
AcDbEntity
  8
图层3
 62
     0
440
 16777216
100
AcDbTrace
 10
1874.022925895249
 20
800.3362043568987
 30
0.0
 11
1879.356259228582
 21
800.3362043568987
 31
0.0
 12
1876.689592561915
 22
784.3362043568987
 32
0.0
 13
1876.689592561915
 23
784.3362043568987
 33
0.0
  0
MTEXT
  5
28AB
330
236D
100
AcDbEntity
  8
图层3
 62
     0
440
 16777216
100
AcDbMText
 10
1860.689592561915
 20
984.336204356896
 30
0.0
 40
18.0
 41
0.0
 46
0.0
 71
     5
 72
     1
  1
400{\Ftxt|c134; [15.75"]}
 11
0.0000000000000001
 21
1.0
 31
0.0
 73
     1
 44
1.0
  0
POINT
  5
28AC
330
236D
100
AcDbEntity
  8
Defpoints
 62
     0
440
 16777216
100
AcDbPoint
 10
1509.105629486378
 20
1184.336204356895
 30
0.0
  0
POINT
  5
28AD
330
236D
100
AcDbEntity
  8
Defpoints
 62
     0
440
 16777216
100
AcDbPoint
 10
1509.105629486378
 20
784.3362043568986
 30
0.0
  0
POINT
  5
28AE
330
236D
100
AcDbEntity
  8
Defpoints
 62
     0
440
 16777216
100
AcDbPoint
 10
1876.689592561915
 20
784.3362043568987
 30
0.0
  0
ENDBLK
  5
2378
330
236D
100
AcDbEntity
  8
0
100
AcDbBlockEnd
  0
BLOCK
  5
238F
330
2385
100
AcDbEntity
  8
0
100
AcDbBlockBegin
  2
*D15
 70
     1
 10
0.0
 20
0.0
 30
0.0
  3
*D15
  1

  0
LINE
  5
28B8
330
2385
100
AcDbEntity
  8
图层3
 62
     0
440
 16777216
370
    -2
100
AcDbLine
 10
1667.105648270717
 20
1209.336204356894
 30
0.0
 11
1930.87174310883
 21
1209.336204356894
 31
0.0
  0
LINE
  5
28B9
330
2385
100
AcDbEntity
  8
图层3
 62
     0
440
 16777216
370
    -2
100
AcDbLine
 10
1667.105648270717
 20
759.3362043568974
 30
0.0
 11
1930.87174310883
 21
759.3362043568975
 31
0.0
  0
LINE
  5
28BA
330
2385
100
AcDbEntity
  8
图层3
 62
     0
440
 16777216
370
    -2
100
AcDbLine
 10
1929.62174310883
 20
1193.336204356894
 30
0.0
 11
1929.62174310883
 21
775.3362043568976
 31
0.0
  0
SOLID
  5
28BB
330
2385
100
AcDbEntity
  8
图层3
 62
     0
440
 16777216
100
AcDbTrace
 10
1926.955076442163
 20
1193.336204356894
 30
0.0
 11
1932.288409775496
 21
1193.336204356894
 31
0.0
 12
1929.62174310883
 22
1209.336204356894
 32
0.0
 13
1929.62174310883
 23
1209.336204356894
 33
0.0
  0
SOLID
  5
28BC
330
2385
100
AcDbEntity
  8
图层3
 62
     0
440
 16777216
100
AcDbTrace
 10
1926.955076442163
 20
775.3362043568976
 30
0.0
 11
1932.288409775496
 21
775.3362043568976
 31
0.0
 12
1929.62174310883
 22
759.3362043568975
 32
0.0
 13
1929.62174310883
 23
759.3362043568975
 33
0.0
  0
MTEXT
  5
28BD
330
2385
100
AcDbEntity
  8
图层3
 62
     0
440
 16777216
100
AcDbMText
 10
1913.62174310883
 20
984.3362043568951
 30
0.0
 40
18.0
 41
0.0
 46
0.0
 71
     5
 72
     1
  1
450{\Ftxt|c134; [17.72"]}
 11
0.0000000000000001
 21
1.0
 31
0.0
 73
     1
 44
1.0
  0
POINT
  5
28BE
330
2385
100
AcDbEntity
  8
Defpoints
 62
     0
440
 16777216
100
AcDbPoint
 10
1664.105648270717
 20
1209.336204356894
 30
0.0
  0
POINT
  5
28BF
330
2385
100
AcDbEntity
  8
Defpoints
 62
     0
440
 16777216
100
AcDbPoint
 10
1664.105648270717
 20
759.3362043568974
 30
0.0
  0
POINT
  5
28C0
330
2385
100
AcDbEntity
  8
Defpoints
 62
     0
440
 16777216
100
AcDbPoint
 10
1929.62174310883
 20
759.3362043568975
 30
0.0
  0
ENDBLK
  5
2390
330
2385
100
AcDbEntity
  8
0
100
AcDbBlockEnd
  0
BLOCK
  5
25DE
330
25D7
100
AcDbEntity
  8
0
100
AcDbBlockBegin
  2
*D16
 70
     1
 10
0.0
 20
0.0
 30
0.0
  3
*D16
  1

  0
LINE
  5
2A0A
330
25D7
100
AcDbEntity
  8
图层3
 62
     0
440
 16777216
370
    -2
100
AcDbLine
 10
1383.924305621753
 20
931.2591048041946
 30
0.0
 11
1283.052351009834
 21
832.7408386157813
 31
0.0
  0
MTEXT
  5
2A0B
330
25D7
100
AcDbEntity
  8
图层3
 62
     0
440
 16777216
100
AcDbMText
 10
1326.136362644854
 20
918.1517158003266
 30
0.0
 40
18.0
 41
108.7389960859515
 46
0.0
 71
     5
 72
     1
  1
4-R110{\Ftxt|c134; [4"]}
 11
0.715403933417864
 21
0.698711107719241
 31
0.0
 73
     1
 44
1.0
  0
SOLID
  5
2A0C
330
25D7
100
AcDbEntity
  8
图层3
 62
     0
440
 16777216
100
AcDbTrace
 10
1281.189121389249
 20
834.6485824382289
 30
0.0
 11
1284.915580630418
 21
830.8330947933336
 31
0.0
 12
1271.605888075148
 22
821.5614608922736
 32
0.0
 13
1271.605888075148
 23
821.5614608922736
 33
0.0
  0
POINT
  5
2A0D
330
25D7
100
AcDbEntity
  8
Defpoints
 62
     0
440
 16777216
100
AcDbPoint
 10
1271.605888075148
 20
821.5614608922736
 30
0.0
  0
POINT
  5
2A0E
330
25D7
100
AcDbEntity
  8
Defpoints
 62
     0
440
 16777216
100
AcDbPoint
 10
1350.300320751114
 20
898.4196827413919
 30
0.0
  0
ENDBLK
  5
25DF
330
25D7
100
AcDbEntity
  8
0
100
AcDbBlockEnd
  0
BLOCK
  5
260B
330
2604
100
AcDbEntity
  8
0
100
AcDbBlockBegin
  2
*D17
 70
     1
 10
0.0
 20
0.0
 30
0.0
  3
*D17
  1

  0
LINE
  5
2A73
330
2604
100
AcDbEntity
  8
图层3
 62
     0
440
 16777216
370
    -2
100
AcDbLine
 10
719.7312531039301
 20
1115.316179351188
 30
0.0
 11
792.73125310393
 21
1115.316179351188
 31
0.0
  0
LINE
  5
2A74
330
2604
100
AcDbEntity
  8
图层3
 62
     0
440
 16777216
370
    -2
100
AcDbLine
 10
792.73125310393
 20
1115.316179351188
 30
0.0
 11
824.5075019646147
 21
1153.063842041944
 31
0.0
  0
MTEXT
  5
2A75
330
2604
100
AcDbEntity
  8
图层3
 62
     0
440
 16777216
100
AcDbMText
 10
792.8640190443124
 20
1170.316179351188
 30
0.0
 40
18.0
 41
80.26553188076468
 46
0.0
 71
     3
 72
     1
  1
R40{\Ftxt|c134; [.16"]}
 73
     1
 44
1.0
  0
SOLID
  5
2A76
330
2604
100
AcDbEntity
  8
图层3
 62
     0
440
 16777216
100
AcDbTrace
 10
822.4674390586075
 20
1154.781181394153
 30
0.0
 11
826.5475648706219
 21
1151.346502689735
 31
0.0
 12
834.811538077867
 22
1165.304219477987
 32
0.0
 13
834.811538077867
 23
1165.304219477987
 33
0.0
  0
POINT
  5
2A77
330
2604
100
AcDbEntity
  8
Defpoints
 62
     0
440
 16777216
100
AcDbPoint
 10
834.811538077867
 20
1165.304219477987
 30
0.0
  0
POINT
  5
2A78
330
2604
100
AcDbEntity
  8
Defpoints
 62
     0
440
 16777216
100
AcDbPoint
 10
809.0514477947372
 20
1134.703275887881
 30
0.0
  0
ENDBLK
  5
260C
330
2604
100
AcDbEntity
  8
0
100
AcDbBlockEnd
  0
BLOCK
  5
262E
330
2628
100
AcDbEntity
  8
0
100
AcDbBlockBegin
  2
*D18
 70
     1
 10
0.0
 20
0.0
 30
0.0
  3
*D18
  1

  0
LINE
  5
277C
330
2628
100
AcDbEntity
  8
图层3
 62
     0
440
 16777216
370
    -2
100
AcDbLine
 10
1399.203094309902
 20
1008.676755347044
 30
0.0
 11
1255.207710174915
 21
1009.829728814998
 31
0.0
  0
MTEXT
  5
277D
330
2628
100
AcDbEntity
  8
图层3
 62
     0
440
 16777216
100
AcDbMText
 10
1335.333253968569
 20
1025.188675125578
 30
0.0
 40
18.0
 41
0.0
 46
0.0
 71
     5
 72
     1
  1
4-R3200
 11
0.9999679453818476
 21
-0.0080067601941266
 31
0.0
 73
     1
 44
1.0
  0
SOLID
  5
277E
330
2628
100
AcDbEntity
  8
图层3
 62
     0
440
 16777216
100
AcDbTrace
 10
1255.229061535433
 20
1012.496310002683
 30
0.0
 11
1255.186358814398
 21
1007.163147627313
 31
0.0
 12
1239.208223048806
 22
1009.957836978104
 32
0.0
 13
1239.208223048806
 23
1009.957836978104
 33
0.0
  0
POINT
  5
277F
330
2628
100
AcDbEntity
  8
Defpoints
 62
     0
440
 16777216
100
AcDbPoint
 10
1239.208223048806
 20
1009.957836978104
 30
0.0
  0
POINT
  5
2780
330
2628
100
AcDbEntity
  8
Defpoints
 62
     0
440
 16777216
100
AcDbPoint
 10
4439.105648270722
 20
984.3362043568975
 30
0.0
  0
ENDBLK
  5
262F
330
2628
100
AcDbEntity
  8
0
100
AcDbBlockEnd
  0
BLOCK
  5
264C
330
2642
100
AcDbEntity
  8
0
100
AcDbBlockBegin
  2
*D19
 70
     1
 10
0.0
 20
0.0
 30
0.0
  3
*D19
  1

  0
LINE
  5
28CA
330
2642
100
AcDbEntity
  8
图层3
 62
     0
440
 16777216
370
    -2
100
AcDbLine
 10
1763.926054088654
 20
1042.116860609171
 30
0.0
 11
1570.926054088654
 21
1042.116860609171
 31
0.0
  0
LINE
  5
28CB
330
2642
100
AcDbEntity
  8
图层3
 62
     0
440
 16777216
370
    -2
100
AcDbLine
 10
1570.926054088654
 20
1042.116860609171
 30
0.0
 11
1554.583873051147
 21
1026.842587223295
 31
0.0
  0
LINE
  5
28CC
330
2642
100
AcDbEntity
  8
图层3
 62
     0
440
 16777216
370
    -2
100
AcDbLine
 10
1463.627401800003
 20
941.8298214904968
 30
0.0
 11
1451.938216739615
 21
930.9044861352775
 31
0.0
  0
MTEXT
  5
28CD
330
2642
100
AcDbEntity
  8
图层3
 62
     0
440
 16777216
100
AcDbMText
 10
1670.926054088654
 20
1058.116860609171
 30
0.0
 40
18.0
 41
0.0
 46
0.0
 71
     5
 72
     1
  1
∅92.5{\Ftxt|c134; [3.64"]}
 73
     1
 44
1.0
  0
LINE
  5
28CE
330
2642
100
AcDbEntity
  8
图层3
 62
     0
440
 16777216
370
    -2
100
AcDbLine
 10
1475.31658686039
 20
952.7551568457157
 30
0.0
 11
1542.894687990759
 21
1015.917251868076
 31
0.0
  0
SOLID
  5
28CF
330
2642
100
AcDbEntity
  8
图层3
 62
     0
440
 16777216
100
AcDbTrace
 10
1461.806512574133
 20
943.7780190005614
 30
0.0
 11
1465.448291025872
 21
939.881623980432
 31
0.0
 12
1475.31658686039
 22
952.7551568457157
 32
0.0
 13
1475.31658686039
 23
952.7551568457157
 33
0.0
  0
SOLID
  5
28D0
330
2642
100
AcDbEntity
  8
图层3
 62
     0
440
 16777216
100
AcDbTrace
 10
1552.762983825277
 20
1028.79078473336
 30
0.0
 11
1556.404762277017
 21
1024.894389713231
 31
0.0
 12
1542.894687990759
 22
1015.917251868076
 32
0.0
 13
1542.894687990759
 23
1015.917251868076
 33
0.0
  0
POINT
  5
28D1
330
2642
100
AcDbEntity
  8
Defpoints
 62
     0
440
 16777216
100
AcDbPoint
 10
1542.894687990759
 20
1015.917251868076
 30
0.0
  0
POINT
  5
28D2
330
2642
100
AcDbEntity
  8
Defpoints
 62
     0
440
 16777216
100
AcDbPoint
 10
1475.31658686039
 20
952.7551568457157
 30
0.0
  0
ENDBLK
  5
264D
330
2642
100
AcDbEntity
  8
0
100
AcDbBlockEnd
  0
BLOCK
  5
2797
330
2790
100
AcDbEntity
  8
0
100
AcDbBlockBegin
  2
*D20
 70
     1
 10
0.0
 20
0.0
 30
0.0
  3
*D20
  1

  0
LINE
  5
279A
330
2790
100
AcDbEntity
  8
图层3
 62
     0
440
 16777216
370
    -2
100
AcDbLine
 10
1347.844056852674
 20
1438.784930835506
 30
0.0
 11
1295.844056852674
 21
1438.784930835506
 31
0.0
  0
LINE
  5
279B
330
2790
100
AcDbEntity
  8
图层3
 62
     0
440
 16777216
370
    -2
100
AcDbLine
 10
1295.844056852674
 20
1438.784930835506
 30
0.0
 11
1270.605093518936
 21
1416.003475003223
 31
0.0
  0
MTEXT
  5
279C
330
2790
100
AcDbEntity
  8
图层3
 62
     0
440
 16777216
100
AcDbMText
 10
1325.344056852674
 20
1454.784930835506
 30
0.0
 40
18.0
 41
0.0
 46
0.0
 71
     5
 72
     1
  1
R40
 73
     1
 44
1.0
  0
SOLID
  5
279D
330
2790
100
AcDbEntity
  8
图层3
 62
     0
440
 16777216
100
AcDbTrace
 10
1268.818312669345
 20
1417.983001539203
 30
0.0
 11
1272.391874368527
 21
1414.023948467244
 31
0.0
 12
1258.72793430306
 22
1405.282789905678
 32
0.0
 13
1258.72793430306
 23
1405.282789905678
 33
0.0
  0
POINT
  5
279E
330
2790
100
AcDbEntity
  8
Defpoints
 62
     0
440
 16777216
100
AcDbPoint
 10
1258.72793430306
 20
1405.282789905678
 30
0.0
  0
POINT
  5
279F
330
2790
100
AcDbEntity
  8
Defpoints
 62
     0
440
 16777216
100
AcDbPoint
 10
1288.420832342752
 20
1432.084502649542
 30
0.0
  0
ENDBLK
  5
2798
330
2790
100
AcDbEntity
  8
0
100
AcDbBlockEnd
  0
BLOCK
  5
27C6
330
27C5
100
AcDbEntity
  8
0
100
AcDbBlockBegin
  2
h
 70
     0
 10
0.0
 20
0.0
 30
0.0
  3
h
  1

  0
MTEXT
  5
27C7
330
27C5
100
AcDbEntity
  8
图层3
100
AcDbMText
 10
140.7184734209531
 20
394.6528108057309
 30
0.0
 40
2.5
 41
49.1928157029788
 46
0.0
 71
     1
 72
     5
  1
{\fSimSun|b0|i0|c134|p2;Jiangmen XHHL Stainless Steel Manufacturing Co.Ltd.}
 73
     1
 44
1.0
  0
ENDBLK
  5
27C8
330
27C5
100
AcDbEntity
  8
0
100
AcDbBlockEnd
  0
BLOCK
  5
27EB
330
27C9
100
AcDbEntity
  8
0
100
AcDbBlockBegin
  2
D
 70
     0
 10
0.0
 20
0.0
 30
0.0
  3
D
  1

  0
LINE
  5
27CA
330
27C9
100
AcDbEntity
  8
图层3
100
AcDbLine
 10
138.2786312043299
 20
409.9405853190591
 30
0.0
 11
250.27863120433
 21
409.9405853190591
 31
0.0
  0
LINE
  5
27CB
330
27C9
100
AcDbEntity
  8
图层3
100
AcDbLine
 10
250.27863120433
 20
409.9405853190591
 30
0.0
 11
250.27863120433
 21
385.9405853190592
 31
0.0
  0
LINE
  5
27CC
330
27C9
100
AcDbEntity
  8
图层3
100
AcDbLine
 10
250.27863120433
 20
385.9405853190592
 30
0.0
 11
138.2786312043299
 21
385.9405853190592
 31
0.0
  0
LINE
  5
27CD
330
27C9
100
AcDbEntity
  8
图层3
100
AcDbLine
 10
138.2786312043299
 20
385.9405853190592
 30
0.0
 11
138.2786312043299
 21
409.9405853190591
 31
0.0
  0
LINE
  5
27CE
330
27C9
100
AcDbEntity
  8
图层3
100
AcDbLine
 10
250.27863120433
 20
405.7405853190592
 30
0.0
 11
138.2786312043299
 21
405.7405853190592
 31
0.0
  0
LINE
  5
27CF
330
27C9
100
AcDbEntity
  8
图层3
100
AcDbLine
 10
250.27863120433
 20
392.5405853190592
 30
0.0
 11
188.2786312043299
 21
392.5405853190593
 31
0.0
  0
LINE
  5
27D0
330
27C9
100
AcDbEntity
  8
图层3
100
AcDbLine
 10
250.27863120433
 20
399.1405853190593
 30
0.0
 11
138.2786312043299
 21
399.1405853190593
 31
0.0
  0
LINE
  5
27D1
330
27C9
100
AcDbEntity
  8
图层3
100
AcDbLine
 10
188.2786312043299
 20
385.9405853190592
 30
0.0
 11
188.2786312043299
 21
399.1405853190593
 31
0.0
  0
LINE
  5
27D2
330
27C9
100
AcDbEntity
  8
图层3
100
AcDbLine
 10
227.7786312043299
 20
385.9405853190592
 30
0.0
 11
227.7786312043299
 21
392.5405853190593
 31
0.0
  0
LINE
  5
27D3
330
27C9
100
AcDbEntity
  8
图层3
100
AcDbLine
 10
236.77863120433
 20
405.7405853190592
 30
0.0
 11
236.7786312043299
 21
399.1405853190593
 31
0.0
  0
LINE
  5
27D4
330
27C9
100
AcDbEntity
  8
图层3
100
AcDbLine
 10
236.7786312043299
 20
392.5405853190592
 30
0.0
 11
236.7786312043299
 21
385.9405853190592
 31
0.0
  0
LINE
  5
27D5
330
27C9
100
AcDbEntity
  8
图层3
100
AcDbLine
 10
158.7786312043299
 20
399.1405853190593
 30
0.0
 11
158.7786312043299
 21
409.9405853190591
 31
0.0
  0
LINE
  5
27D6
330
27C9
100
AcDbEntity
  8
图层3
100
AcDbLine
 10
175.2786312043299
 20
399.1405853190593
 30
0.0
 11
175.2786312043299
 21
409.9405853190591
 31
0.0
  0
LINE
  5
27D7
330
27C9
100
AcDbEntity
  8
图层3
100
AcDbLine
 10
216.2786312043299
 20
399.1405853190593
 30
0.0
 11
216.2786312043299
 21
409.9405853190591
 31
0.0
  0
LINE
  5
27D8
330
27C9
100
AcDbEntity
  8
图层3
100
AcDbLine
 10
200.27863120433
 20
399.1405853190593
 30
0.0
 11
200.27863120433
 21
405.7405853190592
 31
0.0
  0
MTEXT
  5
27D9
330
27C9
100
AcDbEntity
  8
图层3
100
AcDbMText
 10
142.3137583141513
 20
394.6976827191662
 30
0.0
 40
3.5
 41
42.36062869033571
 46
0.0
 71
     1
 72
     5
  1
{\fEstrangelo Edessa|b0|i0|c0|p66;Jiangmen XHHL Stainless Steel Manufacturing Co.Ltd.}
  7
样式 2
 73
     1
 44
1.0
  0
LINE
  5
27DA
330
27C9
100
AcDbEntity
  8
图层3
100
AcDbLine
 10
148.2786312043299
 20
405.7405853190592
 30
0.0
 11
148.2786312043299
 21
409.9405853190591
 31
0.0
  0
MTEXT
  5
27DB
330
27C9
100
AcDbEntity
  8
图层3
100
AcDbMText
 10
140.0498430556535
 20
408.7391633010699
 30
0.0
 40
1.6
 41
7.79562295153596
 46
0.0
 71
     1
 72
     5
  1
{\fISOCPEUR|b0|i0|c0|p34;Itemref}
  7
样式 1
 73
     1
 44
1.0
  0
MTEXT
  5
27DC
330
27C9
100
AcDbEntity
  8
图层3
100
AcDbMText
 10
149.3612815810993
 20
408.6309745936029
 30
0.0
 40
1.6
 41
8.661803279484388
 46
0.0
 71
     1
 72
     5
  1
{\fISOCPEUR|b0|i0|c0|p34;Quantity}
  7
样式 1
 73
     1
 44
1.0
  0
MTEXT
  5
27DD
330
27C9
100
AcDbEntity
  8
图层3
100
AcDbMText
 10
160.080262928994
 20
408.7391630562454
 30
0.0
 40
1.6
 41
11.80170717876467
 46
0.0
 71
     1
 72
     5
  1
{\fISOCPEUR|b0|i0|c0|p34;Material}
  7
样式 1
 73
     1
 44
1.0
  0
MTEXT
  5
27DE
330
27C9
100
AcDbEntity
  8
图层3
100
AcDbMText
 10
177.0799122794671
 20
408.9754183409924
 30
0.0
 40
1.8
 41
20.56636873026793
 46
0.0
 71
     1
 72
     5
  1
{\fTahoma|b0|i0|c0|p34;SUS304 1.2mm}
  7
样式 1
 73
     1
 44
1.0
  0
MTEXT
  5
27DF
330
27C9
100
AcDbEntity
  8
图层3
100
AcDbMText
 10
217.9289763273547
 20
408.691964308652
 30
0.0
 40
1.8
 41
22.8357617282889
 46
0.0
 71
     1
 72
     5
  1
{\fISOCPEUR|b0|i0|c0|p34;Article No.}
  7
样式 1
 73
     1
 44
1.0
  0
MTEXT
  5
27E0
330
27C9
100
AcDbEntity
  8
图层3
100
AcDbMText
 10
141.6206547808366
 20
405.0070642099059
 30
0.0
 40
1.6
 41
14.18370265968843
 46
0.0
 71
     1
 72
     5
  1
{\fISOCPEUR|b0|i0|c0|p34;Designed by\PDESIGNED_BY}
  7
样式 1
 73
     1
 44
1.0
  0
MTEXT
  5
27E1
330
27C9
100
AcDbEntity
  8
图层3
100
AcDbMText
 10
160.0594691895904
 20
404.7236098732931
 30
0.0
 40
1.6
 41
12.76533256209336
 46
0.0
 71
     1
 72
     5
  1
{\fISOCPEUR|b0|i0|c0|p34;Checked by\PCHECKED_BY}
  7
样式 1
 73
     1
 44
1.0
  0
MTEXT
  5
27E2
330
27C9
100
AcDbEntity
  8
图层3
100
AcDbMText
 10
176.5125644263653
 20
405.1487908105777
 30
0.0
 40
1.6
 41
23.26127254710025
 46
0.0
 71
     1
 72
     5
  1
{\fISOCPEUR|b0|i0|c0|p34;Approved by - date}
  7
样式 1
 73
     1
 44
1.0
  0
MTEXT
  5
27E3
330
27C9
100
AcDbEntity
  8
图层3
100
AcDbMText
 10
201.901391909391
 20
405.0070640763076
 30
0.0
 40
1.6
 41
14.3255398799152
 46
0.0
 71
     1
 72
     5
  1
{\fISOCPEUR|b0|i0|c0|p34;File name}
  7
样式 1
 73
     1
 44
1.0
  0
MTEXT
  5
27E4
330
27C9
100
AcDbEntity
  8
图层3
100
AcDbMText
 10
217.9289763273546
 20
405.1487910554024
 30
0.0
 40
1.6
 41
16.31125843748271
 46
0.0
 71
     1
 72
     5
  1
{\fISOCPEUR|b0|i0|c0|p34;Oate}
  7
样式 1
 73
     1
 44
1.0
  0
MTEXT
  5
27E5
330
27C9
100
AcDbEntity
  8
图层3
100
AcDbMText
 10
238.211671459038
 20
405.1487910554024
 30
0.0
 40
1.6
 41
8.93573266718505
 46
0.0
 71
     1
 72
     5
  1
{\fISOCPEUR|b0|i0|c0|p34;Scale}
  7
样式 1
 73
     1
 44
1.0
  0
MTEXT
  5
27E6
330
27C9
100
AcDbEntity
  8
图层3
100
AcDbMText
 10
195.2350518192924
 20
397.9207178146328
 30
0.0
 40
3.5
 41
37.72864922630765
 46
0.0
 71
     1
 72
     5
  1
{\fGautami|b0|i0|c0|p2;Kitchen Sink}
  7
样式 1
 73
     1
 44
1.0
  0
MTEXT
  5
27E7
330
27C9
100
AcDbEntity
  8
图层3
100
AcDbMText
 10
229.1341015716263
 20
391.6847324482292
 30
0.0
 40
1.6
 41
6.240829271287168
 46
0.0
 71
     1
 72
     5
  1
{\fISOCPEUR|b0|i0|c0|p34;Edition}
  7
样式 1
 73
     1
 44
1.0
  0
MTEXT
  5
27E8
330
27C9
100
AcDbEntity
  8
图层3
100
AcDbMText
 10
237.3606489795466
 20
391.6847324482293
 30
0.0
 40
1.6
 41
11.06328844497926
 46
0.0
 71
     1
 72
     5
  1
{\fISOCPEUR|b0|i0|c0|p34;Sheet}
  7
样式 1
 73
     1
 44
1.0
  0
ENDBLK
  5
27EC
330
27C9
100
AcDbEntity
  8
0
100
AcDbBlockEnd
  0
ENDSEC
  0
SECTION
  2
ENTITIES
  0
LINE
  5
669
330
1F
100
AcDbEntity
  8
图层2
100
AcDbLine
 10
-951.0054819976526
 20
927.2614677413438
 30
0.0
 11
-917.0054819976526
 21
927.2614677413438
 31
0.0
  0
LINE
  5
66A
330
1F
100
AcDbEntity
  8
图层2
100
AcDbLine
 10
-934.0054819976526
 20
910.2614677413438
 30
0.0
 11
-934.0054819976526
 21
944.2614677413438
 31
0.0
  0
LINE
  5
155B
330
1F
100
AcDbEntity
  8
图层2
100
AcDbLine
 10
3310.594997962231
 20
1027.516637258651
 30
0.0
 11
3470.59499796223
 21
1027.516637258651
 31
0.0
  0
LINE
  5
155C
330
1F
100
AcDbEntity
  8
图层2
100
AcDbLine
 10
3390.594997962231
 20
947.5166372586508
 30
0.0
 11
3390.594997962231
 21
1107.516637258651
 31
0.0
  0
ARC
  5
1BD3
102
{ACAD_REACTORS
330
2353
330
2636
102
}
330
1F
100
AcDbEntity
  8
图层2
100
AcDbCircle
 10
4439.105648270717
 20
984.3362043568982
 30
0.0
 40
3200.0
100
AcDbArc
 50
178.4067029207104
 51
181.5932972766467
  0
ARC
  5
1BD4
330
1F
100
AcDbEntity
  8
图层2
100
AcDbCircle
 10
1509.105930288451
 20
3984.336204356884
 30
0.0
 40
3200.0
100
AcDbArc
 50
267.0540772124429
 51
272.9459123001779
  0
ARC
  5
1BD5
102
{ACAD_REACTORS
330
2353
102
}
330
1F
100
AcDbEntity
  8
图层2
100
AcDbCircle
 10
-1420.894351729284
 20
984.336204356866
 30
0.0
 40
3200.0
100
AcDbArc
 50
358.4067021841642
 51
1.593298013194006
  0
ARC
  5
1BD6
102
{ACAD_REACTORS
330
2383
102
}
330
1F
100
AcDbEntity
  8
图层2
100
AcDbCircle
 10
1509.106136739759
 20
-2015.663795643066
 30
0.0
 40
3200.0
100
AcDbArc
 50
87.05409153846925
 51
92.94592662620443
  0
ARC
  5
1BD7
330
1F
100
AcDbEntity
  8
图层2
100
AcDbCircle
 10
1350.30032045517
 20
1070.252715332917
 30
0.0
 40
110.0
100
AcDbArc
 50
92.94592662620443
 51
178.4067029207106
  0
ARC
  5
1BD8
102
{ACAD_REACTORS
330
25E6
102
}
330
1F
100
AcDbEntity
  8
图层2
100
AcDbCircle
 10
1350.300320751112
 20
898.4196827413903
 30
0.0
 40
110.0
100
AcDbArc
 50
181.5932972766466
 51
267.0540772124429
  0
ARC
  5
1BD9
330
1F
100
AcDbEntity
  8
图层2
100
AcDbCircle
 10
1667.910974981792
 20
898.4196536737737
 30
0.0
 40
110.0
100
AcDbArc
 50
272.9459123001779
 51
358.4067021841634
  0
ARC
  5
1BDA
330
1F
100
AcDbEntity
  8
图层2
100
AcDbCircle
 10
1667.910974685849
 20
1070.252765679504
 30
0.0
 40
110.0
100
AcDbArc
 50
1.593298013193686
 51
87.05409153846845
  0
LINE
  5
1BE0
330
1F
100
AcDbEntity
  8
图层2
100
AcDbLine
 10
1354.105648270716
 20
1209.336204356893
 30
0.0
 11
1664.105648270717
 21
1209.336204356893
 31
0.0
  0
LINE
  5
1BE1
102
{ACAD_REACTORS
330
236B
102
}
330
1F
100
AcDbEntity
  8
图层2
100
AcDbLine
 10
1214.105648270716
 20
1069.336204356893
 30
0.0
 11
1214.105648270716
 21
899.3362043568973
 31
0.0
  0
LINE
  5
1BE2
330
1F
100
AcDbEntity
  8
图层2
100
AcDbLine
 10
1664.105648270716
 20
759.3362043568971
 30
0.0
 11
1354.105648270716
 21
759.3362043568973
 31
0.0
  0
LINE
  5
1BE3
102
{ACAD_REACTORS
330
236B
102
}
330
1F
100
AcDbEntity
  8
图层2
100
AcDbLine
 10
1804.105648270716
 20
1069.336204356893
 30
0.0
 11
1804.105648270716
 21
899.336204356897
 31
0.0
  0
ARC
  5
1C12
330
1F
100
AcDbEntity
  8
图层2
100
AcDbCircle
 10
1354.105648270716
 20
1069.336204356894
 30
0.0
 40
140.0
100
AcDbArc
 50
90.0
 51
180.0
  0
ARC
  5
1C13
102
{ACAD_REACTORS
330
239B
102
}
330
1F
100
AcDbEntity
  8
图层2
100
AcDbCircle
 10
1664.105648270716
 20
1069.336204356893
 30
0.0
 40
140.0
100
AcDbArc
 50
0.0
 51
90.0
  0
ARC
  5
1C14
102
{ACAD_REACTORS
330
239B
102
}
330
1F
100
AcDbEntity
  8
图层2
100
AcDbCircle
 10
1664.105648270716
 20
899.3362043568971
 30
0.0
 40
140.0
100
AcDbArc
 50
270.0
 51
0.0
  0
ARC
  5
1C15
102
{ACAD_REACTORS
330
2602
102
}
330
1F
100
AcDbEntity
  8
图层2
100
AcDbCircle
 10
1354.105648270716
 20
899.3362043568971
 30
0.0
 40
140.0
100
AcDbArc
 50
180.0
 51
270.0
  0
LINE
  5
1C1B
102
{ACAD_REACTORS
330
2002
102
}
330
1F
100
AcDbEntity
  8
图层2
100
AcDbLine
 10
1237.207719137286
 20
1608.781366336652
 30
0.0
 11
1781.003577404146
 21
1608.781366336652
 31
0.0
  0
ARC
  5
1C2E
102
{ACAD_REACTORS
330
1DE9
102
}
330
1F
100
AcDbEntity
  8
图层2
100
AcDbCircle
 10
1509.105648270715
 20
3580.781366336652
 30
0.0
 40
2200.0
100
AcDbArc
 50
264.1359210954629
 51
275.8640789045372
  0
LINE
  5
1C2F
102
{ACAD_REACTORS
330
2002
102
}
330
1F
100
AcDbEntity
  8
图层2
100
AcDbLine
 10
1239.229810690816
 20
1606.412206227259
 30
0.0
 11
1248.47565095257
 21
1429.99106439982
 31
0.0
  0
LINE
  5
1C30
330
1F
100
AcDbEntity
  8
图层2
100
AcDbLine
 10
1778.981485850617
 20
1606.412206227259
 30
0.0
 11
1769.735645588863
 21
1429.99106439982
 31
0.0
  0
ARC
  5
1C31
102
{ACAD_REACTORS
330
27A0
102
}
330
1F
100
AcDbEntity
  8
图层2
100
AcDbCircle
 10
1288.420832342753
 20
1432.084502649538
 30
0.0
 40
40.0
100
AcDbArc
 50
182.9999999999997
 51
264.1359210954622
  0
ARC
  5
1C32
330
1F
100
AcDbEntity
  8
图层2
100
AcDbCircle
 10
1729.79046419868
 20
1432.084502649538
 30
0.0
 40
40.0
100
AcDbArc
 50
275.8640789045364
 51
356.9999999999996
  0
LINE
  5
1C33
330
1F
100
AcDbEntity
  8
图层2
100
AcDbLine
 10
1236.733236853929
 20
1608.781366336652
 30
0.0
 11
1214.105648270716
 21
1608.781366336652
 31
0.0
  0
LINE
  5
1C34
330
1F
100
AcDbEntity
  8
图层2
100
AcDbLine
 10
1781.478059687503
 20
1608.781366336652
 30
0.0
 11
1804.105648270716
 21
1608.781366336652
 31
0.0
  0
DIMENSION
  5
1DDA
102
{ACAD_XDICTIONARY
360
1DE3
102
}
102
{ACAD_REACTORS
330
1DE9
102
}
330
1F
100
AcDbEntity
  8
图层3
100
AcDbDimension
280
     0
  2
*D2
 10
1509.105648270716
 20
3580.781366336655
 30
0.0
 11
1414.146596018444
 21
1460.907129879366
 31
0.0
 70
   164
 71
     5
 42
2200.000000000005
 73
     0
 74
     0
 75
     0
  3
ISO-25
100
AcDbRadialDimension
 15
1410.656112476655
 25
1382.985268218825
 35
0.0
 40
0.0
1001
ACAD
1000
DSTYLE
1002
{
1070
   288
1070
     1
1002
}
  0
LINE
  5
1EA1
330
1F
100
AcDbEntity
  8
图层1
100
AcDbLine
 10
1509.105637425574
 20
904.3362043568961
 30
0.0
 11
1509.105637425575
 21
1064.336204356896
 31
0.0
  0
LINE
  5
1EA2
330
1F
100
AcDbEntity
  8
图层1
100
AcDbLine
 10
1589.105637425574
 20
984.336204356896
 30
0.0
 11
1429.105637425574
 21
984.336204356896
 31
0.0
  0
CIRCLE
  5
1EA3
102
{ACAD_REACTORS
330
2658
102
}
330
1F
100
AcDbEntity
  8
图层2
100
AcDbCircle
 10
1509.105637425574
 20
984.336204356896
 30
0.0
 40
46.25
  0
CIRCLE
  5
1EA4
330
1F
100
AcDbEntity
  8
图层2
100
AcDbCircle
 10
1509.105637425574
 20
984.336204356896
 30
0.0
 40
55.5
  0
CIRCLE
  5
1EA5
330
1F
100
AcDbEntity
  8
图层2
100
AcDbCircle
 10
1509.105637425574
 20
984.336204356896
 30
0.0
 40
62.0
  0
LINE
  5
1EA7
102
{ACAD_REACTORS
330
2141
102
}
330
1F
100
AcDbEntity
  8
图层2
100
AcDbLine
 10
626.2916598371098
 20
759.3362043568982
 30
0.0
 11
626.2916598371098
 21
781.963792940111
 31
0.0
  0
ARC
  5
1EAA
102
{ACAD_REACTORS
330
2141
102
}
330
1F
100
AcDbEntity
  8
图层2
100
AcDbCircle
 10
-1345.70834016289
 20
984.3362043568969
 30
0.0
 40
2200.0
100
AcDbArc
 50
356.0081609262767
 51
3.991839073723309
  0
LINE
  5
1EAB
330
1F
100
AcDbEntity
  8
图层2
100
AcDbLine
 10
628.6608199465024
 20
784.4603667769974
 30
0.0
 11
811.1448860444543
 21
794.0239514357309
 31
0.0
  0
LINE
  5
1EAC
102
{ACAD_REACTORS
330
20BF
102
}
330
1F
100
AcDbEntity
  8
图层2
100
AcDbLine
 10
628.6608199465024
 20
1184.212041936795
 30
0.0
 11
811.1448860444545
 21
1174.648457278061
 31
0.0
  0
ARC
  5
1EAD
102
{ACAD_REACTORS
330
2614
102
}
330
1F
100
AcDbEntity
  8
图层2
100
AcDbCircle
 10
809.0514477947369
 20
1134.703275887879
 30
0.0
 40
40.0
100
AcDbArc
 50
3.991839073722349
 51
86.99999999999993
  0
ARC
  5
1EAE
330
1F
100
AcDbEntity
  8
图层2
100
AcDbCircle
 10
809.0514477947362
 20
833.9691328259139
 30
0.0
 40
40.0
100
AcDbArc
 50
273.0000000000004
 51
356.0081609262776
  0
LINE
  5
1EB7
330
1F
100
AcDbEntity
  8
图层2
100
AcDbLine
 10
856.9178499408062
 20
928.8362043568971
 30
0.0
 11
856.9178499408062
 21
1039.836204356898
 31
0.0
  0
LINE
  5
1EB8
330
1F
100
AcDbEntity
  8
图层2
100
AcDbLine
 10
858.7178499408063
 20
938.0862043568955
 30
0.0
 11
858.7178499408064
 21
1030.586204356897
 31
0.0
  0
LINE
  5
1EB9
330
1F
100
AcDbEntity
  8
图层2
100
AcDbLine
 10
853.4178499408062
 20
922.3362043568968
 30
0.0
 11
856.9178499408062
 21
928.8362043568969
 31
0.0
  0
LINE
  5
1EBA
330
1F
100
AcDbEntity
  8
图层2
100
AcDbLine
 10
856.9178499408062
 20
928.8362043568969
 30
0.0
 11
858.7178499408063
 21
938.0862043568969
 31
0.0
  0
LINE
  5
1EBB
330
1F
100
AcDbEntity
  8
图层2
100
AcDbLine
 10
858.7178499408063
 20
1030.586204356897
 30
0.0
 11
856.9178499408062
 21
1039.836204356896
 31
0.0
  0
LINE
  5
1EBC
330
1F
100
AcDbEntity
  8
图层2
100
AcDbLine
 10
856.9178499408062
 20
1039.836204356896
 30
0.0
 11
853.4178499408062
 21
1046.336204356897
 31
0.0
  0
LINE
  5
1EBF
102
{ACAD_REACTORS
330
2353
330
236B
102
}
330
1F
100
AcDbEntity
  8
图层1
100
AcDbLine
 10
1190.162326169158
 20
984.3362043568955
 30
0.0
 11
1830.515648189783
 21
984.3362043568953
 31
0.0
  0
LINE
  5
1EC0
330
1F
100
AcDbEntity
  8
图层1
100
AcDbLine
 10
1214.105648270716
 20
984.3362043568962
 30
0.0
 11
822.792835683766
 21
984.3362043568964
 31
0.0
  0
CIRCLE
  5
1EC1
330
1F
100
AcDbEntity
  8
图层4
100
AcDbCircle
 10
856.9178499408064
 20
984.3362043568976
 30
0.0
 40
66.74710787128749
  0
ARC
  5
1EC2
330
1F
100
AcDbEntity
  8
图层2
100
AcDbCircle
 10
-3555.253080663152
 20
1450.809032730287
 30
0.0
 40
4400.0
100
AcDbArc
 50
358.2639847309393
 51
1.736015269060757
  0
LINE
  5
1EC3
102
{ACAD_REACTORS
330
1F1A
102
}
330
1F
100
AcDbEntity
  8
图层2
100
AcDbLine
 10
849.9992995442422
 20
1339.809032730288
 30
0.0
 11
849.9992995442422
 21
1561.809032730289
 31
0.0
  0
LINE
  5
1EC4
330
1F
100
AcDbEntity
  8
图层2
100
AcDbLine
 10
853.599299544242
 20
1358.309032730284
 30
0.0
 11
853.5992995442425
 21
1543.309032730288
 31
0.0
  0
LINE
  5
1EC5
102
{ACAD_REACTORS
330
1F02
330
1FB3
102
}
330
1F
100
AcDbEntity
  8
图层2
100
AcDbLine
 10
842.9992995442422
 20
1326.809032730287
 30
0.0
 11
849.9992995442422
 21
1339.809032730287
 31
0.0
  0
LINE
  5
1EC6
102
{ACAD_REACTORS
330
1F02
102
}
330
1F
100
AcDbEntity
  8
图层2
100
AcDbLine
 10
849.9992995442422
 20
1339.809032730287
 30
0.0
 11
853.599299544242
 21
1358.309032730287
 31
0.0
  0
LINE
  5
1EC7
330
1F
100
AcDbEntity
  8
图层2
100
AcDbLine
 10
853.599299544242
 20
1543.309032730287
 30
0.0
 11
849.9992995442422
 21
1561.809032730287
 31
0.0
  0
LINE
  5
1EC8
102
{ACAD_REACTORS
330
1F1A
330
1FB3
102
}
330
1F
100
AcDbEntity
  8
图层2
100
AcDbLine
 10
849.9992995442422
 20
1561.809032730287
 30
0.0
 11
842.9992995442422
 21
1574.809032730287
 31
0.0
  0
LINE
  5
1EC9
330
1F
100
AcDbEntity
  8
图层1
100
AcDbLine
 10
983.4935152868169
 20
1450.809032730286
 30
0.0
 11
781.7492710301617
 21
1450.809032730286
 31
0.0
  0
CIRCLE
  5
1ECA
330
1F
100
AcDbEntity
  8
图层4
100
AcDbCircle
 10
849.9992995442422
 20
1450.809032730289
 30
0.0
 40
133.494215742575
  0
LINE
  5
1ECD
330
1F
100
AcDbEntity
  8
图层2
100
AcDbLine
 10
626.2916598371098
 20
1186.708615773682
 30
0.0
 11
626.29165983711
 21
1209.336204356895
 31
0.0
  0
ARC
  5
1ECE
330
1F
100
AcDbEntity
  8
图层2
100
AcDbCircle
 10
628.7916598371098
 20
781.963792940111
 30
0.0
 40
2.5
100
AcDbArc
 50
93.0
 51
180.0
  0
ARC
  5
1ECF
102
{ACAD_REACTORS
330
22F2
102
}
330
1F
100
AcDbEntity
  8
图层2
100
AcDbCircle
 10
628.7916598371099
 20
1186.708615773682
 30
0.0
 40
2.5
100
AcDbArc
 50
179.9999999999995
 51
267.0
  0
LINE
  5
1ED0
102
{ACAD_REACTORS
330
20BF
102
}
330
1F
100
AcDbEntity
  8
图层2
100
AcDbLine
 10
626.2916598371098
 20
1186.708615773682
 30
0.0
 11
626.2916598371096
 21
781.963792940111
 31
0.0
  0
ARC
  5
1EE3
102
{ACAD_REACTORS
330
22BC
102
}
330
1F
100
AcDbEntity
  8
图层2
100
AcDbCircle
 10
1236.733236853929
 20
1606.281366336652
 30
0.0
 40
2.5
100
AcDbArc
 50
2.999999999999909
 51
90.00000000000055
  0
ARC
  5
1EE4
330
1F
100
AcDbEntity
  8
图层2
100
AcDbCircle
 10
1781.478059687503
 20
1606.281366336652
 30
0.0
 40
2.5
100
AcDbArc
 50
90.0
 51
177.0000000000001
  0
DIMENSION
  5
1EE5
102
{ACAD_XDICTIONARY
360
1EF5
102
}
102
{ACAD_REACTORS
330
1F02
102
}
330
1F
100
AcDbEntity
  8
图层3
100
AcDbDimension
280
     0
  2
*D3
 10
853.599299544242
 20
1257.886784924355
 30
0.0
 11
949.5992995442421
 21
1257.886784924355
 31
0.0
 70
   160
  1
5.3{\Ftxt|c134; [.2"]}
 71
     5
 42
10.59999999999991
 73
     0
 74
     0
 75
     0
  3
ISO-25
100
AcDbAlignedDimension
 13
842.9992995442422
 23
1326.809032730287
 33
0.0
 14
853.599299544242
 24
1358.309032730287
 34
0.0
 50
180.0
100
AcDbRotatedDimension
  0
DIMENSION
  5
1F03
102
{ACAD_XDICTIONARY
360
1F10
102
}
102
{ACAD_REACTORS
330
1F1A
102
}
330
1F
100
AcDbEntity
  8
图层3
100
AcDbDimension
280
     0
  2
*D4
 10
692.6427139766947
 20
1561.809032730288
 30
0.0
 11
676.6427139766951
 21
1450.809032730287
 31
0.0
 70
    32
  1
%%C111{\Ftxt|c134; [4.37"]}
 71
     5
 42
221.9999999999993
 73
     0
 74
     0
 75
     0
  3
ISO-25
100
AcDbAlignedDimension
 13
849.9992995442422
 23
1339.809032730288
 33
0.0
 14
849.9992995442422
 24
1561.809032730287
 34
0.0
 50
90.0
100
AcDbRotatedDimension
  0
DIMENSION
  5
1F9C
102
{ACAD_XDICTIONARY
360
1FA9
102
}
102
{ACAD_REACTORS
330
1FB3
102
}
330
1F
100
AcDbEntity
  8
图层3
100
AcDbDimension
280
     0
  2
*D5
 10
654.8937560729045
 20
1574.809032730288
 30
0.0
 11
638.8937560729049
 21
1450.809032730287
 31
0.0
 70
    32
  1
%%C124{\Ftxt|c134; [4.88"]}
 71
     5
 42
248.0000000000002
 73
     0
 74
     0
 75
     0
  3
ISO-25
100
AcDbAlignedDimension
 13
842.9992995442422
 23
1326.809032730287
 33
0.0
 14
842.9992995442422
 24
1574.809032730287
 34
0.0
 50
90.0
100
AcDbRotatedDimension
  0
DIMENSION
  5
1FEB
102
{ACAD_XDICTIONARY
360
1FF8
102
}
102
{ACAD_REACTORS
330
2002
102
}
330
1F
100
AcDbEntity
  8
图层3
100
AcDbDimension
280
     0
  2
*D6
 10
1248.47565095257
 20
1429.99106439982
 30
0.0
 11
1295.274647949176
 21
1555.478975893974
 31
0.0
 70
    34
 71
     5
 42
1.518436449235067
 73
     0
 74
     0
 75
     0
  3
ISO-25
100
AcDb2LineAngularDimension
 13
1237.207719137286
 23
1608.781366336652
 33
0.0
 14
1781.003577404146
 24
1608.781366336652
 34
0.0
 15
1239.229810690816
 25
1606.412206227259
 35
0.0
 16
1288.618388264398
 26
1529.544418897331
 36
0.0
  0
DIMENSION
  5
20A8
102
{ACAD_XDICTIONARY
360
20B5
102
}
102
{ACAD_REACTORS
330
20BF
102
}
330
1F
100
AcDbEntity
  8
图层3
100
AcDbDimension
280
     0
  2
*D7
 10
626.2916598371096
 20
781.963792940111
 30
0.0
 11
671.2805315320402
 21
1136.927825505962
 31
0.0
 70
    34
 71
     5
 42
1.518436449235067
 73
     0
 74
     0
 75
     0
  3
ISO-25
100
AcDb2LineAngularDimension
 13
628.6608199465024
 23
1184.212041936795
 33
0.0
 14
811.1448860444545
 24
1174.648457278061
 34
0.0
 15
626.2916598371098
 25
1186.708615773682
 35
0.0
 16
665.7343736468602
 26
1113.179665046601
 36
0.0
  0
INSERT
  5
2111
330
1F
100
AcDbEntity
  8
图层3
100
AcDbBlockReference
  2
c
 10
1394.087702225489
 20
1318.90203434197
 30
0.0
  0
DIMENSION
  5
212A
102
{ACAD_XDICTIONARY
360
2137
102
}
102
{ACAD_REACTORS
330
2141
102
}
330
1F
100
AcDbEntity
  8
图层3
100
AcDbDimension
280
     0
  2
*D9
 10
626.2916598371098
 20
722.0826346062694
 30
0.0
 11
739.799102557019
 21
722.0826346062694
 31
0.0
 70
   160
  1
<>{\Ftxt|c134; [9"]}
 71
     5
 42
228.0
 73
     0
 74
     0
 75
     0
  3
ISO-25
100
AcDbAlignedDimension
 13
854.2916598371098
 23
984.3362043568969
 33
0.0
 14
626.2916598371098
 24
759.3362043568987
 34
0.0
 50
180.0
100
AcDbRotatedDimension
  0
LINE
  5
2149
330
1F
100
AcDbEntity
  8
图层2
100
AcDbLine
 10
1453.605637425575
 20
1378.155176506657
 30
0.0
 11
1564.605637425575
 21
1378.155175959253
 31
0.0
  0
LINE
  5
214A
330
1F
100
AcDbEntity
  8
图层2
100
AcDbLine
 10
1462.855637425575
 20
1376.35517646104
 30
0.0
 11
1555.355637425574
 21
1376.35517600487
 31
0.0
  0
LINE
  5
214B
330
1F
100
AcDbEntity
  8
图层2
100
AcDbLine
 10
1447.105637425574
 20
1381.655176538713
 30
0.0
 11
1453.605637425574
 21
1378.155176506657
 31
0.0
  0
LINE
  5
214C
330
1F
100
AcDbEntity
  8
图层2
100
AcDbLine
 10
1453.605637425574
 20
1378.155176506657
 30
0.0
 11
1462.855637425574
 21
1376.35517646104
 31
0.0
  0
LINE
  5
214D
330
1F
100
AcDbEntity
  8
图层2
100
AcDbLine
 10
1571.105637425574
 20
1381.655175927198
 30
0.0
 11
1564.605637425574
 21
1378.155175959253
 31
0.0
  0
LINE
  5
214E
330
1F
100
AcDbEntity
  8
图层2
100
AcDbLine
 10
1564.605637425574
 20
1378.155175959253
 30
0.0
 11
1555.355637425575
 21
1376.35517600487
 31
0.0
  0
LINE
  5
2150
330
1F
100
AcDbEntity
  8
图层1
100
AcDbLine
 10
1509.105637425575
 20
1338.432495367477
 30
0.0
 11
1509.105637425575
 21
1421.417019670333
 31
0.0
  0
DIMENSION
  5
22AB
102
{ACAD_XDICTIONARY
360
22B5
102
}
102
{ACAD_REACTORS
330
22BC
102
}
330
1F
100
AcDbEntity
  8
图层3
100
AcDbDimension
280
     0
  2
*D10
 10
1236.733236853929
 20
1606.281366336652
 30
0.0
 11
1200.323924418577
 21
1561.440790289291
 31
0.0
 70
   164
  1
<>{\Ftxt|c134; [.1"]}
 71
     5
 42
2.499999999996362
 73
     0
 74
     0
 75
     0
  3
ISO-25
100
AcDbRadialDimension
 15
1238.309101612066
 25
1608.222152327957
 35
0.0
 40
0.0
1001
ACAD
1000
DSTYLE
1002
{
1070
   279
1070
     1
1070
   288
1070
     1
1002
}
  0
DIMENSION
  5
22E1
102
{ACAD_XDICTIONARY
360
22EB
102
}
102
{ACAD_REACTORS
330
22F2
102
}
330
1F
100
AcDbEntity
  8
图层3
100
AcDbDimension
280
     0
  2
*D11
 10
628.7916598371095
 20
1186.708615773682
 30
0.0
 11
657.3514969013185
 21
1224.663664276692
 31
0.0
 70
   164
  1
<>{\Ftxt|c134; [.1"]}
 71
     5
 42
2.499999999999772
 73
     0
 74
     0
 75
     0
  3
ISO-25
100
AcDbRadialDimension
 15
627.2885105179408
 25
1184.710981641944
 35
0.0
 40
0.0
1001
ACAD
1000
DSTYLE
1002
{
1070
   279
1070
     1
1070
   288
1070
     1
1002
}
  0
DIMENSION
  5
233C
102
{ACAD_XDICTIONARY
360
2349
102
}
102
{ACAD_REACTORS
330
2353
102
}
330
1F
100
AcDbEntity
  8
图层3
100
AcDbDimension
280
     0
  2
*D12
 10
1779.105648270716
 20
1244.960922785682
 30
0.0
 11
1508.935582331434
 21
1244.960922785682
 31
0.0
 70
   160
  1
<>{\Ftxt|c134; [21.26"]}
 71
     5
 42
539.999999999999
 73
     0
 74
     0
 75
     0
  3
ISO-25
100
AcDbAlignedDimension
 13
1239.105648270717
 23
984.3362043568955
 33
0.0
 14
1779.105648270716
 24
984.3362098681492
 34
0.0
100
AcDbRotatedDimension
  0
DIMENSION
  5
2354
102
{ACAD_XDICTIONARY
360
2361
102
}
102
{ACAD_REACTORS
330
236B
102
}
330
1F
100
AcDbEntity
  8
图层3
100
AcDbDimension
280
     0
  2
*D13
 10
1804.105648270716
 20
1285.31910645215
 30
0.0
 11
1508.935582331434
 21
1285.31910645215
 31
0.0
 70
   160
  1
<>{\Ftxt|c134; [23.23"]}
 71
     5
 42
590.0
 73
     0
 74
     0
 75
     0
  3
ISO-25
100
AcDbAlignedDimension
 13
1214.105648270716
 23
984.3362043568955
 33
0.0
 14
1804.105648270716
 24
984.3362043568953
 34
0.0
100
AcDbRotatedDimension
  0
DIMENSION
  5
236C
102
{ACAD_XDICTIONARY
360
2379
102
}
102
{ACAD_REACTORS
330
2383
102
}
330
1F
100
AcDbEntity
  8
图层3
100
AcDbDimension
280
     0
  2
*D14
 10
1876.689592561915
 20
784.3362043568987
 30
0.0
 11
1860.689592561915
 21
984.336204356896
 31
0.0
 70
    32
  1
<>{\Ftxt|c134; [15.75"]}
 71
     5
 42
399.9999999999963
 73
     0
 74
     0
 75
     0
  3
ISO-25
100
AcDbAlignedDimension
 13
1509.105629486377
 23
1184.336204356894
 33
0.0
 14
1509.105629486377
 24
784.3362043568982
 34
0.0
 50
90.0
100
AcDbRotatedDimension
  0
DIMENSION
  5
2384
102
{ACAD_XDICTIONARY
360
2391
102
}
102
{ACAD_REACTORS
330
239B
102
}
330
1F
100
AcDbEntity
  8
图层3
100
AcDbDimension
280
     0
  2
*D15
 10
1929.62174310883
 20
759.3362043568975
 30
0.0
 11
1913.62174310883
 21
984.3362043568951
 31
0.0
 70
    32
  1
<>{\Ftxt|c134; [17.72"]}
 71
     5
 42
449.9999999999964
 73
     0
 74
     0
 75
     0
  3
ISO-25
100
AcDbAlignedDimension
 13
1664.105648270716
 23
1209.336204356893
 33
0.0
 14
1664.105648270716
 24
759.3362043568971
 34
0.0
 50
90.0
100
AcDbRotatedDimension
  0
LINE
  5
23BB
330
1F
100
AcDbEntity
  8
图层4
100
AcDbLine
 10
896.2941421763954
 20
1039.42900016932
 30
0.0
 11
997.5556463895317
 21
1230.296744294609
 31
0.0
  0
LINE
  5
23BC
330
1F
100
AcDbEntity
  8
图层4
100
AcDbLine
 10
997.5556463895317
 20
1230.296744294609
 30
0.0
 11
956.130488044344
 21
1365.973821986464
 31
0.0
  0
MTEXT
  5
2431
330
1F
100
AcDbEntity
  8
图层3
100
AcDbMText
 10
1133.250611132673
 20
783.6665728097414
 30
0.0
 40
16.0
 41
127.6101580114373
 46
0.0
 71
     1
 72
     5
  1
4-R140{\Ftxt|c134; [5.5"]}
 73
     1
 44
1.0
  0
MTEXT
  5
2433
330
1F
100
AcDbEntity
  8
图层3
100
AcDbMText
 10
1068.22977818863
 20
724.0085030940218
 30
0.0
 40
16.0
 41
0.0
 46
0.0
 71
     9
 72
     1
  1

 73
     1
 44
1.0
  0
DIMENSION
  5
25D6
102
{ACAD_XDICTIONARY
360
25E0
102
}
102
{ACAD_REACTORS
330
25E6
102
}
330
1F
100
AcDbEntity
  8
图层3
100
AcDbDimension
280
     0
  2
*D16
 10
1350.300320751114
 20
898.4196827413919
 30
0.0
 11
1347.796406984151
 21
895.9741938643729
 31
0.0
 70
   164
  1
4-<>{\Ftxt|c134; [4"]}
 71
     5
 42
110.0000000000022
 73
     0
 74
     0
 75
     0
  3
ISO-25
100
AcDbRadialDimension
 15
1271.605888075148
 25
821.5614608922736
 35
0.0
 40
0.0
1001
ACAD
1000
DSTYLE
1002
{
1070
   288
1070
     1
1002
}
  0
MTEXT
  5
25FC
330
1F
100
AcDbEntity
  8
图层3
100
AcDbMText
 10
1144.915277299165
 20
754.0149903659921
 30
0.0
 40
16.0
 41
0.0
 46
0.0
 71
     9
 72
     1
  1

 73
     1
 44
1.0
  0
LEADER
  5
25FF
102
{ACAD_XDICTIONARY
360
2601
102
}
102
{ACAD_REACTORS
330
2602
102
}
330
1F
100
AcDbEntity
  8
图层3
100
AcDbLeader
  3
ISO-25
 73
     0
 40
16.0
 76
     3
 10
1255.110698904599
 20
800.3412549907805
 30
0.0
 10
1217.523444312999
 20
763.0389315580687
 30
0.0
 10
1132.982304555857
 20
763.0389315580687
 30
0.0
340
2600
213
0.0
223
8.0
233
0.0
1001
ACAD
1000
DSTYLE
1002
{
1070
   147
1040
6.0
1070
    77
1070
     0
1002
}
  0
MTEXT
  5
2600
102
{ACAD_REACTORS
330
25FF
102
}
330
1F
100
AcDbEntity
  8
图层3
100
AcDbMText
 10
1126.982304555857
 20
755.0389315580687
 30
0.0
 40
16.0
 41
0.0
 46
0.0
 71
     9
 72
     1
  1

 73
     1
 44
1.0
  0
DIMENSION
  5
2603
102
{ACAD_XDICTIONARY
360
260D
102
}
102
{ACAD_REACTORS
330
2614
102
}
330
1F
100
AcDbEntity
  8
图层3
100
AcDbDimension
280
     0
  2
*D17
 10
809.0514477947372
 20
1134.703275887881
 30
0.0
 11
792.7312531039302
 21
1115.316179351188
 31
0.0
 70
   164
  1
<>{\Ftxt|c134; [.16"]}
 71
     3
 42
39.99999999999841
 73
     0
 74
     0
 75
     0
  3
ISO-25
100
AcDbRadialDimension
 15
834.811538077867
 25
1165.304219477987
 35
0.0
 40
0.0
1001
ACAD
1000
DSTYLE
1002
{
1070
   279
1070
     1
1070
   288
1070
     1
1002
}
  0
DIMENSION
  5
2627
102
{ACAD_XDICTIONARY
360
2630
102
}
102
{ACAD_REACTORS
330
2636
102
}
330
1F
100
AcDbEntity
  8
图层3
100
AcDbDimension
280
     0
  2
*D18
 10
4439.105648270722
 20
984.3362043568975
 30
0.0
 11
1335.205145805464
 21
1009.189187999468
 31
0.0
 70
   164
  1
4-<>
 71
     5
 42
3200.000000000004
 73
     0
 74
     0
 75
     0
  3
ISO-25
100
AcDbRadialDimension
 15
1239.208223048806
 25
1009.957836978104
 35
0.0
 40
0.0
1001
ACAD
1000
DSTYLE
1002
{
1070
   288
1070
     1
1002
}
  0
DIMENSION
  5
2641
102
{ACAD_XDICTIONARY
360
264E
102
}
102
{ACAD_REACTORS
330
2658
102
}
330
1F
100
AcDbEntity
  8
图层3
100
AcDbDimension
280
     0
  2
*D19
 10
1475.31658686039
 20
952.7551568457157
 30
0.0
 11
1670.926054088654
 21
1042.116860609171
 31
0.0
 70
   163
  1
<>{\Ftxt|c134; [3.64"]}
 71
     5
 42
92.5
 73
     0
 74
     0
 75
     0
  3
ISO-25
100
AcDbDiametricDimension
 15
1542.894687990759
 25
1015.917251868076
 35
0.0
 40
0.0
1001
ACAD
1000
DSTYLE
1002
{
1070
   288
1070
     1
1002
}
  0
MTEXT
  5
2659
330
1F
100
AcDbEntity
  8
图层3
100
AcDbMText
 10
465.9327696420932
 20
1370.57303826499
 30
0.0
 40
18.0
 41
218.632797508686
 46
0.0
 71
     1
 72
     5
  1
{\fKartika|b0|i0|c0|p18;\LSCALE 2:1}
 73
     1
 44
1.0
  0
MTEXT
  5
278B
330
1F
100
AcDbEntity
  8
图层3
100
AcDbMText
 10
1828.360238895691
 20
1359.074981770647
 30
0.0
 40
18.0
 41
239.3453698907724
 46
0.0
 71
     1
 72
     5
  1
{\fKartika|b0|i0|c0|p18;Adhesive lable}
 73
     1
 44
1.0
  0
LEADER
  5
278D
330
1F
100
AcDbEntity
  8
图层3
100
AcDbLeader
  3
ISO-25
 73
     0
 40
18.0
 76
     3
 10
1551.035595004854
 20
1480.169635758846
 30
0.0
 10
1825.823983924021
 20
1333.729591647215
 30
0.0
 10
2004.945310647374
 20
1333.729591647215
 30
0.0
340
278E
213
0.0
223
-9.0
233
0.0
1001
ACAD
1000
DSTYLE
1002
{
1070
   147
1040
7.0
1070
    77
1070
     0
1002
}
  0
MTEXT
  5
278E
102
{ACAD_REACTORS
330
278D
102
}
330
1F
100
AcDbEntity
  8
图层3
100
AcDbMText
 10
2011.945310647374
 20
1342.729591647215
 30
0.0
 40
18.0
 41
0.0
 46
0.0
 71
     1
 72
     1
  1

 73
     1
 44
1.0
  0
DIMENSION
  5
278F
102
{ACAD_XDICTIONARY
360
2799
102
}
102
{ACAD_REACTORS
330
27A0
102
}
330
1F
100
AcDbEntity
  8
图层3
100
AcDbDimension
280
     0
  2
*D20
 10
1288.420832342752
 20
1432.084502649542
 30
0.0
 11
1295.844056852674
 21
1438.784930835506
 31
0.0
 70
   164
 71
     5
 42
40.00000000000136
 73
     0
 74
     0
 75
     0
  3
ISO-25
100
AcDbRadialDimension
 15
1258.72793430306
 25
1405.282789905678
 35
0.0
 40
0.0
1001
ACAD
1000
DSTYLE
1002
{
1070
   279
1070
     1
1070
   288
1070
     1
1002
}
  0
ENDSEC
  0
SECTION
  2
OBJECTS
  0
DICTIONARY
  5
C
330
0
100
AcDbDictionary
281
     1
  3
ACAD_CIP_PREVIOUS_PRODUCT_INFO
350
2875
  3
ACAD_COLOR
350
DE7
  3
ACAD_DETAILVIEWSTYLE
350
2868
  3
ACAD_GROUP
350
D
  3
ACAD_LAYOUT
350
1A
  3
ACAD_MATERIAL
350
DE6
  3
ACAD_MLEADERSTYLE
350
2864
  3
ACAD_MLINESTYLE
350
17
  3
ACAD_PLOTSETTINGS
350
19
  3
ACAD_PLOTSTYLENAME
350
E
  3
ACAD_SCALELIST
350
2852
  3
ACAD_SECTIONVIEWSTYLE
350
2866
  3
ACAD_TABLESTYLE
350
DE8
  3
ACAD_VISUALSTYLE
350
2838
  3
AcadDim
350
2430
  3
ACDB_RECOMPOSE_DATA
350
2AAA
  3
AcDbVariableDictionary
350
5E
  0
DICTIONARY
  5
E27
330
2
100
AcDbDictionary
280
     1
281
     1
  3
ACAD_LAYERFILTERS
360
2815
  3
ACAD_LAYERSTATES
360
20F4
  3
ACLYDICTIONARY
360
2814
  0
DICTIONARY
  5
28D3
330
10
100
AcDbDictionary
280
     1
281
     1
  3
ADSK_XREC_LAYER_RECONCILED
360
28D4
  0
DICTIONARY
  5
28D5
330
70
100
AcDbDictionary
280
     1
281
     1
  3
ADSK_XREC_LAYER_RECONCILED
360
28D6
  0
DICTIONARY
  5
28D7
330
71
100
AcDbDictionary
280
     1
281
     1
  3
ADSK_XREC_LAYER_RECONCILED
360
28D8
  0
DICTIONARY
  5
28D9
330
72
100
AcDbDictionary
280
     1
281
     1
  3
ADSK_XREC_LAYER_RECONCILED
360
28DA
  0
DICTIONARY
  5
28DB
330
1E9C
100
AcDbDictionary
280
     1
281
     1
  3
ADSK_XREC_LAYER_RECONCILED
360
28DC
  0
DICTIONARY
  5
F25
330
1F
100
AcDbDictionary
280
     1
281
     1
  3
ACAD_SORTENTS
360
F26
  0
DICTIONARY
  5
2109
330
20F5
100
AcDbDictionary
280
     1
281
     1
  3
ACAD_SORTENTS
360
210A
  0
DICTIONARY
  5
27E9
330
27C9
100
AcDbDictionary
280
     1
281
     1
  3
ACAD_SORTENTS
360
27EA
  0
DICTIONARY
  5
1DE3
330
1DDA
100
AcDbDictionary
280
     1
281
     1
  3
ACAD_DIMASSOC
360
1DE9
  0
DICTIONARY
  5
1EF5
330
1EE5
100
AcDbDictionary
280
     1
281
     1
  3
ACAD_DIMASSOC
360
1F02
  0
DICTIONARY
  5
1F10
330
1F03
100
AcDbDictionary
280
     1
281
     1
  3
ACAD_DIMASSOC
360
1F1A
  0
DICTIONARY
  5
1FA9
330
1F9C
100
AcDbDictionary
280
     1
281
     1
  3
ACAD_DIMASSOC
360
1FB3
  0
DICTIONARY
  5
1FF8
330
1FEB
100
AcDbDictionary
280
     1
281
     1
  3
ACAD_DIMASSOC
360
2002
  0
DICTIONARY
  5
20B5
330
20A8
100
AcDbDictionary
280
     1
281
     1
  3
ACAD_DIMASSOC
360
20BF
  0
DICTIONARY
  5
2137
330
212A
100
AcDbDictionary
280
     1
281
     1
  3
ACAD_DIMASSOC
360
2141
  0
DICTIONARY
  5
22B5
330
22AB
100
AcDbDictionary
280
     1
281
     1
  3
ACAD_DIMASSOC
360
22BC
  0
DICTIONARY
  5
22EB
330
22E1
100
AcDbDictionary
280
     1
281
     1
  3
ACAD_DIMASSOC
360
22F2
  0
DICTIONARY
  5
2349
330
233C
100
AcDbDictionary
280
     1
281
     1
  3
ACAD_DIMASSOC
360
2353
  0
DICTIONARY
  5
2361
330
2354
100
AcDbDictionary
280
     1
281
     1
  3
ACAD_DIMASSOC
360
236B
  0
DICTIONARY
  5
2379
330
236C
100
AcDbDictionary
280
     1
281
     1
  3
ACAD_DIMASSOC
360
2383
  0
DICTIONARY
  5
2391
330
2384
100
AcDbDictionary
280
     1
281
     1
  3
ACAD_DIMASSOC
360
239B
  0
DICTIONARY
  5
25E0
330
25D6
100
AcDbDictionary
280
     1
281
     1
  3
ACAD_DIMASSOC
360
25E6
  0
DICTIONARY
  5
2601
330
25FF
100
AcDbDictionary
280
     1
281
     1
  3
ACAD_DIMASSOC
360
2602
  0
DICTIONARY
  5
260D
330
2603
100
AcDbDictionary
280
     1
281
     1
  3
ACAD_DIMASSOC
360
2614
  0
DICTIONARY
  5
2630
330
2627
100
AcDbDictionary
280
     1
281
     1
  3
ACAD_DIMASSOC
360
2636
  0
DICTIONARY
  5
264E
330
2641
100
AcDbDictionary
280
     1
281
     1
  3
ACAD_DIMASSOC
360
2658
  0
DICTIONARY
  5
2799
330
278F
100
AcDbDictionary
280
     1
281
     1
  3
ACAD_DIMASSOC
360
27A0
  0
XRECORD
  5
2875
102
{ACAD_REACTORS
330
C
102
}
330
C
100
AcDbXrecord
280
     1
300
ACDLT
300
2018
300

  0
DICTIONARY
  5
DE7
102
{ACAD_REACTORS
330
C
102
}
330
C
100
AcDbDictionary
281
     1
  0
DICTIONARY
  5
2868
102
{ACAD_REACTORS
330
C
102
}
330
C
100
AcDbDictionary
281
     1
  3
Metric50
350
2869
  0
DICTIONARY
  5
D
102
{ACAD_REACTORS
330
C
102
}
330
C
100
AcDbDictionary
281
     1
  0
DICTIONARY
  5
1A
102
{ACAD_REACTORS
330
C
102
}
330
C
100
AcDbDictionary
281
     1
  3
Model
350
22
  3
布局1
350
51
  3
布局2
350
56
1001
AcadStringInfo
1000
MIFCodePage
1070
     5
  0
DICTIONARY
  5
DE6
102
{ACAD_REACTORS
330
C
102
}
330
C
100
AcDbDictionary
281
     1
  3
ByBlock
350
2828
  3
ByLayer
350
2820
  3
Global
350
2830
  0
DICTIONARY
  5
2864
102
{ACAD_REACTORS
330
C
102
}
330
C
100
AcDbDictionary
281
     1
  3
Standard
350
2865
  0
DICTIONARY
  5
17
102
{ACAD_REACTORS
330
C
102
}
330
C
100
AcDbDictionary
281
     1
  3
Standard
350
18
  0
DICTIONARY
  5
19
102
{ACAD_REACTORS
330
C
102
}
330
C
100
AcDbDictionary
281
     1
  0
ACDBDICTIONARYWDFLT
  5
E
102
{ACAD_REACTORS
330
C
102
}
330
C
100
AcDbDictionary
281
     1
  3
Normal
350
F
100
AcDbDictionaryWithDefault
340
F
  0
DICTIONARY
  5
2852
102
{ACAD_REACTORS
330
C
102
}
330
C
100
AcDbDictionary
281
     1
  3
A0
350
2853
  3
A1
350
2854
  3
A2
350
2855
  3
A3
350
2856
  3
A4
350
2857
  3
A5
350
2858
  3
A6
350
2859
  3
A7
350
285A
  3
A8
350
285B
  3
A9
350
285C
  3
B0
350
285D
  3
B1
350
285E
  3
B2
350
285F
  3
B3
350
2860
  3
B4
350
2861
  3
B5
350
2862
  3
B6
350
2863
  0
DICTIONARY
  5
2866
102
{ACAD_REACTORS
330
C
102
}
330
C
100
AcDbDictionary
281
     1
  3
Metric50
350
2867
  0
DICTIONARY
  5
DE8
102
{ACAD_REACTORS
330
C
102
}
330
C
100
AcDbDictionary
281
     1
  3
Standard
350
DE9
  0
DICTIONARY
  5
2838
102
{ACAD_REACTORS
330
C
102
}
330
C
100
AcDbDictionary
281
     1
  3
2dWireframe
350
283E
  3
Basic
350
283D
  3
Brighten
350
2844
  3
ColorChange
350
2848
  3
Conceptual
350
2841
  3
Dim
350
2843
  3
EdgeColorOff
350
2850
  3
Facepattern
350
2847
  3
Flat
350
2839
  3
FlatWithEdges
350
283A
  3
Gouraud
350
283B
  3
GouraudWithEdges
350
283C
  3
Hidden
350
2840
  3
JitterOff
350
284E
  3
Linepattern
350
2846
  3
OverhangOff
350
284F
  3
Realistic
350
2842
  3
Shaded
350
284D
  3
Shaded with edges
350
284C
  3
Shades of Gray
350
2849
  3
Sketchy
350
284A
  3
Thicken
350
2845
  3
Wireframe
350
283F
  3
X-Ray
350
284B
  0
XRECORD
  5
2430
102
{ACAD_REACTORS
330
C
102
}
330
C
100
AcDbXrecord
280
     1
 90
   990106
  3

 60
     0
 61
     0
 62
     1
 63
     3
 64
     0
 65
     0
 66
     0
 67
     3
 68
     1
 69
     0
 70
     0
 71
     0
 72
     0
 40
0.0
170
     0
340
278E
  0
XRECORD
  5
2AAA
102
{ACAD_REACTORS
330
C
102
}
330
C
100
AcDbXrecord
280
     1
 90
        1
330
DE9
  0
DICTIONARY
  5
5E
102
{ACAD_REACTORS
330
C
102
}
330
C
100
AcDbDictionary
281
     1
  3
CANNOSCALE
350
29EA
  3
CMLEADERSTYLE
350
29E6
  3
CTABLESTYLE
350
DEF
  3
CVIEWDETAILSTYLE
350
29E7
  3
CVIEWSECTIONSTYLE
350
29E8
  3
DIMASSOC
350
5F
  3
HIDETEXT
350
63
  3
LAYEREVAL
350
29EC
  3
LAYERNOTIFY
350
29ED
  3
LIGHTINGUNITS
350
29EB
  3
MSLTSCALE
350
29E9
  0
DICTIONARY
  5
2815
102
{ACAD_REACTORS
330
E27
102
}
330
E27
100
AcDbDictionary
281
     1
  0
DICTIONARY
  5
20F4
102
{ACAD_REACTORS
330
E27
102
}
330
E27
100
AcDbDictionary
281
     1
  0
DICTIONARY
  5
2814
102
{ACAD_REACTORS
330
E27
102
}
330
E27
100
AcDbDictionary
281
     1
1001
ACAD
1000
<All
  0
XRECORD
  5
28D4
102
{ACAD_REACTORS
330
28D3
102
}
330
28D3
100
AcDbXrecord
280
     1
290
     1
  0
XRECORD
  5
28D6
102
{ACAD_REACTORS
330
28D5
102
}
330
28D5
100
AcDbXrecord
280
     1
290
     1
  0
XRECORD
  5
28D8
102
{ACAD_REACTORS
330
28D7
102
}
330
28D7
100
AcDbXrecord
280
     1
290
     1
  0
XRECORD
  5
28DA
102
{ACAD_REACTORS
330
28D9
102
}
330
28D9
100
AcDbXrecord
280
     1
290
     1
  0
XRECORD
  5
28DC
102
{ACAD_REACTORS
330
28DB
102
}
330
28DB
100
AcDbXrecord
280
     1
290
     1
  0
SORTENTSTABLE
  5
F26
102
{ACAD_REACTORS
330
F25
102
}
330
F25
100
AcDbSortentsTable
330
1F
331
1C33
  5
1C34
331
1C12
  5
1BE1
331
1EE3
  5
1C36
331
1C13
  5
1C15
331
1EA4
  5
1EA7
331
1EA5
  5
1EAA
331
1ECD
  5
1EAC
331
1EA7
  5
1EAB
331
1ECE
  5
1EBA
331
1ECF
  5
1EAD
331
1EA1
  5
1EA3
331
1BD8
  5
1BD4
331
1EC8
  5
1ECD
331
1EA2
  5
1EA4
331
669
  5
669
331
1BD9
  5
1BD8
331
1EC9
  5
1ECE
331
20A8
  5
20A8
331
1EA3
  5
1EA5
331
66A
  5
66A
331
1BDA
  5
1BDA
331
1FEB
  5
1FEB
331
1C1B
  5
1C1B
331
1ECA
  5
1ECF
331
2111
  5
2111
331
1EBC
  5
1EC3
331
155C
  5
1577
331
1EBF
  5
1EC4
331
1BE0
  5
1BDF
331
1ED0
  5
1EE4
331
1EB8
  5
1EBF
331
1BE1
  5
1C12
331
1EB9
  5
1EC0
331
1BE2
  5
1BE3
331
1EBA
  5
1EC1
331
1BE3
  5
1C14
331
1DDA
  5
1E78
331
1EBB
  5
1EC2
331
155B
  5
1576
331
212A
  5
212A
331
1BD4
  5
1BD7
331
1EC4
  5
1EC9
331
1EAC
  5
1EBB
331
1EC5
  5
1ECA
331
1BD5
  5
1BD9
331
1F9C
  5
1F9C
331
1EAD
  5
1EB8
331
1EC6
  5
1ECB
331
1BD6
  5
1BDD
331
1EAE
  5
1EB7
331
1EC7
  5
1ECC
331
1BD7
  5
1BD5
331
1C2E
  5
1C2E
331
1EC0
  5
1EC5
331
1C2F
  5
1C32
331
1EC1
  5
1EC6
331
1EC2
  5
1EC7
331
1EAA
  5
1EAE
331
1BD3
  5
1BD3
331
1EC3
  5
1EC8
331
1EAB
  5
1EB9
331
2149
  5
2149
331
1F03
  5
1F03
331
1C34
  5
1C38
331
214A
  5
214A
331
1EE4
  5
1C7A
331
1C14
  5
1BE4
331
1EE5
  5
1EE5
331
1C15
  5
1C13
331
1EB7
  5
1EBC
331
1C30
  5
1C33
331
1C31
  5
1C31
331
1C32
  5
1C30
  0
SORTENTSTABLE
  5
210A
102
{ACAD_REACTORS
330
2109
102
}
330
2109
100
AcDbSortentsTable
330
20F5
331
20F9
  5
20F8
331
20F8
  5
20F9
  0
SORTENTSTABLE
  5
27EA
102
{ACAD_REACTORS
330
27E9
102
}
330
27E9
100
AcDbSortentsTable
330
27C9
331
27D6
  5
27D5
331
27DA
  5
27D3
331
27D5
  5
27D4
331
27D4
  5
27CD
331
27D9
  5
27DA
331
27D8
  5
27D6
331
27CE
  5
27D1
331
27CD
  5
27D2
331
27CC
  5
27CE
331
27D3
  5
27CC
331
27D2
  5
27D9
331
27D1
  5
27D8
  0
DIMASSOC
  5
1DE9
102
{ACAD_REACTORS
330
1DE3
102
}
330
1DE3
100
AcDbDimAssoc
330
1DDA
 90
        2
 70
     0
 71
     0
  1
AcDbOsnapPointRef
 72
     3
331
1C2E
 73
     2
 91
        0
 40
0.0
 10
0.0
 20
0.0
 30
0.0
 75
     0
  0
DIMASSOC
  5
1F02
102
{ACAD_REACTORS
330
1EF5
102
}
330
1EF5
100
AcDbDimAssoc
330
1EE5
 90
        3
 70
     0
 71
     0
  1
AcDbOsnapPointRef
 72
    13
331
1EC5
 73
     2
 91
        0
 40
0.0
 10
0.0
 20
0.0
 30
2.000000000000000E+50
 75
     0
  1
AcDbOsnapPointRef
 72
     1
331
1EC6
 73
     2
 91
        0
 40
1.0
 10
0.0
 20
0.0
 30
2.000000000000000E+50
 75
     0
  0
DIMASSOC
  5
1F1A
102
{ACAD_REACTORS
330
1F10
102
}
330
1F10
100
AcDbDimAssoc
330
1F03
 90
        3
 70
     0
 71
     0
  1
AcDbOsnapPointRef
 72
    13
331
1EC3
 73
     2
 91
        0
 40
0.0
 10
0.0
 20
0.0
 30
2.000000000000000E+50
 75
     0
  1
AcDbOsnapPointRef
 72
    13
331
1EC8
 73
     2
 91
        0
 40
0.0
 10
0.0
 20
0.0
 30
2.000000000000000E+50
 75
     0
  0
DIMASSOC
  5
1FB3
102
{ACAD_REACTORS
330
1FA9
102
}
330
1FA9
100
AcDbDimAssoc
330
1F9C
 90
        3
 70
     0
 71
     0
  1
AcDbOsnapPointRef
 72
    13
331
1EC5
 73
     2
 91
        0
 40
0.0
 10
0.0
 20
0.0
 30
2.000000000000000E+50
 75
     0
  1
AcDbOsnapPointRef
 72
     1
331
1EC8
 73
     2
 91
        0
 40
1.0
 10
0.0
 20
0.0
 30
2.000000000000000E+50
 75
     0
  0
DIMASSOC
  5
2002
102
{ACAD_REACTORS
330
1FF8
102
}
330
1FF8
100
AcDbDimAssoc
330
1FEB
 90
       15
 70
     0
 71
     0
  1
AcDbOsnapPointRef
 72
    13
331
1C1B
 73
     2
 91
        0
 40
0.0
 10
0.0
 20
0.0
 30
2.000000000000000E+50
 75
     0
  1
AcDbOsnapPointRef
 72
     1
331
1C1B
 73
     2
 91
        0
 40
1.0
 10
0.0
 20
0.0
 30
2.000000000000000E+50
 75
     0
  1
AcDbOsnapPointRef
 72
    13
331
1C2F
 73
     2
 91
        0
 40
0.0
 10
0.0
 20
0.0
 30
2.000000000000000E+50
 75
     0
  1
AcDbOsnapPointRef
 72
     1
331
1C2F
 73
     2
 91
        0
 40
1.0
 10
0.0
 20
0.0
 30
2.000000000000000E+50
 75
     0
  0
DIMASSOC
  5
20BF
102
{ACAD_REACTORS
330
20B5
102
}
330
20B5
100
AcDbDimAssoc
330
20A8
 90
       15
 70
     0
 71
     0
  1
AcDbOsnapPointRef
 72
    13
331
1EAC
 73
     2
 91
        0
 40
0.0
 10
0.0
 20
0.0
 30
2.000000000000000E+50
 75
     0
  1
AcDbOsnapPointRef
 72
     1
331
1EAC
 73
     2
 91
        0
 40
1.0
 10
0.0
 20
0.0
 30
2.000000000000000E+50
 75
     0
  1
AcDbOsnapPointRef
 72
    13
331
1ED0
 73
     2
 91
        0
 40
0.0
 10
0.0
 20
0.0
 30
2.000000000000000E+50
 75
     0
  1
AcDbOsnapPointRef
 72
     1
331
1ED0
 73
     2
 91
        0
 40
1.0
 10
0.0
 20
0.0
 30
2.000000000000000E+50
 75
     0
  0
DIMASSOC
  5
2141
102
{ACAD_REACTORS
330
2137
102
}
330
2137
100
AcDbDimAssoc
330
212A
 90
        3
 70
     0
 71
     0
  1
AcDbOsnapPointRef
 72
     2
331
1EAA
 73
     2
 91
        0
 40
4.712388980384689
 10
0.0
 20
0.0
 30
0.0
 75
     0
  1
AcDbOsnapPointRef
 72
    13
331
1EA7
 73
     2
 91
        0
 40
0.0
 10
0.0
 20
0.0
 30
2.000000000000000E+50
 75
     0
  0
DIMASSOC
  5
22BC
102
{ACAD_REACTORS
330
22B5
102
}
330
22B5
100
AcDbDimAssoc
330
22AB
 90
        2
 70
     0
 71
     0
  1
AcDbOsnapPointRef
 72
     3
331
1EE3
 73
     2
 91
        0
 40
0.0
 10
0.0
 20
0.0
 30
0.0
 75
     0
  0
DIMASSOC
  5
22F2
102
{ACAD_REACTORS
330
22EB
102
}
330
22EB
100
AcDbDimAssoc
330
22E1
 90
        2
 70
     0
 71
     0
  1
AcDbOsnapPointRef
 72
     3
331
1ECF
 73
     2
 91
        0
 40
0.0
 10
0.0
 20
0.0
 30
0.0
 75
     0
  0
DIMASSOC
  5
2353
102
{ACAD_REACTORS
330
2349
102
}
330
2349
100
AcDbDimAssoc
330
233C
 90
        3
 70
     0
 71
     0
  1
AcDbOsnapPointRef
 72
     6
331
1EBF
 73
     2
 91
        0
 40
0.0764317454419054
 10
0.0
 20
0.0
 30
0.0
332
1BD3
 74
     2
 92
        0
 75
     0
  1
AcDbOsnapPointRef
 72
     2
331
1BD5
 73
     2
 91
        0
 40
6.283185308901861
 10
0.0
 20
0.0
 30
0.0
 75
     0
  0
DIMASSOC
  5
236B
102
{ACAD_REACTORS
330
2361
102
}
330
2361
100
AcDbDimAssoc
330
2354
 90
        3
 70
     0
 71
     0
  1
AcDbOsnapPointRef
 72
     6
331
1EBF
 73
     2
 91
        0
 40
0.0373907986078766
 10
0.0
 20
0.0
 30
0.0
332
1BE1
 74
     2
 92
        0
 75
     0
  1
AcDbOsnapPointRef
 72
     2
331
1BE3
 73
     2
 91
        0
 40
0.5
 10
0.0
 20
0.0
 30
0.0
 75
     0
  0
DIMASSOC
  5
2383
102
{ACAD_REACTORS
330
2379
102
}
330
2379
100
AcDbDimAssoc
330
236C
 90
        1
 70
     0
 71
     0
  1
AcDbOsnapPointRef
 72
     2
331
1BD6
 73
     2
 91
        0
 40
1.570796485311578
 10
0.0
 20
0.0
 30
0.0
 75
     0
  0
DIMASSOC
  5
239B
102
{ACAD_REACTORS
330
2391
102
}
330
2391
100
AcDbDimAssoc
330
2384
 90
        3
 70
     0
 71
     0
  1
AcDbOsnapPointRef
 72
     1
331
1C13
 73
     2
 91
        0
 40
1.570796326794896
 10
0.0
 20
0.0
 30
2.000000000000000E+50
 75
     0
  1
AcDbOsnapPointRef
 72
    13
331
1C14
 73
     2
 91
        0
 40
4.712388980384689
 10
0.0
 20
0.0
 30
2.000000000000000E+50
 75
     0
  0
DIMASSOC
  5
25E6
102
{ACAD_REACTORS
330
25E0
102
}
330
25E0
100
AcDbDimAssoc
330
25D6
 90
        2
 70
     0
 71
     0
  1
AcDbOsnapPointRef
 72
     3
331
1BD8
 73
     2
 91
        0
 40
0.0
 10
0.0
 20
0.0
 30
0.0
 75
     0
  0
DIMASSOC
  5
2602
102
{ACAD_REACTORS
330
2601
102
}
330
2601
100
AcDbDimAssoc
330
25FF
 90
        1
 70
     0
 71
     0
  1
AcDbOsnapPointRef
 72
     2
331
1C15
 73
     2
 91
        0
 40
3.92699081698724
 10
0.0
 20
0.0
 30
0.0
 75
     0
  0
DIMASSOC
  5
2614
102
{ACAD_REACTORS
330
260D
102
}
330
260D
100
AcDbDimAssoc
330
2603
 90
        2
 70
     0
 71
     0
  1
AcDbOsnapPointRef
 72
     3
331
1EAD
 73
     2
 91
        0
 40
0.0
 10
0.0
 20
0.0
 30
0.0
 75
     0
  0
DIMASSOC
  5
2636
102
{ACAD_REACTORS
330
2630
102
}
330
2630
100
AcDbDimAssoc
330
2627
 90
        2
 70
     0
 71
     0
  1
AcDbOsnapPointRef
 72
     3
331
1BD3
 73
     2
 91
        0
 40
0.0
 10
0.0
 20
0.0
 30
0.0
 75
     0
  0
DIMASSOC
  5
2658
102
{ACAD_REACTORS
330
264E
102
}
330
264E
100
AcDbDimAssoc
330
2641
 90
        2
 70
     0
 71
     0
  1
AcDbOsnapPointRef
 72
     3
331
1EA3
 73
     2
 91
        0
 40
0.0
 10
0.0
 20
0.0
 30
0.0
 75
     0
  0
DIMASSOC
  5
27A0
102
{ACAD_REACTORS
330
2799
102
}
330
2799
100
AcDbDimAssoc
330
278F
 90
        2
 70
     0
 71
     0
  1
AcDbOsnapPointRef
 72
     3
331
1C31
 73
     2
 91
        0
 40
0.0
 10
0.0
 20
0.0
 30
0.0
 75
     0
  0
ACDBDETAILVIEWSTYLE
  5
2869
102
{ACAD_REACTORS
330
2868
102
}
330
2868
100
AcDbModelDocViewStyle
 70
     0
  3
Metric50
290
     1
300
Metric50
 90
        0
100
AcDbDetailViewStyle
 70
     0
 71
     0
 90
        3
 71
     1
340
11
 62
   256
 40
5.0
340
0
 62
   256
 40
5.0
300

 40
0.0
280
     1
 71
     2
340
16
 90
       25
 62
   256
 71
     3
340
11
 62
   256
 40
5.0
 90
        0
 40
15.0
 90
        1
300
%<\AcVar ViewDetailId>% (%<\AcVar ViewScale \f "%sn">%)
 71
     4
340
16
 90
       25
 62
   256
340
16
 90
       25
 62
   256
280
     0
  0
LAYOUT
  5
22
102
{ACAD_REACTORS
330
1A
102
}
330
1A
100
AcDbPlotSettings
  1

  2
SHARP AR-158
  4
A4
  6

 40
5.111750125885009
 41
5.11176061630249
 42
5.111740112304687
 43
5.11175537109375
 44
210.0579986572266
 45
296.9259948730469
 46
5.25
 47
-18.57
 48
0.0
 49
0.0
140
0.0
141
0.0
142
1.0
143
6.0
 70
 11940
 72
     1
 73
     1
 74
     0
  7

 75
     0
147
0.1666666666666666
 76
     0
 77
     2
 78
   300
148
-32.93153940573302
149
-97.08070154653524
100
AcDbLayout
  1
Model
 70
     1
 71
     0
 10
0.0
 20
0.0
 11
12.0
 21
9.0
 12
0.0
 22
0.0
 32
0.0
 14
0.0
 24
0.0
 34
0.0
 15
0.0
 25
0.0
 35
0.0
146
0.0
 13
0.0
 23
0.0
 33
0.0
 16
1.0
 26
0.0
 36
0.0
 17
0.0
 27
1.0
 37
0.0
 76
     0
330
1F
331
281E
  0
LAYOUT
  5
51
102
{ACAD_REACTORS
330
1A
102
}
330
1A
100
AcDbPlotSettings
  1

  2
None
  4

  6

 40
0.0
 41
0.0
 42
0.0
 43
0.0
 44
0.0
 45
0.0
 46
0.0
 47
0.0
 48
0.0
 49
0.0
140
0.0
141
0.0
142
1.0
143
1.0
 70
   688
 72
     0
 73
     0
 74
     5
  7

 75
    16
147
1.0
 76
     0
 77
     2
 78
   300
148
0.0
149
0.0
100
AcDbLayout
  1
布局1
 70
     1
 71
     1
 10
0.0
 20
0.0
 11
12.0
 21
9.0
 12
0.0
 22
0.0
 32
0.0
 14
0.0
 24
0.0
 34
0.0
 15
0.0
 25
0.0
 35
0.0
146
0.0
 13
0.0
 23
0.0
 33
0.0
 16
1.0
 26
0.0
 36
0.0
 17
0.0
 27
1.0
 37
0.0
 76
     0
330
50
1001
AcadStringInfo
1000
MIFCodePage
1070
     5
  0
LAYOUT
  5
56
102
{ACAD_REACTORS
330
1A
102
}
330
1A
100
AcDbPlotSettings
  1

  2
None
  4

  6

 40
0.0
 41
0.0
 42
0.0
 43
0.0
 44
0.0
 45
0.0
 46
0.0
 47
0.0
 48
0.0
 49
0.0
140
0.0
141
0.0
142
1.0
143
1.0
 70
   688
 72
     0
 73
     0
 74
     5
  7

 75
    16
147
1.0
 76
     0
 77
     2
 78
   300
148
0.0
149
0.0
100
AcDbLayout
  1
布局2
 70
     1
 71
     2
 10
0.0
 20
0.0
 11
12.0
 21
9.0
 12
0.0
 22
0.0
 32
0.0
 14
0.0
 24
0.0
 34
0.0
 15
0.0
 25
0.0
 35
0.0
146
0.0
 13
0.0
 23
0.0
 33
0.0
 16
1.0
 26
0.0
 36
0.0
 17
0.0
 27
1.0
 37
0.0
 76
     0
330
55
1001
AcadStringInfo
1000
MIFCodePage
1070
     5
  0
MATERIAL
  5
2828
102
{ACAD_XDICTIONARY
360
2829
102
}
102
{ACAD_REACTORS
330
DE6
102
}
330
DE6
100
AcDbMaterial
  1
ByBlock
 72
     0
 43
0.0008202099737533
 43
0.0
 43
0.0
 43
0.0
 43
0.0
 43
0.0008202099737533
 43
0.0
 43
0.0
 43
0.0
 43
0.0
 43
1.0
 43
0.0
 43
0.0
 43
0.0
 43
0.0
 43
1.0
 77
     0
 47
0.0008202099737533
 47
0.0
 47
0.0
 47
0.0
 47
0.0
 47
0.0008202099737533
 47
0.0
 47
0.0
 47
0.0
 47
0.0
 47
1.0
 47
0.0
 47
0.0
 47
0.0
 47
0.0
 47
1.0
171
     0
 49
0.0008202099737533
 49
0.0
 49
0.0
 49
0.0
 49
0.0
 49
0.0008202099737533
 49
0.0
 49
0.0
 49
0.0
 49
0.0
 49
1.0
 49
0.0
 49
0.0
 49
0.0
 49
0.0
 49
1.0
175
     0
142
0.0008202099737533
142
0.0
142
0.0
142
0.0
142
0.0
142
0.0008202099737533
142
0.0
142
0.0
142
0.0
142
0.0
142
1.0
142
0.0
142
0.0
142
0.0
142
0.0
142
1.0
179
     0
144
0.0008202099737533
144
0.0
144
0.0
144
0.0
144
0.0
144
0.0008202099737533
144
0.0
144
0.0
144
0.0
144
0.0
144
1.0
144
0.0
144
0.0
144
0.0
144
0.0
144
1.0
147
0.0008202099737533
147
0.0
147
0.0
147
0.0
147
0.0
147
0.0008202099737533
147
0.0
147
0.0
147
0.0
147
0.0
147
1.0
147
0.0
147
0.0
147
0.0
147
0.0
147
1.0
  0
MATERIAL
  5
2820
102
{ACAD_XDICTIONARY
360
2821
102
}
102
{ACAD_REACTORS
330
DE6
102
}
330
DE6
100
AcDbMaterial
  1
ByLayer
 72
     0
 43
0.0008202099737533
 43
0.0
 43
0.0
 43
0.0
 43
0.0
 43
0.0008202099737533
 43
0.0
 43
0.0
 43
0.0
 43
0.0
 43
1.0
 43
0.0
 43
0.0
 43
0.0
 43
0.0
 43
1.0
 77
     0
 47
0.0008202099737533
 47
0.0
 47
0.0
 47
0.0
 47
0.0
 47
0.0008202099737533
 47
0.0
 47
0.0
 47
0.0
 47
0.0
 47
1.0
 47
0.0
 47
0.0
 47
0.0
 47
0.0
 47
1.0
171
     0
 49
0.0008202099737533
 49
0.0
 49
0.0
 49
0.0
 49
0.0
 49
0.0008202099737533
 49
0.0
 49
0.0
 49
0.0
 49
0.0
 49
1.0
 49
0.0
 49
0.0
 49
0.0
 49
0.0
 49
1.0
175
     0
142
0.0008202099737533
142
0.0
142
0.0
142
0.0
142
0.0
142
0.0008202099737533
142
0.0
142
0.0
142
0.0
142
0.0
142
1.0
142
0.0
142
0.0
142
0.0
142
0.0
142
1.0
179
     0
144
0.0008202099737533
144
0.0
144
0.0
144
0.0
144
0.0
144
0.0008202099737533
144
0.0
144
0.0
144
0.0
144
0.0
144
1.0
144
0.0
144
0.0
144
0.0
144
0.0
144
1.0
147
0.0008202099737533
147
0.0
147
0.0
147
0.0
147
0.0
147
0.0008202099737533
147
0.0
147
0.0
147
0.0
147
0.0
147
1.0
147
0.0
147
0.0
147
0.0
147
0.0
147
1.0
  0
MATERIAL
  5
2830
102
{ACAD_XDICTIONARY
360
2831
102
}
102
{ACAD_REACTORS
330
DE6
102
}
330
DE6
100
AcDbMaterial
  1
Global
 72
     0
 43
0.0008202099737533
 43
0.0
 43
0.0
 43
0.0
 43
0.0
 43
0.0008202099737533
 43
0.0
 43
0.0
 43
0.0
 43
0.0
 43
1.0
 43
0.0
 43
0.0
 43
0.0
 43
0.0
 43
1.0
 77
     0
 47
0.0008202099737533
 47
0.0
 47
0.0
 47
0.0
 47
0.0
 47
0.0008202099737533
 47
0.0
 47
0.0
 47
0.0
 47
0.0
 47
1.0
 47
0.0
 47
0.0
 47
0.0
 47
0.0
 47
1.0
171
     0
 49
0.0008202099737533
 49
0.0
 49
0.0
 49
0.0
 49
0.0
 49
0.0008202099737533
 49
0.0
 49
0.0
 49
0.0
 49
0.0
 49
1.0
 49
0.0
 49
0.0
 49
0.0
 49
0.0
 49
1.0
175
     0
142
0.0008202099737533
142
0.0
142
0.0
142
0.0
142
0.0
142
0.0008202099737533
142
0.0
142
0.0
142
0.0
142
0.0
142
1.0
142
0.0
142
0.0
142
0.0
142
0.0
142
1.0
179
     0
144
0.0008202099737533
144
0.0
144
0.0
144
0.0
144
0.0
144
0.0008202099737533
144
0.0
144
0.0
144
0.0
144
0.0
144
1.0
144
0.0
144
0.0
144
0.0
144
0.0
144
1.0
147
0.0008202099737533
147
0.0
147
0.0
147
0.0
147
0.0
147
0.0008202099737533
147
0.0
147
0.0
147
0.0
147
0.0
147
1.0
147
0.0
147
0.0
147
0.0
147
0.0
147
1.0
  0
MLEADERSTYLE
  5
2865
102
{ACAD_REACTORS
330
2864
102
}
330
2864
100
AcDbMLeaderStyle
179
     2
170
     2
171
     1
172
     0
 90
        2
 40
0.0
 41
0.0
173
     1
 91
-1056964608
340
14
 92
       -2
290
     1
 42
2.0
291
     1
 43
0.36
  3
Standard
 44
4.0
300

342
11
174
     1
178
     6
175
     1
176
     0
 93
-1056964608
 45
4.0
292
     0
297
     0
 46
4.0
 94
-1056964608
 47
1.0
 49
1.0
140
1.0
293
     1
141
0.0
294
     1
177
     0
142
1.0
295
     1
296
     0
143
0.125
271
     0
272
     9
273
     9
298
     1
  0
MLINESTYLE
  5
18
102
{ACAD_REACTORS
330
17
102
}
330
17
100
AcDbMlineStyle
  2
STANDARD
 70
     0
  3

 62
   256
 51
90.0
 52
90.0
 71
     2
 49
0.5
 62
   256
  6
BYLAYER
 49
-0.5
 62
   256
  6
BYLAYER
  0
ACDBPLACEHOLDER
  5
F
102
{ACAD_REACTORS
330
E
102
}
330
E
  0
SCALE
  5
2853
102
{ACAD_REACTORS
330
2852
102
}
330
2852
100
AcDbScale
 70
     0
300
1:1
140
1.0
141
1.0
290
     1
  0
SCALE
  5
2854
102
{ACAD_REACTORS
330
2852
102
}
330
2852
100
AcDbScale
 70
     0
300
1:2
140
1.0
141
2.0
290
     0
  0
SCALE
  5
2855
102
{ACAD_REACTORS
330
2852
102
}
330
2852
100
AcDbScale
 70
     0
300
1:4
140
1.0
141
4.0
290
     0
  0
SCALE
  5
2856
102
{ACAD_REACTORS
330
2852
102
}
330
2852
100
AcDbScale
 70
     0
300
1:5
140
1.0
141
5.0
290
     0
  0
SCALE
  5
2857
102
{ACAD_REACTORS
330
2852
102
}
330
2852
100
AcDbScale
 70
     0
300
1:8
140
1.0
141
8.0
290
     0
  0
SCALE
  5
2858
102
{ACAD_REACTORS
330
2852
102
}
330
2852
100
AcDbScale
 70
     0
300
1:10
140
1.0
141
10.0
290
     0
  0
SCALE
  5
2859
102
{ACAD_REACTORS
330
2852
102
}
330
2852
100
AcDbScale
 70
     0
300
1:16
140
1.0
141
16.0
290
     0
  0
SCALE
  5
285A
102
{ACAD_REACTORS
330
2852
102
}
330
2852
100
AcDbScale
 70
     0
300
1:20
140
1.0
141
20.0
290
     0
  0
SCALE
  5
285B
102
{ACAD_REACTORS
330
2852
102
}
330
2852
100
AcDbScale
 70
     0
300
1:30
140
1.0
141
30.0
290
     0
  0
SCALE
  5
285C
102
{ACAD_REACTORS
330
2852
102
}
330
2852
100
AcDbScale
 70
     0
300
1:40
140
1.0
141
40.0
290
     0
  0
SCALE
  5
285D
102
{ACAD_REACTORS
330
2852
102
}
330
2852
100
AcDbScale
 70
     0
300
1:50
140
1.0
141
50.0
290
     0
  0
SCALE
  5
285E
102
{ACAD_REACTORS
330
2852
102
}
330
2852
100
AcDbScale
 70
     0
300
1:100
140
1.0
141
100.0
290
     0
  0
SCALE
  5
285F
102
{ACAD_REACTORS
330
2852
102
}
330
2852
100
AcDbScale
 70
     0
300
2:1
140
2.0
141
1.0
290
     0
  0
SCALE
  5
2860
102
{ACAD_REACTORS
330
2852
102
}
330
2852
100
AcDbScale
 70
     0
300
4:1
140
4.0
141
1.0
290
     0
  0
SCALE
  5
2861
102
{ACAD_REACTORS
330
2852
102
}
330
2852
100
AcDbScale
 70
     0
300
8:1
140
8.0
141
1.0
290
     0
  0
SCALE
  5
2862
102
{ACAD_REACTORS
330
2852
102
}
330
2852
100
AcDbScale
 70
     0
300
10:1
140
10.0
141
1.0
290
     0
  0
SCALE
  5
2863
102
{ACAD_REACTORS
330
2852
102
}
330
2852
100
AcDbScale
 70
     0
300
100:1
140
100.0
141
1.0
290
     0
  0
ACDBSECTIONVIEWSTYLE
  5
2867
102
{ACAD_REACTORS
330
2866
102
}
330
2866
100
AcDbModelDocViewStyle
 70
     0
  3
Metric50
290
     1
300
Metric50
 90
        0
100
AcDbSectionViewStyle
 70
     0
 71
     0
 90
      102
 71
     1
340
11
 62
   256
 40
5.0
340
0
340
0
 62
   256
 40
5.0
300
I, O, Q, S, X, Z
 40
10.0
 90
        0
 40
2.5
 90
        0
 71
     2
340
16
 90
       25
 62
   256
340
16
 90
       50
 62
   256
 40
5.0
 40
2.5
 40
5.0
 71
     3
340
11
 62
   256
 40
5.0
 90
        0
 40
15.0
 90
        1
300
%<\AcVar ViewSectionStartId>%-%<\AcVar ViewSectionEndId>% (%<\AcVar ViewScale \f "%sn">%)
 71
     4
 62
   256
 62
   257
300
ANSI31
 40
1.0
 90
        0
290
     0
290
     0
 90
        6
 40
0.0
 40
1.570796326794896
 40
0.2617993877991494
 40
1.308996938995747
 40
-0.2617993877991494
 40
1.832595714594046
  0
TABLESTYLE
  5
DE9
102
{ACAD_XDICTIONARY
360
2AA8
102
}
102
{ACAD_REACTORS
330
DE8
102
}
330
DE8
100
AcDbTableStyle
280
     0
  3
Standard
 70
     0
 71
     0
 40
1.5
 41
1.5
280
     0
281
     0
  7
Standard
140
4.5
170
     2
 62
     0
 63
     7
283
     0
 90
        4
 91
        0
  1

274
    -2
284
     1
 64
     0
275
    -2
285
     1
 65
     0
276
    -2
286
     1
 66
     0
277
    -2
287
     1
 67
     0
278
    -2
288
     1
 68
     0
279
    -2
289
     1
 69
     0
  7
Standard
140
6.0
170
     5
 62
     0
 63
     7
283
     0
 90
        4
 91
        0
  1

274
    -2
284
     1
 64
     0
275
    -2
285
     1
 65
     0
276
    -2
286
     1
 66
     0
277
    -2
287
     1
 67
     0
278
    -2
288
     1
 68
     0
279
    -2
289
     1
 69
     0
  7
Standard
140
4.5
170
     5
 62
     0
 63
     7
283
     0
 90
        4
 91
        0
  1

274
    -2
284
     1
 64
     0
275
    -2
285
     1
 65
     0
276
    -2
286
     1
 66
     0
277
    -2
287
     1
 67
     0
278
    -2
288
     1
 68
     0
279
    -2
289
     1
 69
     0
  0
VISUALSTYLE
  5
283E
102
{ACAD_REACTORS
330
2838
102
}
330
2838
100
AcDbVisualStyle
  2
2dWireframe
 70
     4
177
     3
291
     0
 70
    58
 90
        0
176
     1
 90
        2
176
     1
 90
        0
176
     1
 90
        0
176
     1
 40
0.6
176
     1
 40
30.0
176
     1
 62
     7
420
 16777215
176
     1
 90
        1
176
     1
 90
        4
176
     1
 62
     7
176
     1
 62
   257
176
     1
 90
        1
176
     1
 90
        1
176
     1
 40
1.0
176
     1
 90
        0
176
     1
 62
   257
176
     1
 40
1.0
176
     1
 90
        1
176
     1
 90
        6
176
     1
 90
        2
176
     1
 62
     7
176
     1
 90
        5
176
     1
 90
        0
176
     1
 90
        0
176
     1
290
     0
176
     1
 90
        1
176
     1
 40
0.0
176
     1
 90
        0
176
     1
290
     1
176
     1
290
     1
176
     1
290
     0
176
     1
290
     0
176
     1
290
     0
176
     1
290
     0
176
     1
290
     0
176
     1
290
     0
176
     1
290
     0
176
     1
 90
       50
176
     1
 40
0.0
176
     1
 40
1.0
176
     1
 90
        0
176
     1
 62
    18
420
        0
176
     1
 90
       50
176
     1
 90
        3
176
     1
 62
     5
420
      255
176
     1
290
     0
176
     1
 90
       50
176
     1
 90
       50
176
     1
 90
       50
176
     1
290
     0
176
     1
 90
       50
176
     1
 62
   256
176
     0
 40
1.0
176
     0
 90
        2
176
     1
  1
strokes_ogs.tif
176
     1
290
     0
176
     1
 40
1.0
176
     1
 40
1.0
176
     1
  0
VISUALSTYLE
  5
283D
102
{ACAD_REACTORS
330
2838
102
}
330
2838
100
AcDbVisualStyle
  2
Basic
 70
     7
177
     3
291
     1
 70
    58
 90
        1
176
     1
 90
        0
176
     1
 90
        1
176
     1
 90
        0
176
     1
 40
0.6
176
     1
 40
30.0
176
     1
 62
     7
420
 16777215
176
     1
 90
        0
176
     1
 90
        4
176
     1
 62
     7
176
     1
 62
   257
176
     1
 90
        1
176
     1
 90
        1
176
     1
 40
1.0
176
     1
 90
        8
176
     1
 62
     7
176
     1
 40
1.0
176
     1
 90
        1
176
     1
 90
        6
176
     1
 90
        2
176
     1
 62
     7
176
     1
 90
        5
176
     1
 90
        0
176
     1
 90
        0
176
     1
290
     0
176
     1
 90
        1
176
     1
 40
0.0
176
     1
 90
        0
176
     1
290
     0
176
     1
290
     1
176
     1
290
     1
176
     1
290
     0
176
     1
290
     0
176
     1
290
     0
176
     1
290
     0
176
     1
290
     0
176
     1
290
     0
176
     1
 90
       50
176
     1
 40
0.0
176
     1
 40
1.0
176
     1
 90
        0
176
     1
 62
    18
420
        0
176
     1
 90
       50
176
     1
 90
        3
176
     1
 62
     5
420
      255
176
     1
290
     0
176
     1
 90
       50
176
     1
 90
       50
176
     1
 90
       50
176
     1
290
     0
176
     1
 90
       50
176
     1
 62
   256
176
     0
 40
1.0
176
     0
 90
        2
176
     1
  1
strokes_ogs.tif
176
     1
290
     0
176
     1
 40
1.0
176
     1
 40
1.0
176
     1
  0
VISUALSTYLE
  5
2844
102
{ACAD_REACTORS
330
2838
102
}
330
2838
100
AcDbVisualStyle
  2
Brighten
 70
    12
177
     3
291
     1
 70
    58
 90
        2
176
     1
 90
        2
176
     1
 90
        0
176
     1
 90
        0
176
     1
 40
0.6
176
     1
 40
30.0
176
     1
 62
     7
420
 16777215
176
     1
 90
        1
176
     1
 90
        4
176
     1
 62
     7
176
     1
 62
   257
176
     1
 90
        1
176
     1
 90
        1
176
     1
 40
1.0
176
     1
 90
        8
176
     1
 62
     7
176
     1
 40
1.0
176
     1
 90
        1
176
     1
 90
        6
176
     1
 90
        2
176
     1
 62
     7
176
     1
 90
        5
176
     1
 90
        0
176
     1
 90
        0
176
     1
290
     0
176
     1
 90
        1
176
     1
 40
50.0
176
     1
 90
        0
176
     1
290
     0
176
     1
290
     1
176
     1
290
     1
176
     1
290
     0
176
     1
290
     0
176
     1
290
     0
176
     1
290
     0
176
     1
290
     0
176
     1
290
     0
176
     1
 90
       50
176
     1
 40
0.0
176
     1
 40
1.0
176
     1
 90
        0
176
     1
 62
    18
420
        0
176
     1
 90
       50
176
     1
 90
        3
176
     1
 62
     5
420
      255
176
     1
290
     0
176
     1
 90
       50
176
     1
 90
       50
176
     1
 90
       50
176
     1
290
     0
176
     1
 90
       50
176
     1
 62
   256
176
     0
 40
1.0
176
     0
 90
        2
176
     1
  1
strokes_ogs.tif
176
     1
290
     0
176
     1
 40
1.0
176
     1
 40
1.0
176
     1
  0
VISUALSTYLE
  5
2848
102
{ACAD_REACTORS
330
2838
102
}
330
2838
100
AcDbVisualStyle
  2
ColorChange
 70
    16
177
     3
291
     1
 70
    58
 90
        2
176
     1
 90
        2
176
     1
 90
        3
176
     1
 90
        0
176
     1
 40
0.6
176
     1
 40
30.0
176
     1
 62
     8
420
  8421504
176
     1
 90
        1
176
     1
 90
        4
176
     1
 62
     7
176
     1
 62
   257
176
     1
 90
        1
176
     1
 90
        1
176
     1
 40
1.0
176
     1
 90
        8
176
     1
 62
     8
420
  8421504
176
     1
 40
1.0
176
     1
 90
        1
176
     1
 90
        6
176
     1
 90
        2
176
     1
 62
     7
176
     1
 90
        5
176
     1
 90
        0
176
     1
 90
        0
176
     1
290
     0
176
     1
 90
        1
176
     1
 40
0.0
176
     1
 90
        0
176
     1
290
     0
176
     1
290
     1
176
     1
290
     1
176
     1
290
     0
176
     1
290
     0
176
     1
290
     0
176
     1
290
     0
176
     1
290
     0
176
     1
290
     0
176
     1
 90
       50
176
     1
 40
0.0
176
     1
 40
1.0
176
     1
 90
        0
176
     1
 62
    18
420
        0
176
     1
 90
       50
176
     1
 90
        3
176
     1
 62
     5
420
      255
176
     1
290
     0
176
     1
 90
       50
176
     1
 90
       50
176
     1
 90
       50
176
     1
290
     0
176
     1
 90
       50
176
     1
 62
   256
176
     0
 40
1.0
176
     0
 90
        2
176
     1
  1
strokes_ogs.tif
176
     1
290
     0
176
     1
 40
1.0
176
     1
 40
1.0
176
     1
  0
VISUALSTYLE
  5
2841
102
{ACAD_REACTORS
330
2838
102
}
330
2838
100
AcDbVisualStyle
  2
Conceptual
 70
     9
177
     3
291
     0
 70
    58
 90
        3
176
     1
 90
        2
176
     1
 90
        0
176
     1
 90
        0
176
     1
 40
0.6
176
     1
 40
30.0
176
     1
 62
     7
420
 16777215
176
     1
 90
        2
176
     1
 90
        2
176
     1
 62
     7
176
     1
 62
   257
176
     1
 90
        1
176
     1
 90
        1
176
     1
 40
179.0
176
     1
 90
        8
176
     1
 62
     7
176
     1
 40
1.0
176
     1
 90
        1
176
     1
 90
        6
176
     1
 90
        2
176
     1
 62
     7
176
     1
 90
        3
176
     1
 90
        0
176
     1
 90
        0
176
     1
290
     0
176
     1
 90
        1
176
     1
 40
0.0
176
     1
 90
        0
176
     1
290
     0
176
     1
290
     1
176
     1
290
     1
176
     1
290
     0
176
     1
290
     0
176
     1
290
     0
176
     1
290
     0
176
     1
290
     0
176
     1
290
     0
176
     1
 90
       50
176
     1
 40
0.0
176
     1
 40
1.0
176
     1
 90
        0
176
     1
 62
    18
420
        0
176
     1
 90
       50
176
     1
 90
        3
176
     1
 62
     5
420
      255
176
     1
290
     0
176
     1
 90
       50
176
     1
 90
       50
176
     1
 90
       50
176
     1
290
     0
176
     1
 90
       50
176
     1
 62
   256
176
     0
 40
1.0
176
     0
 90
        2
176
     1
  1
strokes_ogs.tif
176
     1
290
     0
176
     1
 40
1.0
176
     1
 40
1.0
176
     1
  0
VISUALSTYLE
  5
2843
102
{ACAD_REACTORS
330
2838
102
}
330
2838
100
AcDbVisualStyle
  2
Dim
 70
    11
177
     3
291
     1
 70
    58
 90
        2
176
     1
 90
        2
176
     1
 90
        0
176
     1
 90
        0
176
     1
 40
0.6
176
     1
 40
30.0
176
     1
 62
     7
420
 16777215
176
     1
 90
        1
176
     1
 90
        4
176
     1
 62
     7
176
     1
 62
   257
176
     1
 90
        1
176
     1
 90
        1
176
     1
 40
1.0
176
     1
 90
        8
176
     1
 62
     7
176
     1
 40
1.0
176
     1
 90
        1
176
     1
 90
        6
176
     1
 90
        2
176
     1
 62
     7
176
     1
 90
        5
176
     1
 90
        0
176
     1
 90
        0
176
     1
290
     0
176
     1
 90
        1
176
     1
 40
-50.0
176
     1
 90
        0
176
     1
290
     0
176
     1
290
     1
176
     1
290
     1
176
     1
290
     0
176
     1
290
     0
176
     1
290
     0
176
     1
290
     0
176
     1
290
     0
176
     1
290
     0
176
     1
 90
       50
176
     1
 40
0.0
176
     1
 40
1.0
176
     1
 90
        0
176
     1
 62
    18
420
        0
176
     1
 90
       50
176
     1
 90
        3
176
     1
 62
     5
420
      255
176
     1
290
     0
176
     1
 90
       50
176
     1
 90
       50
176
     1
 90
       50
176
     1
290
     0
176
     1
 90
       50
176
     1
 62
   256
176
     0
 40
1.0
176
     0
 90
        2
176
     1
  1
strokes_ogs.tif
176
     1
290
     0
176
     1
 40
1.0
176
     1
 40
1.0
176
     1
  0
VISUALSTYLE
  5
2850
102
{ACAD_REACTORS
330
2838
102
}
330
2838
100
AcDbVisualStyle
  2
EdgeColorOff
 70
    22
177
     3
291
     1
 70
    58
 90
        2
176
     0
 90
        2
176
     0
 90
        0
176
     0
 90
        0
176
     0
 40
0.6
176
     0
 40
30.0
176
     0
 62
     7
420
 16777215
176
     0
 90
        1
176
     0
 90
        4
176
     0
 62
     7
176
     0
 62
   257
176
     0
 90
        1
176
     0
 90
        1
176
     0
 40
1.0
176
     0
 90
        8
176
     2
 62
     7
176
     0
 40
1.0
176
     0
 90
        1
176
     0
 90
        6
176
     0
 90
        2
176
     0
 62
     7
176
     0
 90
        5
176
     0
 90
        0
176
     0
 90
        0
176
     0
290
     0
176
     0
 90
        1
176
     0
 40
0.0
176
     0
 90
        0
176
     0
290
     0
176
     0
290
     1
176
     0
290
     1
176
     0
290
     0
176
     0
290
     0
176
     0
290
     0
176
     0
290
     0
176
     0
290
     0
176
     0
290
     0
176
     0
 90
       50
176
     0
 40
0.0
176
     0
 40
1.0
176
     0
 90
        0
176
     0
 62
    18
420
        0
176
     0
 90
       50
176
     0
 90
        3
176
     0
 62
     5
420
      255
176
     0
290
     0
176
     0
 90
       50
176
     0
 90
       50
176
     0
 90
       50
176
     0
290
     0
176
     0
 90
       50
176
     0
 62
   256
176
     0
 40
1.0
176
     0
 90
        2
176
     0
  1
strokes_ogs.tif
176
     0
290
     0
176
     0
 40
1.0
176
     0
 40
1.0
176
     0
  0
VISUALSTYLE
  5
2847
102
{ACAD_REACTORS
330
2838
102
}
330
2838
100
AcDbVisualStyle
  2
Facepattern
 70
    15
177
     3
291
     1
 70
    58
 90
        2
176
     1
 90
        2
176
     1
 90
        0
176
     1
 90
        0
176
     1
 40
0.6
176
     1
 40
30.0
176
     1
 62
     7
420
 16777215
176
     1
 90
        1
176
     1
 90
        4
176
     1
 62
     7
176
     1
 62
   257
176
     1
 90
        1
176
     1
 90
        1
176
     1
 40
1.0
176
     1
 90
        8
176
     1
 62
     7
176
     1
 40
1.0
176
     1
 90
        1
176
     1
 90
        6
176
     1
 90
        2
176
     1
 62
     7
176
     1
 90
        5
176
     1
 90
        0
176
     1
 90
        0
176
     1
290
     0
176
     1
 90
        1
176
     1
 40
0.0
176
     1
 90
        0
176
     1
290
     0
176
     1
290
     1
176
     1
290
     1
176
     1
290
     0
176
     1
290
     0
176
     1
290
     0
176
     1
290
     0
176
     1
290
     0
176
     1
290
     0
176
     1
 90
       50
176
     1
 40
0.0
176
     1
 40
1.0
176
     1
 90
        0
176
     1
 62
    18
420
        0
176
     1
 90
       50
176
     1
 90
        3
176
     1
 62
     5
420
      255
176
     1
290
     0
176
     1
 90
       50
176
     1
 90
       50
176
     1
 90
       50
176
     1
290
     0
176
     1
 90
       50
176
     1
 62
   256
176
     0
 40
1.0
176
     0
 90
        2
176
     1
  1
strokes_ogs.tif
176
     1
290
     0
176
     1
 40
1.0
176
     1
 40
1.0
176
     1
  0
VISUALSTYLE
  5
2839
102
{ACAD_REACTORS
330
2838
102
}
330
2838
100
AcDbVisualStyle
  2
Flat
 70
     0
177
     3
291
     1
 70
    58
 90
        2
176
     1
 90
        1
176
     1
 90
        1
176
     1
 90
        2
176
     1
 40
0.6
176
     1
 40
30.0
176
     1
 62
     7
420
 16777215
176
     1
 90
        0
176
     1
 90
        0
176
     1
 62
     7
176
     1
 62
   257
176
     1
 90
        1
176
     1
 90
        1
176
     1
 40
1.0
176
     1
 90
        8
176
     1
 62
     7
176
     1
 40
1.0
176
     1
 90
        1
176
     1
 90
        6
176
     1
 90
        2
176
     1
 62
     7
176
     1
 90
        5
176
     1
 90
        0
176
     1
 90
        0
176
     1
290
     0
176
     1
 90
       13
176
     1
 40
0.0
176
     1
 90
        0
176
     1
290
     0
176
     1
290
     1
176
     1
290
     1
176
     1
290
     0
176
     1
290
     0
176
     1
290
     0
176
     1
290
     0
176
     1
290
     0
176
     1
290
     0
176
     1
 90
       50
176
     1
 40
0.0
176
     1
 40
1.0
176
     1
 90
        0
176
     1
 62
    18
420
        0
176
     1
 90
       50
176
     1
 90
        3
176
     1
 62
     5
420
      255
176
     1
290
     0
176
     1
 90
       50
176
     1
 90
       50
176
     1
 90
       50
176
     1
290
     0
176
     1
 90
       50
176
     1
 62
   256
176
     0
 40
1.0
176
     0
 90
        2
176
     1
  1
strokes_ogs.tif
176
     1
290
     0
176
     1
 40
1.0
176
     1
 40
1.0
176
     1
  0
VISUALSTYLE
  5
283A
102
{ACAD_REACTORS
330
2838
102
}
330
2838
100
AcDbVisualStyle
  2
FlatWithEdges
 70
     1
177
     3
291
     1
 70
    58
 90
        2
176
     1
 90
        1
176
     1
 90
        1
176
     1
 90
        2
176
     1
 40
0.6
176
     1
 40
30.0
176
     1
 62
     7
420
 16777215
176
     1
 90
        1
176
     1
 90
        0
176
     1
 62
     7
176
     1
 62
   257
176
     1
 90
        1
176
     1
 90
        1
176
     1
 40
1.0
176
     1
 90
        0
176
     1
 62
   257
176
     1
 40
1.0
176
     1
 90
        1
176
     1
 90
        6
176
     1
 90
        2
176
     1
 62
     7
176
     1
 90
        5
176
     1
 90
        0
176
     1
 90
        0
176
     1
290
     0
176
     1
 90
       13
176
     1
 40
0.0
176
     1
 90
        0
176
     1
290
     0
176
     1
290
     1
176
     1
290
     1
176
     1
290
     0
176
     1
290
     0
176
     1
290
     0
176
     1
290
     0
176
     1
290
     0
176
     1
290
     0
176
     1
 90
       50
176
     1
 40
0.0
176
     1
 40
1.0
176
     1
 90
        0
176
     1
 62
    18
420
        0
176
     1
 90
       50
176
     1
 90
        3
176
     1
 62
     5
420
      255
176
     1
290
     0
176
     1
 90
       50
176
     1
 90
       50
176
     1
 90
       50
176
     1
290
     0
176
     1
 90
       50
176
     1
 62
   256
176
     0
 40
1.0
176
     0
 90
        2
176
     1
  1
strokes_ogs.tif
176
     1
290
     0
176
     1
 40
1.0
176
     1
 40
1.0
176
     1
  0
VISUALSTYLE
  5
283B
102
{ACAD_REACTORS
330
2838
102
}
330
2838
100
AcDbVisualStyle
  2
Gouraud
 70
     2
177
     3
291
     1
 70
    58
 90
        2
176
     1
 90
        2
176
     1
 90
        1
176
     1
 90
        2
176
     1
 40
0.6
176
     1
 40
30.0
176
     1
 62
     7
420
 16777215
176
     1
 90
        0
176
     1
 90
        0
176
     1
 62
     7
176
     1
 62
   257
176
     1
 90
        1
176
     1
 90
        1
176
     1
 40
1.0
176
     1
 90
        0
176
     1
 62
     7
176
     1
 40
1.0
176
     1
 90
        1
176
     1
 90
        6
176
     1
 90
        2
176
     1
 62
     7
176
     1
 90
        5
176
     1
 90
        0
176
     1
 90
        0
176
     1
290
     0
176
     1
 90
       13
176
     1
 40
0.0
176
     1
 90
        0
176
     1
290
     0
176
     1
290
     1
176
     1
290
     1
176
     1
290
     0
176
     1
290
     0
176
     1
290
     0
176
     1
290
     0
176
     1
290
     0
176
     1
290
     0
176
     1
 90
       50
176
     1
 40
0.0
176
     1
 40
1.0
176
     1
 90
        0
176
     1
 62
    18
420
        0
176
     1
 90
       50
176
     1
 90
        3
176
     1
 62
     5
420
      255
176
     1
290
     0
176
     1
 90
       50
176
     1
 90
       50
176
     1
 90
       50
176
     1
290
     0
176
     1
 90
       50
176
     1
 62
   256
176
     0
 40
1.0
176
     0
 90
        2
176
     1
  1
strokes_ogs.tif
176
     1
290
     0
176
     1
 40
1.0
176
     1
 40
1.0
176
     1
  0
VISUALSTYLE
  5
283C
102
{ACAD_REACTORS
330
2838
102
}
330
2838
100
AcDbVisualStyle
  2
GouraudWithEdges
 70
     3
177
     3
291
     1
 70
    58
 90
        2
176
     1
 90
        2
176
     1
 90
        1
176
     1
 90
        2
176
     1
 40
0.6
176
     1
 40
30.0
176
     1
 62
     7
420
 16777215
176
     1
 90
        1
176
     1
 90
        0
176
     1
 62
     7
176
     1
 62
   257
176
     1
 90
        1
176
     1
 90
        1
176
     1
 40
1.0
176
     1
 90
        0
176
     1
 62
   257
176
     1
 40
1.0
176
     1
 90
        1
176
     1
 90
        6
176
     1
 90
        2
176
     1
 62
     7
176
     1
 90
        5
176
     1
 90
        0
176
     1
 90
        0
176
     1
290
     0
176
     1
 90
       13
176
     1
 40
0.0
176
     1
 90
        0
176
     1
290
     0
176
     1
290
     1
176
     1
290
     1
176
     1
290
     0
176
     1
290
     0
176
     1
290
     0
176
     1
290
     0
176
     1
290
     0
176
     1
290
     0
176
     1
 90
       50
176
     1
 40
0.0
176
     1
 40
1.0
176
     1
 90
        0
176
     1
 62
    18
420
        0
176
     1
 90
       50
176
     1
 90
        3
176
     1
 62
     5
420
      255
176
     1
290
     0
176
     1
 90
       50
176
     1
 90
       50
176
     1
 90
       50
176
     1
290
     0
176
     1
 90
       50
176
     1
 62
   256
176
     0
 40
1.0
176
     0
 90
        2
176
     1
  1
strokes_ogs.tif
176
     1
290
     0
176
     1
 40
1.0
176
     1
 40
1.0
176
     1
  0
VISUALSTYLE
  5
2840
102
{ACAD_REACTORS
330
2838
102
}
330
2838
100
AcDbVisualStyle
  2
Hidden
 70
     6
177
     3
291
     0
 70
    58
 90
        1
176
     1
 90
        2
176
     1
 90
        2
176
     1
 90
        0
176
     1
 40
0.6
176
     1
 40
30.0
176
     1
 62
     7
420
 16777215
176
     1
 90
        2
176
     1
 90
        2
176
     1
 62
     7
176
     1
 62
   257
176
     1
 90
        2
176
     1
 90
        1
176
     1
 40
40.0
176
     1
 90
        0
176
     1
 62
   257
176
     1
 40
1.0
176
     1
 90
        1
176
     1
 90
        6
176
     1
 90
        2
176
     1
 62
     7
176
     1
 90
        3
176
     1
 90
        0
176
     1
 90
        0
176
     1
290
     0
176
     1
 90
        1
176
     1
 40
0.0
176
     1
 90
        0
176
     1
290
     0
176
     1
290
     1
176
     1
290
     1
176
     1
290
     0
176
     1
290
     0
176
     1
290
     0
176
     1
290
     0
176
     1
290
     0
176
     1
290
     0
176
     1
 90
       50
176
     1
 40
0.0
176
     1
 40
1.0
176
     1
 90
        0
176
     1
 62
    18
420
        0
176
     1
 90
       50
176
     1
 90
        3
176
     1
 62
     5
420
      255
176
     1
290
     0
176
     1
 90
       50
176
     1
 90
       50
176
     1
 90
       50
176
     1
290
     0
176
     1
 90
       50
176
     1
 62
   256
176
     0
 40
1.0
176
     0
 90
        2
176
     1
  1
strokes_ogs.tif
176
     1
290
     0
176
     1
 40
1.0
176
     1
 40
1.0
176
     1
  0
VISUALSTYLE
  5
284E
102
{ACAD_REACTORS
330
2838
102
}
330
2838
100
AcDbVisualStyle
  2
JitterOff
 70
    20
177
     3
291
     1
 70
    58
 90
        2
176
     0
 90
        2
176
     0
 90
        0
176
     0
 90
        0
176
     0
 40
0.6
176
     0
 40
30.0
176
     0
 62
     7
420
 16777215
176
     0
 90
        1
176
     0
 90
        4
176
     0
 62
     7
176
     0
 62
   257
176
     0
 90
        1
176
     0
 90
        1
176
     0
 40
1.0
176
     0
 90
       10
176
     2
 62
     7
176
     0
 40
1.0
176
     0
 90
        1
176
     0
 90
        6
176
     0
 90
        2
176
     0
 62
     7
176
     0
 90
        5
176
     0
 90
        0
176
     0
 90
        0
176
     0
290
     0
176
     0
 90
        1
176
     0
 40
0.0
176
     0
 90
        0
176
     0
290
     0
176
     0
290
     1
176
     0
290
     1
176
     0
290
     0
176
     0
290
     0
176
     0
290
     0
176
     0
290
     0
176
     0
290
     0
176
     0
290
     0
176
     0
 90
       50
176
     0
 40
0.0
176
     0
 40
1.0
176
     0
 90
        0
176
     0
 62
    18
420
        0
176
     0
 90
       50
176
     0
 90
        3
176
     0
 62
     5
420
      255
176
     0
290
     0
176
     0
 90
       50
176
     0
 90
       50
176
     0
 90
       50
176
     0
290
     0
176
     0
 90
       50
176
     0
 62
   256
176
     0
 40
1.0
176
     0
 90
        2
176
     0
  1
strokes_ogs.tif
176
     0
290
     0
176
     0
 40
1.0
176
     0
 40
1.0
176
     0
  0
VISUALSTYLE
  5
2846
102
{ACAD_REACTORS
330
2838
102
}
330
2838
100
AcDbVisualStyle
  2
Linepattern
 70
    14
177
     3
291
     1
 70
    58
 90
        2
176
     1
 90
        2
176
     1
 90
        0
176
     1
 90
        0
176
     1
 40
0.6
176
     1
 40
30.0
176
     1
 62
     7
420
 16777215
176
     1
 90
        1
176
     1
 90
        4
176
     1
 62
     7
176
     1
 62
   257
176
     1
 90
        7
176
     1
 90
        7
176
     1
 40
1.0
176
     1
 90
        8
176
     1
 62
     7
176
     1
 40
1.0
176
     1
 90
        1
176
     1
 90
        6
176
     1
 90
        2
176
     1
 62
     7
176
     1
 90
        5
176
     1
 90
        0
176
     1
 90
        0
176
     1
290
     0
176
     1
 90
        1
176
     1
 40
0.0
176
     1
 90
        0
176
     1
290
     0
176
     1
290
     1
176
     1
290
     1
176
     1
290
     0
176
     1
290
     0
176
     1
290
     0
176
     1
290
     0
176
     1
290
     0
176
     1
290
     0
176
     1
 90
       50
176
     1
 40
0.0
176
     1
 40
1.0
176
     1
 90
        0
176
     1
 62
    18
420
        0
176
     1
 90
       50
176
     1
 90
        3
176
     1
 62
     5
420
      255
176
     1
290
     0
176
     1
 90
       50
176
     1
 90
       50
176
     1
 90
       50
176
     1
290
     0
176
     1
 90
       50
176
     1
 62
   256
176
     0
 40
1.0
176
     0
 90
        2
176
     1
  1
strokes_ogs.tif
176
     1
290
     0
176
     1
 40
1.0
176
     1
 40
1.0
176
     1
  0
VISUALSTYLE
  5
284F
102
{ACAD_REACTORS
330
2838
102
}
330
2838
100
AcDbVisualStyle
  2
OverhangOff
 70
    21
177
     3
291
     1
 70
    58
 90
        2
176
     0
 90
        2
176
     0
 90
        0
176
     0
 90
        0
176
     0
 40
0.6
176
     0
 40
30.0
176
     0
 62
     7
420
 16777215
176
     0
 90
        1
176
     0
 90
        4
176
     0
 62
     7
176
     0
 62
   257
176
     0
 90
        1
176
     0
 90
        1
176
     0
 40
1.0
176
     0
 90
        9
176
     2
 62
     7
176
     0
 40
1.0
176
     0
 90
        1
176
     0
 90
        6
176
     0
 90
        2
176
     0
 62
     7
176
     0
 90
        5
176
     0
 90
        0
176
     0
 90
        0
176
     0
290
     0
176
     0
 90
        1
176
     0
 40
0.0
176
     0
 90
        0
176
     0
290
     0
176
     0
290
     1
176
     0
290
     1
176
     0
290
     0
176
     0
290
     0
176
     0
290
     0
176
     0
290
     0
176
     0
290
     0
176
     0
290
     0
176
     0
 90
       50
176
     0
 40
0.0
176
     0
 40
1.0
176
     0
 90
        0
176
     0
 62
    18
420
        0
176
     0
 90
       50
176
     0
 90
        3
176
     0
 62
     5
420
      255
176
     0
290
     0
176
     0
 90
       50
176
     0
 90
       50
176
     0
 90
       50
176
     0
290
     0
176
     0
 90
       50
176
     0
 62
   256
176
     0
 40
1.0
176
     0
 90
        2
176
     0
  1
strokes_ogs.tif
176
     0
290
     0
176
     0
 40
1.0
176
     0
 40
1.0
176
     0
  0
VISUALSTYLE
  5
2842
102
{ACAD_REACTORS
330
2838
102
}
330
2838
100
AcDbVisualStyle
  2
Realistic
 70
     8
177
     3
291
     0
 70
    58
 90
        2
176
     1
 90
        3
176
     1
 90
        0
176
     1
 90
        2
176
     1
 40
0.6
176
     1
 40
30.0
176
     1
 62
     7
420
 16777215
176
     1
 90
        0
176
     1
 90
        0
176
     1
 62
     7
176
     1
 62
   257
176
     1
 90
        1
176
     1
 90
        1
176
     1
 40
1.0
176
     1
 90
        8
176
     1
 62
   257
176
     1
 40
1.0
176
     1
 90
        1
176
     1
 90
        6
176
     1
 90
        2
176
     1
 62
     7
176
     1
 90
        3
176
     1
 90
        0
176
     1
 90
        0
176
     1
290
     0
176
     1
 90
       13
176
     1
 40
0.0
176
     1
 90
        0
176
     1
290
     0
176
     1
290
     1
176
     1
290
     1
176
     1
290
     0
176
     1
290
     0
176
     1
290
     0
176
     1
290
     0
176
     1
290
     0
176
     1
290
     0
176
     1
 90
       50
176
     1
 40
0.0
176
     1
 40
1.0
176
     1
 90
        0
176
     1
 62
    18
420
        0
176
     1
 90
       50
176
     1
 90
        3
176
     1
 62
     5
420
      255
176
     1
290
     0
176
     1
 90
       50
176
     1
 90
       50
176
     1
 90
       50
176
     1
290
     0
176
     1
 90
       50
176
     1
 62
   256
176
     0
 40
1.0
176
     0
 90
        2
176
     1
  1
strokes_ogs.tif
176
     1
290
     0
176
     1
 40
1.0
176
     1
 40
1.0
176
     1
  0
VISUALSTYLE
  5
284D
102
{ACAD_REACTORS
330
2838
102
}
330
2838
100
AcDbVisualStyle
  2
Shaded
 70
    27
177
     3
291
     0
 70
    58
 90
        2
176
     1
 90
        2
176
     1
 90
        1
176
     1
 90
        2
176
     1
 40
0.6
176
     1
 40
30.0
176
     1
 62
     7
420
 16777215
176
     1
 90
        0
176
     1
 90
        4
176
     1
 62
     7
176
     1
 62
   257
176
     1
 90
        1
176
     1
 90
        1
176
     1
 40
1.0
176
     1
 90
        8
176
     1
 62
   257
176
     1
 40
1.0
176
     1
 90
        1
176
     1
 90
        6
176
     1
 90
        2
176
     1
 62
     8
420
  7895160
176
     1
 90
        3
176
     1
 90
        0
176
     1
 90
        0
176
     1
290
     0
176
     1
 90
        5
176
     1
 40
0.0
176
     1
 90
        0
176
     1
290
     0
176
     1
290
     1
176
     1
290
     1
176
     1
290
     0
176
     1
290
     0
176
     1
290
     0
176
     1
290
     0
176
     1
290
     0
176
     1
290
     0
176
     1
 90
       50
176
     1
 40
0.0
176
     1
 40
1.0
176
     1
 90
        0
176
     1
 62
    18
420
        0
176
     1
 90
       50
176
     1
 90
        3
176
     1
 62
     5
420
      255
176
     1
290
     0
176
     1
 90
       50
176
     1
 90
       50
176
     1
 90
       50
176
     1
290
     0
176
     1
 90
       50
176
     1
 62
   256
176
     0
 40
1.0
176
     0
 90
        2
176
     1
  1
strokes_ogs.tif
176
     1
290
     0
176
     1
 40
1.0
176
     1
 40
1.0
176
     1
  0
VISUALSTYLE
  5
284C
102
{ACAD_REACTORS
330
2838
102
}
330
2838
100
AcDbVisualStyle
  2
Shaded with edges
 70
    26
177
     3
291
     0
 70
    58
 90
        2
176
     1
 90
        2
176
     1
 90
        1
176
     1
 90
        2
176
     1
 40
0.6
176
     1
 40
30.0
176
     1
 62
     7
420
 16777215
176
     1
 90
        1
176
     1
 90
        2
176
     1
 62
     7
176
     1
 62
   257
176
     1
 90
        2
176
     1
 90
        1
176
     1
 40
1.0
176
     1
 90
        8
176
     1
 62
   257
176
     1
 40
1.0
176
     1
 90
        1
176
     1
 90
        6
176
     1
 90
        2
176
     1
 62
     7
176
     1
 90
        3
176
     1
 90
        0
176
     1
 90
        0
176
     1
290
     0
176
     1
 90
        5
176
     1
 40
0.0
176
     1
 90
        0
176
     1
290
     0
176
     1
290
     1
176
     1
290
     1
176
     1
290
     0
176
     1
290
     0
176
     1
290
     0
176
     1
290
     0
176
     1
290
     0
176
     1
290
     0
176
     1
 90
       50
176
     1
 40
0.0
176
     1
 40
1.0
176
     1
 90
        0
176
     1
 62
    18
420
        0
176
     1
 90
       50
176
     1
 90
        3
176
     1
 62
     5
420
      255
176
     1
290
     0
176
     1
 90
       50
176
     1
 90
       50
176
     1
 90
       50
176
     1
290
     0
176
     1
 90
       50
176
     1
 62
   256
176
     0
 40
1.0
176
     0
 90
        2
176
     1
  1
strokes_ogs.tif
176
     1
290
     0
176
     1
 40
1.0
176
     1
 40
1.0
176
     1
  0
VISUALSTYLE
  5
2849
102
{ACAD_REACTORS
330
2838
102
}
330
2838
100
AcDbVisualStyle
  2
Shades of Gray
 70
    23
177
     3
291
     0
 70
    58
 90
        2
176
     1
 90
        2
176
     1
 90
        3
176
     1
 90
        0
176
     1
 40
0.6
176
     1
 40
30.0
176
     1
 62
     7
420
 16777215
176
     1
 90
        2
176
     1
 90
        2
176
     1
 62
     7
176
     1
 62
     7
176
     1
 90
        1
176
     1
 90
        1
176
     1
 40
40.0
176
     1
 90
        8
176
     1
 62
     7
176
     1
 40
1.0
176
     1
 90
        1
176
     1
 90
        6
176
     1
 90
        2
176
     1
 62
     7
176
     1
 90
        3
176
     1
 90
        0
176
     1
 90
        0
176
     1
290
     0
176
     1
 90
        1
176
     1
 40
0.0
176
     1
 90
        0
176
     1
290
     0
176
     1
290
     1
176
     1
290
     1
176
     1
290
     0
176
     1
290
     0
176
     1
290
     0
176
     1
290
     0
176
     1
290
     0
176
     1
290
     0
176
     1
 90
       50
176
     1
 40
0.0
176
     1
 40
1.0
176
     1
 90
        0
176
     1
 62
    18
420
        0
176
     1
 90
       50
176
     1
 90
        3
176
     1
 62
     5
420
      255
176
     1
290
     0
176
     1
 90
       50
176
     1
 90
       50
176
     1
 90
       50
176
     1
290
     0
176
     1
 90
       50
176
     1
 62
   256
176
     0
 40
1.0
176
     0
 90
        2
176
     1
  1
strokes_ogs.tif
176
     1
290
     0
176
     1
 40
1.0
176
     1
 40
1.0
176
     1
  0
VISUALSTYLE
  5
284A
102
{ACAD_REACTORS
330
2838
102
}
330
2838
100
AcDbVisualStyle
  2
Sketchy
 70
    24
177
     3
291
     0
 70
    58
 90
        1
176
     1
 90
        2
176
     1
 90
        2
176
     1
 90
        0
176
     1
 40
0.6
176
     1
 40
30.0
176
     1
 62
     7
420
 16777215
176
     1
 90
        2
176
     1
 90
        2
176
     1
 62
     7
176
     1
 62
     7
176
     1
 90
        1
176
     1
 90
        1
176
     1
 40
40.0
176
     1
 90
       11
176
     1
 62
     7
176
     1
 40
1.0
176
     1
 90
        1
176
     1
 90
        6
176
     1
 90
        2
176
     1
 62
     7
176
     1
 90
        6
176
     1
 90
        0
176
     1
 90
        0
176
     1
290
     0
176
     1
 90
        1
176
     1
 40
0.0
176
     1
 90
        0
176
     1
290
     0
176
     1
290
     1
176
     1
290
     1
176
     1
290
     0
176
     1
290
     0
176
     1
290
     0
176
     1
290
     0
176
     1
290
     0
176
     1
290
     0
176
     1
 90
       50
176
     1
 40
0.0
176
     1
 40
1.0
176
     1
 90
        0
176
     1
 62
    18
420
        0
176
     1
 90
       50
176
     1
 90
        3
176
     1
 62
     5
420
      255
176
     1
290
     0
176
     1
 90
       50
176
     1
 90
       50
176
     1
 90
       50
176
     1
290
     0
176
     1
 90
       50
176
     1
 62
   256
176
     0
 40
1.0
176
     0
 90
        2
176
     1
  1
strokes_ogs.tif
176
     1
290
     0
176
     1
 40
1.0
176
     1
 40
1.0
176
     1
  0
VISUALSTYLE
  5
2845
102
{ACAD_REACTORS
330
2838
102
}
330
2838
100
AcDbVisualStyle
  2
Thicken
 70
    13
177
     3
291
     1
 70
    58
 90
        2
176
     1
 90
        2
176
     1
 90
        0
176
     1
 90
        0
176
     1
 40
0.6
176
     1
 40
30.0
176
     1
 62
     7
420
 16777215
176
     1
 90
        1
176
     1
 90
        4
176
     1
 62
     7
176
     1
 62
   257
176
     1
 90
        1
176
     1
 90
        1
176
     1
 40
1.0
176
     1
 90
       12
176
     1
 62
     7
176
     1
 40
1.0
176
     1
 90
        1
176
     1
 90
        6
176
     1
 90
        2
176
     1
 62
     7
176
     1
 90
        5
176
     1
 90
        0
176
     1
 90
        0
176
     1
290
     0
176
     1
 90
        1
176
     1
 40
0.0
176
     1
 90
        0
176
     1
290
     0
176
     1
290
     1
176
     1
290
     1
176
     1
290
     0
176
     1
290
     0
176
     1
290
     0
176
     1
290
     0
176
     1
290
     0
176
     1
290
     0
176
     1
 90
       50
176
     1
 40
0.0
176
     1
 40
1.0
176
     1
 90
        0
176
     1
 62
    18
420
        0
176
     1
 90
       50
176
     1
 90
        3
176
     1
 62
     5
420
      255
176
     1
290
     0
176
     1
 90
       50
176
     1
 90
       50
176
     1
 90
       50
176
     1
290
     0
176
     1
 90
       50
176
     1
 62
   256
176
     0
 40
1.0
176
     0
 90
        2
176
     1
  1
strokes_ogs.tif
176
     1
290
     0
176
     1
 40
1.0
176
     1
 40
1.0
176
     1
  0
VISUALSTYLE
  5
283F
102
{ACAD_REACTORS
330
2838
102
}
330
2838
100
AcDbVisualStyle
  2
Wireframe
 70
     5
177
     3
291
     0
 70
    58
 90
        0
176
     1
 90
        2
176
     1
 90
        0
176
     1
 90
        0
176
     1
 40
0.6
176
     1
 40
30.0
176
     1
 62
     7
420
 16777215
176
     1
 90
        1
176
     1
 90
        4
176
     1
 62
     7
176
     1
 62
   257
176
     1
 90
        1
176
     1
 90
        1
176
     1
 40
1.0
176
     1
 90
        0
176
     1
 62
   257
176
     1
 40
1.0
176
     1
 90
        1
176
     1
 90
        6
176
     1
 90
        2
176
     1
 62
     7
176
     1
 90
        3
176
     1
 90
        0
176
     1
 90
        0
176
     1
290
     0
176
     1
 90
        1
176
     1
 40
0.0
176
     1
 90
        0
176
     1
290
     0
176
     1
290
     1
176
     1
290
     1
176
     1
290
     0
176
     1
290
     0
176
     1
290
     0
176
     1
290
     0
176
     1
290
     0
176
     1
290
     0
176
     1
 90
       50
176
     1
 40
0.0
176
     1
 40
1.0
176
     1
 90
        0
176
     1
 62
    18
420
        0
176
     1
 90
       50
176
     1
 90
        3
176
     1
 62
     5
420
      255
176
     1
290
     0
176
     1
 90
       50
176
     1
 90
       50
176
     1
 90
       50
176
     1
290
     0
176
     1
 90
       50
176
     1
 62
   256
176
     0
 40
1.0
176
     0
 90
        2
176
     1
  1
strokes_ogs.tif
176
     1
290
     0
176
     1
 40
1.0
176
     1
 40
1.0
176
     1
  0
VISUALSTYLE
  5
284B
102
{ACAD_REACTORS
330
2838
102
}
330
2838
100
AcDbVisualStyle
  2
X-Ray
 70
    25
177
     3
291
     0
 70
    58
 90
        2
176
     1
 90
        2
176
     1
 90
        1
176
     1
 90
        1
176
     1
 40
0.5
176
     1
 40
30.0
176
     1
 62
     7
420
 16777215
176
     1
 90
        1
176
     1
 90
        0
176
     1
 62
     7
176
     1
 62
   257
176
     1
 90
        1
176
     1
 90
        1
176
     1
 40
1.0
176
     1
 90
        8
176
     1
 62
     7
176
     1
 40
1.0
176
     1
 90
        1
176
     1
 90
        6
176
     1
 90
        2
176
     1
 62
     7
176
     1
 90
        3
176
     1
 90
        0
176
     1
 90
        0
176
     1
290
     0
176
     1
 90
       13
176
     1
 40
0.0
176
     1
 90
        0
176
     1
290
     0
176
     1
290
     1
176
     1
290
     1
176
     1
290
     0
176
     1
290
     0
176
     1
290
     0
176
     1
290
     0
176
     1
290
     0
176
     1
290
     0
176
     1
 90
       50
176
     1
 40
0.0
176
     1
 40
1.0
176
     1
 90
        0
176
     1
 62
    18
420
        0
176
     1
 90
       50
176
     1
 90
        3
176
     1
 62
     5
420
      255
176
     1
290
     0
176
     1
 90
       50
176
     1
 90
       50
176
     1
 90
       50
176
     1
290
     0
176
     1
 90
       50
176
     1
 62
   256
176
     0
 40
1.0
176
     0
 90
        2
176
     1
  1
strokes_ogs.tif
176
     1
290
     0
176
     1
 40
1.0
176
     1
 40
1.0
176
     1
  0
DICTIONARYVAR
  5
29EA
102
{ACAD_REACTORS
330
5E
102
}
330
5E
100
DictionaryVariables
280
     0
  1
1:1
  0
DICTIONARYVAR
  5
29E6
102
{ACAD_REACTORS
330
5E
102
}
330
5E
100
DictionaryVariables
280
     0
  1
STANDARD
  0
DICTIONARYVAR
  5
DEF
102
{ACAD_REACTORS
330
5E
102
}
330
5E
100
DictionaryVariables
280
     0
  1
STANDARD
  0
DICTIONARYVAR
  5
29E7
102
{ACAD_REACTORS
330
5E
102
}
330
5E
100
DictionaryVariables
280
     0
  1
Metric50
  0
DICTIONARYVAR
  5
29E8
102
{ACAD_REACTORS
330
5E
102
}
330
5E
100
DictionaryVariables
280
     0
  1
Metric50
  0
DICTIONARYVAR
  5
5F
102
{ACAD_REACTORS
330
5E
102
}
330
5E
100
DictionaryVariables
280
     0
  1
2
  0
DICTIONARYVAR
  5
63
102
{ACAD_REACTORS
330
5E
102
}
330
5E
100
DictionaryVariables
280
     0
  1
1
  0
DICTIONARYVAR
  5
29EC
102
{ACAD_REACTORS
330
5E
102
}
330
5E
100
DictionaryVariables
280
     0
  1
1
  0
DICTIONARYVAR
  5
29ED
102
{ACAD_REACTORS
330
5E
102
}
330
5E
100
DictionaryVariables
280
     0
  1
15
  0
DICTIONARYVAR
  5
29EB
102
{ACAD_REACTORS
330
5E
102
}
330
5E
100
DictionaryVariables
280
     0
  1
0
  0
DICTIONARYVAR
  5
29E9
102
{ACAD_REACTORS
330
5E
102
}
330
5E
100
DictionaryVariables
280
     0
  1
0
  0
DICTIONARY
  5
2829
330
2828
100
AcDbDictionary
280
     1
281
     1
  3
BUMPTILE
360
282B
  3
DIFFUSETILE
360
282A
  3
OPACITYTILE
360
282E
  3
REFLECTIONTILE
360
282D
  3
REFRACTIONTILE
360
282F
  3
SPECULARTILE
360
282C
  0
DICTIONARY
  5
2821
330
2820
100
AcDbDictionary
280
     1
281
     1
  3
BUMPTILE
360
2823
  3
DIFFUSETILE
360
2822
  3
OPACITYTILE
360
2826
  3
REFLECTIONTILE
360
2825
  3
REFRACTIONTILE
360
2827
  3
SPECULARTILE
360
2824
  0
DICTIONARY
  5
2831
330
2830
100
AcDbDictionary
280
     1
281
     1
  3
BUMPTILE
360
2833
  3
DIFFUSETILE
360
2832
  3
OPACITYTILE
360
2836
  3
REFLECTIONTILE
360
2835
  3
REFRACTIONTILE
360
2837
  3
SPECULARTILE
360
2834
  0
DICTIONARY
  5
2AA8
330
DE9
100
AcDbDictionary
280
     1
281
     1
  3
ACAD_ROUNDTRIP_2008_TABLESTYLE_CELLSTYLEMAP
360
2AA9
  0
XRECORD
  5
282B
102
{ACAD_REACTORS
330
2829
102
}
330
2829
100
AcDbXrecord
280
     1
270
     1
271
     1
  0
XRECORD
  5
282A
102
{ACAD_REACTORS
330
2829
102
}
330
2829
100
AcDbXrecord
280
     1
270
     1
271
     1
  0
XRECORD
  5
282E
102
{ACAD_REACTORS
330
2829
102
}
330
2829
100
AcDbXrecord
280
     1
270
     1
271
     1
  0
XRECORD
  5
282D
102
{ACAD_REACTORS
330
2829
102
}
330
2829
100
AcDbXrecord
280
     1
270
     1
271
     1
  0
XRECORD
  5
282F
102
{ACAD_REACTORS
330
2829
102
}
330
2829
100
AcDbXrecord
280
     1
270
     1
271
     1
  0
XRECORD
  5
282C
102
{ACAD_REACTORS
330
2829
102
}
330
2829
100
AcDbXrecord
280
     1
270
     1
271
     1
  0
XRECORD
  5
2823
102
{ACAD_REACTORS
330
2821
102
}
330
2821
100
AcDbXrecord
280
     1
270
     1
271
     1
  0
XRECORD
  5
2822
102
{ACAD_REACTORS
330
2821
102
}
330
2821
100
AcDbXrecord
280
     1
270
     1
271
     1
  0
XRECORD
  5
2826
102
{ACAD_REACTORS
330
2821
102
}
330
2821
100
AcDbXrecord
280
     1
270
     1
271
     1
  0
XRECORD
  5
2825
102
{ACAD_REACTORS
330
2821
102
}
330
2821
100
AcDbXrecord
280
     1
270
     1
271
     1
  0
XRECORD
  5
2827
102
{ACAD_REACTORS
330
2821
102
}
330
2821
100
AcDbXrecord
280
     1
270
     1
271
     1
  0
XRECORD
  5
2824
102
{ACAD_REACTORS
330
2821
102
}
330
2821
100
AcDbXrecord
280
     1
270
     1
271
     1
  0
XRECORD
  5
2833
102
{ACAD_REACTORS
330
2831
102
}
330
2831
100
AcDbXrecord
280
     1
270
     1
271
     1
  0
XRECORD
  5
2832
102
{ACAD_REACTORS
330
2831
102
}
330
2831
100
AcDbXrecord
280
     1
270
     1
271
     1
  0
XRECORD
  5
2836
102
{ACAD_REACTORS
330
2831
102
}
330
2831
100
AcDbXrecord
280
     1
270
     1
271
     1
  0
XRECORD
  5
2835
102
{ACAD_REACTORS
330
2831
102
}
330
2831
100
AcDbXrecord
280
     1
270
     1
271
     1
  0
XRECORD
  5
2837
102
{ACAD_REACTORS
330
2831
102
}
330
2831
100
AcDbXrecord
280
     1
270
     1
271
     1
  0
XRECORD
  5
2834
102
{ACAD_REACTORS
330
2831
102
}
330
2831
100
AcDbXrecord
280
     1
270
     1
271
     1
  0
CELLSTYLEMAP
  5
2AA9
102
{ACAD_REACTORS
330
2AA8
102
}
330
2AA8
100
AcDbCellStyleMap
 90
        3
300
CELLSTYLE
  1
TABLEFORMAT_BEGIN
 90
        5
170
     1
 91
        0
 92
    32768
 62
   257
 93
        1
300
CONTENTFORMAT
  1
CONTENTFORMAT_BEGIN
 90
        0
 91
        0
 92
        4
 93
        0
300

 40
0.0
140
1.0
 94
        5
 62
     0
340
11
144
6.0
309
CONTENTFORMAT_END
171
     1
301
MARGIN
  1
CELLMARGIN_BEGIN
 40
1.5
 40
1.5
 40
1.5
 40
1.5
 40
0.18
 40
0.18
309
CELLMARGIN_END
 94
        6
 95
        1
302
GRIDFORMAT
  1
GRIDFORMAT_BEGIN
 90
        0
 91
        1
 62
     0
 92
       -2
340
0
 93
        0
 40
0.045
309
GRIDFORMAT_END
 95
        2
302
GRIDFORMAT
  1
GRIDFORMAT_BEGIN
 90
        0
 91
        1
 62
     0
 92
       -2
340
0
 93
        0
 40
0.045
309
GRIDFORMAT_END
 95
        4
302
GRIDFORMAT
  1
GRIDFORMAT_BEGIN
 90
        0
 91
        1
 62
     0
 92
       -2
340
0
 93
        0
 40
0.045
309
GRIDFORMAT_END
 95
        8
302
GRIDFORMAT
  1
GRIDFORMAT_BEGIN
 90
        0
 91
        1
 62
     0
 92
       -2
340
0
 93
        0
 40
0.045
309
GRIDFORMAT_END
 95
       16
302
GRIDFORMAT
  1
GRIDFORMAT_BEGIN
 90
        0
 91
        1
 62
     0
 92
       -2
340
0
 93
        0
 40
0.045
309
GRIDFORMAT_END
 95
       32
302
GRIDFORMAT
  1
GRIDFORMAT_BEGIN
 90
        0
 91
        1
 62
     0
 92
       -2
340
0
 93
        0
 40
0.045
309
GRIDFORMAT_END
309
TABLEFORMAT_END
  1
CELLSTYLE_BEGIN
 90
        1
 91
        1
300
_TITLE
309
CELLSTYLE_END
300
CELLSTYLE
  1
TABLEFORMAT_BEGIN
 90
        5
170
     1
 91
        0
 92
        0
 62
   257
 93
        1
300
CONTENTFORMAT
  1
CONTENTFORMAT_BEGIN
 90
        0
 91
        0
 92
        4
 93
        0
300

 40
0.0
140
1.0
 94
        5
 62
     0
340
11
144
4.5
309
CONTENTFORMAT_END
171
     1
301
MARGIN
  1
CELLMARGIN_BEGIN
 40
1.5
 40
1.5
 40
1.5
 40
1.5
 40
0.18
 40
0.18
309
CELLMARGIN_END
 94
        6
 95
        1
302
GRIDFORMAT
  1
GRIDFORMAT_BEGIN
 90
        0
 91
        1
 62
     0
 92
       -2
340
0
 93
        0
 40
0.045
309
GRIDFORMAT_END
 95
        2
302
GRIDFORMAT
  1
GRIDFORMAT_BEGIN
 90
        0
 91
        1
 62
     0
 92
       -2
340
0
 93
        0
 40
0.045
309
GRIDFORMAT_END
 95
        4
302
GRIDFORMAT
  1
GRIDFORMAT_BEGIN
 90
        0
 91
        1
 62
     0
 92
       -2
340
0
 93
        0
 40
0.045
309
GRIDFORMAT_END
 95
        8
302
GRIDFORMAT
  1
GRIDFORMAT_BEGIN
 90
        0
 91
        1
 62
     0
 92
       -2
340
0
 93
        0
 40
0.045
309
GRIDFORMAT_END
 95
       16
302
GRIDFORMAT
  1
GRIDFORMAT_BEGIN
 90
        0
 91
        1
 62
     0
 92
       -2
340
0
 93
        0
 40
0.045
309
GRIDFORMAT_END
 95
       32
302
GRIDFORMAT
  1
GRIDFORMAT_BEGIN
 90
        0
 91
        1
 62
     0
 92
       -2
340
0
 93
        0
 40
0.045
309
GRIDFORMAT_END
309
TABLEFORMAT_END
  1
CELLSTYLE_BEGIN
 90
        2
 91
        1
300
_HEADER
309
CELLSTYLE_END
300
CELLSTYLE
  1
TABLEFORMAT_BEGIN
 90
        5
170
     1
 91
        0
 92
        0
 62
   257
 93
        1
300
CONTENTFORMAT
  1
CONTENTFORMAT_BEGIN
 90
        0
 91
        0
 92
        4
 93
        0
300

 40
0.0
140
1.0
 94
        2
 62
     0
340
11
144
4.5
309
CONTENTFORMAT_END
171
     1
301
MARGIN
  1
CELLMARGIN_BEGIN
 40
1.5
 40
1.5
 40
1.5
 40
1.5
 40
0.18
 40
0.18
309
CELLMARGIN_END
 94
        6
 95
        1
302
GRIDFORMAT
  1
GRIDFORMAT_BEGIN
 90
        0
 91
        1
 62
     0
 92
       -2
340
0
 93
        0
 40
0.045
309
GRIDFORMAT_END
 95
        2
302
GRIDFORMAT
  1
GRIDFORMAT_BEGIN
 90
        0
 91
        1
 62
     0
 92
       -2
340
0
 93
        0
 40
0.045
309
GRIDFORMAT_END
 95
        4
302
GRIDFORMAT
  1
GRIDFORMAT_BEGIN
 90
        0
 91
        1
 62
     0
 92
       -2
340
0
 93
        0
 40
0.045
309
GRIDFORMAT_END
 95
        8
302
GRIDFORMAT
  1
GRIDFORMAT_BEGIN
 90
        0
 91
        1
 62
     0
 92
       -2
340
0
 93
        0
 40
0.045
309
GRIDFORMAT_END
 95
       16
302
GRIDFORMAT
  1
GRIDFORMAT_BEGIN
 90
        0
 91
        1
 62
     0
 92
       -2
340
0
 93
        0
 40
0.045
309
GRIDFORMAT_END
 95
       32
302
GRIDFORMAT
  1
GRIDFORMAT_BEGIN
 90
        0
 91
        1
 62
     0
 92
       -2
340
0
 93
        0
 40
0.045
309
GRIDFORMAT_END
309
TABLEFORMAT_END
  1
CELLSTYLE_BEGIN
 90
        3
 91
        2
300
_DATA
309
CELLSTYLE_END
  0
ENDSEC
  0
SECTION
  2
ACDSDATA
 70
     2
 71
     8
  0
ACDSSCHEMA
 90
        0
  1
AcDb_Thumbnail_Schema
  2
AcDbDs::ID
280
    10
 91
        8
  2
Thumbnail_Data
280
    15
 91
        0
101
ACDSRECORD
 95
        0
 90
        1
  2
AcDbDs::TreatedAsObjectData
280
     1
291
     1
101
ACDSRECORD
 95
        0
 90
        2
  2
AcDbDs::Legacy
280
     1
291
     1
101
ACDSRECORD
  1
AcDbDs::ID
 90
        3
  2
AcDs:Indexable
280
     1
291
     1
101
ACDSRECORD
  1
AcDbDs::ID
 90
        4
  2
AcDbDs::HandleAttribute
280
     7
282
     1
  0
ACDSSCHEMA
 90
        1
  1
AcDbDs::TreatedAsObjectDataSchema
  2
AcDbDs::TreatedAsObjectData
280
     1
 91
        0
  0
ACDSSCHEMA
 90
        2
  1
AcDbDs::LegacySchema
  2
AcDbDs::Legacy
280
     1
 91
        0
  0
ACDSSCHEMA
 90
        3
  1
AcDbDs::IndexedPropertySchema
  2
AcDs:Indexable
280
     1
 91
        0
  0
ACDSSCHEMA
 90
        4
  1
AcDbDs::HandleAttributeSchema
  2
AcDbDs::HandleAttribute
280
     7
 91
        1
284
     1
  0
ACDSRECORD
 90
        0
  2
AcDbDs::ID
280
    10
320
22
  2
Thumbnail_Data
280
    15
 94
     2030
310
89504E470D0A1A0A0000000D494844520000010000000085080300000083A6D68B00000300504C5445212830FFFFFF2128300000000000000000000000000000000000000000000000000000330000660000990000CC0000FF0033000033330033660033990033CC0033FF0066000066330066660066990066CC0066FF0099
310
000099330099660099990099CC0099FF00CC0000CC3300CC6600CC9900CCCC00CCFF00FF0000FF3300FF6600FF9900FFCC00FFFF3300003300333300663300993300CC3300FF3333003333333333663333993333CC3333FF3366003366333366663366993366CC3366FF3399003399333399663399993399CC3399FF33CC00
310
33CC3333CC6633CC9933CCCC33CCFF33FF0033FF3333FF6633FF9933FFCC33FFFF6600006600336600666600996600CC6600FF6633006633336633666633996633CC6633FF6666006666336666666666996666CC6666FF6699006699336699666699996699CC6699FF66CC0066CC3366CC6666CC9966CCCC66CCFF66FF0066
310
FF3366FF6666FF9966FFCC66FFFF9900009900339900669900999900CC9900FF9933009933339933669933999933CC9933FF9966009966339966669966999966CC9966FF9999009999339999669999999999CC9999FF99CC0099CC3399CC6699CC9999CCCC99CCFF99FF0099FF3399FF6699FF9999FFCC99FFFFCC0000CC00
310
33CC0066CC0099CC00CCCC00FFCC3300CC3333CC3366CC3399CC33CCCC33FFCC6600CC6633CC6666CC6699CC66CCCC66FFCC9900CC9933CC9966CC9999CC99CCCC99FFCCCC00CCCC33CCCC66CCCC99CCCCCCCCCCFFCCFF00CCFF33CCFF66CCFF99CCFFCCCCFFFFFF0000FF0033FF0066FF0099FF00CCFF00FFFF3300FF3333
310
FF3366FF3399FF33CCFF33FFFF6600FF6633FF6666FF6699FF66CCFF66FFFF9900FF9933FF9966FF9999FF99CCFF99FFFFCC00FFCC33FFCC66FFCC99FFCCCCFFCCFFFFFF00FFFF33FFFF66FFFF99FFFFCCFFFFFF0000000D0D0D1A1A1A2828283535354343435050505D5D5D6B6B6B787878868686939393A1A1A1AEAEAEBB
310
BBBBC9C9C9D6D6D6E4E4E4F1F1F1FFFFFF0000000000000000000000000000000000000000000000000000000000002E4550F1000004A74944415478DAED9DDB7285200C45F3FFFFBBDFDBE928867B022AC1262FED743C1E5884909B96C8E56DC10DB23D02F6FBC0C73FA00245165B034057E5C3CFDF6B31351758DEC3B5EB
310
FF661D668F5C1576D2009429D434BA701D8EFB80F6D4806810C7CCAF55954E61D89ADBD0806434BA7D8DF2FC85871D965B00366F50064030C0CA76E15B09F5FB2C06C086194D5A73B6E36FFA6500641E00210CBE02A03BC48AF9436C6860D2049C877A3A601580D20108BE055A77B100203D09B23585C40864962531819635
310
A007A037CA4F00003D0B00360150D802F703904DD48A06601EC01122D4005454001614806ED1806BAB57E328CBA700DAB1A10440707DAA1F28FC797D3AE03623C80E9486E70F7B000EB765060052C7AFA13289B5B16003A60164AE239A7942C0D4FADFB005DA9A8DFAE5460CC03C803CD6E94593B0317F692C20CE0B953E51
310
3D102CE48365B1001477CA3D7F342EB30460221CEEE1A84DF96D02DCED0D3F8A3960A4D98CD973566C3C9F0640D796074B65B553620F02087747945AC478965DA797CC118A868A6A7AEC7600A71B155B90176D041A8511E219C3C700143207AF1AC9925D42AC1378CB3CAD38235AE6DA8EC3B6E66C9CABFAEE8E6036660D2E
310
765C4CDF87C0AD004AF1C657007CB4472814358F2E88565A1BF7C2B6080003B5BD906C0DFD24664B03EDFD4BAC76A005909447C8706D84A93AE9762AE446103B0050AF12A6EDA00D00E7761D0230E98A1BA98E0DB6F26C0F009397ED0D00F703D8CB2F127F1BA40C01EDD7A29151DF0C8066F5AE6B410B33A552C583601701
310
F3D1C2020D608AD840210000DD64AFFB665DA978D70832128506F8FEAE044BAB2AB497278391FDED650097EE05E75F09A0F82959BC654103F2828DA2320896CB1FF9762C0770D507986B2EAF8C61A2D20B3260031003A00C004400C69F15B0A0013C7E2D144A050030B502AB35203EC09241085AC57706D0CF518800606209
310
566B40CF412007F03400B20C4052D99D0B5F601A00E806008882A2B3318510391EBCC77E3300E2667A0E20140AF8134BC0EBCD639D9CB6B03B4E0E80A25CF9E57B5D7BC18606845ACE3C80B883BA9516B7B4050A0EB1202142546AB0E9669BCD01602901286C4039DF717889320064C30644219AE8B9D9ABE33C05105A5025
310
0008576E613B00B58C17AE9409B6D9027A00ED480349C8D306604103B0404C01E07B16D31A00F4E24E935B00376C81D39FF84F0090D509BBA700590B86807100C9FA7187771F006CC524EA88B8BC52AB140B3C493BAEF0D9DFA40D86D2942AEF34DB0A00693A5B91C5BBBA72B74D008AC338D500281F8EFD0C8063F8A50745
310
3F0E206C7C0CE50791BCBD09B41980E41C030D03B09514C5D0143035FF2F00A0FF0D60EC7D925F0030DC2290BCCB6F4F00332D022854E2B70430F83ECDB417C30C00E57136B1FE85661C137501E52830E4BF64DCAC001858D0D136B9D2C36926F201CA2D808946C9F6DF9E06805AF2426504056FA2AAB7CAAED5806ACA46F6
310
22D150D2A6ED9BA54909A0F4CC932294D5BC6C6B891FA00030D0ED3FDC9B6F10C08CC25B7864868F9948B111BFF2BF11F86C286A581101A06F00E01AB0E2305E09E0B3FFF7C3C5C5C5C5C5C5C5C5C5C5C5C5C5C5C5C5C5C5C5C5C5C5C5C5C5C5C5C5C5E5BBF2038A78F4B1B0EBB9B10000000049454E44AE4260826082
  0
ENDSEC
  0
EOF
