  0
SECTION
  2
HEADER
  9
$ACADVER
  1
AC1032
  9
$ACADMAINTVER
 90
        4
  9
$DWGCODEPAGE
  3
ANSI_1252
  9
$LASTSAVEDBY
  1
Siqi
  9
$REQUIREDVERSIONS
160
                 0
  9
$INSBASE
 10
0.0
 20
0.0
 30
0.0
  9
$EXTMIN
 10
5346.44872295491
 20
4951.340096929986
 30
0.0
  9
$EXTMAX
 10
6123.364307365396
 20
6162.066413752378
 30
0.0
  9
$LIMMIN
 10
0.0
 20
0.0
  9
$LIMMAX
 10
420.0
 20
297.0
  9
$ORTHOMODE
 70
     0
  9
$REGENMODE
 70
     1
  9
$FILLMODE
 70
     1
  9
$QTEXTMODE
 70
     0
  9
$MIRRTEXT
 70
     0
  9
$LTSCALE
 40
1.0
  9
$ATTMODE
 70
     1
  9
$TEXTSIZE
 40
2.5
  9
$TRACEWID
 40
1.0
  9
$TEXTSTYLE
  7
Standard
  9
$CLAYER
  8
标注线
  9
$CELTYPE
  6
ByLayer
  9
$CECOLOR
 62
   256
  9
$CELTSCALE
 40
1.0
  9
$DISPSILH
 70
     0
  9
$DIMSCALE
 40
1.0
  9
$DIMASZ
 40
15.0
  9
$DIMEXO
 40
0.625
  9
$DIMDLI
 40
3.75
  9
$DIMRND
 40
0.0
  9
$DIMDLE
 40
0.0
  9
$DIMEXE
 40
1.25
  9
$DIMTP
 40
0.0
  9
$DIMTM
 40
0.0
  9
$DIMTXT
 40
25.0
  9
$DIMCEN
 40
2.5
  9
$DIMTSZ
 40
0.0
  9
$DIMTOL
 70
     0
  9
$DIMLIM
 70
     0
  9
$DIMTIH
 70
     0
  9
$DIMTOH
 70
     0
  9
$DIMSE1
 70
     0
  9
$DIMSE2
 70
     0
  9
$DIMTAD
 70
     1
  9
$DIMZIN
 70
     8
  9
$DIMBLK
  1

  9
$DIMASO
 70
     1
  9
$DIMSHO
 70
     1
  9
$DIMPOST
  1

  9
$DIMAPOST
  1

  9
$DIMALT
 70
     0
  9
$DIMALTD
 70
     3
  9
$DIMALTF
 40
0.03937007874016
  9
$DIMLFAC
 40
1.0
  9
$DIMTOFL
 70
     1
  9
$DIMTVP
 40
0.0
  9
$DIMTIX
 70
     0
  9
$DIMSOXD
 70
     0
  9
$DIMSAH
 70
     0
  9
$DIMBLK1
  1

  9
$DIMBLK2
  1

  9
$DIMSTYLE
  2
ISO-25
  9
$DIMCLRD
 70
     0
  9
$DIMCLRE
 70
     0
  9
$DIMCLRT
 70
     0
  9
$DIMTFAC
 40
1.0
  9
$DIMGAP
 40
5.0
  9
$DIMJUST
 70
     0
  9
$DIMSD1
 70
     0
  9
$DIMSD2
 70
     0
  9
$DIMTOLJ
 70
     0
  9
$DIMTZIN
 70
     8
  9
$DIMALTZ
 70
     0
  9
$DIMALTTZ
 70
     0
  9
$DIMUPT
 70
     0
  9
$DIMDEC
 70
     2
  9
$DIMTDEC
 70
     2
  9
$DIMALTU
 70
     2
  9
$DIMALTTD
 70
     3
  9
$DIMTXSTY
  7
Standard
  9
$DIMAUNIT
 70
     0
  9
$DIMADEC
 70
     1
  9
$DIMALTRND
 40
0.0
  9
$DIMAZIN
 70
     0
  9
$DIMDSEP
 70
    44
  9
$DIMATFIT
 70
     3
  9
$DIMFRAC
 70
     0
  9
$DIMLDRBLK
  1

  9
$DIMLUNIT
 70
     2
  9
$DIMLWD
 70
    -2
  9
$DIMLWE
 70
    -2
  9
$DIMTMOVE
 70
     0
  9
$DIMFXL
 40
1.0
  9
$DIMFXLON
 70
     0
  9
$DIMJOGANG
 40
0.7853981633974483
  9
$DIMTFILL
 70
     0
  9
$DIMTFILLCLR
 70
     0
  9
$DIMARCSYM
 70
     0
  9
$DIMLTYPE
  6

  9
$DIMLTEX1
  6

  9
$DIMLTEX2
  6

  9
$DIMTXTDIRECTION
 70
     0
  9
$LUNITS
 70
     2
  9
$LUPREC
 70
     4
  9
$SKETCHINC
 40
1.0
  9
$FILLETRAD
 40
4.0
  9
$AUNITS
 70
     0
  9
$AUPREC
 70
     0
  9
$MENU
  1
.
  9
$ELEVATION
 40
0.0
  9
$PELEVATION
 40
0.0
  9
$THICKNESS
 40
0.0
  9
$LIMCHECK
 70
     0
  9
$CHAMFERA
 40
280.0
  9
$CHAMFERB
 40
100.0
  9
$CHAMFERC
 40
0.0
  9
$CHAMFERD
 40
0.0
  9
$SKPOLY
 70
     0
  9
$TDCREATE
 40
2454300.738645834
  9
$TDUCREATE
 40
2454301.030318820
  9
$TDUPDATE
 40
2457969.704965278
  9
$TDUUPDATE
 40
2457969.996631945
  9
$TDINDWG
 40
1.4804553935
  9
$TDUSRTIMER
 40
1.4804553935
  9
$USRTIMER
 70
     1
  9
$ANGBASE
 50
0.0
  9
$ANGDIR
 70
     0
  9
$PDMODE
 70
     0
  9
$PDSIZE
 40
0.0
  9
$PLINEWID
 40
0.0
  9
$SPLFRAME
 70
     0
  9
$SPLINETYPE
 70
     6
  9
$SPLINESEGS
 70
     8
  9
$HANDSEED
  5
3626
  9
$SURFTAB1
 70
     6
  9
$SURFTAB2
 70
     6
  9
$SURFTYPE
 70
     6
  9
$SURFU
 70
     6
  9
$SURFV
 70
     6
  9
$UCSBASE
  2

  9
$UCSNAME
  2

  9
$UCSORG
 10
0.0
 20
0.0
 30
0.0
  9
$UCSXDIR
 10
1.0
 20
0.0
 30
0.0
  9
$UCSYDIR
 10
0.0
 20
1.0
 30
0.0
  9
$UCSORTHOREF
  2

  9
$UCSORTHOVIEW
 70
     0
  9
$UCSORGTOP
 10
0.0
 20
0.0
 30
0.0
  9
$UCSORGBOTTOM
 10
0.0
 20
0.0
 30
0.0
  9
$UCSORGLEFT
 10
0.0
 20
0.0
 30
0.0
  9
$UCSORGRIGHT
 10
0.0
 20
0.0
 30
0.0
  9
$UCSORGFRONT
 10
0.0
 20
0.0
 30
0.0
  9
$UCSORGBACK
 10
0.0
 20
0.0
 30
0.0
  9
$PUCSBASE
  2

  9
$PUCSNAME
  2

  9
$PUCSORG
 10
0.0
 20
0.0
 30
0.0
  9
$PUCSXDIR
 10
1.0
 20
0.0
 30
0.0
  9
$PUCSYDIR
 10
0.0
 20
1.0
 30
0.0
  9
$PUCSORTHOREF
  2

  9
$PUCSORTHOVIEW
 70
     0
  9
$PUCSORGTOP
 10
0.0
 20
0.0
 30
0.0
  9
$PUCSORGBOTTOM
 10
0.0
 20
0.0
 30
0.0
  9
$PUCSORGLEFT
 10
0.0
 20
0.0
 30
0.0
  9
$PUCSORGRIGHT
 10
0.0
 20
0.0
 30
0.0
  9
$PUCSORGFRONT
 10
0.0
 20
0.0
 30
0.0
  9
$PUCSORGBACK
 10
0.0
 20
0.0
 30
0.0
  9
$USERI1
 70
     0
  9
$USERI2
 70
     0
  9
$USERI3
 70
     0
  9
$USERI4
 70
     0
  9
$USERI5
 70
     0
  9
$USERR1
 40
0.0
  9
$USERR2
 40
0.0
  9
$USERR3
 40
0.0
  9
$USERR4
 40
0.0
  9
$USERR5
 40
2.5
  9
$WORLDVIEW
 70
     1
  9
$SHADEDGE
 70
     3
  9
$SHADEDIF
 70
    70
  9
$TILEMODE
 70
     1
  9
$MAXACTVP
 70
    64
  9
$PINSBASE
 10
0.0
 20
0.0
 30
0.0
  9
$PLIMCHECK
 70
     0
  9
$PEXTMIN
 10
0.0
 20
0.0
 30
0.0
  9
$PEXTMAX
 10
0.0
 20
0.0
 30
0.0
  9
$PLIMMIN
 10
0.0
 20
0.0
  9
$PLIMMAX
 10
12.0
 20
9.0
  9
$UNITMODE
 70
     0
  9
$VISRETAIN
 70
     1
  9
$PLINEGEN
 70
     0
  9
$PSLTSCALE
 70
     1
  9
$TREEDEPTH
 70
  3020
  9
$CMLSTYLE
  2
Standard
  9
$CMLJUST
 70
     0
  9
$CMLSCALE
 40
20.0
  9
$PROXYGRAPHICS
 70
     1
  9
$MEASUREMENT
 70
     1
  9
$CELWEIGHT
370
     9
  9
$ENDCAPS
280
     0
  9
$JOINSTYLE
280
     0
  9
$LWDISPLAY
290
     0
  9
$INSUNITS
 70
     4
  9
$HYPERLINKBASE
  1

  9
$STYLESHEET
  1

  9
$XEDIT
290
     1
  9
$CEPSNTYPE
380
     0
  9
$PSTYLEMODE
290
     1
  9
$FINGERPRINTGUID
  2
{FDEAD578-A652-11D2-9A35-0060089B3A3F}
  9
$VERSIONGUID
  2
{1FD59381-E1F9-0947-8078-F56D01F00BF4}
  9
$EXTNAMES
290
     1
  9
$PSVPSCALE
 40
0.0
  9
$OLESTARTUP
290
     0
  9
$SORTENTS
280
   127
  9
$INDEXCTL
280
     0
  9
$HIDETEXT
280
     1
  9
$XCLIPFRAME
280
     0
  9
$HALOGAP
280
     0
  9
$OBSCOLOR
 70
   257
  9
$OBSLTYPE
280
     0
  9
$INTERSECTIONDISPLAY
280
     0
  9
$INTERSECTIONCOLOR
 70
   257
  9
$DIMASSOC
280
     2
  9
$PROJECTNAME
  1

  9
$CAMERADISPLAY
290
     0
  9
$LENSLENGTH
 40
50.0
  9
$CAMERAHEIGHT
 40
0.0
  9
$STEPSPERSEC
 40
2.0
  9
$STEPSIZE
 40
6.0
  9
$3DDWFPREC
 40
2.0
  9
$PSOLWIDTH
 40
0.25
  9
$PSOLHEIGHT
 40
4.0
  9
$LOFTANG1
 40
1.570796326794896
  9
$LOFTANG2
 40
1.570796326794896
  9
$LOFTMAG1
 40
0.0
  9
$LOFTMAG2
 40
0.0
  9
$LOFTPARAM
 70
     7
  9
$LOFTNORMALS
280
     1
  9
$LATITUDE
 40
37.795
  9
$LONGITUDE
 40
-122.394
  9
$NORTHDIRECTION
 40
0.0
  9
$TIMEZONE
 70
 -8000
  9
$LIGHTGLYPHDISPLAY
280
     1
  9
$TILEMODELIGHTSYNCH
280
     1
  9
$CMATERIAL
347
3466
  9
$SOLIDHIST
280
     1
  9
$SHOWHIST
280
     1
  9
$DWFFRAME
280
     2
  9
$DGNFRAME
280
     0
  9
$REALWORLDSCALE
290
     1
  9
$INTERFERECOLOR
 62
     1
  9
$INTERFEREOBJVS
345
3473
  9
$INTERFEREVPVS
346
34B0
  9
$CSHADOW
280
     0
  9
$SHADOWPLANELOCATION
 40
0.0
  0
ENDSEC
  0
SECTION
  2
CLASSES
  0
CLASS
  1
ACDBDICTIONARYWDFLT
  2
AcDbDictionaryWithDefault
  3
ObjectDBX Classes
 90
        0
 91
        1
280
     0
281
     0
  0
CLASS
  1
ACDBPLACEHOLDER
  2
AcDbPlaceHolder
  3
ObjectDBX Classes
 90
        0
 91
        1
280
     0
281
     0
  0
CLASS
  1
LAYOUT
  2
AcDbLayout
  3
ObjectDBX Classes
 90
        0
 91
        3
280
     0
281
     0
  0
CLASS
  1
DICTIONARYVAR
  2
AcDbDictionaryVar
  3
ObjectDBX Classes
 90
        0
 91
       43
280
     0
281
     0
  0
CLASS
  1
DIMASSOC
  2
AcDbDimAssoc
  3
"AcDbDimAssoc|Product Desc:     AcDim ARX App For Dimension|Company:          Autodesk, Inc.|WEB Address:      www.autodesk.com"
 90
        0
 91
        9
280
     0
281
     0
  0
CLASS
  1
MATERIAL
  2
AcDbMaterial
  3
ObjectDBX Classes
 90
     1153
 91
        3
280
     0
281
     0
  0
CLASS
  1
VISUALSTYLE
  2
AcDbVisualStyle
  3
ObjectDBX Classes
 90
     4095
 91
       26
280
     0
281
     0
  0
CLASS
  1
TABLESTYLE
  2
AcDbTableStyle
  3
ObjectDBX Classes
 90
     4095
 91
        1
280
     0
281
     0
  0
CLASS
  1
VLO-VL
  2
vlo_VL
  3
VL|AutoLISP based application
 90
      129
 91
        2
280
     0
281
     0
  0
CLASS
  1
SORTENTSTABLE
  2
AcDbSortentsTable
  3
ObjectDBX Classes
 90
        0
 91
        1
280
     0
281
     0
  0
CLASS
  1
SCALE
  2
AcDbScale
  3
ObjectDBX Classes
 90
     1153
 91
       17
280
     0
281
     0
  0
CLASS
  1
MLEADERSTYLE
  2
AcDbMLeaderStyle
  3
ACDB_MLEADERSTYLE_CLASS
 90
     4095
 91
        1
280
     0
281
     0
  0
CLASS
  1
ACDBSECTIONVIEWSTYLE
  2
AcDbSectionViewStyle
  3
ObjectDBX Classes
 90
     1025
 91
        1
280
     0
281
     0
  0
CLASS
  1
ACDBDETAILVIEWSTYLE
  2
AcDbDetailViewStyle
  3
ObjectDBX Classes
 90
     1025
 91
        1
280
     0
281
     0
  0
CLASS
  1
CELLSTYLEMAP
  2
AcDbCellStyleMap
  3
ObjectDBX Classes
 90
     1152
 91
        2
280
     0
281
     0
  0
ENDSEC
  0
SECTION
  2
TABLES
  0
TABLE
  2
VPORT
  5
8
330
0
100
AcDbSymbolTable
 70
     1
  0
VPORT
  5
3464
330
8
100
AcDbSymbolTableRecord
100
AcDbViewportTableRecord
  2
*Active
 70
     0
 10
0.0
 20
0.0
 11
1.0
 21
1.0
 12
5894.452052748503
 22
5641.160730941932
 13
0.0
 23
0.0
 14
10.0
 24
10.0
 15
10.0
 25
10.0
 16
0.0
 26
0.0
 36
1.0
 17
0.0
 27
0.0
 37
0.0
 40
760.9764432230467
 41
2.318681318681318
 42
50.0
 43
0.0
 44
0.0
 50
0.0
 51
0.0
 71
     0
 72
  1000
 73
     1
 74
     3
 75
     0
 76
     0
 77
     0
 78
     0
281
     0
 65
     1
110
0.0
120
0.0
130
0.0
111
1.0
121
0.0
131
0.0
112
0.0
122
1.0
132
0.0
 79
     0
146
0.0
348
346F
 60
     3
 61
     5
292
     1
282
     1
141
0.0
142
0.0
 63
   250
421
  3355443
1001
ACAD_NAV_VCDISPLAY
1070
     3
  0
ENDTAB
  0
TABLE
  2
LTYPE
  5
5
330
0
100
AcDbSymbolTable
 70
     4
  0
LTYPE
  5
14
330
5
100
AcDbSymbolTableRecord
100
AcDbLinetypeTableRecord
  2
ByBlock
 70
     0
  3

 72
    65
 73
     0
 40
0.0
  0
LTYPE
  5
15
330
5
100
AcDbSymbolTableRecord
100
AcDbLinetypeTableRecord
  2
ByLayer
 70
     0
  3

 72
    65
 73
     0
 40
0.0
  0
LTYPE
  5
16
330
5
100
AcDbSymbolTableRecord
100
AcDbLinetypeTableRecord
  2
Continuous
 70
     0
  3
Solid line
 72
    65
 73
     0
 40
0.0
  0
LTYPE
  5
1BC
330
5
100
AcDbSymbolTableRecord
100
AcDbLinetypeTableRecord
  2
CENTERX2
 70
     0
  3
Center (2x) ________  __  ________  __  _____
 72
    65
 73
     4
 40
101.6
 49
63.5
 74
     0
 49
-12.7
 74
     0
 49
12.7
 74
     0
 49
-12.7
 74
     0
  0
ENDTAB
  0
TABLE
  2
LAYER
  5
2
330
0
100
AcDbSymbolTable
 70
    12
  0
LAYER
  5
10
102
{ACAD_XDICTIONARY
360
35FA
102
}
330
2
100
AcDbSymbolTableRecord
100
AcDbLayerTableRecord
  2
0
 70
     0
 62
     7
  6
Continuous
370
    -3
390
F
347
3468
348
0
  0
LAYER
  5
1BD
102
{ACAD_XDICTIONARY
360
35FC
102
}
330
2
100
AcDbSymbolTableRecord
100
AcDbLayerTableRecord
  2
CEN
 70
     0
 62
    14
  6
CENTERX2
370
    15
390
F
347
3468
348
0
  0
LAYER
  5
1BE
102
{ACAD_XDICTIONARY
360
35FE
102
}
330
2
100
AcDbSymbolTableRecord
100
AcDbLayerTableRecord
  2
DIMJ
 70
     0
 62
   221
  6
Continuous
370
    15
390
F
347
3468
348
0
  0
LAYER
  5
1BF
330
2
100
AcDbSymbolTableRecord
100
AcDbLayerTableRecord
  2
Defpoints
 70
     0
 62
     7
  6
Continuous
290
     0
370
    15
390
F
347
3468
348
0
  0
LAYER
  5
1C0
102
{ACAD_XDICTIONARY
360
3600
102
}
330
2
100
AcDbSymbolTableRecord
100
AcDbLayerTableRecord
  2
标注线
 70
     0
 62
   104
  6
Continuous
370
    13
390
F
347
3468
348
0
1001
AcadStringInfo
1000
MIFCodePage
1070
     5
  0
LAYER
  5
18DF
102
{ACAD_XDICTIONARY
360
3602
102
}
330
2
100
AcDbSymbolTableRecord
100
AcDbLayerTableRecord
  2
开孔纸卡
 70
     0
 62
     1
  6
Continuous
370
    -3
390
F
347
3468
348
0
1001
AcadStringInfo
1000
MIFCodePage
1070
     5
  0
LAYER
  5
18E0
102
{ACAD_XDICTIONARY
360
3604
102
}
330
2
100
AcDbSymbolTableRecord
100
AcDbLayerTableRecord
  2
二拉
 70
     0
 62
     2
  6
Continuous
370
    -3
390
F
347
3468
348
0
1001
AcadStringInfo
1000
MIFCodePage
1070
     5
  0
LAYER
  5
18E1
102
{ACAD_XDICTIONARY
360
3606
102
}
330
2
100
AcDbSymbolTableRecord
100
AcDbLayerTableRecord
  2
改动
 70
     0
 62
     3
  6
Continuous
370
    -3
390
F
347
3468
348
0
1001
AcadStringInfo
1000
MIFCodePage
1070
     5
  0
LAYER
  5
18E2
102
{ACAD_XDICTIONARY
360
3608
102
}
330
2
100
AcDbSymbolTableRecord
100
AcDbLayerTableRecord
  2
一拉DIM
 70
     0
 62
     7
  6
Continuous
370
    -3
390
F
347
3468
348
0
1001
AcadStringInfo
1000
MIFCodePage
1070
     5
  0
LAYER
  5
18E3
102
{ACAD_XDICTIONARY
360
360A
102
}
330
2
100
AcDbSymbolTableRecord
100
AcDbLayerTableRecord
  2
二拉DIM
 70
     0
 62
     7
  6
Continuous
370
    -3
390
F
347
3468
348
0
1001
AcadStringInfo
1000
MIFCodePage
1070
     5
  0
LAYER
  5
18E4
102
{ACAD_XDICTIONARY
360
360C
102
}
330
2
100
AcDbSymbolTableRecord
100
AcDbLayerTableRecord
  2
改动DIM
 70
     0
 62
     7
  6
Continuous
370
    -3
390
F
347
3468
348
0
1001
AcadStringInfo
1000
MIFCodePage
1070
     5
  0
LAYER
  5
2AF3
102
{ACAD_XDICTIONARY
360
360E
102
}
330
2
100
AcDbSymbolTableRecord
100
AcDbLayerTableRecord
  2
DIM
 70
     0
 62
     7
  6
Continuous
370
    13
390
F
347
3468
348
0
  0
ENDTAB
  0
TABLE
  2
STYLE
  5
3
330
0
100
AcDbSymbolTable
 70
     1
  0
STYLE
  5
11
330
3
100
AcDbSymbolTableRecord
100
AcDbTextStyleTableRecord
  2
Standard
 70
     0
 40
0.0
 41
1.0
 50
0.0
 71
     0
 42
2.5
  3
txt
  4

  0
ENDTAB
  0
TABLE
  2
VIEW
  5
6
330
0
100
AcDbSymbolTable
 70
     0
  0
ENDTAB
  0
TABLE
  2
UCS
  5
7
330
0
100
AcDbSymbolTable
 70
     0
  0
ENDTAB
  0
TABLE
  2
APPID
  5
9
330
0
100
AcDbSymbolTable
 70
     5
  0
APPID
  5
12
330
9
100
AcDbSymbolTableRecord
100
AcDbRegAppTableRecord
  2
ACAD
 70
     0
  0
APPID
  5
34BA
330
9
100
AcDbSymbolTableRecord
100
AcDbRegAppTableRecord
  2
AcadStringInfo
 70
     0
  0
APPID
  5
34D9
330
9
100
AcDbSymbolTableRecord
100
AcDbRegAppTableRecord
  2
ACAD_EXEMPT_FROM_CAD_STANDARDS
 70
     0
  0
APPID
  5
34E0
330
9
100
AcDbSymbolTableRecord
100
AcDbRegAppTableRecord
  2
ACAD_NAV_VCDISPLAY
 70
     0
  0
APPID
  5
34E9
330
9
100
AcDbSymbolTableRecord
100
AcDbRegAppTableRecord
  2
AcadAnnoMonitorAlertIconDisabled
 70
     0
  0
ENDTAB
  0
TABLE
  2
DIMSTYLE
  5
A
330
0
100
AcDbSymbolTable
 70
     3
100
AcDbDimStyleTable
 71
     1
340
27
  0
DIMSTYLE
105
27
102
{ACAD_REACTORS
330
2FC4
330
2FDC
330
2FF4
330
300C
330
3024
330
303C
330
306F
330
308B
330
30A7
330
30B7
102
}
330
A
100
AcDbSymbolTableRecord
100
AcDbDimStyleTableRecord
  2
ISO-25
 70
     0
 41
15.0
 42
0.625
 43
3.75
 44
1.25
 73
     0
 74
     0
 77
     1
 78
     8
140
25.0
141
2.5
143
0.03937007874016
147
5.0
171
     3
172
     1
179
     1
271
     2
272
     2
274
     3
278
    44
283
     0
284
     8
340
11
  0
DIMSTYLE
105
2AF4
330
A
100
AcDbSymbolTableRecord
100
AcDbDimStyleTableRecord
  2
Standard
 70
     0
 41
25.0
 42
5.0
 43
2.0
 44
5.0
 73
     0
 74
     0
 77
     1
 78
    12
 79
     3
140
30.0
141
4.0
147
8.0
179
     2
340
11
  0
ENDTAB
  0
TABLE
  2
BLOCK_RECORD
  5
1
330
0
100
AcDbSymbolTable
 70
    24
  0
BLOCK_RECORD
  5
1F
102
{ACAD_XDICTIONARY
360
3496
102
}
330
1
100
AcDbSymbolTableRecord
100
AcDbBlockTableRecord
  2
*Model_Space
340
22
 70
     0
280
     1
281
     0
  0
BLOCK_RECORD
  5
50
330
1
100
AcDbSymbolTableRecord
100
AcDbBlockTableRecord
  2
*Paper_Space
340
51
 70
     0
280
     1
281
     0
  0
BLOCK_RECORD
  5
55
330
1
100
AcDbSymbolTableRecord
100
AcDbBlockTableRecord
  2
*Paper_Space0
340
56
 70
     0
280
     1
281
     0
  0
BLOCK_RECORD
  5
2FC5
330
1
100
AcDbSymbolTableRecord
100
AcDbBlockTableRecord
  2
*D1
340
0
 70
     0
280
     1
281
     0
  0
BLOCK_RECORD
  5
2FDD
330
1
100
AcDbSymbolTableRecord
100
AcDbBlockTableRecord
  2
*D2
340
0
 70
     0
280
     1
281
     0
  0
BLOCK_RECORD
  5
2FF5
330
1
100
AcDbSymbolTableRecord
100
AcDbBlockTableRecord
  2
*D3
340
0
 70
     0
280
     1
281
     0
  0
BLOCK_RECORD
  5
300D
330
1
100
AcDbSymbolTableRecord
100
AcDbBlockTableRecord
  2
*D4
340
0
 70
     0
280
     1
281
     0
  0
BLOCK_RECORD
  5
3025
330
1
100
AcDbSymbolTableRecord
100
AcDbBlockTableRecord
  2
*D5
340
0
 70
     0
280
     1
281
     0
  0
BLOCK_RECORD
  5
303D
330
1
100
AcDbSymbolTableRecord
100
AcDbBlockTableRecord
  2
*D6
340
0
 70
     0
280
     1
281
     0
  0
BLOCK_RECORD
  5
3070
330
1
100
AcDbSymbolTableRecord
100
AcDbBlockTableRecord
  2
*D7
340
0
 70
     0
280
     1
281
     0
  0
BLOCK_RECORD
  5
308C
330
1
100
AcDbSymbolTableRecord
100
AcDbBlockTableRecord
  2
*D8
340
0
 70
     0
280
     1
281
     0
  0
BLOCK_RECORD
  5
30A8
330
1
100
AcDbSymbolTableRecord
100
AcDbBlockTableRecord
  2
*D9
340
0
 70
     0
280
     1
281
     0
  0
BLOCK_RECORD
  5
30B8
330
1
100
AcDbSymbolTableRecord
100
AcDbBlockTableRecord
  2
*D10
340
0
 70
     0
280
     1
281
     0
  0
ENDTAB
  0
ENDSEC
  0
SECTION
  2
BLOCKS
  0
BLOCK
  5
20
330
1F
100
AcDbEntity
  8
0
100
AcDbBlockBegin
  2
*Model_Space
 70
     0
 10
0.0
 20
0.0
 30
0.0
  3
*Model_Space
  1

  0
ENDBLK
  5
21
330
1F
100
AcDbEntity
  8
0
100
AcDbBlockEnd
  0
BLOCK
  5
52
330
50
100
AcDbEntity
 67
     1
  8
0
100
AcDbBlockBegin
  2
*Paper_Space
 70
     0
 10
0.0
 20
0.0
 30
0.0
  3
*Paper_Space
  1

  0
ENDBLK
  5
53
330
50
100
AcDbEntity
 67
     1
  8
0
100
AcDbBlockEnd
  0
BLOCK
  5
57
330
55
100
AcDbEntity
 67
     1
  8
0
100
AcDbBlockBegin
  2
*Paper_Space0
 70
     0
 10
0.0
 20
0.0
 30
0.0
  3
*Paper_Space0
  1

  0
ENDBLK
  5
58
330
55
100
AcDbEntity
 67
     1
  8
0
100
AcDbBlockEnd
  0
BLOCK
  5
2FCF
330
2FC5
100
AcDbEntity
  8
0
370
     9
100
AcDbBlockBegin
  2
*D1
 70
     1
 10
0.0
 20
0.0
 30
0.0
  3
*D1
  1

  0
LINE
  5
35F1
330
2FC5
100
AcDbEntity
  8
标注线
 62
     0
440
 16777216
370
    -2
100
AcDbLine
 10
5528.200434391501
 20
5902.752335023533
 30
0.0
 11
5461.29686573504
 21
5902.752335023533
 31
0.0
  0
LINE
  5
35F2
330
2FC5
100
AcDbEntity
  8
标注线
 62
     0
440
 16777216
370
    -2
100
AcDbLine
 10
5692.200434391502
 20
5724.752335023533
 30
0.0
 11
5461.29686573504
 21
5724.752335023533
 31
0.0
  0
LINE
  5
35F3
330
2FC5
100
AcDbEntity
  8
标注线
 62
     0
440
 16777216
370
    -2
100
AcDbLine
 10
5462.54686573504
 20
5887.752335023534
 30
0.0
 11
5462.54686573504
 21
5739.752335023533
 31
0.0
  0
SOLID
  5
35F4
330
2FC5
100
AcDbEntity
  8
标注线
 62
     0
440
 16777216
370
     9
100
AcDbTrace
 10
5460.046865735041
 20
5887.752335023534
 30
0.0
 11
5465.04686573504
 21
5887.752335023534
 31
0.0
 12
5462.54686573504
 22
5902.752335023533
 32
0.0
 13
5462.54686573504
 23
5902.752335023533
 33
0.0
  0
SOLID
  5
35F5
330
2FC5
100
AcDbEntity
  8
标注线
 62
     0
440
 16777216
370
     9
100
AcDbTrace
 10
5460.046865735041
 20
5739.752335023533
 30
0.0
 11
5465.04686573504
 21
5739.752335023533
 31
0.0
 12
5462.54686573504
 22
5724.752335023533
 32
0.0
 13
5462.54686573504
 23
5724.752335023533
 33
0.0
  0
MTEXT
  5
35F6
330
2FC5
100
AcDbEntity
  8
标注线
 62
     0
440
 16777216
370
     9
100
AcDbMText
 10
5445.04686573504
 20
5813.752335023531
 30
0.0
 40
25.0
 41
0.0
 46
0.0
 71
     5
 72
     1
  1
178{\Ftxt|c134; [7"]}
 11
0.0000000000000001
 21
1.0
 31
0.0
 73
     1
 44
1.0
  0
POINT
  5
35F7
330
2FC5
100
AcDbEntity
  8
Defpoints
 62
     0
440
 16777216
370
     9
100
AcDbPoint
 10
5528.825434391501
 20
5902.752335023533
 30
0.0
  0
POINT
  5
35F8
330
2FC5
100
AcDbEntity
  8
Defpoints
 62
     0
440
 16777216
370
     9
100
AcDbPoint
 10
5692.825434391501
 20
5724.752335023533
 30
0.0
  0
POINT
  5
35F9
330
2FC5
100
AcDbEntity
  8
Defpoints
 62
     0
440
 16777216
370
     9
100
AcDbPoint
 10
5462.54686573504
 20
5724.752335023533
 30
0.0
  0
ENDBLK
  5
2FD0
330
2FC5
100
AcDbEntity
  8
0
370
     9
100
AcDbBlockEnd
  0
BLOCK
  5
2FE7
330
2FDD
100
AcDbEntity
  8
0
370
     9
100
AcDbBlockBegin
  2
*D2
 70
     1
 10
0.0
 20
0.0
 30
0.0
  3
*D2
  1

  0
LINE
  5
34F4
330
2FDD
100
AcDbEntity
  8
标注线
 62
     0
440
 16777216
370
    -2
100
AcDbLine
 10
5945.3254343915
 20
5903.377335023531
 30
0.0
 11
5945.3254343915
 21
5957.623436697206
 31
0.0
  0
LINE
  5
34F5
330
2FDD
100
AcDbEntity
  8
标注线
 62
     0
440
 16777216
370
    -2
100
AcDbLine
 10
5560.3254343915
 20
5903.377335023531
 30
0.0
 11
5560.3254343915
 21
5957.623436697206
 31
0.0
  0
LINE
  5
34F6
330
2FDD
100
AcDbEntity
  8
标注线
 62
     0
440
 16777216
370
    -2
100
AcDbLine
 10
5930.3254343915
 20
5956.373436697205
 30
0.0
 11
5575.325434391499
 21
5956.373436697205
 31
0.0
  0
SOLID
  5
34F7
330
2FDD
100
AcDbEntity
  8
标注线
 62
     0
440
 16777216
370
     9
100
AcDbTrace
 10
5930.3254343915
 20
5958.873436697206
 30
0.0
 11
5930.3254343915
 21
5953.873436697206
 31
0.0
 12
5945.3254343915
 22
5956.373436697205
 32
0.0
 13
5945.3254343915
 23
5956.373436697205
 33
0.0
  0
SOLID
  5
34F8
330
2FDD
100
AcDbEntity
  8
标注线
 62
     0
440
 16777216
370
     9
100
AcDbTrace
 10
5575.325434391499
 20
5958.873436697206
 30
0.0
 11
5575.325434391499
 21
5953.873436697206
 31
0.0
 12
5560.3254343915
 22
5956.373436697205
 32
0.0
 13
5560.3254343915
 23
5956.373436697205
 33
0.0
  0
MTEXT
  5
34F9
330
2FDD
100
AcDbEntity
  8
标注线
 62
     0
440
 16777216
370
     9
100
AcDbMText
 10
5752.8254343915
 20
5973.873436697206
 30
0.0
 40
25.0
 41
0.0
 46
0.0
 71
     5
 72
     1
  1
%%C385{\Ftxt|c134; [15.15"]}
 73
     1
 44
1.0
  0
POINT
  5
34FA
330
2FDD
100
AcDbEntity
  8
Defpoints
 62
     0
440
 16777216
370
     9
100
AcDbPoint
 10
5945.3254343915
 20
5902.752335023532
 30
0.0
  0
POINT
  5
34FB
330
2FDD
100
AcDbEntity
  8
Defpoints
 62
     0
440
 16777216
370
     9
100
AcDbPoint
 10
5560.3254343915
 20
5902.752335023532
 30
0.0
  0
POINT
  5
34FC
330
2FDD
100
AcDbEntity
  8
Defpoints
 62
     0
440
 16777216
370
     9
100
AcDbPoint
 10
5560.3254343915
 20
5956.373436697205
 30
0.0
  0
ENDBLK
  5
2FE8
330
2FDD
100
AcDbEntity
  8
0
370
     9
100
AcDbBlockEnd
  0
BLOCK
  5
2FFF
330
2FF5
100
AcDbEntity
  8
0
370
     9
100
AcDbBlockBegin
  2
*D3
 70
     1
 10
0.0
 20
0.0
 30
0.0
  3
*D3
  1

  0
LINE
  5
35DF
330
2FF5
100
AcDbEntity
  8
标注线
 62
     0
440
 16777216
370
    -2
100
AcDbLine
 10
5528.825434391499
 20
5903.377335023531
 30
0.0
 11
5528.825434391499
 21
6015.699693102919
 31
0.0
  0
LINE
  5
35E0
330
2FF5
100
AcDbEntity
  8
标注线
 62
     0
440
 16777216
370
    -2
100
AcDbLine
 10
5976.8254343915
 20
5903.377335023531
 30
0.0
 11
5976.8254343915
 21
6015.699693102919
 31
0.0
  0
LINE
  5
35E1
330
2FF5
100
AcDbEntity
  8
标注线
 62
     0
440
 16777216
370
    -2
100
AcDbLine
 10
5543.8254343915
 20
6014.449693102918
 30
0.0
 11
5961.825434391499
 21
6014.449693102918
 31
0.0
  0
SOLID
  5
35E2
330
2FF5
100
AcDbEntity
  8
标注线
 62
     0
440
 16777216
370
     9
100
AcDbTrace
 10
5543.8254343915
 20
6016.949693102919
 30
0.0
 11
5543.8254343915
 21
6011.949693102919
 31
0.0
 12
5528.825434391499
 22
6014.449693102918
 32
0.0
 13
5528.825434391499
 23
6014.449693102918
 33
0.0
  0
SOLID
  5
35E3
330
2FF5
100
AcDbEntity
  8
标注线
 62
     0
440
 16777216
370
     9
100
AcDbTrace
 10
5961.825434391499
 20
6016.949693102919
 30
0.0
 11
5961.825434391499
 21
6011.949693102919
 31
0.0
 12
5976.8254343915
 22
6014.449693102918
 32
0.0
 13
5976.8254343915
 23
6014.449693102918
 33
0.0
  0
MTEXT
  5
35E4
330
2FF5
100
AcDbEntity
  8
标注线
 62
     0
440
 16777216
370
     9
100
AcDbMText
 10
5752.8254343915
 20
6031.949693102919
 30
0.0
 40
25.0
 41
0.0
 46
0.0
 71
     5
 72
     1
  1
%%C448{\Ftxt|c134;  [17.64"]}
 73
     1
 44
1.0
  0
POINT
  5
35E5
330
2FF5
100
AcDbEntity
  8
Defpoints
 62
     0
440
 16777216
370
     9
100
AcDbPoint
 10
5528.825434391499
 20
5902.752335023532
 30
0.0
  0
POINT
  5
35E6
330
2FF5
100
AcDbEntity
  8
Defpoints
 62
     0
440
 16777216
370
     9
100
AcDbPoint
 10
5976.8254343915
 20
5902.752335023532
 30
0.0
  0
POINT
  5
35E7
330
2FF5
100
AcDbEntity
  8
Defpoints
 62
     0
440
 16777216
370
     9
100
AcDbPoint
 10
5976.8254343915
 20
6014.449693102918
 30
0.0
  0
ENDBLK
  5
3000
330
2FF5
100
AcDbEntity
  8
0
370
     9
100
AcDbBlockEnd
  0
BLOCK
  5
3017
330
300D
100
AcDbEntity
  8
0
370
     9
100
AcDbBlockBegin
  2
*D4
 70
     1
 10
0.0
 20
0.0
 30
0.0
  3
*D4
  1

  0
LINE
  5
34A6
330
300D
100
AcDbEntity
  8
标注线
 62
     0
440
 16777216
370
    -2
100
AcDbLine
 10
5705.825434391499
 20
5719.127335023531
 30
0.0
 11
5705.825434391499
 21
5659.582068915184
 31
0.0
  0
LINE
  5
34A7
330
300D
100
AcDbEntity
  8
标注线
 62
     0
440
 16777216
370
    -2
100
AcDbLine
 10
5799.825434391499
 20
5719.127335023531
 30
0.0
 11
5799.825434391499
 21
5659.582068915184
 31
0.0
  0
LINE
  5
34A8
330
300D
100
AcDbEntity
  8
标注线
 62
     0
440
 16777216
370
    -2
100
AcDbLine
 10
5720.8254343915
 20
5660.832068915183
 30
0.0
 11
5784.8254343915
 21
5660.832068915183
 31
0.0
  0
SOLID
  5
34A9
330
300D
100
AcDbEntity
  8
标注线
 62
     0
440
 16777216
370
     9
100
AcDbTrace
 10
5720.8254343915
 20
5663.332068915184
 30
0.0
 11
5720.8254343915
 21
5658.332068915183
 31
0.0
 12
5705.825434391499
 22
5660.832068915183
 32
0.0
 13
5705.825434391499
 23
5660.832068915183
 33
0.0
  0
SOLID
  5
34AA
330
300D
100
AcDbEntity
  8
标注线
 62
     0
440
 16777216
370
     9
100
AcDbTrace
 10
5784.8254343915
 20
5663.332068915184
 30
0.0
 11
5784.8254343915
 21
5658.332068915183
 31
0.0
 12
5799.825434391499
 22
5660.832068915183
 32
0.0
 13
5799.825434391499
 23
5660.832068915183
 33
0.0
  0
MTEXT
  5
34AB
330
300D
100
AcDbEntity
  8
标注线
 62
     0
440
 16777216
370
     9
100
AcDbMText
 10
5752.8254343915
 20
5678.332068915183
 30
0.0
 40
25.0
 41
0.0
 46
0.0
 71
     5
 72
     1
  1
%%C90
 73
     1
 44
1.0
  0
POINT
  5
34AC
330
300D
100
AcDbEntity
  8
Defpoints
 62
     0
440
 16777216
370
     9
100
AcDbPoint
 10
5705.825434391499
 20
5719.752335023532
 30
0.0
  0
POINT
  5
34AD
330
300D
100
AcDbEntity
  8
Defpoints
 62
     0
440
 16777216
370
     9
100
AcDbPoint
 10
5799.825434391499
 20
5719.752335023532
 30
0.0
  0
POINT
  5
34AE
330
300D
100
AcDbEntity
  8
Defpoints
 62
     0
440
 16777216
370
     9
100
AcDbPoint
 10
5799.825434391499
 20
5660.832068915183
 30
0.0
  0
ENDBLK
  5
3018
330
300D
100
AcDbEntity
  8
0
370
     9
100
AcDbBlockEnd
  0
BLOCK
  5
302F
330
3025
100
AcDbEntity
  8
0
370
     9
100
AcDbBlockBegin
  2
*D5
 70
     1
 10
0.0
 20
0.0
 30
0.0
  3
*D5
  1

  0
LINE
  5
318D
330
3025
100
AcDbEntity
  8
标注线
 62
     0
440
 16777216
370
    -2
100
AcDbLine
 10
5695.825434391499
 20
5722.377335023532
 30
0.0
 11
5695.825434391499
 21
5790.158036669247
 31
0.0
  0
LINE
  5
318E
330
3025
100
AcDbEntity
  8
标注线
 62
     0
440
 16777216
370
    -2
100
AcDbLine
 10
5809.825434391499
 20
5722.377335023532
 30
0.0
 11
5809.825434391499
 21
5790.158036669247
 31
0.0
  0
LINE
  5
318F
330
3025
100
AcDbEntity
  8
标注线
 62
     0
440
 16777216
370
    -2
100
AcDbLine
 10
5710.8254343915
 20
5788.908036669247
 30
0.0
 11
5794.825434391499
 21
5788.908036669247
 31
0.0
  0
SOLID
  5
3190
330
3025
100
AcDbEntity
  8
标注线
 62
     0
440
 16777216
370
     9
100
AcDbTrace
 10
5710.8254343915
 20
5791.408036669247
 30
0.0
 11
5710.8254343915
 21
5786.408036669246
 31
0.0
 12
5695.825434391499
 22
5788.908036669247
 32
0.0
 13
5695.825434391499
 23
5788.908036669247
 33
0.0
  0
SOLID
  5
3191
330
3025
100
AcDbEntity
  8
标注线
 62
     0
440
 16777216
370
     9
100
AcDbTrace
 10
5794.825434391499
 20
5791.408036669247
 30
0.0
 11
5794.825434391499
 21
5786.408036669246
 31
0.0
 12
5809.825434391499
 22
5788.908036669247
 32
0.0
 13
5809.825434391499
 23
5788.908036669247
 33
0.0
  0
MTEXT
  5
3192
330
3025
100
AcDbEntity
  8
标注线
 62
     0
440
 16777216
370
     9
100
AcDbMText
 10
5752.8254343915
 20
5806.408036669247
 30
0.0
 40
25.0
 41
0.0
 46
0.0
 71
     5
 72
     1
  1
%%c114
 73
     1
 44
1.0
  0
POINT
  5
3193
330
3025
100
AcDbEntity
  8
Defpoints
 62
     0
440
 16777216
370
     9
100
AcDbPoint
 10
5695.825434391499
 20
5721.752335023531
 30
0.0
  0
POINT
  5
3194
330
3025
100
AcDbEntity
  8
Defpoints
 62
     0
440
 16777216
370
     9
100
AcDbPoint
 10
5809.825434391499
 20
5721.752335023531
 30
0.0
  0
POINT
  5
3195
330
3025
100
AcDbEntity
  8
Defpoints
 62
     0
440
 16777216
370
     9
100
AcDbPoint
 10
5809.825434391499
 20
5788.908036669247
 30
0.0
  0
ENDBLK
  5
3030
330
3025
100
AcDbEntity
  8
0
370
     9
100
AcDbBlockEnd
  0
BLOCK
  5
3047
330
303D
100
AcDbEntity
  8
0
370
     9
100
AcDbBlockBegin
  2
*D6
 70
     1
 10
0.0
 20
0.0
 30
0.0
  3
*D6
  1

  0
LINE
  5
3184
330
303D
100
AcDbEntity
  8
标注线
 62
     0
440
 16777216
370
    -2
100
AcDbLine
 10
5692.8254343915
 20
5725.377335023531
 30
0.0
 11
5692.8254343915
 21
5831.708593040633
 31
0.0
  0
LINE
  5
3185
330
303D
100
AcDbEntity
  8
标注线
 62
     0
440
 16777216
370
    -2
100
AcDbLine
 10
5812.825434391499
 20
5725.377335023531
 30
0.0
 11
5812.825434391499
 21
5831.708593040633
 31
0.0
  0
LINE
  5
3186
330
303D
100
AcDbEntity
  8
标注线
 62
     0
440
 16777216
370
    -2
100
AcDbLine
 10
5707.8254343915
 20
5830.458593040633
 30
0.0
 11
5797.8254343915
 21
5830.458593040633
 31
0.0
  0
SOLID
  5
3187
330
303D
100
AcDbEntity
  8
标注线
 62
     0
440
 16777216
370
     9
100
AcDbTrace
 10
5707.8254343915
 20
5832.958593040633
 30
0.0
 11
5707.8254343915
 21
5827.958593040633
 31
0.0
 12
5692.8254343915
 22
5830.458593040633
 32
0.0
 13
5692.8254343915
 23
5830.458593040633
 33
0.0
  0
SOLID
  5
3188
330
303D
100
AcDbEntity
  8
标注线
 62
     0
440
 16777216
370
     9
100
AcDbTrace
 10
5797.8254343915
 20
5832.958593040633
 30
0.0
 11
5797.8254343915
 21
5827.958593040633
 31
0.0
 12
5812.825434391499
 22
5830.458593040633
 32
0.0
 13
5812.825434391499
 23
5830.458593040633
 33
0.0
  0
MTEXT
  5
3189
330
303D
100
AcDbEntity
  8
标注线
 62
     0
440
 16777216
370
     9
100
AcDbMText
 10
5752.8254343915
 20
5847.958593040633
 30
0.0
 40
25.0
 41
0.0
 46
0.0
 71
     5
 72
     1
  1
%%c120
 73
     1
 44
1.0
  0
POINT
  5
318A
330
303D
100
AcDbEntity
  8
Defpoints
 62
     0
440
 16777216
370
     9
100
AcDbPoint
 10
5692.8254343915
 20
5724.752335023532
 30
0.0
  0
POINT
  5
318B
330
303D
100
AcDbEntity
  8
Defpoints
 62
     0
440
 16777216
370
     9
100
AcDbPoint
 10
5812.825434391499
 20
5724.752335023532
 30
0.0
  0
POINT
  5
318C
330
303D
100
AcDbEntity
  8
Defpoints
 62
     0
440
 16777216
370
     9
100
AcDbPoint
 10
5812.825434391499
 20
5830.458593040633
 30
0.0
  0
ENDBLK
  5
3048
330
303D
100
AcDbEntity
  8
0
370
     9
100
AcDbBlockEnd
  0
BLOCK
  5
307C
330
3070
100
AcDbEntity
  8
0
370
     9
100
AcDbBlockBegin
  2
*D7
 70
     1
 10
0.0
 20
0.0
 30
0.0
  3
*D7
  1

  0
LINE
  5
3179
330
3070
100
AcDbEntity
  8
标注线
 62
     0
440
 16777216
370
    -2
100
AcDbLine
 10
5813.4504343915
 20
5724.752335023532
 30
0.0
 11
5858.992409714197
 21
5724.752335023532
 31
0.0
  0
LINE
  5
317A
330
3070
100
AcDbEntity
  8
标注线
 62
     0
440
 16777216
370
    -2
100
AcDbLine
 10
5810.450434391499
 20
5721.752335023531
 30
0.0
 11
5858.992409714197
 21
5721.752335023531
 31
0.0
  0
LINE
  5
317B
330
3070
100
AcDbEntity
  8
标注线
 62
     0
440
 16777216
370
    -2
100
AcDbLine
 10
5857.742409714198
 20
5739.752335023531
 30
0.0
 11
5857.742409714198
 21
5754.752335023532
 31
0.0
  0
LINE
  5
317C
330
3070
100
AcDbEntity
  8
标注线
 62
     0
440
 16777216
370
    -2
100
AcDbLine
 10
5857.742409714198
 20
5706.752335023532
 30
0.0
 11
5857.742409714198
 21
5665.085668356865
 31
0.0
  0
LINE
  5
317D
330
3070
100
AcDbEntity
  8
标注线
 62
     0
440
 16777216
370
    -2
100
AcDbLine
 10
5857.742409714198
 20
5724.752335023532
 30
0.0
 11
5857.742409714198
 21
5721.752335023531
 31
0.0
  0
SOLID
  5
317E
330
3070
100
AcDbEntity
  8
标注线
 62
     0
440
 16777216
370
     9
100
AcDbTrace
 10
5855.242409714197
 20
5739.752335023531
 30
0.0
 11
5860.242409714198
 21
5739.752335023531
 31
0.0
 12
5857.742409714198
 22
5724.752335023532
 32
0.0
 13
5857.742409714198
 23
5724.752335023532
 33
0.0
  0
SOLID
  5
317F
330
3070
100
AcDbEntity
  8
标注线
 62
     0
440
 16777216
370
     9
100
AcDbTrace
 10
5855.242409714197
 20
5706.752335023532
 30
0.0
 11
5860.242409714198
 21
5706.752335023532
 31
0.0
 12
5857.742409714198
 22
5721.752335023531
 32
0.0
 13
5857.742409714198
 23
5721.752335023531
 33
0.0
  0
MTEXT
  5
3180
330
3070
100
AcDbEntity
  8
标注线
 62
     0
440
 16777216
370
     9
100
AcDbMText
 10
5840.242409714196
 20
5678.419001690199
 30
0.0
 40
25.0
 41
0.0
 46
0.0
 71
     5
 72
     1
  1
3
 11
0.0000000000000001
 21
1.0
 31
0.0
 73
     1
 44
1.0
  0
POINT
  5
3181
330
3070
100
AcDbEntity
  8
Defpoints
 62
     0
440
 16777216
370
     9
100
AcDbPoint
 10
5812.825434391499
 20
5724.752335023532
 30
0.0
  0
POINT
  5
3182
330
3070
100
AcDbEntity
  8
Defpoints
 62
     0
440
 16777216
370
     9
100
AcDbPoint
 10
5809.825434391499
 20
5721.752335023531
 30
0.0
  0
POINT
  5
3183
330
3070
100
AcDbEntity
  8
Defpoints
 62
     0
440
 16777216
370
     9
100
AcDbPoint
 10
5857.742409714198
 20
5721.752335023531
 30
0.0
  0
ENDBLK
  5
307D
330
3070
100
AcDbEntity
  8
0
370
     9
100
AcDbBlockEnd
  0
BLOCK
  5
3098
330
308C
100
AcDbEntity
  8
0
370
     9
100
AcDbBlockBegin
  2
*D8
 70
     1
 10
0.0
 20
0.0
 30
0.0
  3
*D8
  1

  0
LINE
  5
316E
330
308C
100
AcDbEntity
  8
标注线
 62
     0
440
 16777216
370
    -2
100
AcDbLine
 10
5813.4504343915
 20
5724.752335023532
 30
0.0
 11
5904.135102578742
 21
5724.752335023532
 31
0.0
  0
LINE
  5
316F
330
308C
100
AcDbEntity
  8
标注线
 62
     0
440
 16777216
370
    -2
100
AcDbLine
 10
5800.4504343915
 20
5719.752335023532
 30
0.0
 11
5904.135102578742
 21
5719.752335023532
 31
0.0
  0
LINE
  5
3170
330
308C
100
AcDbEntity
  8
标注线
 62
     0
440
 16777216
370
    -2
100
AcDbLine
 10
5902.885102578743
 20
5739.752335023531
 30
0.0
 11
5902.885102578743
 21
5754.752335023532
 31
0.0
  0
LINE
  5
3171
330
308C
100
AcDbEntity
  8
标注线
 62
     0
440
 16777216
370
    -2
100
AcDbLine
 10
5902.885102578743
 20
5704.752335023531
 30
0.0
 11
5902.885102578743
 21
5663.085668356864
 31
0.0
  0
LINE
  5
3172
330
308C
100
AcDbEntity
  8
标注线
 62
     0
440
 16777216
370
    -2
100
AcDbLine
 10
5902.885102578743
 20
5724.752335023532
 30
0.0
 11
5902.885102578743
 21
5719.752335023532
 31
0.0
  0
SOLID
  5
3173
330
308C
100
AcDbEntity
  8
标注线
 62
     0
440
 16777216
370
     9
100
AcDbTrace
 10
5900.385102578742
 20
5739.752335023531
 30
0.0
 11
5905.385102578742
 21
5739.752335023531
 31
0.0
 12
5902.885102578743
 22
5724.752335023532
 32
0.0
 13
5902.885102578743
 23
5724.752335023532
 33
0.0
  0
SOLID
  5
3174
330
308C
100
AcDbEntity
  8
标注线
 62
     0
440
 16777216
370
     9
100
AcDbTrace
 10
5900.385102578742
 20
5704.752335023531
 30
0.0
 11
5905.385102578742
 21
5704.752335023531
 31
0.0
 12
5902.885102578743
 22
5719.752335023532
 32
0.0
 13
5902.885102578743
 23
5719.752335023532
 33
0.0
  0
MTEXT
  5
3175
330
308C
100
AcDbEntity
  8
标注线
 62
     0
440
 16777216
370
     9
100
AcDbMText
 10
5885.385102578742
 20
5676.419001690199
 30
0.0
 40
25.0
 41
0.0
 46
0.0
 71
     5
 72
     1
  1
5
 11
0.0000000000000001
 21
1.0
 31
0.0
 73
     1
 44
1.0
  0
POINT
  5
3176
330
308C
100
AcDbEntity
  8
Defpoints
 62
     0
440
 16777216
370
     9
100
AcDbPoint
 10
5812.825434391499
 20
5724.752335023532
 30
0.0
  0
POINT
  5
3177
330
308C
100
AcDbEntity
  8
Defpoints
 62
     0
440
 16777216
370
     9
100
AcDbPoint
 10
5799.825434391499
 20
5719.752335023532
 30
0.0
  0
POINT
  5
3178
330
308C
100
AcDbEntity
  8
Defpoints
 62
     0
440
 16777216
370
     9
100
AcDbPoint
 10
5902.885102578743
 20
5719.752335023532
 30
0.0
  0
ENDBLK
  5
3099
330
308C
100
AcDbEntity
  8
0
370
     9
100
AcDbBlockEnd
  0
BLOCK
  5
30AE
330
30A8
100
AcDbEntity
  8
0
370
     9
100
AcDbBlockBegin
  2
*D9
 70
     1
 10
0.0
 20
0.0
 30
0.0
  3
*D9
  1

  0
LINE
  5
3169
330
30A8
100
AcDbEntity
  8
标注线
 62
     0
440
 16777216
370
    -2
100
AcDbLine
 10
5665.778982276368
 20
5806.256700969832
 30
0.0
 11
5586.41663052807
 21
5760.383016762467
 31
0.0
  0
MTEXT
  5
316A
330
30A8
100
AcDbEntity
  8
标注线
 62
     0
440
 16777216
370
     9
100
AcDbMText
 10
5623.833386378401
 20
5802.224154725974
 30
0.0
 40
25.0
 41
0.0
 46
0.0
 71
     5
 72
     1
  1
R48
 11
0.865771109981444
 21
0.5004401913530711
 31
0.0
 73
     1
 44
1.0
  0
SOLID
  5
316B
330
30A8
100
AcDbEntity
  8
标注线
 62
     0
440
 16777216
370
     9
100
AcDbTrace
 10
5585.165530049687
 20
5762.547444537421
 30
0.0
 11
5587.667731006452
 21
5758.218588987515
 31
0.0
 12
5573.430063878348
 22
5752.876413892171
 32
0.0
 13
5573.430063878348
 23
5752.876413892171
 33
0.0
  0
POINT
  5
316C
330
30A8
100
AcDbEntity
  8
Defpoints
 62
     0
440
 16777216
370
     9
100
AcDbPoint
 10
5573.430063878348
 20
5752.876413892171
 30
0.0
  0
POINT
  5
316D
330
30A8
100
AcDbEntity
  8
Defpoints
 62
     0
440
 16777216
370
     9
100
AcDbPoint
 10
5614.987077157453
 20
5776.897543077116
 30
0.0
  0
ENDBLK
  5
30AF
330
30A8
100
AcDbEntity
  8
0
370
     9
100
AcDbBlockEnd
  0
BLOCK
  5
30BE
330
30B8
100
AcDbEntity
  8
0
370
     9
100
AcDbBlockBegin
  2
*D10
 70
     1
 10
0.0
 20
0.0
 30
0.0
  3
*D10
  1

  0
LINE
  5
34A1
330
30B8
100
AcDbEntity
  8
标注线
 62
     0
440
 16777216
370
    -2
100
AcDbLine
 10
5509.730265244034
 20
5834.725390371811
 30
0.0
 11
5548.923873313154
 21
5888.654098227354
 31
0.0
  0
MTEXT
  5
34A2
330
30B8
100
AcDbEntity
  8
标注线
 62
     0
440
 16777216
370
     9
100
AcDbMText
 10
5510.761502558738
 20
5865.911086783977
 30
0.0
 40
25.0
 41
0.0
 46
0.0
 71
     5
 72
     1
  1
R4
 11
0.5879041210368214
 21
0.8089306178331504
 31
0.0
 73
     1
 44
1.0
  0
SOLID
  5
34A3
330
30B8
100
AcDbEntity
  8
标注线
 62
     0
440
 16777216
370
     9
100
AcDbTrace
 10
5546.901546768571
 20
5890.123858529945
 30
0.0
 11
5550.946199857737
 21
5887.184337924761
 31
0.0
 12
5557.742435128706
 22
5900.78805749485
 32
0.0
 13
5557.742435128706
 23
5900.78805749485
 33
0.0
  0
POINT
  5
34A4
330
30B8
100
AcDbEntity
  8
Defpoints
 62
     0
440
 16777216
370
     9
100
AcDbPoint
 10
5557.742435128706
 20
5900.78805749485
 30
0.0
  0
POINT
  5
34A5
330
30B8
100
AcDbEntity
  8
Defpoints
 62
     0
440
 16777216
370
     9
100
AcDbPoint
 10
5555.390818644569
 20
5897.55233502353
 30
0.0
  0
ENDBLK
  5
30BF
330
30B8
100
AcDbEntity
  8
0
370
     9
100
AcDbBlockEnd
  0
ENDSEC
  0
SECTION
  2
ENTITIES
  0
MTEXT
  5
2AFE
330
1F
100
AcDbEntity
  8
DIMJ
100
AcDbMText
 10
5792.503811563727
 20
6628.169323894308
 30
0.0
 40
30.0
 41
0.0
 46
0.0
 71
     1
 72
     1
  1
\A1;
 73
     1
 44
1.0
  0
MTEXT
  5
2B09
330
1F
100
AcDbEntity
  8
DIMJ
100
AcDbMText
 10
6758.035765276244
 20
6749.113844357697
 30
0.0
 40
30.0
 41
0.0
 46
0.0
 71
     1
 72
     1
  1
\A1;
 73
     1
 44
1.0
  0
LINE
  5
2F96
102
{ACAD_REACTORS
330
2FF3
102
}
330
1F
100
AcDbEntity
  8
DIMJ
370
     9
100
AcDbLine
 10
5528.825434391499
 20
5902.752335023532
 30
0.0
 11
5976.8254343915
 21
5902.752335023532
 31
0.0
  0
LINE
  5
2F9A
102
{ACAD_REACTORS
330
300B
102
}
330
1F
100
AcDbEntity
  8
DIMJ
370
     9
100
AcDbLine
 10
5528.825434391499
 20
5902.752335023532
 30
0.0
 11
5528.825434391499
 21
5901.75233502353
 31
0.0
  0
LINE
  5
2F9B
330
1F
100
AcDbEntity
  8
DIMJ
370
     9
100
AcDbLine
 10
5976.8254343915
 20
5902.752335023532
 30
0.0
 11
5976.8254343915
 21
5901.752335023531
 31
0.0
  0
LINE
  5
2F9D
102
{ACAD_REACTORS
330
2FF3
102
}
330
1F
100
AcDbEntity
  8
DIMJ
370
     9
100
AcDbLine
 10
5567.052859489221
 20
5774.38541717745
 30
0.0
 11
5560.3254343915
 21
5902.752335023531
 31
0.0
  0
LINE
  5
2F9F
330
1F
100
AcDbEntity
  8
标注线
  6
CENTERX2
370
     9
100
AcDbLine
 10
5752.8254343915
 20
5763.301371101333
 30
0.0
 11
5752.8254343915
 21
5698.666442496184
 31
0.0
  0
LINE
  5
2FA5
330
1F
100
AcDbEntity
  8
DIMJ
370
     9
100
AcDbLine
 10
5695.825434391499
 20
5721.752335023531
 30
0.0
 11
5809.825434391499
 21
5721.752335023531
 31
0.0
  0
LINE
  5
2FA8
330
1F
100
AcDbEntity
  8
DIMJ
370
     9
100
AcDbLine
 10
5692.8254343915
 20
5724.752335023532
 30
0.0
 11
5695.825434391499
 21
5721.752335023531
 31
0.0
  0
LINE
  5
2FA9
102
{ACAD_REACTORS
330
303B
102
}
330
1F
100
AcDbEntity
  8
DIMJ
370
     9
100
AcDbLine
 10
5695.825434391499
 20
5721.752335023531
 30
0.0
 11
5705.825434391499
 21
5719.752335023532
 31
0.0
  0
LINE
  5
2FAA
330
1F
100
AcDbEntity
  8
DIMJ
370
     9
100
AcDbLine
 10
5692.8254343915
 20
5724.752335023532
 30
0.0
 11
5812.825434391499
 21
5724.752335023532
 31
0.0
  0
LINE
  5
2FAB
102
{ACAD_REACTORS
330
3023
102
}
330
1F
100
AcDbEntity
  8
DIMJ
370
     9
100
AcDbLine
 10
5705.825434391499
 20
5719.752335023532
 30
0.0
 11
5799.825434391499
 21
5719.752335023532
 31
0.0
  0
LINE
  5
2FAC
102
{ACAD_REACTORS
330
2FDB
330
3053
102
}
330
1F
100
AcDbEntity
  8
DIMJ
370
     9
100
AcDbLine
 10
5692.8254343915
 20
5724.752335023532
 30
0.0
 11
5612.474951257787
 21
5728.963325408888
 31
0.0
  0
LINE
  5
2FAE
330
1F
100
AcDbEntity
  8
DIMJ
370
     9
100
AcDbLine
 10
5692.302625688748
 20
5723.578087451435
 30
0.0
 11
5695.23381990202
 21
5720.646893238165
 31
0.0
  0
LINE
  5
2FAF
330
1F
100
AcDbEntity
  8
DIMJ
370
     9
100
AcDbLine
 10
5695.23381990202
 20
5720.646893238165
 30
0.0
 11
5705.706610975185
 21
5718.552335023531
 31
0.0
  0
LINE
  5
2FB0
330
1F
100
AcDbEntity
  8
DIMJ
370
     9
100
AcDbLine
 10
5705.706610975185
 20
5718.552335023531
 30
0.0
 11
5799.944257807815
 21
5718.552335023531
 31
0.0
  0
ARC
  5
2FB1
102
{ACAD_REACTORS
330
30B6
102
}
330
1F
100
AcDbEntity
  8
DIMJ
370
     9
100
AcDbCircle
 10
5614.987077157453
 20
5776.897543077116
 30
0.0
 40
48.0
100
AcDbArc
 50
183.0000000000046
 51
266.9999999999965
  0
ARC
  5
2FB4
330
1F
100
AcDbEntity
  8
DIMJ
370
     9
100
AcDbCircle
 10
5555.390818644568
 20
5897.552335023529
 30
0.0
 40
5.2
100
AcDbArc
 50
3.000000000031442
 51
89.99999999998697
  0
ARC
  5
2FB5
330
1F
100
AcDbEntity
  8
DIMJ
370
     9
100
AcDbCircle
 10
5950.260050138432
 20
5897.552335023529
 30
0.0
 40
5.2
100
AcDbArc
 50
90.00000000001303
 51
176.9999999999685
  0
ARC
  5
2FB8
330
1F
100
AcDbEntity
  8
DIMJ
370
     9
100
AcDbCircle
 10
5890.663791625548
 20
5776.897543077116
 30
0.0
 40
48.0
100
AcDbArc
 50
273.0000000000035
 51
356.9999999999954
  0
LINE
  5
2FB9
330
1F
100
AcDbEntity
  8
DIMJ
370
     9
100
AcDbLine
 10
5810.41704888098
 20
5720.646893238165
 30
0.0
 11
5799.944257807815
 21
5718.552335023531
 31
0.0
  0
LINE
  5
2FBA
330
1F
100
AcDbEntity
  8
DIMJ
370
     9
100
AcDbLine
 10
5813.348243094251
 20
5723.578087451435
 30
0.0
 11
5810.41704888098
 21
5720.646893238165
 31
0.0
  0
LINE
  5
2FBC
330
1F
100
AcDbEntity
  8
DIMJ
370
     9
100
AcDbLine
 10
5812.825434391499
 20
5724.752335023532
 30
0.0
 11
5893.175917525212
 21
5728.963325408888
 31
0.0
  0
LINE
  5
2FBD
102
{ACAD_REACTORS
330
3023
330
30A6
102
}
330
1F
100
AcDbEntity
  8
DIMJ
370
     9
100
AcDbLine
 10
5809.825434391499
 20
5721.752335023531
 30
0.0
 11
5799.825434391499
 21
5719.752335023532
 31
0.0
  0
LINE
  5
2FBE
102
{ACAD_REACTORS
330
303B
330
3053
330
308A
330
30A6
102
}
330
1F
100
AcDbEntity
  8
DIMJ
370
     9
100
AcDbLine
 10
5812.825434391499
 20
5724.752335023532
 30
0.0
 11
5809.825434391499
 21
5721.752335023531
 31
0.0
  0
LINE
  5
2FC0
102
{ACAD_REACTORS
330
2FF3
102
}
330
1F
100
AcDbEntity
  8
DIMJ
370
     9
100
AcDbLine
 10
5938.598009293777
 20
5774.38541717745
 30
0.0
 11
5945.3254343915
 21
5902.752335023531
 31
0.0
  0
LINE
  5
2FC2
102
{ACAD_REACTORS
330
300B
102
}
330
1F
100
AcDbEntity
  8
DIMJ
370
     9
100
AcDbLine
 10
5976.8254343915
 20
5902.752335023532
 30
0.0
 11
5976.8254343915
 21
5901.752335023531
 31
0.0
  0
DIMENSION
  5
2FC4
102
{ACAD_XDICTIONARY
360
2FD1
102
}
102
{ACAD_REACTORS
330
2FDB
102
}
330
1F
100
AcDbEntity
  8
标注线
370
     9
100
AcDbDimension
280
     0
  2
*D1
 10
5462.54686573504
 20
5724.752335023533
 30
0.0
 11
5445.04686573504
 21
5813.752335023531
 31
0.0
 70
    32
  1
<>{\Ftxt|c134; [7"]}
 71
     5
 42
178.0
 73
     0
 74
     0
 75
     0
  3
ISO-25
100
AcDbAlignedDimension
 13
5528.825434391499
 23
5902.752335023532
 33
0.0
 14
5692.8254343915
 24
5724.752335023532
 34
0.0
 50
90.0
100
AcDbRotatedDimension
  0
DIMENSION
  5
2FDC
102
{ACAD_XDICTIONARY
360
2FE9
102
}
102
{ACAD_REACTORS
330
2FF3
102
}
330
1F
100
AcDbEntity
  8
标注线
370
     9
100
AcDbDimension
280
     0
  2
*D2
 10
5560.3254343915
 20
5956.373436697205
 30
0.0
 11
5752.8254343915
 21
5973.873436697206
 31
0.0
 70
    32
  1
%%C<>{\Ftxt|c134; [15.15"]}
 71
     5
 42
385.0
 73
     0
 74
     0
 75
     0
  3
ISO-25
100
AcDbAlignedDimension
 13
5945.3254343915
 23
5902.752335023532
 33
0.0
 14
5560.3254343915
 24
5902.752335023532
 34
0.0
100
AcDbRotatedDimension
1001
AcadStringInfo
1000
MIFCodePage
1070
     5
  0
DIMENSION
  5
2FF4
102
{ACAD_XDICTIONARY
360
3001
102
}
102
{ACAD_REACTORS
330
300B
102
}
330
1F
100
AcDbEntity
  8
标注线
370
     9
100
AcDbDimension
280
     0
  2
*D3
 10
5976.8254343915
 20
6014.449693102918
 30
0.0
 11
5752.8254343915
 21
6031.949693102919
 31
0.0
 70
    32
  1
%%C<>{\Ftxt|c134;  [17.64"]}
 71
     5
 42
448.0
 73
     0
 74
     0
 75
     0
  3
ISO-25
100
AcDbAlignedDimension
 13
5528.825434391499
 23
5902.752335023532
 33
0.0
 14
5976.8254343915
 24
5902.752335023532
 34
0.0
100
AcDbRotatedDimension
  0
DIMENSION
  5
300C
102
{ACAD_XDICTIONARY
360
3019
102
}
102
{ACAD_REACTORS
330
3023
102
}
330
1F
100
AcDbEntity
  8
标注线
370
     9
100
AcDbDimension
280
     0
  2
*D4
 10
5799.825434391499
 20
5660.832068915183
 30
0.0
 11
5752.8254343915
 21
5678.332068915183
 31
0.0
 70
    32
  1
%%C90
 71
     5
 42
94.0
 73
     0
 74
     0
 75
     0
  3
ISO-25
100
AcDbAlignedDimension
 13
5705.825434391499
 23
5719.752335023532
 33
0.0
 14
5799.825434391499
 24
5719.752335023532
 34
0.0
100
AcDbRotatedDimension
  0
DIMENSION
  5
3024
102
{ACAD_XDICTIONARY
360
3031
102
}
102
{ACAD_REACTORS
330
303B
102
}
330
1F
100
AcDbEntity
  8
标注线
370
     9
100
AcDbDimension
280
     0
  2
*D5
 10
5809.825434391499
 20
5788.908036669247
 30
0.0
 11
5752.8254343915
 21
5806.408036669247
 31
0.0
 70
    32
  1
%%c<>
 71
     5
 42
114.0
 73
     0
 74
     0
 75
     0
  3
ISO-25
100
AcDbAlignedDimension
 13
5695.825434391499
 23
5721.752335023531
 33
0.0
 14
5809.825434391499
 24
5721.752335023531
 34
0.0
100
AcDbRotatedDimension
  0
DIMENSION
  5
303C
102
{ACAD_XDICTIONARY
360
3049
102
}
102
{ACAD_REACTORS
330
3053
102
}
330
1F
100
AcDbEntity
  8
标注线
370
     9
100
AcDbDimension
280
     0
  2
*D6
 10
5812.825434391499
 20
5830.458593040633
 30
0.0
 11
5752.8254343915
 21
5847.958593040633
 31
0.0
 70
    32
  1
%%c<>
 71
     5
 42
120.0
 73
     0
 74
     0
 75
     0
  3
ISO-25
100
AcDbAlignedDimension
 13
5692.8254343915
 23
5724.752335023532
 33
0.0
 14
5812.825434391499
 24
5724.752335023532
 34
0.0
100
AcDbRotatedDimension
  0
DIMENSION
  5
306F
102
{ACAD_XDICTIONARY
360
307E
102
}
102
{ACAD_REACTORS
330
308A
102
}
330
1F
100
AcDbEntity
  8
标注线
370
     9
100
AcDbDimension
280
     0
  2
*D7
 10
5857.742409714198
 20
5721.752335023531
 30
0.0
 11
5840.242409714196
 21
5678.419001690199
 31
0.0
 70
    32
 71
     5
 42
3.0
 73
     0
 74
     0
 75
     0
  3
ISO-25
100
AcDbAlignedDimension
 13
5812.825434391499
 23
5724.752335023532
 33
0.0
 14
5809.825434391499
 24
5721.752335023531
 34
0.0
 50
90.0
100
AcDbRotatedDimension
  0
DIMENSION
  5
308B
102
{ACAD_XDICTIONARY
360
309A
102
}
102
{ACAD_REACTORS
330
30A6
102
}
330
1F
100
AcDbEntity
  8
标注线
370
     9
100
AcDbDimension
280
     0
  2
*D8
 10
5902.885102578743
 20
5719.752335023532
 30
0.0
 11
5885.385102578742
 21
5676.419001690199
 31
0.0
 70
    32
 71
     5
 42
5.0
 73
     0
 74
     0
 75
     0
  3
ISO-25
100
AcDbAlignedDimension
 13
5812.825434391499
 23
5724.752335023532
 33
0.0
 14
5799.825434391499
 24
5719.752335023532
 34
0.0
 50
90.0
100
AcDbRotatedDimension
  0
DIMENSION
  5
30A7
102
{ACAD_XDICTIONARY
360
30B0
102
}
102
{ACAD_REACTORS
330
30B6
102
}
330
1F
100
AcDbEntity
  8
标注线
370
     9
100
AcDbDimension
280
     0
  2
*D9
 10
5614.987077157453
 20
5776.897543077116
 30
0.0
 11
5632.591089727079
 21
5787.073160301298
 31
0.0
 70
   164
 71
     5
 42
47.99999999999454
 73
     0
 74
     0
 75
     0
  3
ISO-25
100
AcDbRadialDimension
 15
5573.430063878348
 25
5752.876413892171
 35
0.0
 40
0.0
1001
ACAD
1000
DSTYLE
1002
{
1070
   288
1070
     1
1002
}
  0
DIMENSION
  5
30B7
330
1F
100
AcDbEntity
  8
标注线
370
     9
100
AcDbDimension
280
     0
  2
*D10
 10
5555.390818644569
 20
5897.55233502353
 30
0.0
 11
5524.917788370817
 21
5855.622764665834
 31
0.0
 70
   164
 71
     5
 42
3.999999999984538
 73
     0
 74
     0
 75
     0
  3
ISO-25
100
AcDbRadialDimension
 15
5557.742435128706
 25
5900.78805749485
 35
0.0
 40
0.0
1001
ACAD
1000
DSTYLE
1002
{
1070
   279
1070
     1
1070
   288
1070
     1
1002
}
  0
LINE
  5
315B
330
1F
100
AcDbEntity
  8
标注线
  6
CENTERX2
370
     9
100
AcDbLine
 10
5752.8254343915
 20
5636.573837829168
 30
0.0
 11
5752.8254343915
 21
5188.573837829167
 31
0.0
  0
LINE
  5
315C
330
1F
100
AcDbEntity
  8
标注线
  6
CENTERX2
370
     9
100
AcDbLine
 10
5528.825434391499
 20
5412.573837829167
 30
0.0
 11
5976.8254343915
 21
5412.573837829167
 31
0.0
  0
CIRCLE
  5
315D
330
1F
100
AcDbEntity
  8
DIMJ
370
     9
100
AcDbCircle
 10
5752.8254343915
 20
5412.573837829167
 30
0.0
 40
192.5
  0
CIRCLE
  5
3160
330
1F
100
AcDbEntity
  8
DIMJ
370
     9
100
AcDbCircle
 10
5752.8254343915
 20
5412.573837829167
 30
0.0
 40
224.0
  0
CIRCLE
  5
3161
330
1F
100
AcDbEntity
  8
DIMJ
370
     9
100
AcDbCircle
 10
5752.8254343915
 20
5412.573837829167
 30
0.0
 40
60.0
  0
CIRCLE
  5
3162
330
1F
100
AcDbEntity
  8
DIMJ
370
     9
100
AcDbCircle
 10
5752.8254343915
 20
5412.573837829167
 30
0.0
 40
57.0
  0
CIRCLE
  5
3163
330
1F
100
AcDbEntity
  8
DIMJ
370
     9
100
AcDbCircle
 10
5752.8254343915
 20
5412.573837829167
 30
0.0
 40
47.0
  0
LINE
  5
3495
330
1F
100
AcDbEntity
  8
DIMJ
370
     9
100
AcDbLine
 10
5528.825434391499
 20
5901.752335023531
 30
0.0
 11
5555.390818644569
 21
5901.752335023531
 31
0.0
  0
ARC
  5
3498
330
1F
100
AcDbEntity
  8
DIMJ
370
     9
100
AcDbCircle
 10
5555.390818644568
 20
5897.552335023529
 30
0.0
 40
4.2
100
AcDbArc
 50
3.000000000031442
 51
89.99999999998697
  0
LINE
  5
3499
330
1F
100
AcDbEntity
  8
DIMJ
370
     9
100
AcDbLine
 10
5566.054229954467
 20
5774.333081221207
 30
0.0
 11
5559.585062690551
 21
5897.772146039753
 31
0.0
  0
ARC
  5
349A
330
1F
100
AcDbEntity
  8
DIMJ
370
     9
100
AcDbCircle
 10
5614.987077157453
 20
5776.897543077116
 30
0.0
 40
49.0
100
AcDbArc
 50
183.0000000000046
 51
266.9999999999965
  0
LINE
  5
349B
330
1F
100
AcDbEntity
  8
DIMJ
370
     9
100
AcDbLine
 10
5692.313092879996
 20
5723.777813358386
 30
0.0
 11
5612.422615301543
 21
5727.964695874135
 31
0.0
  0
LINE
  5
349C
330
1F
100
AcDbEntity
  8
DIMJ
370
     9
100
AcDbLine
 10
5813.337775903002
 20
5723.777813358386
 30
0.0
 11
5893.228253481456
 21
5727.964695874135
 31
0.0
  0
ARC
  5
349D
330
1F
100
AcDbEntity
  8
DIMJ
370
     9
100
AcDbCircle
 10
5890.663791625548
 20
5776.897543077116
 30
0.0
 40
49.0
100
AcDbArc
 50
273.0000000000035
 51
356.9999999999954
  0
LINE
  5
349E
330
1F
100
AcDbEntity
  8
DIMJ
370
     9
100
AcDbLine
 10
5939.596638828532
 20
5774.333081221207
 30
0.0
 11
5946.065806092448
 21
5897.772146039753
 31
0.0
  0
ARC
  5
349F
330
1F
100
AcDbEntity
  8
DIMJ
370
     9
100
AcDbCircle
 10
5950.260050138432
 20
5897.552335023529
 30
0.0
 40
4.2
100
AcDbArc
 50
90.00000000001303
 51
176.9999999999685
  0
LINE
  5
34A0
330
1F
100
AcDbEntity
  8
DIMJ
370
     9
100
AcDbLine
 10
5976.8254343915
 20
5901.752335023531
 30
0.0
 11
5950.260050138432
 21
5901.752335023531
 31
0.0
  0
ENDSEC
  0
SECTION
  2
OBJECTS
  0
DICTIONARY
  5
C
330
0
100
AcDbDictionary
281
     1
  3
ACAD_CIP_PREVIOUS_PRODUCT_INFO
350
34D8
  3
ACAD_COLOR
350
6B
  3
ACAD_DETAILVIEWSTYLE
350
34D1
  3
ACAD_GROUP
350
D
  3
ACAD_LAYOUT
350
1A
  3
ACAD_MATERIAL
350
6A
  3
ACAD_MLEADERSTYLE
350
34CD
  3
ACAD_MLINESTYLE
350
17
  3
ACAD_PLOTSETTINGS
350
19
  3
ACAD_PLOTSTYLENAME
350
E
  3
ACAD_SCALELIST
350
34BB
  3
ACAD_SECTIONVIEWSTYLE
350
34CF
  3
ACAD_TABLESTYLE
350
347A
  3
ACAD_VISUALSTYLE
350
3469
  3
ACDB_RECOMPOSE_DATA
350
3625
  3
AcDbVariableDictionary
350
5E
  3
lxx_dict
350
3492
  0
DICTIONARY
  5
35FA
330
10
100
AcDbDictionary
280
     1
281
     1
  3
ADSK_XREC_LAYER_RECONCILED
360
35FB
  0
DICTIONARY
  5
35FC
330
1BD
100
AcDbDictionary
280
     1
281
     1
  3
ADSK_XREC_LAYER_RECONCILED
360
35FD
  0
DICTIONARY
  5
35FE
330
1BE
100
AcDbDictionary
280
     1
281
     1
  3
ADSK_XREC_LAYER_RECONCILED
360
35FF
  0
DICTIONARY
  5
3600
330
1C0
100
AcDbDictionary
280
     1
281
     1
  3
ADSK_XREC_LAYER_RECONCILED
360
3601
  0
DICTIONARY
  5
3602
330
18DF
100
AcDbDictionary
280
     1
281
     1
  3
ADSK_XREC_LAYER_RECONCILED
360
3603
  0
DICTIONARY
  5
3604
330
18E0
100
AcDbDictionary
280
     1
281
     1
  3
ADSK_XREC_LAYER_RECONCILED
360
3605
  0
DICTIONARY
  5
3606
330
18E1
100
AcDbDictionary
280
     1
281
     1
  3
ADSK_XREC_LAYER_RECONCILED
360
3607
  0
DICTIONARY
  5
3608
330
18E2
100
AcDbDictionary
280
     1
281
     1
  3
ADSK_XREC_LAYER_RECONCILED
360
3609
  0
DICTIONARY
  5
360A
330
18E3
100
AcDbDictionary
280
     1
281
     1
  3
ADSK_XREC_LAYER_RECONCILED
360
360B
  0
DICTIONARY
  5
360C
330
18E4
100
AcDbDictionary
280
     1
281
     1
  3
ADSK_XREC_LAYER_RECONCILED
360
360D
  0
DICTIONARY
  5
360E
330
2AF3
100
AcDbDictionary
280
     1
281
     1
  3
ADSK_XREC_LAYER_RECONCILED
360
360F
  0
DICTIONARY
  5
3496
330
1F
100
AcDbDictionary
280
     1
281
     1
  3
ACAD_SORTENTS
360
3497
  0
DICTIONARY
  5
2FD1
330
2FC4
100
AcDbDictionary
280
     1
281
     1
  3
ACAD_DIMASSOC
360
2FDB
  0
DICTIONARY
  5
2FE9
330
2FDC
100
AcDbDictionary
280
     1
281
     1
  3
ACAD_DIMASSOC
360
2FF3
  0
DICTIONARY
  5
3001
330
2FF4
100
AcDbDictionary
280
     1
281
     1
  3
ACAD_DIMASSOC
360
300B
  0
DICTIONARY
  5
3019
330
300C
100
AcDbDictionary
280
     1
281
     1
  3
ACAD_DIMASSOC
360
3023
  0
DICTIONARY
  5
3031
330
3024
100
AcDbDictionary
280
     1
281
     1
  3
ACAD_DIMASSOC
360
303B
  0
DICTIONARY
  5
3049
330
303C
100
AcDbDictionary
280
     1
281
     1
  3
ACAD_DIMASSOC
360
3053
  0
DICTIONARY
  5
307E
330
306F
100
AcDbDictionary
280
     1
281
     1
  3
ACAD_DIMASSOC
360
308A
  0
DICTIONARY
  5
309A
330
308B
100
AcDbDictionary
280
     1
281
     1
  3
ACAD_DIMASSOC
360
30A6
  0
DICTIONARY
  5
30B0
330
30A7
100
AcDbDictionary
280
     1
281
     1
  3
ACAD_DIMASSOC
360
30B6
  0
XRECORD
  5
34D8
102
{ACAD_REACTORS
330
C
102
}
330
C
100
AcDbXrecord
280
     1
300
ACDLT
300
2018
300

  0
DICTIONARY
  5
6B
102
{ACAD_REACTORS
330
C
102
}
330
C
100
AcDbDictionary
281
     1
  0
DICTIONARY
  5
34D1
102
{ACAD_REACTORS
330
C
102
}
330
C
100
AcDbDictionary
281
     1
  3
Metric50
350
34D2
  0
DICTIONARY
  5
D
102
{ACAD_REACTORS
330
C
102
}
330
C
100
AcDbDictionary
281
     1
  0
DICTIONARY
  5
1A
102
{ACAD_REACTORS
330
C
102
}
330
C
100
AcDbDictionary
281
     1
  3
Model
350
22
  3
布局1
350
51
  3
布局2
350
56
1001
AcadStringInfo
1000
MIFCodePage
1070
     5
  0
DICTIONARY
  5
6A
102
{ACAD_REACTORS
330
C
102
}
330
C
100
AcDbDictionary
281
     1
  3
ByBlock
350
3467
  3
ByLayer
350
3466
  3
Global
350
3468
  0
DICTIONARY
  5
34CD
102
{ACAD_REACTORS
330
C
102
}
330
C
100
AcDbDictionary
281
     1
  3
Standard
350
34CE
  0
DICTIONARY
  5
17
102
{ACAD_REACTORS
330
C
102
}
330
C
100
AcDbDictionary
281
     1
  3
Standard
350
18
  0
DICTIONARY
  5
19
102
{ACAD_REACTORS
330
C
102
}
330
C
100
AcDbDictionary
281
     1
  0
ACDBDICTIONARYWDFLT
  5
E
102
{ACAD_REACTORS
330
C
102
}
330
C
100
AcDbDictionary
281
     1
  3
Normal
350
F
100
AcDbDictionaryWithDefault
340
F
  0
DICTIONARY
  5
34BB
102
{ACAD_REACTORS
330
C
102
}
330
C
100
AcDbDictionary
281
     1
  3
A0
350
34BC
  3
A1
350
34BD
  3
A2
350
34BE
  3
A3
350
34BF
  3
A4
350
34C0
  3
A5
350
34C1
  3
A6
350
34C2
  3
A7
350
34C3
  3
A8
350
34C4
  3
A9
350
34C5
  3
B0
350
34C6
  3
B1
350
34C7
  3
B2
350
34C8
  3
B3
350
34C9
  3
B4
350
34CA
  3
B5
350
34CB
  3
B6
350
34CC
  0
DICTIONARY
  5
34CF
102
{ACAD_REACTORS
330
C
102
}
330
C
100
AcDbDictionary
281
     1
  3
Metric50
350
34D0
  0
DICTIONARY
  5
347A
102
{ACAD_REACTORS
330
C
102
}
330
C
100
AcDbDictionary
281
     1
  3
Standard
350
347B
  0
DICTIONARY
  5
3469
102
{ACAD_REACTORS
330
C
102
}
330
C
100
AcDbDictionary
281
     1
  3
2dWireframe
350
346F
  3
3D Hidden
350
3471
  3
3dWireframe
350
3470
  3
Basic
350
346E
  3
Brighten
350
3475
  3
ColorChange
350
3479
  3
Conceptual
350
3472
  3
Dim
350
3474
  3
EdgeColorOff
350
34B9
  3
Facepattern
350
3478
  3
Flat
350
346A
  3
FlatWithEdges
350
346B
  3
Gouraud
350
346C
  3
GouraudWithEdges
350
346D
  3
Hidden
350
34B1
  3
JitterOff
350
34B7
  3
Linepattern
350
3477
  3
OverhangOff
350
34B8
  3
Realistic
350
3473
  3
Shaded
350
34B6
  3
Shaded with edges
350
34B5
  3
Shades of Gray
350
34B2
  3
Sketchy
350
34B3
  3
Thicken
350
3476
  3
Wireframe
350
34B0
  3
X-Ray
350
34B4
  0
XRECORD
  5
3625
102
{ACAD_REACTORS
330
C
102
}
330
C
100
AcDbXrecord
280
     1
 90
        1
330
347B
  0
DICTIONARY
  5
5E
102
{ACAD_REACTORS
330
C
102
}
330
C
100
AcDbDictionary
281
     1
  3
CANNOSCALE
350
361C
  3
CMLEADERSTYLE
350
3618
  3
CTABLESTYLE
350
348A
  3
CVIEWDETAILSTYLE
350
3619
  3
CVIEWSECTIONSTYLE
350
361A
  3
DIMASSOC
350
5F
  3
HIDETEXT
350
63
  3
LAYEREVAL
350
361E
  3
LAYERNOTIFY
350
361F
  3
LIGHTINGUNITS
350
361D
  3
MSLTSCALE
350
361B
  0
DICTIONARY
  5
3492
102
{ACAD_REACTORS
330
C
102
}
330
C
100
AcDbDictionary
281
     1
  3
lxx_dimth
350
3493
  0
XRECORD
  5
35FB
102
{ACAD_REACTORS
330
35FA
102
}
330
35FA
100
AcDbXrecord
280
     1
290
     1
  0
XRECORD
  5
35FD
102
{ACAD_REACTORS
330
35FC
102
}
330
35FC
100
AcDbXrecord
280
     1
290
     1
  0
XRECORD
  5
35FF
102
{ACAD_REACTORS
330
35FE
102
}
330
35FE
100
AcDbXrecord
280
     1
290
     1
  0
XRECORD
  5
3601
102
{ACAD_REACTORS
330
3600
102
}
330
3600
100
AcDbXrecord
280
     1
290
     1
  0
XRECORD
  5
3603
102
{ACAD_REACTORS
330
3602
102
}
330
3602
100
AcDbXrecord
280
     1
290
     1
  0
XRECORD
  5
3605
102
{ACAD_REACTORS
330
3604
102
}
330
3604
100
AcDbXrecord
280
     1
290
     1
  0
XRECORD
  5
3607
102
{ACAD_REACTORS
330
3606
102
}
330
3606
100
AcDbXrecord
280
     1
290
     1
  0
XRECORD
  5
3609
102
{ACAD_REACTORS
330
3608
102
}
330
3608
100
AcDbXrecord
280
     1
290
     1
  0
XRECORD
  5
360B
102
{ACAD_REACTORS
330
360A
102
}
330
360A
100
AcDbXrecord
280
     1
290
     1
  0
XRECORD
  5
360D
102
{ACAD_REACTORS
330
360C
102
}
330
360C
100
AcDbXrecord
280
     1
290
     1
  0
XRECORD
  5
360F
102
{ACAD_REACTORS
330
360E
102
}
330
360E
100
AcDbXrecord
280
     1
290
     1
  0
SORTENTSTABLE
  5
3497
102
{ACAD_REACTORS
330
3496
102
}
330
3496
100
AcDbSortentsTable
330
1F
331
3162
  5
32B4
331
2FBA
  5
2FC1
331
2FBE
  5
300C
331
2F96
  5
2F96
331
2FC2
  5
30B7
331
2F9A
  5
2F9A
331
349B
  5
2FB0
331
349F
  5
2FBC
331
2FA9
  5
2FAB
331
315D
  5
32AF
331
2FB1
  5
2FB4
331
2FB5
  5
2FBA
331
3161
  5
32B1
331
2FB9
  5
2FC0
331
2FBD
  5
2FF4
331
2B09
  5
2B09
331
303C
  5
3162
331
2F9D
  5
2F9E
331
2FA5
  5
2FA9
331
349A
  5
2FB6
331
349E
  5
303C
331
2FA8
  5
2FAA
331
306F
  5
3163
331
2FAC
  5
2FAE
331
315C
  5
32AE
331
2FB0
  5
2FB3
331
2FB4
  5
2FB9
331
3160
  5
32B0
331
2FB8
  5
2FBF
331
2FBC
  5
2FDC
331
308B
  5
32AA
331
2FF4
  5
315D
331
2FC0
  5
306F
331
2FC4
  5
315B
331
2FDC
  5
315C
331
3499
  5
2FA5
331
349D
  5
2FBE
331
2FAB
  5
2FAD
331
315B
  5
32AD
331
2FAF
  5
2FB2
331
3024
  5
3161
331
3163
  5
32B7
331
2AFE
  5
2AFE
331
30A7
  5
32AB
331
300C
  5
3160
331
3495
  5
2F9D
331
2F9B
  5
2F9B
331
2F9F
  5
2FA8
331
30B7
  5
32AC
331
3498
  5
2FB8
331
349C
  5
2FC4
331
34A0
  5
30A7
331
2FAA
  5
2FAC
331
2FAE
  5
2FB1
  0
DIMASSOC
  5
2FDB
102
{ACAD_REACTORS
330
2FD1
102
}
330
2FD1
100
AcDbDimAssoc
330
2FC4
 90
        2
 70
     0
 71
     0
  1
AcDbOsnapPointRef
 72
    13
331
2FAC
 73
     2
 91
        0
 40
0.0
 10
0.0
 20
0.0
 30
2.000000000000000E+50
 75
     0
  0
DIMASSOC
  5
2FF3
102
{ACAD_REACTORS
330
2FE9
102
}
330
2FE9
100
AcDbDimAssoc
330
2FDC
 90
        3
 70
     0
 71
     0
  1
AcDbOsnapPointRef
 72
     6
331
2FC0
 73
     2
 91
        0
 40
1.0
 10
0.0
 20
0.0
 30
0.0
332
2F96
 74
     2
 92
        0
 75
     0
  1
AcDbOsnapPointRef
 72
     6
331
2F9D
 73
     2
 91
        0
 40
1.0
 10
0.0
 20
0.0
 30
0.0
332
2F96
 74
     2
 92
        0
 75
     0
  0
DIMASSOC
  5
300B
102
{ACAD_REACTORS
330
3001
102
}
330
3001
100
AcDbDimAssoc
330
2FF4
 90
        3
 70
     0
 71
     0
  1
AcDbOsnapPointRef
 72
    13
331
2F9A
 73
     2
 91
        0
 40
0.0
 10
0.0
 20
0.0
 30
2.000000000000000E+50
 75
     0
  1
AcDbOsnapPointRef
 72
    13
331
2FC2
 73
     2
 91
        0
 40
0.0
 10
0.0
 20
0.0
 30
2.000000000000000E+50
 75
     0
  0
DIMASSOC
  5
3023
102
{ACAD_REACTORS
330
3019
102
}
330
3019
100
AcDbDimAssoc
330
300C
 90
        3
 70
     0
 71
     0
  1
AcDbOsnapPointRef
 72
    13
331
2FAB
 73
     2
 91
        0
 40
0.0
 10
0.0
 20
0.0
 30
2.000000000000000E+50
 75
     0
  1
AcDbOsnapPointRef
 72
     1
331
2FBD
 73
     2
 91
        0
 40
1.0
 10
0.0
 20
0.0
 30
2.000000000000000E+50
 75
     0
  0
DIMASSOC
  5
303B
102
{ACAD_REACTORS
330
3031
102
}
330
3031
100
AcDbDimAssoc
330
3024
 90
        3
 70
     0
 71
     0
  1
AcDbOsnapPointRef
 72
    13
331
2FA9
 73
     2
 91
        0
 40
0.0
 10
0.0
 20
0.0
 30
2.000000000000000E+50
 75
     0
  1
AcDbOsnapPointRef
 72
     1
331
2FBE
 73
     2
 91
        0
 40
1.0
 10
0.0
 20
0.0
 30
2.000000000000000E+50
 75
     0
  0
DIMASSOC
  5
3053
102
{ACAD_REACTORS
330
3049
102
}
330
3049
100
AcDbDimAssoc
330
303C
 90
        3
 70
     0
 71
     0
  1
AcDbOsnapPointRef
 72
    13
331
2FAC
 73
     2
 91
        0
 40
0.0
 10
0.0
 20
0.0
 30
2.000000000000000E+50
 75
     0
  1
AcDbOsnapPointRef
 72
    13
331
2FBE
 73
     2
 91
        0
 40
0.0
 10
0.0
 20
0.0
 30
2.000000000000000E+50
 75
     0
  0
DIMASSOC
  5
308A
102
{ACAD_REACTORS
330
307E
102
}
330
307E
100
AcDbDimAssoc
330
306F
 90
        3
 70
     0
 71
     0
  1
AcDbOsnapPointRef
 72
    13
331
2FBE
 73
     2
 91
        0
 40
0.0
 10
0.0
 20
0.0
 30
2.000000000000000E+50
 75
     0
  1
AcDbOsnapPointRef
 72
     1
331
2FBE
 73
     2
 91
        0
 40
1.0
 10
0.0
 20
0.0
 30
2.000000000000000E+50
 75
     0
  0
DIMASSOC
  5
30A6
102
{ACAD_REACTORS
330
309A
102
}
330
309A
100
AcDbDimAssoc
330
308B
 90
        3
 70
     0
 71
     0
  1
AcDbOsnapPointRef
 72
    13
331
2FBE
 73
     2
 91
        0
 40
0.0
 10
0.0
 20
0.0
 30
2.000000000000000E+50
 75
     0
  1
AcDbOsnapPointRef
 72
     1
331
2FBD
 73
     2
 91
        0
 40
1.0
 10
0.0
 20
0.0
 30
2.000000000000000E+50
 75
     0
  0
DIMASSOC
  5
30B6
102
{ACAD_REACTORS
330
30B0
102
}
330
30B0
100
AcDbDimAssoc
330
30A7
 90
        2
 70
     0
 71
     0
  1
AcDbOsnapPointRef
 72
     3
331
2FB1
 73
     2
 91
        0
 40
0.0
 10
0.0
 20
0.0
 30
0.0
 75
     0
  0
ACDBDETAILVIEWSTYLE
  5
34D2
102
{ACAD_REACTORS
330
34D1
102
}
330
34D1
100
AcDbModelDocViewStyle
 70
     0
  3
Metric50
290
     1
300
Metric50
 90
        0
100
AcDbDetailViewStyle
 70
     0
 71
     0
 90
        3
 71
     1
340
11
 62
   256
 40
5.0
340
0
 62
   256
 40
5.0
300

 40
0.0
280
     1
 71
     2
340
16
 90
       25
 62
   256
 71
     3
340
11
 62
   256
 40
5.0
 90
        0
 40
15.0
 90
        1
300
%<\AcVar ViewDetailId>% (%<\AcVar ViewScale \f "%sn">%)
 71
     4
340
16
 90
       25
 62
   256
340
16
 90
       25
 62
   256
280
     0
  0
LAYOUT
  5
22
102
{ACAD_REACTORS
330
1A
102
}
330
1A
100
AcDbPlotSettings
  1

  2
EPSON ME 1
  4
A4
  6

 40
3.757083177566528
 41
13.28207111358642
 42
3.757080078125
 43
3.757080078125
 44
209.9733276367187
 45
296.9683227539062
 46
11.42
 47
0.0
 48
-6416.528579736679
 49
3669.058316166046
140
-4797.954445548167
141
6191.404809546027
142
1.0
143
9.010659658311338
 70
 11956
 72
     1
 73
     0
 74
     4
  7

 75
     0
147
0.1109796660755698
 76
     0
 77
     2
 78
   180
148
6416.528579736679
149
-3669.058316166046
100
AcDbLayout
  1
Model
 70
     1
 71
     0
 10
0.0
 20
0.0
 11
12.0
 21
9.0
 12
0.0
 22
0.0
 32
0.0
 14
0.0
 24
0.0
 34
0.0
 15
0.0
 25
0.0
 35
0.0
146
0.0
 13
0.0
 23
0.0
 33
0.0
 16
1.0
 26
0.0
 36
0.0
 17
0.0
 27
1.0
 37
0.0
 76
     0
330
1F
331
3464
  0
LAYOUT
  5
51
102
{ACAD_REACTORS
330
1A
102
}
330
1A
100
AcDbPlotSettings
  1

  2
None
  4

  6

 40
0.0
 41
0.0
 42
0.0
 43
0.0
 44
0.0
 45
0.0
 46
0.0
 47
0.0
 48
0.0
 49
0.0
140
0.0
141
0.0
142
1.0
143
1.0
 70
   688
 72
     0
 73
     0
 74
     5
  7

 75
    16
147
1.0
 76
     0
 77
     2
 78
   300
148
0.0
149
0.0
100
AcDbLayout
  1
布局1
 70
     1
 71
     1
 10
0.0
 20
0.0
 11
12.0
 21
9.0
 12
0.0
 22
0.0
 32
0.0
 14
0.0
 24
0.0
 34
0.0
 15
0.0
 25
0.0
 35
0.0
146
0.0
 13
0.0
 23
0.0
 33
0.0
 16
1.0
 26
0.0
 36
0.0
 17
0.0
 27
1.0
 37
0.0
 76
     0
330
50
1001
AcadStringInfo
1000
MIFCodePage
1070
     5
  0
LAYOUT
  5
56
102
{ACAD_REACTORS
330
1A
102
}
330
1A
100
AcDbPlotSettings
  1

  2
None
  4

  6

 40
0.0
 41
0.0
 42
0.0
 43
0.0
 44
0.0
 45
0.0
 46
0.0
 47
0.0
 48
0.0
 49
0.0
140
0.0
141
0.0
142
1.0
143
1.0
 70
   688
 72
     0
 73
     0
 74
     5
  7

 75
    16
147
1.0
 76
     0
 77
     2
 78
   300
148
0.0
149
0.0
100
AcDbLayout
  1
布局2
 70
     1
 71
     2
 10
0.0
 20
0.0
 11
12.0
 21
9.0
 12
0.0
 22
0.0
 32
0.0
 14
0.0
 24
0.0
 34
0.0
 15
0.0
 25
0.0
 35
0.0
146
0.0
 13
0.0
 23
0.0
 33
0.0
 16
1.0
 26
0.0
 36
0.0
 17
0.0
 27
1.0
 37
0.0
 76
     0
330
55
1001
AcadStringInfo
1000
MIFCodePage
1070
     5
  0
MATERIAL
  5
3467
102
{ACAD_REACTORS
330
6A
102
}
330
6A
100
AcDbMaterial
  1
ByBlock
 73
     1
 78
     1
172
     1
176
     1
270
     1
274
     1
 94
       63
  0
MATERIAL
  5
3466
102
{ACAD_REACTORS
330
6A
102
}
330
6A
100
AcDbMaterial
  1
ByLayer
 73
     1
 78
     1
172
     1
176
     1
270
     1
274
     1
 94
       63
  0
MATERIAL
  5
3468
102
{ACAD_REACTORS
330
6A
102
}
330
6A
100
AcDbMaterial
  1
Global
 73
     1
 78
     1
172
     1
176
     1
270
     1
274
     1
 94
       63
  0
MLEADERSTYLE
  5
34CE
102
{ACAD_REACTORS
330
34CD
102
}
330
34CD
100
AcDbMLeaderStyle
179
     2
170
     2
171
     1
172
     0
 90
        2
 40
0.0
 41
0.0
173
     1
 91
-1056964608
340
14
 92
       -2
290
     1
 42
2.0
291
     1
 43
0.36
  3
Standard
 44
4.0
300

342
11
174
     1
178
     6
175
     1
176
     0
 93
-1056964608
 45
4.0
292
     0
297
     0
 46
4.0
 94
-1056964608
 47
1.0
 49
1.0
140
1.0
293
     1
141
0.0
294
     1
177
     0
142
1.0
295
     1
296
     0
143
0.125
271
     0
272
     9
273
     9
298
     1
  0
MLINESTYLE
  5
18
102
{ACAD_REACTORS
330
17
102
}
330
17
100
AcDbMlineStyle
  2
STANDARD
 70
     0
  3

 62
   256
 51
90.0
 52
90.0
 71
     2
 49
0.5
 62
   256
  6
BYLAYER
 49
-0.5
 62
   256
  6
BYLAYER
  0
ACDBPLACEHOLDER
  5
F
102
{ACAD_REACTORS
330
E
102
}
330
E
  0
SCALE
  5
34BC
102
{ACAD_REACTORS
330
34BB
102
}
330
34BB
100
AcDbScale
 70
     0
300
1:1
140
1.0
141
1.0
290
     1
  0
SCALE
  5
34BD
102
{ACAD_REACTORS
330
34BB
102
}
330
34BB
100
AcDbScale
 70
     0
300
1:2
140
1.0
141
2.0
290
     0
  0
SCALE
  5
34BE
102
{ACAD_REACTORS
330
34BB
102
}
330
34BB
100
AcDbScale
 70
     0
300
1:4
140
1.0
141
4.0
290
     0
  0
SCALE
  5
34BF
102
{ACAD_REACTORS
330
34BB
102
}
330
34BB
100
AcDbScale
 70
     0
300
1:5
140
1.0
141
5.0
290
     0
  0
SCALE
  5
34C0
102
{ACAD_REACTORS
330
34BB
102
}
330
34BB
100
AcDbScale
 70
     0
300
1:8
140
1.0
141
8.0
290
     0
  0
SCALE
  5
34C1
102
{ACAD_REACTORS
330
34BB
102
}
330
34BB
100
AcDbScale
 70
     0
300
1:10
140
1.0
141
10.0
290
     0
  0
SCALE
  5
34C2
102
{ACAD_REACTORS
330
34BB
102
}
330
34BB
100
AcDbScale
 70
     0
300
1:16
140
1.0
141
16.0
290
     0
  0
SCALE
  5
34C3
102
{ACAD_REACTORS
330
34BB
102
}
330
34BB
100
AcDbScale
 70
     0
300
1:20
140
1.0
141
20.0
290
     0
  0
SCALE
  5
34C4
102
{ACAD_REACTORS
330
34BB
102
}
330
34BB
100
AcDbScale
 70
     0
300
1:30
140
1.0
141
30.0
290
     0
  0
SCALE
  5
34C5
102
{ACAD_REACTORS
330
34BB
102
}
330
34BB
100
AcDbScale
 70
     0
300
1:40
140
1.0
141
40.0
290
     0
  0
SCALE
  5
34C6
102
{ACAD_REACTORS
330
34BB
102
}
330
34BB
100
AcDbScale
 70
     0
300
1:50
140
1.0
141
50.0
290
     0
  0
SCALE
  5
34C7
102
{ACAD_REACTORS
330
34BB
102
}
330
34BB
100
AcDbScale
 70
     0
300
1:100
140
1.0
141
100.0
290
     0
  0
SCALE
  5
34C8
102
{ACAD_REACTORS
330
34BB
102
}
330
34BB
100
AcDbScale
 70
     0
300
2:1
140
2.0
141
1.0
290
     0
  0
SCALE
  5
34C9
102
{ACAD_REACTORS
330
34BB
102
}
330
34BB
100
AcDbScale
 70
     0
300
4:1
140
4.0
141
1.0
290
     0
  0
SCALE
  5
34CA
102
{ACAD_REACTORS
330
34BB
102
}
330
34BB
100
AcDbScale
 70
     0
300
8:1
140
8.0
141
1.0
290
     0
  0
SCALE
  5
34CB
102
{ACAD_REACTORS
330
34BB
102
}
330
34BB
100
AcDbScale
 70
     0
300
10:1
140
10.0
141
1.0
290
     0
  0
SCALE
  5
34CC
102
{ACAD_REACTORS
330
34BB
102
}
330
34BB
100
AcDbScale
 70
     0
300
100:1
140
100.0
141
1.0
290
     0
  0
ACDBSECTIONVIEWSTYLE
  5
34D0
102
{ACAD_REACTORS
330
34CF
102
}
330
34CF
100
AcDbModelDocViewStyle
 70
     0
  3
Metric50
290
     1
300
Metric50
 90
        0
100
AcDbSectionViewStyle
 70
     0
 71
     0
 90
      102
 71
     1
340
11
 62
   256
 40
5.0
340
0
340
0
 62
   256
 40
5.0
300
I, O, Q, S, X, Z
 40
10.0
 90
        0
 40
2.5
 90
        0
 71
     2
340
16
 90
       25
 62
   256
340
16
 90
       50
 62
   256
 40
5.0
 40
2.5
 40
5.0
 71
     3
340
11
 62
   256
 40
5.0
 90
        0
 40
15.0
 90
        1
300
%<\AcVar ViewSectionStartId>%-%<\AcVar ViewSectionEndId>% (%<\AcVar ViewScale \f "%sn">%)
 71
     4
 62
   256
 62
   257
300
ANSI31
 40
1.0
 90
        0
290
     0
290
     0
 90
        6
 40
0.0
 40
1.570796326794896
 40
0.2617993877991494
 40
1.308996938995747
 40
-0.2617993877991494
 40
1.832595714594046
  0
TABLESTYLE
  5
347B
102
{ACAD_XDICTIONARY
360
3623
102
}
102
{ACAD_REACTORS
330
347A
102
}
330
347A
100
AcDbTableStyle
280
     0
  3
Standard
 70
     0
 71
     0
 40
1.5
 41
1.5
280
     0
281
     0
  7
Standard
140
4.5
170
     2
 62
     0
 63
     7
283
     0
 90
      512
 91
        0
  1

274
    -2
284
     1
 64
     0
275
    -2
285
     1
 65
     0
276
    -2
286
     1
 66
     0
277
    -2
287
     1
 67
     0
278
    -2
288
     1
 68
     0
279
    -2
289
     1
 69
     0
  7
Standard
140
6.0
170
     5
 62
     0
 63
     7
283
     0
 90
      512
 91
        0
  1

274
    -2
284
     1
 64
     0
275
    -2
285
     1
 65
     0
276
    -2
286
     1
 66
     0
277
    -2
287
     1
 67
     0
278
    -2
288
     1
 68
     0
279
    -2
289
     1
 69
     0
  7
Standard
140
4.5
170
     5
 62
     0
 63
     7
283
     0
 90
      512
 91
        0
  1

274
    -2
284
     1
 64
     0
275
    -2
285
     1
 65
     0
276
    -2
286
     1
 66
     0
277
    -2
287
     1
 67
     0
278
    -2
288
     1
 68
     0
279
    -2
289
     1
 69
     0
  0
VISUALSTYLE
  5
346F
102
{ACAD_REACTORS
330
3469
102
}
330
3469
100
AcDbVisualStyle
  2
2dWireframe
 70
     4
177
     3
291
     0
 70
    58
 90
        0
176
     1
 90
        2
176
     1
 90
        0
176
     1
 90
        0
176
     1
 40
0.6
176
     1
 40
30.0
176
     1
 62
     7
420
 16777215
176
     1
 90
        1
176
     1
 90
        4
176
     1
 62
     7
176
     1
 62
   257
176
     1
 90
        1
176
     1
 90
        1
176
     1
 40
1.0
176
     1
 90
        0
176
     1
 62
   257
176
     1
 40
1.0
176
     1
 90
        1
176
     1
 90
        6
176
     1
 90
        2
176
     1
 62
     7
176
     1
 90
        5
176
     1
 90
        0
176
     1
 90
        0
176
     1
290
     0
176
     1
 90
        1
176
     1
 40
0.0
176
     1
 90
        0
176
     1
290
     1
176
     1
290
     1
176
     1
290
     0
176
     1
290
     0
176
     1
290
     0
176
     1
290
     0
176
     1
290
     0
176
     1
290
     0
176
     1
290
     0
176
     1
 90
       50
176
     1
 40
0.0
176
     1
 40
1.0
176
     1
 90
        0
176
     1
 62
    18
420
        0
176
     1
 90
       50
176
     1
 90
        3
176
     1
 62
     5
420
      255
176
     1
290
     0
176
     1
 90
       50
176
     1
 90
       50
176
     1
 90
       50
176
     1
290
     0
176
     1
 90
       50
176
     1
 62
   256
176
     0
 40
1.0
176
     0
 90
        2
176
     1
  1
strokes_ogs.tif
176
     1
290
     0
176
     1
 40
1.0
176
     1
 40
1.0
176
     1
  0
VISUALSTYLE
  5
3471
102
{ACAD_REACTORS
330
3469
102
}
330
3469
100
AcDbVisualStyle
  2
3D Hidden
 70
     6
177
     3
291
     0
 70
    58
 90
        1
176
     1
 90
        2
176
     1
 90
        2
176
     1
 90
        0
176
     1
 40
0.6
176
     1
 40
30.0
176
     1
 62
     7
420
 16777215
176
     1
 90
        2
176
     1
 90
        2
176
     1
 62
     7
176
     1
 62
   257
176
     1
 90
        2
176
     1
 90
        1
176
     1
 40
40.0
176
     1
 90
        0
176
     1
 62
   257
176
     1
 40
1.0
176
     1
 90
        1
176
     1
 90
        6
176
     1
 90
        2
176
     1
 62
     7
176
     1
 90
        3
176
     1
 90
        0
176
     1
 90
        0
176
     1
290
     0
176
     1
 90
        1
176
     1
 40
0.0
176
     1
 90
        0
176
     1
290
     0
176
     1
290
     1
176
     1
290
     1
176
     1
290
     0
176
     1
290
     0
176
     1
290
     0
176
     1
290
     0
176
     1
290
     0
176
     1
290
     0
176
     1
 90
       50
176
     1
 40
0.0
176
     1
 40
1.0
176
     1
 90
        0
176
     1
 62
    18
420
        0
176
     1
 90
       50
176
     1
 90
        3
176
     1
 62
     5
420
      255
176
     1
290
     0
176
     1
 90
       50
176
     1
 90
       50
176
     1
 90
       50
176
     1
290
     0
176
     1
 90
       50
176
     1
 62
   256
176
     0
 40
1.0
176
     0
 90
        2
176
     1
  1
strokes_ogs.tif
176
     1
290
     0
176
     1
 40
1.0
176
     1
 40
1.0
176
     1
  0
VISUALSTYLE
  5
3470
102
{ACAD_REACTORS
330
3469
102
}
330
3469
100
AcDbVisualStyle
  2
3dWireframe
 70
     5
177
     3
291
     0
 70
    58
 90
        0
176
     1
 90
        2
176
     1
 90
        0
176
     1
 90
        0
176
     1
 40
0.6
176
     1
 40
30.0
176
     1
 62
     7
420
 16777215
176
     1
 90
        1
176
     1
 90
        4
176
     1
 62
     7
176
     1
 62
   257
176
     1
 90
        1
176
     1
 90
        1
176
     1
 40
1.0
176
     1
 90
        0
176
     1
 62
   257
176
     1
 40
1.0
176
     1
 90
        1
176
     1
 90
        6
176
     1
 90
        2
176
     1
 62
     7
176
     1
 90
        5
176
     1
 90
        0
176
     1
 90
        0
176
     1
290
     0
176
     1
 90
        1
176
     1
 40
0.0
176
     1
 90
        0
176
     1
290
     0
176
     1
290
     1
176
     1
290
     1
176
     1
290
     0
176
     1
290
     0
176
     1
290
     0
176
     1
290
     0
176
     1
290
     0
176
     1
290
     0
176
     1
 90
       50
176
     1
 40
0.0
176
     1
 40
1.0
176
     1
 90
        0
176
     1
 62
    18
420
        0
176
     1
 90
       50
176
     1
 90
        3
176
     1
 62
     5
420
      255
176
     1
290
     0
176
     1
 90
       50
176
     1
 90
       50
176
     1
 90
       50
176
     1
290
     0
176
     1
 90
       50
176
     1
 62
   256
176
     0
 40
1.0
176
     0
 90
        2
176
     1
  1
strokes_ogs.tif
176
     1
290
     0
176
     1
 40
1.0
176
     1
 40
1.0
176
     1
  0
VISUALSTYLE
  5
346E
102
{ACAD_REACTORS
330
3469
102
}
330
3469
100
AcDbVisualStyle
  2
Basic
 70
     7
177
     3
291
     1
 70
    58
 90
        1
176
     1
 90
        0
176
     1
 90
        1
176
     1
 90
        0
176
     1
 40
0.6
176
     1
 40
30.0
176
     1
 62
     7
420
 16777215
176
     1
 90
        0
176
     1
 90
        4
176
     1
 62
     7
176
     1
 62
   257
176
     1
 90
        1
176
     1
 90
        1
176
     1
 40
1.0
176
     1
 90
        8
176
     1
 62
     7
176
     1
 40
1.0
176
     1
 90
        1
176
     1
 90
        6
176
     1
 90
        2
176
     1
 62
     7
176
     1
 90
        5
176
     1
 90
        0
176
     1
 90
        0
176
     1
290
     0
176
     1
 90
        1
176
     1
 40
0.0
176
     1
 90
        0
176
     1
290
     0
176
     1
290
     1
176
     1
290
     1
176
     1
290
     0
176
     1
290
     0
176
     1
290
     0
176
     1
290
     0
176
     1
290
     0
176
     1
290
     0
176
     1
 90
       50
176
     1
 40
0.0
176
     1
 40
1.0
176
     1
 90
        0
176
     1
 62
    18
420
        0
176
     1
 90
       50
176
     1
 90
        3
176
     1
 62
     5
420
      255
176
     1
290
     0
176
     1
 90
       50
176
     1
 90
       50
176
     1
 90
       50
176
     1
290
     0
176
     1
 90
       50
176
     1
 62
   256
176
     0
 40
1.0
176
     0
 90
        2
176
     1
  1
strokes_ogs.tif
176
     1
290
     0
176
     1
 40
1.0
176
     1
 40
1.0
176
     1
  0
VISUALSTYLE
  5
3475
102
{ACAD_REACTORS
330
3469
102
}
330
3469
100
AcDbVisualStyle
  2
Brighten
 70
    12
177
     3
291
     1
 70
    58
 90
        2
176
     1
 90
        2
176
     1
 90
        0
176
     1
 90
        0
176
     1
 40
0.6
176
     1
 40
30.0
176
     1
 62
     7
420
 16777215
176
     1
 90
        1
176
     1
 90
        4
176
     1
 62
     7
176
     1
 62
   257
176
     1
 90
        1
176
     1
 90
        1
176
     1
 40
1.0
176
     1
 90
        8
176
     1
 62
     7
176
     1
 40
1.0
176
     1
 90
        1
176
     1
 90
        6
176
     1
 90
        2
176
     1
 62
     7
176
     1
 90
        5
176
     1
 90
        0
176
     1
 90
        0
176
     1
290
     0
176
     1
 90
        1
176
     1
 40
50.0
176
     1
 90
        0
176
     1
290
     0
176
     1
290
     1
176
     1
290
     1
176
     1
290
     0
176
     1
290
     0
176
     1
290
     0
176
     1
290
     0
176
     1
290
     0
176
     1
290
     0
176
     1
 90
       50
176
     1
 40
0.0
176
     1
 40
1.0
176
     1
 90
        0
176
     1
 62
    18
420
        0
176
     1
 90
       50
176
     1
 90
        3
176
     1
 62
     5
420
      255
176
     1
290
     0
176
     1
 90
       50
176
     1
 90
       50
176
     1
 90
       50
176
     1
290
     0
176
     1
 90
       50
176
     1
 62
   256
176
     0
 40
1.0
176
     0
 90
        2
176
     1
  1
strokes_ogs.tif
176
     1
290
     0
176
     1
 40
1.0
176
     1
 40
1.0
176
     1
  0
VISUALSTYLE
  5
3479
102
{ACAD_REACTORS
330
3469
102
}
330
3469
100
AcDbVisualStyle
  2
ColorChange
 70
    16
177
     3
291
     1
 70
    58
 90
        2
176
     1
 90
        2
176
     1
 90
        3
176
     1
 90
        0
176
     1
 40
0.6
176
     1
 40
30.0
176
     1
 62
     8
420
  8421504
176
     1
 90
        1
176
     1
 90
        4
176
     1
 62
     7
176
     1
 62
   257
176
     1
 90
        1
176
     1
 90
        1
176
     1
 40
1.0
176
     1
 90
        8
176
     1
 62
     8
420
  8421504
176
     1
 40
1.0
176
     1
 90
        1
176
     1
 90
        6
176
     1
 90
        2
176
     1
 62
     7
176
     1
 90
        5
176
     1
 90
        0
176
     1
 90
        0
176
     1
290
     0
176
     1
 90
        1
176
     1
 40
0.0
176
     1
 90
        0
176
     1
290
     0
176
     1
290
     1
176
     1
290
     1
176
     1
290
     0
176
     1
290
     0
176
     1
290
     0
176
     1
290
     0
176
     1
290
     0
176
     1
290
     0
176
     1
 90
       50
176
     1
 40
0.0
176
     1
 40
1.0
176
     1
 90
        0
176
     1
 62
    18
420
        0
176
     1
 90
       50
176
     1
 90
        3
176
     1
 62
     5
420
      255
176
     1
290
     0
176
     1
 90
       50
176
     1
 90
       50
176
     1
 90
       50
176
     1
290
     0
176
     1
 90
       50
176
     1
 62
   256
176
     0
 40
1.0
176
     0
 90
        2
176
     1
  1
strokes_ogs.tif
176
     1
290
     0
176
     1
 40
1.0
176
     1
 40
1.0
176
     1
  0
VISUALSTYLE
  5
3472
102
{ACAD_REACTORS
330
3469
102
}
330
3469
100
AcDbVisualStyle
  2
Conceptual
 70
     9
177
     3
291
     0
 70
    58
 90
        3
176
     1
 90
        2
176
     1
 90
        0
176
     1
 90
        0
176
     1
 40
0.6
176
     1
 40
30.0
176
     1
 62
     7
420
 16777215
176
     1
 90
        2
176
     1
 90
        2
176
     1
 62
     7
176
     1
 62
   257
176
     1
 90
        1
176
     1
 90
        1
176
     1
 40
40.0
176
     1
 90
        8
176
     1
 62
     7
176
     1
 40
1.0
176
     1
 90
        1
176
     1
 90
        6
176
     1
 90
        2
176
     1
 62
     7
176
     1
 90
        3
176
     1
 90
        0
176
     1
 90
        0
176
     1
290
     0
176
     1
 90
        1
176
     1
 40
0.0
176
     1
 90
        0
176
     1
290
     0
176
     1
290
     1
176
     1
290
     1
176
     1
290
     0
176
     1
290
     0
176
     1
290
     0
176
     1
290
     0
176
     1
290
     0
176
     1
290
     0
176
     1
 90
       50
176
     1
 40
0.0
176
     1
 40
1.0
176
     1
 90
        0
176
     1
 62
    18
420
        0
176
     1
 90
       50
176
     1
 90
        3
176
     1
 62
     5
420
      255
176
     1
290
     0
176
     1
 90
       50
176
     1
 90
       50
176
     1
 90
       50
176
     1
290
     0
176
     1
 90
       50
176
     1
 62
   256
176
     0
 40
1.0
176
     0
 90
        2
176
     1
  1
strokes_ogs.tif
176
     1
290
     0
176
     1
 40
1.0
176
     1
 40
1.0
176
     1
  0
VISUALSTYLE
  5
3474
102
{ACAD_REACTORS
330
3469
102
}
330
3469
100
AcDbVisualStyle
  2
Dim
 70
    11
177
     3
291
     1
 70
    58
 90
        2
176
     1
 90
        2
176
     1
 90
        0
176
     1
 90
        0
176
     1
 40
0.6
176
     1
 40
30.0
176
     1
 62
     7
420
 16777215
176
     1
 90
        1
176
     1
 90
        4
176
     1
 62
     7
176
     1
 62
   257
176
     1
 90
        1
176
     1
 90
        1
176
     1
 40
1.0
176
     1
 90
        8
176
     1
 62
     7
176
     1
 40
1.0
176
     1
 90
        1
176
     1
 90
        6
176
     1
 90
        2
176
     1
 62
     7
176
     1
 90
        5
176
     1
 90
        0
176
     1
 90
        0
176
     1
290
     0
176
     1
 90
        1
176
     1
 40
-50.0
176
     1
 90
        0
176
     1
290
     0
176
     1
290
     1
176
     1
290
     1
176
     1
290
     0
176
     1
290
     0
176
     1
290
     0
176
     1
290
     0
176
     1
290
     0
176
     1
290
     0
176
     1
 90
       50
176
     1
 40
0.0
176
     1
 40
1.0
176
     1
 90
        0
176
     1
 62
    18
420
        0
176
     1
 90
       50
176
     1
 90
        3
176
     1
 62
     5
420
      255
176
     1
290
     0
176
     1
 90
       50
176
     1
 90
       50
176
     1
 90
       50
176
     1
290
     0
176
     1
 90
       50
176
     1
 62
   256
176
     0
 40
1.0
176
     0
 90
        2
176
     1
  1
strokes_ogs.tif
176
     1
290
     0
176
     1
 40
1.0
176
     1
 40
1.0
176
     1
  0
VISUALSTYLE
  5
34B9
102
{ACAD_REACTORS
330
3469
102
}
330
3469
100
AcDbVisualStyle
  2
EdgeColorOff
 70
    22
177
     3
291
     1
 70
    58
 90
        2
176
     0
 90
        2
176
     0
 90
        0
176
     0
 90
        0
176
     0
 40
0.6
176
     0
 40
30.0
176
     0
 62
     7
420
 16777215
176
     0
 90
        1
176
     0
 90
        4
176
     0
 62
     7
176
     0
 62
   257
176
     0
 90
        1
176
     0
 90
        1
176
     0
 40
1.0
176
     0
 90
        8
176
     2
 62
     7
176
     0
 40
1.0
176
     0
 90
        1
176
     0
 90
        6
176
     0
 90
        2
176
     0
 62
     7
176
     0
 90
        5
176
     0
 90
        0
176
     0
 90
        0
176
     0
290
     0
176
     0
 90
        1
176
     0
 40
0.0
176
     0
 90
        0
176
     0
290
     0
176
     0
290
     1
176
     0
290
     1
176
     0
290
     0
176
     0
290
     0
176
     0
290
     0
176
     0
290
     0
176
     0
290
     0
176
     0
290
     0
176
     0
 90
       50
176
     0
 40
0.0
176
     0
 40
1.0
176
     0
 90
        0
176
     0
 62
    18
420
        0
176
     0
 90
       50
176
     0
 90
        3
176
     0
 62
     5
420
      255
176
     0
290
     0
176
     0
 90
       50
176
     0
 90
       50
176
     0
 90
       50
176
     0
290
     0
176
     0
 90
       50
176
     0
 62
   256
176
     0
 40
1.0
176
     0
 90
        2
176
     0
  1
strokes_ogs.tif
176
     0
290
     0
176
     0
 40
1.0
176
     0
 40
1.0
176
     0
  0
VISUALSTYLE
  5
3478
102
{ACAD_REACTORS
330
3469
102
}
330
3469
100
AcDbVisualStyle
  2
Facepattern
 70
    15
177
     3
291
     1
 70
    58
 90
        2
176
     1
 90
        2
176
     1
 90
        0
176
     1
 90
        0
176
     1
 40
0.6
176
     1
 40
30.0
176
     1
 62
     7
420
 16777215
176
     1
 90
        1
176
     1
 90
        4
176
     1
 62
     7
176
     1
 62
   257
176
     1
 90
        1
176
     1
 90
        1
176
     1
 40
1.0
176
     1
 90
        8
176
     1
 62
     7
176
     1
 40
1.0
176
     1
 90
        1
176
     1
 90
        6
176
     1
 90
        2
176
     1
 62
     7
176
     1
 90
        5
176
     1
 90
        0
176
     1
 90
        0
176
     1
290
     0
176
     1
 90
        1
176
     1
 40
0.0
176
     1
 90
        0
176
     1
290
     0
176
     1
290
     1
176
     1
290
     1
176
     1
290
     0
176
     1
290
     0
176
     1
290
     0
176
     1
290
     0
176
     1
290
     0
176
     1
290
     0
176
     1
 90
       50
176
     1
 40
0.0
176
     1
 40
1.0
176
     1
 90
        0
176
     1
 62
    18
420
        0
176
     1
 90
       50
176
     1
 90
        3
176
     1
 62
     5
420
      255
176
     1
290
     0
176
     1
 90
       50
176
     1
 90
       50
176
     1
 90
       50
176
     1
290
     0
176
     1
 90
       50
176
     1
 62
   256
176
     0
 40
1.0
176
     0
 90
        2
176
     1
  1
strokes_ogs.tif
176
     1
290
     0
176
     1
 40
1.0
176
     1
 40
1.0
176
     1
  0
VISUALSTYLE
  5
346A
102
{ACAD_REACTORS
330
3469
102
}
330
3469
100
AcDbVisualStyle
  2
Flat
 70
     0
177
     3
291
     1
 70
    58
 90
        2
176
     1
 90
        1
176
     1
 90
        1
176
     1
 90
        2
176
     1
 40
0.6
176
     1
 40
30.0
176
     1
 62
     7
420
 16777215
176
     1
 90
        0
176
     1
 90
        4
176
     1
 62
     7
176
     1
 62
   257
176
     1
 90
        1
176
     1
 90
        1
176
     1
 40
1.0
176
     1
 90
        8
176
     1
 62
     7
176
     1
 40
1.0
176
     1
 90
        1
176
     1
 90
        6
176
     1
 90
        2
176
     1
 62
     7
176
     1
 90
        5
176
     1
 90
        0
176
     1
 90
        0
176
     1
290
     0
176
     1
 90
       13
176
     1
 40
0.0
176
     1
 90
        0
176
     1
290
     0
176
     1
290
     1
176
     1
290
     1
176
     1
290
     0
176
     1
290
     0
176
     1
290
     0
176
     1
290
     0
176
     1
290
     0
176
     1
290
     0
176
     1
 90
       50
176
     1
 40
0.0
176
     1
 40
1.0
176
     1
 90
        0
176
     1
 62
    18
420
        0
176
     1
 90
       50
176
     1
 90
        3
176
     1
 62
     5
420
      255
176
     1
290
     0
176
     1
 90
       50
176
     1
 90
       50
176
     1
 90
       50
176
     1
290
     0
176
     1
 90
       50
176
     1
 62
   256
176
     0
 40
1.0
176
     0
 90
        2
176
     1
  1
strokes_ogs.tif
176
     1
290
     0
176
     1
 40
1.0
176
     1
 40
1.0
176
     1
  0
VISUALSTYLE
  5
346B
102
{ACAD_REACTORS
330
3469
102
}
330
3469
100
AcDbVisualStyle
  2
FlatWithEdges
 70
     1
177
     3
291
     1
 70
    58
 90
        2
176
     1
 90
        1
176
     1
 90
        1
176
     1
 90
        2
176
     1
 40
0.6
176
     1
 40
30.0
176
     1
 62
     7
420
 16777215
176
     1
 90
        1
176
     1
 90
        4
176
     1
 62
     7
176
     1
 62
   257
176
     1
 90
        1
176
     1
 90
        1
176
     1
 40
1.0
176
     1
 90
        0
176
     1
 62
   257
176
     1
 40
1.0
176
     1
 90
        1
176
     1
 90
        6
176
     1
 90
        2
176
     1
 62
     7
176
     1
 90
        5
176
     1
 90
        0
176
     1
 90
        0
176
     1
290
     0
176
     1
 90
       13
176
     1
 40
0.0
176
     1
 90
        0
176
     1
290
     0
176
     1
290
     1
176
     1
290
     1
176
     1
290
     0
176
     1
290
     0
176
     1
290
     0
176
     1
290
     0
176
     1
290
     0
176
     1
290
     0
176
     1
 90
       50
176
     1
 40
0.0
176
     1
 40
1.0
176
     1
 90
        0
176
     1
 62
    18
420
        0
176
     1
 90
       50
176
     1
 90
        3
176
     1
 62
     5
420
      255
176
     1
290
     0
176
     1
 90
       50
176
     1
 90
       50
176
     1
 90
       50
176
     1
290
     0
176
     1
 90
       50
176
     1
 62
   256
176
     0
 40
1.0
176
     0
 90
        2
176
     1
  1
strokes_ogs.tif
176
     1
290
     0
176
     1
 40
1.0
176
     1
 40
1.0
176
     1
  0
VISUALSTYLE
  5
346C
102
{ACAD_REACTORS
330
3469
102
}
330
3469
100
AcDbVisualStyle
  2
Gouraud
 70
     2
177
     3
291
     1
 70
    58
 90
        2
176
     1
 90
        2
176
     1
 90
        1
176
     1
 90
        2
176
     1
 40
0.6
176
     1
 40
30.0
176
     1
 62
     7
420
 16777215
176
     1
 90
        0
176
     1
 90
        4
176
     1
 62
     7
176
     1
 62
   257
176
     1
 90
        1
176
     1
 90
        1
176
     1
 40
1.0
176
     1
 90
        0
176
     1
 62
     7
176
     1
 40
1.0
176
     1
 90
        1
176
     1
 90
        6
176
     1
 90
        2
176
     1
 62
     7
176
     1
 90
        5
176
     1
 90
        0
176
     1
 90
        0
176
     1
290
     0
176
     1
 90
       13
176
     1
 40
0.0
176
     1
 90
        0
176
     1
290
     0
176
     1
290
     1
176
     1
290
     1
176
     1
290
     0
176
     1
290
     0
176
     1
290
     0
176
     1
290
     0
176
     1
290
     0
176
     1
290
     0
176
     1
 90
       50
176
     1
 40
0.0
176
     1
 40
1.0
176
     1
 90
        0
176
     1
 62
    18
420
        0
176
     1
 90
       50
176
     1
 90
        3
176
     1
 62
     5
420
      255
176
     1
290
     0
176
     1
 90
       50
176
     1
 90
       50
176
     1
 90
       50
176
     1
290
     0
176
     1
 90
       50
176
     1
 62
   256
176
     0
 40
1.0
176
     0
 90
        2
176
     1
  1
strokes_ogs.tif
176
     1
290
     0
176
     1
 40
1.0
176
     1
 40
1.0
176
     1
  0
VISUALSTYLE
  5
346D
102
{ACAD_REACTORS
330
3469
102
}
330
3469
100
AcDbVisualStyle
  2
GouraudWithEdges
 70
     3
177
     3
291
     1
 70
    58
 90
        2
176
     1
 90
        2
176
     1
 90
        1
176
     1
 90
        2
176
     1
 40
0.6
176
     1
 40
30.0
176
     1
 62
     7
420
 16777215
176
     1
 90
        1
176
     1
 90
        4
176
     1
 62
     7
176
     1
 62
   257
176
     1
 90
        1
176
     1
 90
        1
176
     1
 40
1.0
176
     1
 90
        0
176
     1
 62
   257
176
     1
 40
1.0
176
     1
 90
        1
176
     1
 90
        6
176
     1
 90
        2
176
     1
 62
     7
176
     1
 90
        5
176
     1
 90
        0
176
     1
 90
        0
176
     1
290
     0
176
     1
 90
       13
176
     1
 40
0.0
176
     1
 90
        0
176
     1
290
     0
176
     1
290
     1
176
     1
290
     1
176
     1
290
     0
176
     1
290
     0
176
     1
290
     0
176
     1
290
     0
176
     1
290
     0
176
     1
290
     0
176
     1
 90
       50
176
     1
 40
0.0
176
     1
 40
1.0
176
     1
 90
        0
176
     1
 62
    18
420
        0
176
     1
 90
       50
176
     1
 90
        3
176
     1
 62
     5
420
      255
176
     1
290
     0
176
     1
 90
       50
176
     1
 90
       50
176
     1
 90
       50
176
     1
290
     0
176
     1
 90
       50
176
     1
 62
   256
176
     0
 40
1.0
176
     0
 90
        2
176
     1
  1
strokes_ogs.tif
176
     1
290
     0
176
     1
 40
1.0
176
     1
 40
1.0
176
     1
  0
VISUALSTYLE
  5
34B1
102
{ACAD_REACTORS
330
3469
102
}
330
3469
100
AcDbVisualStyle
  2
Hidden
 70
     6
177
     3
291
     0
 70
    58
 90
        1
176
     1
 90
        2
176
     1
 90
        2
176
     1
 90
        0
176
     1
 40
0.6
176
     1
 40
30.0
176
     1
 62
     7
420
 16777215
176
     1
 90
        2
176
     1
 90
        2
176
     1
 62
     7
176
     1
 62
   257
176
     1
 90
        2
176
     1
 90
        1
176
     1
 40
40.0
176
     1
 90
        0
176
     1
 62
   257
176
     1
 40
1.0
176
     1
 90
        1
176
     1
 90
        6
176
     1
 90
        2
176
     1
 62
     7
176
     1
 90
        3
176
     1
 90
        0
176
     1
 90
        0
176
     1
290
     0
176
     1
 90
        1
176
     1
 40
0.0
176
     1
 90
        0
176
     1
290
     0
176
     1
290
     1
176
     1
290
     1
176
     1
290
     0
176
     1
290
     0
176
     1
290
     0
176
     1
290
     0
176
     1
290
     0
176
     1
290
     0
176
     1
 90
       50
176
     1
 40
0.0
176
     1
 40
1.0
176
     1
 90
        0
176
     1
 62
    18
420
        0
176
     1
 90
       50
176
     1
 90
        3
176
     1
 62
     5
420
      255
176
     1
290
     0
176
     1
 90
       50
176
     1
 90
       50
176
     1
 90
       50
176
     1
290
     0
176
     1
 90
       50
176
     1
 62
   256
176
     0
 40
1.0
176
     0
 90
        2
176
     1
  1
strokes_ogs.tif
176
     1
290
     0
176
     1
 40
1.0
176
     1
 40
1.0
176
     1
  0
VISUALSTYLE
  5
34B7
102
{ACAD_REACTORS
330
3469
102
}
330
3469
100
AcDbVisualStyle
  2
JitterOff
 70
    20
177
     3
291
     1
 70
    58
 90
        2
176
     0
 90
        2
176
     0
 90
        0
176
     0
 90
        0
176
     0
 40
0.6
176
     0
 40
30.0
176
     0
 62
     7
420
 16777215
176
     0
 90
        1
176
     0
 90
        4
176
     0
 62
     7
176
     0
 62
   257
176
     0
 90
        1
176
     0
 90
        1
176
     0
 40
1.0
176
     0
 90
       10
176
     2
 62
     7
176
     0
 40
1.0
176
     0
 90
        1
176
     0
 90
        6
176
     0
 90
        2
176
     0
 62
     7
176
     0
 90
        5
176
     0
 90
        0
176
     0
 90
        0
176
     0
290
     0
176
     0
 90
        1
176
     0
 40
0.0
176
     0
 90
        0
176
     0
290
     0
176
     0
290
     1
176
     0
290
     1
176
     0
290
     0
176
     0
290
     0
176
     0
290
     0
176
     0
290
     0
176
     0
290
     0
176
     0
290
     0
176
     0
 90
       50
176
     0
 40
0.0
176
     0
 40
1.0
176
     0
 90
        0
176
     0
 62
    18
420
        0
176
     0
 90
       50
176
     0
 90
        3
176
     0
 62
     5
420
      255
176
     0
290
     0
176
     0
 90
       50
176
     0
 90
       50
176
     0
 90
       50
176
     0
290
     0
176
     0
 90
       50
176
     0
 62
   256
176
     0
 40
1.0
176
     0
 90
        2
176
     0
  1
strokes_ogs.tif
176
     0
290
     0
176
     0
 40
1.0
176
     0
 40
1.0
176
     0
  0
VISUALSTYLE
  5
3477
102
{ACAD_REACTORS
330
3469
102
}
330
3469
100
AcDbVisualStyle
  2
Linepattern
 70
    14
177
     3
291
     1
 70
    58
 90
        2
176
     1
 90
        2
176
     1
 90
        0
176
     1
 90
        0
176
     1
 40
0.6
176
     1
 40
30.0
176
     1
 62
     7
420
 16777215
176
     1
 90
        1
176
     1
 90
        4
176
     1
 62
     7
176
     1
 62
   257
176
     1
 90
        7
176
     1
 90
        7
176
     1
 40
1.0
176
     1
 90
        8
176
     1
 62
     7
176
     1
 40
1.0
176
     1
 90
        1
176
     1
 90
        6
176
     1
 90
        2
176
     1
 62
     7
176
     1
 90
        5
176
     1
 90
        0
176
     1
 90
        0
176
     1
290
     0
176
     1
 90
        1
176
     1
 40
0.0
176
     1
 90
        0
176
     1
290
     0
176
     1
290
     1
176
     1
290
     1
176
     1
290
     0
176
     1
290
     0
176
     1
290
     0
176
     1
290
     0
176
     1
290
     0
176
     1
290
     0
176
     1
 90
       50
176
     1
 40
0.0
176
     1
 40
1.0
176
     1
 90
        0
176
     1
 62
    18
420
        0
176
     1
 90
       50
176
     1
 90
        3
176
     1
 62
     5
420
      255
176
     1
290
     0
176
     1
 90
       50
176
     1
 90
       50
176
     1
 90
       50
176
     1
290
     0
176
     1
 90
       50
176
     1
 62
   256
176
     0
 40
1.0
176
     0
 90
        2
176
     1
  1
strokes_ogs.tif
176
     1
290
     0
176
     1
 40
1.0
176
     1
 40
1.0
176
     1
  0
VISUALSTYLE
  5
34B8
102
{ACAD_REACTORS
330
3469
102
}
330
3469
100
AcDbVisualStyle
  2
OverhangOff
 70
    21
177
     3
291
     1
 70
    58
 90
        2
176
     0
 90
        2
176
     0
 90
        0
176
     0
 90
        0
176
     0
 40
0.6
176
     0
 40
30.0
176
     0
 62
     7
420
 16777215
176
     0
 90
        1
176
     0
 90
        4
176
     0
 62
     7
176
     0
 62
   257
176
     0
 90
        1
176
     0
 90
        1
176
     0
 40
1.0
176
     0
 90
        9
176
     2
 62
     7
176
     0
 40
1.0
176
     0
 90
        1
176
     0
 90
        6
176
     0
 90
        2
176
     0
 62
     7
176
     0
 90
        5
176
     0
 90
        0
176
     0
 90
        0
176
     0
290
     0
176
     0
 90
        1
176
     0
 40
0.0
176
     0
 90
        0
176
     0
290
     0
176
     0
290
     1
176
     0
290
     1
176
     0
290
     0
176
     0
290
     0
176
     0
290
     0
176
     0
290
     0
176
     0
290
     0
176
     0
290
     0
176
     0
 90
       50
176
     0
 40
0.0
176
     0
 40
1.0
176
     0
 90
        0
176
     0
 62
    18
420
        0
176
     0
 90
       50
176
     0
 90
        3
176
     0
 62
     5
420
      255
176
     0
290
     0
176
     0
 90
       50
176
     0
 90
       50
176
     0
 90
       50
176
     0
290
     0
176
     0
 90
       50
176
     0
 62
   256
176
     0
 40
1.0
176
     0
 90
        2
176
     0
  1
strokes_ogs.tif
176
     0
290
     0
176
     0
 40
1.0
176
     0
 40
1.0
176
     0
  0
VISUALSTYLE
  5
3473
102
{ACAD_REACTORS
330
3469
102
}
330
3469
100
AcDbVisualStyle
  2
Realistic
 70
     8
177
     3
291
     0
 70
    58
 90
        2
176
     1
 90
        2
176
     1
 90
        0
176
     1
 90
        0
176
     1
 40
0.6
176
     1
 40
30.0
176
     1
 62
     7
420
 16777215
176
     1
 90
        1
176
     1
 90
        0
176
     1
 62
     7
176
     1
 62
   257
176
     1
 90
        1
176
     1
 90
        1
176
     1
 40
1.0
176
     1
 90
        8
176
     1
 62
     8
420
  7895160
176
     1
 40
1.0
176
     1
 90
        1
176
     1
 90
        6
176
     1
 90
        2
176
     1
 62
     7
176
     1
 90
        5
176
     1
 90
        0
176
     1
 90
        0
176
     1
290
     0
176
     1
 90
       13
176
     1
 40
0.0
176
     1
 90
        0
176
     1
290
     0
176
     1
290
     1
176
     1
290
     1
176
     1
290
     0
176
     1
290
     0
176
     1
290
     0
176
     1
290
     0
176
     1
290
     0
176
     1
290
     0
176
     1
 90
       50
176
     1
 40
0.0
176
     1
 40
1.0
176
     1
 90
        0
176
     1
 62
    18
420
        0
176
     1
 90
       50
176
     1
 90
        3
176
     1
 62
     5
420
      255
176
     1
290
     0
176
     1
 90
       50
176
     1
 90
       50
176
     1
 90
       50
176
     1
290
     0
176
     1
 90
       50
176
     1
 62
   256
176
     0
 40
1.0
176
     0
 90
        2
176
     1
  1
strokes_ogs.tif
176
     1
290
     0
176
     1
 40
1.0
176
     1
 40
1.0
176
     1
  0
VISUALSTYLE
  5
34B6
102
{ACAD_REACTORS
330
3469
102
}
330
3469
100
AcDbVisualStyle
  2
Shaded
 70
    27
177
     3
291
     0
 70
    58
 90
        2
176
     1
 90
        2
176
     1
 90
        1
176
     1
 90
        2
176
     1
 40
0.6
176
     1
 40
30.0
176
     1
 62
     7
420
 16777215
176
     1
 90
        0
176
     1
 90
        4
176
     1
 62
     7
176
     1
 62
   257
176
     1
 90
        1
176
     1
 90
        1
176
     1
 40
1.0
176
     1
 90
        8
176
     1
 62
   257
176
     1
 40
1.0
176
     1
 90
        1
176
     1
 90
        6
176
     1
 90
        2
176
     1
 62
     8
420
  7895160
176
     1
 90
        3
176
     1
 90
        0
176
     1
 90
        0
176
     1
290
     0
176
     1
 90
        5
176
     1
 40
0.0
176
     1
 90
        0
176
     1
290
     0
176
     1
290
     1
176
     1
290
     1
176
     1
290
     0
176
     1
290
     0
176
     1
290
     0
176
     1
290
     0
176
     1
290
     0
176
     1
290
     0
176
     1
 90
       50
176
     1
 40
0.0
176
     1
 40
1.0
176
     1
 90
        0
176
     1
 62
    18
420
        0
176
     1
 90
       50
176
     1
 90
        3
176
     1
 62
     5
420
      255
176
     1
290
     0
176
     1
 90
       50
176
     1
 90
       50
176
     1
 90
       50
176
     1
290
     0
176
     1
 90
       50
176
     1
 62
   256
176
     0
 40
1.0
176
     0
 90
        2
176
     1
  1
strokes_ogs.tif
176
     1
290
     0
176
     1
 40
1.0
176
     1
 40
1.0
176
     1
  0
VISUALSTYLE
  5
34B5
102
{ACAD_REACTORS
330
3469
102
}
330
3469
100
AcDbVisualStyle
  2
Shaded with edges
 70
    26
177
     3
291
     0
 70
    58
 90
        2
176
     1
 90
        2
176
     1
 90
        1
176
     1
 90
        2
176
     1
 40
0.6
176
     1
 40
30.0
176
     1
 62
     7
420
 16777215
176
     1
 90
        1
176
     1
 90
        2
176
     1
 62
     7
176
     1
 62
   257
176
     1
 90
        2
176
     1
 90
        1
176
     1
 40
1.0
176
     1
 90
        8
176
     1
 62
   257
176
     1
 40
1.0
176
     1
 90
        1
176
     1
 90
        6
176
     1
 90
        2
176
     1
 62
     7
176
     1
 90
        3
176
     1
 90
        0
176
     1
 90
        0
176
     1
290
     0
176
     1
 90
        5
176
     1
 40
0.0
176
     1
 90
        0
176
     1
290
     0
176
     1
290
     1
176
     1
290
     1
176
     1
290
     0
176
     1
290
     0
176
     1
290
     0
176
     1
290
     0
176
     1
290
     0
176
     1
290
     0
176
     1
 90
       50
176
     1
 40
0.0
176
     1
 40
1.0
176
     1
 90
        0
176
     1
 62
    18
420
        0
176
     1
 90
       50
176
     1
 90
        3
176
     1
 62
     5
420
      255
176
     1
290
     0
176
     1
 90
       50
176
     1
 90
       50
176
     1
 90
       50
176
     1
290
     0
176
     1
 90
       50
176
     1
 62
   256
176
     0
 40
1.0
176
     0
 90
        2
176
     1
  1
strokes_ogs.tif
176
     1
290
     0
176
     1
 40
1.0
176
     1
 40
1.0
176
     1
  0
VISUALSTYLE
  5
34B2
102
{ACAD_REACTORS
330
3469
102
}
330
3469
100
AcDbVisualStyle
  2
Shades of Gray
 70
    23
177
     3
291
     0
 70
    58
 90
        2
176
     1
 90
        2
176
     1
 90
        3
176
     1
 90
        0
176
     1
 40
0.6
176
     1
 40
30.0
176
     1
 62
     7
420
 16777215
176
     1
 90
        2
176
     1
 90
        2
176
     1
 62
     7
176
     1
 62
     7
176
     1
 90
        1
176
     1
 90
        1
176
     1
 40
40.0
176
     1
 90
        8
176
     1
 62
     7
176
     1
 40
1.0
176
     1
 90
        1
176
     1
 90
        6
176
     1
 90
        2
176
     1
 62
     7
176
     1
 90
        3
176
     1
 90
        0
176
     1
 90
        0
176
     1
290
     0
176
     1
 90
        1
176
     1
 40
0.0
176
     1
 90
        0
176
     1
290
     0
176
     1
290
     1
176
     1
290
     1
176
     1
290
     0
176
     1
290
     0
176
     1
290
     0
176
     1
290
     0
176
     1
290
     0
176
     1
290
     0
176
     1
 90
       50
176
     1
 40
0.0
176
     1
 40
1.0
176
     1
 90
        0
176
     1
 62
    18
420
        0
176
     1
 90
       50
176
     1
 90
        3
176
     1
 62
     5
420
      255
176
     1
290
     0
176
     1
 90
       50
176
     1
 90
       50
176
     1
 90
       50
176
     1
290
     0
176
     1
 90
       50
176
     1
 62
   256
176
     0
 40
1.0
176
     0
 90
        2
176
     1
  1
strokes_ogs.tif
176
     1
290
     0
176
     1
 40
1.0
176
     1
 40
1.0
176
     1
  0
VISUALSTYLE
  5
34B3
102
{ACAD_REACTORS
330
3469
102
}
330
3469
100
AcDbVisualStyle
  2
Sketchy
 70
    24
177
     3
291
     0
 70
    58
 90
        1
176
     1
 90
        2
176
     1
 90
        2
176
     1
 90
        0
176
     1
 40
0.6
176
     1
 40
30.0
176
     1
 62
     7
420
 16777215
176
     1
 90
        2
176
     1
 90
        2
176
     1
 62
     7
176
     1
 62
     7
176
     1
 90
        1
176
     1
 90
        1
176
     1
 40
40.0
176
     1
 90
       11
176
     1
 62
     7
176
     1
 40
1.0
176
     1
 90
        1
176
     1
 90
        6
176
     1
 90
        2
176
     1
 62
     7
176
     1
 90
        6
176
     1
 90
        0
176
     1
 90
        0
176
     1
290
     0
176
     1
 90
        1
176
     1
 40
0.0
176
     1
 90
        0
176
     1
290
     0
176
     1
290
     1
176
     1
290
     1
176
     1
290
     0
176
     1
290
     0
176
     1
290
     0
176
     1
290
     0
176
     1
290
     0
176
     1
290
     0
176
     1
 90
       50
176
     1
 40
0.0
176
     1
 40
1.0
176
     1
 90
        0
176
     1
 62
    18
420
        0
176
     1
 90
       50
176
     1
 90
        3
176
     1
 62
     5
420
      255
176
     1
290
     0
176
     1
 90
       50
176
     1
 90
       50
176
     1
 90
       50
176
     1
290
     0
176
     1
 90
       50
176
     1
 62
   256
176
     0
 40
1.0
176
     0
 90
        2
176
     1
  1
strokes_ogs.tif
176
     1
290
     0
176
     1
 40
1.0
176
     1
 40
1.0
176
     1
  0
VISUALSTYLE
  5
3476
102
{ACAD_REACTORS
330
3469
102
}
330
3469
100
AcDbVisualStyle
  2
Thicken
 70
    13
177
     3
291
     1
 70
    58
 90
        2
176
     1
 90
        2
176
     1
 90
        0
176
     1
 90
        0
176
     1
 40
0.6
176
     1
 40
30.0
176
     1
 62
     7
420
 16777215
176
     1
 90
        1
176
     1
 90
        4
176
     1
 62
     7
176
     1
 62
   257
176
     1
 90
        1
176
     1
 90
        1
176
     1
 40
1.0
176
     1
 90
       12
176
     1
 62
     7
176
     1
 40
1.0
176
     1
 90
        1
176
     1
 90
        6
176
     1
 90
        2
176
     1
 62
     7
176
     1
 90
        5
176
     1
 90
        0
176
     1
 90
        0
176
     1
290
     0
176
     1
 90
        1
176
     1
 40
0.0
176
     1
 90
        0
176
     1
290
     0
176
     1
290
     1
176
     1
290
     1
176
     1
290
     0
176
     1
290
     0
176
     1
290
     0
176
     1
290
     0
176
     1
290
     0
176
     1
290
     0
176
     1
 90
       50
176
     1
 40
0.0
176
     1
 40
1.0
176
     1
 90
        0
176
     1
 62
    18
420
        0
176
     1
 90
       50
176
     1
 90
        3
176
     1
 62
     5
420
      255
176
     1
290
     0
176
     1
 90
       50
176
     1
 90
       50
176
     1
 90
       50
176
     1
290
     0
176
     1
 90
       50
176
     1
 62
   256
176
     0
 40
1.0
176
     0
 90
        2
176
     1
  1
strokes_ogs.tif
176
     1
290
     0
176
     1
 40
1.0
176
     1
 40
1.0
176
     1
  0
VISUALSTYLE
  5
34B0
102
{ACAD_REACTORS
330
3469
102
}
330
3469
100
AcDbVisualStyle
  2
Wireframe
 70
     5
177
     3
291
     0
 70
    58
 90
        0
176
     1
 90
        2
176
     1
 90
        0
176
     1
 90
        0
176
     1
 40
0.6
176
     1
 40
30.0
176
     1
 62
     7
420
 16777215
176
     1
 90
        1
176
     1
 90
        4
176
     1
 62
     7
176
     1
 62
   257
176
     1
 90
        1
176
     1
 90
        1
176
     1
 40
1.0
176
     1
 90
        0
176
     1
 62
   257
176
     1
 40
1.0
176
     1
 90
        1
176
     1
 90
        6
176
     1
 90
        2
176
     1
 62
     7
176
     1
 90
        3
176
     1
 90
        0
176
     1
 90
        0
176
     1
290
     0
176
     1
 90
        1
176
     1
 40
0.0
176
     1
 90
        0
176
     1
290
     0
176
     1
290
     1
176
     1
290
     1
176
     1
290
     0
176
     1
290
     0
176
     1
290
     0
176
     1
290
     0
176
     1
290
     0
176
     1
290
     0
176
     1
 90
       50
176
     1
 40
0.0
176
     1
 40
1.0
176
     1
 90
        0
176
     1
 62
    18
420
        0
176
     1
 90
       50
176
     1
 90
        3
176
     1
 62
     5
420
      255
176
     1
290
     0
176
     1
 90
       50
176
     1
 90
       50
176
     1
 90
       50
176
     1
290
     0
176
     1
 90
       50
176
     1
 62
   256
176
     0
 40
1.0
176
     0
 90
        2
176
     1
  1
strokes_ogs.tif
176
     1
290
     0
176
     1
 40
1.0
176
     1
 40
1.0
176
     1
  0
VISUALSTYLE
  5
34B4
102
{ACAD_REACTORS
330
3469
102
}
330
3469
100
AcDbVisualStyle
  2
X-Ray
 70
    25
177
     3
291
     0
 70
    58
 90
        2
176
     1
 90
        2
176
     1
 90
        1
176
     1
 90
        1
176
     1
 40
0.5
176
     1
 40
30.0
176
     1
 62
     7
420
 16777215
176
     1
 90
        1
176
     1
 90
        0
176
     1
 62
     7
176
     1
 62
   257
176
     1
 90
        1
176
     1
 90
        1
176
     1
 40
1.0
176
     1
 90
        8
176
     1
 62
     7
176
     1
 40
1.0
176
     1
 90
        1
176
     1
 90
        6
176
     1
 90
        2
176
     1
 62
     7
176
     1
 90
        3
176
     1
 90
        0
176
     1
 90
        0
176
     1
290
     0
176
     1
 90
       13
176
     1
 40
0.0
176
     1
 90
        0
176
     1
290
     0
176
     1
290
     1
176
     1
290
     1
176
     1
290
     0
176
     1
290
     0
176
     1
290
     0
176
     1
290
     0
176
     1
290
     0
176
     1
290
     0
176
     1
 90
       50
176
     1
 40
0.0
176
     1
 40
1.0
176
     1
 90
        0
176
     1
 62
    18
420
        0
176
     1
 90
       50
176
     1
 90
        3
176
     1
 62
     5
420
      255
176
     1
290
     0
176
     1
 90
       50
176
     1
 90
       50
176
     1
 90
       50
176
     1
290
     0
176
     1
 90
       50
176
     1
 62
   256
176
     0
 40
1.0
176
     0
 90
        2
176
     1
  1
strokes_ogs.tif
176
     1
290
     0
176
     1
 40
1.0
176
     1
 40
1.0
176
     1
  0
DICTIONARYVAR
  5
361C
102
{ACAD_REACTORS
330
5E
102
}
330
5E
100
DictionaryVariables
280
     0
  1
1:1
  0
DICTIONARYVAR
  5
3618
102
{ACAD_REACTORS
330
5E
102
}
330
5E
100
DictionaryVariables
280
     0
  1
STANDARD
  0
DICTIONARYVAR
  5
348A
102
{ACAD_REACTORS
330
5E
102
}
330
5E
100
DictionaryVariables
280
     0
  1
STANDARD
  0
DICTIONARYVAR
  5
3619
102
{ACAD_REACTORS
330
5E
102
}
330
5E
100
DictionaryVariables
280
     0
  1
Metric50
  0
DICTIONARYVAR
  5
361A
102
{ACAD_REACTORS
330
5E
102
}
330
5E
100
DictionaryVariables
280
     0
  1
Metric50
  0
DICTIONARYVAR
  5
5F
102
{ACAD_REACTORS
330
5E
102
}
330
5E
100
DictionaryVariables
280
     0
  1
2
  0
DICTIONARYVAR
  5
63
102
{ACAD_REACTORS
330
5E
102
}
330
5E
100
DictionaryVariables
280
     0
  1
1
  0
DICTIONARYVAR
  5
361E
102
{ACAD_REACTORS
330
5E
102
}
330
5E
100
DictionaryVariables
280
     0
  1
1
  0
DICTIONARYVAR
  5
361F
102
{ACAD_REACTORS
330
5E
102
}
330
5E
100
DictionaryVariables
280
     0
  1
15
  0
DICTIONARYVAR
  5
361D
102
{ACAD_REACTORS
330
5E
102
}
330
5E
100
DictionaryVariables
280
     0
  1
0
  0
DICTIONARYVAR
  5
361B
102
{ACAD_REACTORS
330
5E
102
}
330
5E
100
DictionaryVariables
280
     0
  1
0
  0
ACAD_PROXY_OBJECT
  5
3493
102
{ACAD_REACTORS
330
3492
102
}
330
3492
100
AcDbProxyObject
 90
      499
 91
      508
 71
    27
 97
        1
 70
     0
162
                 0
161
               224
310
00013FFFD0C4040800000000000004402826564C4F2D52202E20302900
 94
        0
  0
DICTIONARY
  5
3623
330
347B
100
AcDbDictionary
280
     1
281
     1
  3
ACAD_ROUNDTRIP_2008_TABLESTYLE_CELLSTYLEMAP
360
3624
  0
CELLSTYLEMAP
  5
3624
102
{ACAD_REACTORS
330
3623
102
}
330
3623
100
AcDbCellStyleMap
 90
        3
300
CELLSTYLE
  1
TABLEFORMAT_BEGIN
 90
        5
170
     1
 91
        0
 92
    32768
 62
   257
 93
        1
300
CONTENTFORMAT
  1
CONTENTFORMAT_BEGIN
 90
        0
 91
        0
 92
      512
 93
        0
300

 40
0.0
140
1.0
 94
        5
 62
     0
340
11
144
6.0
309
CONTENTFORMAT_END
171
     1
301
MARGIN
  1
CELLMARGIN_BEGIN
 40
1.5
 40
1.5
 40
1.5
 40
1.5
 40
0.18
 40
0.18
309
CELLMARGIN_END
 94
        6
 95
        1
302
GRIDFORMAT
  1
GRIDFORMAT_BEGIN
 90
        0
 91
        1
 62
     0
 92
       -2
340
0
 93
        0
 40
0.045
309
GRIDFORMAT_END
 95
        2
302
GRIDFORMAT
  1
GRIDFORMAT_BEGIN
 90
        0
 91
        1
 62
     0
 92
       -2
340
0
 93
        0
 40
0.045
309
GRIDFORMAT_END
 95
        4
302
GRIDFORMAT
  1
GRIDFORMAT_BEGIN
 90
        0
 91
        1
 62
     0
 92
       -2
340
0
 93
        0
 40
0.045
309
GRIDFORMAT_END
 95
        8
302
GRIDFORMAT
  1
GRIDFORMAT_BEGIN
 90
        0
 91
        1
 62
     0
 92
       -2
340
0
 93
        0
 40
0.045
309
GRIDFORMAT_END
 95
       16
302
GRIDFORMAT
  1
GRIDFORMAT_BEGIN
 90
        0
 91
        1
 62
     0
 92
       -2
340
0
 93
        0
 40
0.045
309
GRIDFORMAT_END
 95
       32
302
GRIDFORMAT
  1
GRIDFORMAT_BEGIN
 90
        0
 91
        1
 62
     0
 92
       -2
340
0
 93
        0
 40
0.045
309
GRIDFORMAT_END
309
TABLEFORMAT_END
  1
CELLSTYLE_BEGIN
 90
        1
 91
        1
300
_TITLE
309
CELLSTYLE_END
300
CELLSTYLE
  1
TABLEFORMAT_BEGIN
 90
        5
170
     1
 91
        0
 92
        0
 62
   257
 93
        1
300
CONTENTFORMAT
  1
CONTENTFORMAT_BEGIN
 90
        0
 91
        0
 92
      512
 93
        0
300

 40
0.0
140
1.0
 94
        5
 62
     0
340
11
144
4.5
309
CONTENTFORMAT_END
171
     1
301
MARGIN
  1
CELLMARGIN_BEGIN
 40
1.5
 40
1.5
 40
1.5
 40
1.5
 40
0.18
 40
0.18
309
CELLMARGIN_END
 94
        6
 95
        1
302
GRIDFORMAT
  1
GRIDFORMAT_BEGIN
 90
        0
 91
        1
 62
     0
 92
       -2
340
0
 93
        0
 40
0.045
309
GRIDFORMAT_END
 95
        2
302
GRIDFORMAT
  1
GRIDFORMAT_BEGIN
 90
        0
 91
        1
 62
     0
 92
       -2
340
0
 93
        0
 40
0.045
309
GRIDFORMAT_END
 95
        4
302
GRIDFORMAT
  1
GRIDFORMAT_BEGIN
 90
        0
 91
        1
 62
     0
 92
       -2
340
0
 93
        0
 40
0.045
309
GRIDFORMAT_END
 95
        8
302
GRIDFORMAT
  1
GRIDFORMAT_BEGIN
 90
        0
 91
        1
 62
     0
 92
       -2
340
0
 93
        0
 40
0.045
309
GRIDFORMAT_END
 95
       16
302
GRIDFORMAT
  1
GRIDFORMAT_BEGIN
 90
        0
 91
        1
 62
     0
 92
       -2
340
0
 93
        0
 40
0.045
309
GRIDFORMAT_END
 95
       32
302
GRIDFORMAT
  1
GRIDFORMAT_BEGIN
 90
        0
 91
        1
 62
     0
 92
       -2
340
0
 93
        0
 40
0.045
309
GRIDFORMAT_END
309
TABLEFORMAT_END
  1
CELLSTYLE_BEGIN
 90
        2
 91
        1
300
_HEADER
309
CELLSTYLE_END
300
CELLSTYLE
  1
TABLEFORMAT_BEGIN
 90
        5
170
     1
 91
        0
 92
        0
 62
   257
 93
        1
300
CONTENTFORMAT
  1
CONTENTFORMAT_BEGIN
 90
        0
 91
        0
 92
      512
 93
        0
300

 40
0.0
140
1.0
 94
        2
 62
     0
340
11
144
4.5
309
CONTENTFORMAT_END
171
     1
301
MARGIN
  1
CELLMARGIN_BEGIN
 40
1.5
 40
1.5
 40
1.5
 40
1.5
 40
0.18
 40
0.18
309
CELLMARGIN_END
 94
        6
 95
        1
302
GRIDFORMAT
  1
GRIDFORMAT_BEGIN
 90
        0
 91
        1
 62
     0
 92
       -2
340
0
 93
        0
 40
0.045
309
GRIDFORMAT_END
 95
        2
302
GRIDFORMAT
  1
GRIDFORMAT_BEGIN
 90
        0
 91
        1
 62
     0
 92
       -2
340
0
 93
        0
 40
0.045
309
GRIDFORMAT_END
 95
        4
302
GRIDFORMAT
  1
GRIDFORMAT_BEGIN
 90
        0
 91
        1
 62
     0
 92
       -2
340
0
 93
        0
 40
0.045
309
GRIDFORMAT_END
 95
        8
302
GRIDFORMAT
  1
GRIDFORMAT_BEGIN
 90
        0
 91
        1
 62
     0
 92
       -2
340
0
 93
        0
 40
0.045
309
GRIDFORMAT_END
 95
       16
302
GRIDFORMAT
  1
GRIDFORMAT_BEGIN
 90
        0
 91
        1
 62
     0
 92
       -2
340
0
 93
        0
 40
0.045
309
GRIDFORMAT_END
 95
       32
302
GRIDFORMAT
  1
GRIDFORMAT_BEGIN
 90
        0
 91
        1
 62
     0
 92
       -2
340
0
 93
        0
 40
0.045
309
GRIDFORMAT_END
309
TABLEFORMAT_END
  1
CELLSTYLE_BEGIN
 90
        3
 91
        2
300
_DATA
309
CELLSTYLE_END
  0
ENDSEC
  0
EOF
