  0
SECTION
  2
HEADER
  9
$ACADVER
  1
AC1032
  9
$ACADMAINTVER
 90
        4
  9
$DWGCODEPAGE
  3
ANSI_1252
  9
$LASTSAVEDBY
  1
Siqi
  9
$REQUIREDVERSIONS
160
                 0
  9
$INSBASE
 10
0.0
 20
0.0
 30
0.0
  9
$EXTMIN
 10
-26298.31388331548
 20
1578.644199945962
 30
0.0
  9
$EXTMAX
 10
-24684.76107667627
 20
3438.559615218567
 30
0.0
  9
$LIMMIN
 10
0.0
 20
0.0
  9
$LIMMAX
 10
420.0
 20
297.0
  9
$ORTHOMODE
 70
     0
  9
$REGENMODE
 70
     1
  9
$FILLMODE
 70
     1
  9
$QTEXTMODE
 70
     0
  9
$MIRRTEXT
 70
     0
  9
$LTSCALE
 40
1.0
  9
$ATTMODE
 70
     1
  9
$TEXTSIZE
 40
2.5
  9
$TRACEWID
 40
1.0
  9
$TEXTSTYLE
  7
Standard
  9
$CLAYER
  8
0
  9
$CELTYPE
  6
ByLayer
  9
$CECOLOR
 62
     0
  9
$CELTSCALE
 40
1.0
  9
$DISPSILH
 70
     0
  9
$DIMSCALE
 40
1.0
  9
$DIMASZ
 40
15.0
  9
$DIMEXO
 40
1.0
  9
$DIMDLI
 40
3.75
  9
$DIMRND
 40
0.0
  9
$DIMDLE
 40
0.0
  9
$DIMEXE
 40
1.25
  9
$DIMTP
 40
0.0
  9
$DIMTM
 40
0.0
  9
$DIMTXT
 40
25.0
  9
$DIMCEN
 40
0.5
  9
$DIMTSZ
 40
0.0
  9
$DIMTOL
 70
     0
  9
$DIMLIM
 70
     0
  9
$DIMTIH
 70
     0
  9
$DIMTOH
 70
     0
  9
$DIMSE1
 70
     0
  9
$DIMSE2
 70
     0
  9
$DIMTAD
 70
     1
  9
$DIMZIN
 70
     8
  9
$DIMBLK
  1

  9
$DIMASO
 70
     1
  9
$DIMSHO
 70
     1
  9
$DIMPOST
  1

  9
$DIMAPOST
  1

  9
$DIMALT
 70
     0
  9
$DIMALTD
 70
     3
  9
$DIMALTF
 40
0.03937007874016
  9
$DIMLFAC
 40
1.0
  9
$DIMTOFL
 70
     1
  9
$DIMTVP
 40
0.0
  9
$DIMTIX
 70
     0
  9
$DIMSOXD
 70
     0
  9
$DIMSAH
 70
     0
  9
$DIMBLK1
  1

  9
$DIMBLK2
  1

  9
$DIMSTYLE
  2
ISO-25
  9
$DIMCLRD
 70
     0
  9
$DIMCLRE
 70
     0
  9
$DIMCLRT
 70
     0
  9
$DIMTFAC
 40
1.0
  9
$DIMGAP
 40
3.0
  9
$DIMJUST
 70
     0
  9
$DIMSD1
 70
     0
  9
$DIMSD2
 70
     0
  9
$DIMTOLJ
 70
     0
  9
$DIMTZIN
 70
     8
  9
$DIMALTZ
 70
     0
  9
$DIMALTTZ
 70
     0
  9
$DIMUPT
 70
     0
  9
$DIMDEC
 70
     2
  9
$DIMTDEC
 70
     2
  9
$DIMALTU
 70
     2
  9
$DIMALTTD
 70
     3
  9
$DIMTXSTY
  7
Standard
  9
$DIMAUNIT
 70
     0
  9
$DIMADEC
 70
     2
  9
$DIMALTRND
 40
0.0
  9
$DIMAZIN
 70
     0
  9
$DIMDSEP
 70
    44
  9
$DIMATFIT
 70
     3
  9
$DIMFRAC
 70
     0
  9
$DIMLDRBLK
  1

  9
$DIMLUNIT
 70
     2
  9
$DIMLWD
 70
    -2
  9
$DIMLWE
 70
    -2
  9
$DIMTMOVE
 70
     0
  9
$DIMFXL
 40
1.0
  9
$DIMFXLON
 70
     0
  9
$DIMJOGANG
 40
0.7853981633974483
  9
$DIMTFILL
 70
     0
  9
$DIMTFILLCLR
 70
     0
  9
$DIMARCSYM
 70
     0
  9
$DIMLTYPE
  6

  9
$DIMLTEX1
  6

  9
$DIMLTEX2
  6

  9
$DIMTXTDIRECTION
 70
     0
  9
$LUNITS
 70
     2
  9
$LUPREC
 70
     4
  9
$SKETCHINC
 40
1.0
  9
$FILLETRAD
 40
65.0
  9
$AUNITS
 70
     0
  9
$AUPREC
 70
     0
  9
$MENU
  1
.
  9
$ELEVATION
 40
0.0
  9
$PELEVATION
 40
0.0
  9
$THICKNESS
 40
0.0
  9
$LIMCHECK
 70
     0
  9
$CHAMFERA
 40
0.0
  9
$CHAMFERB
 40
0.0
  9
$CHAMFERC
 40
0.0
  9
$CHAMFERD
 40
0.0
  9
$SKPOLY
 70
     0
  9
$TDCREATE
 40
2453649.060439815
  9
$TDUCREATE
 40
2453649.352115521
  9
$TDUPDATE
 40
2457974.424907408
  9
$TDUUPDATE
 40
2457974.716574074
  9
$TDINDWG
 40
1.2184932060
  9
$TDUSRTIMER
 40
1.2184885069
  9
$USRTIMER
 70
     1
  9
$ANGBASE
 50
0.0
  9
$ANGDIR
 70
     0
  9
$PDMODE
 70
     0
  9
$PDSIZE
 40
0.0
  9
$PLINEWID
 40
0.0
  9
$SPLFRAME
 70
     0
  9
$SPLINETYPE
 70
     6
  9
$SPLINESEGS
 70
     8
  9
$HANDSEED
  5
68E9
  9
$SURFTAB1
 70
     6
  9
$SURFTAB2
 70
     6
  9
$SURFTYPE
 70
     6
  9
$SURFU
 70
     6
  9
$SURFV
 70
     6
  9
$UCSBASE
  2

  9
$UCSNAME
  2

  9
$UCSORG
 10
0.0
 20
0.0
 30
0.0
  9
$UCSXDIR
 10
1.0
 20
0.0
 30
0.0
  9
$UCSYDIR
 10
0.0
 20
1.0
 30
0.0
  9
$UCSORTHOREF
  2

  9
$UCSORTHOVIEW
 70
     0
  9
$UCSORGTOP
 10
0.0
 20
0.0
 30
0.0
  9
$UCSORGBOTTOM
 10
0.0
 20
0.0
 30
0.0
  9
$UCSORGLEFT
 10
0.0
 20
0.0
 30
0.0
  9
$UCSORGRIGHT
 10
0.0
 20
0.0
 30
0.0
  9
$UCSORGFRONT
 10
0.0
 20
0.0
 30
0.0
  9
$UCSORGBACK
 10
0.0
 20
0.0
 30
0.0
  9
$PUCSBASE
  2

  9
$PUCSNAME
  2

  9
$PUCSORG
 10
0.0
 20
0.0
 30
0.0
  9
$PUCSXDIR
 10
1.0
 20
0.0
 30
0.0
  9
$PUCSYDIR
 10
0.0
 20
1.0
 30
0.0
  9
$PUCSORTHOREF
  2

  9
$PUCSORTHOVIEW
 70
     0
  9
$PUCSORGTOP
 10
0.0
 20
0.0
 30
0.0
  9
$PUCSORGBOTTOM
 10
0.0
 20
0.0
 30
0.0
  9
$PUCSORGLEFT
 10
0.0
 20
0.0
 30
0.0
  9
$PUCSORGRIGHT
 10
0.0
 20
0.0
 30
0.0
  9
$PUCSORGFRONT
 10
0.0
 20
0.0
 30
0.0
  9
$PUCSORGBACK
 10
0.0
 20
0.0
 30
0.0
  9
$USERI1
 70
     0
  9
$USERI2
 70
     0
  9
$USERI3
 70
     0
  9
$USERI4
 70
     0
  9
$USERI5
 70
     0
  9
$USERR1
 40
0.0
  9
$USERR2
 40
0.0
  9
$USERR3
 40
0.0
  9
$USERR4
 40
0.0
  9
$USERR5
 40
2.5
  9
$WORLDVIEW
 70
     1
  9
$SHADEDGE
 70
     3
  9
$SHADEDIF
 70
    70
  9
$TILEMODE
 70
     1
  9
$MAXACTVP
 70
    64
  9
$PINSBASE
 10
0.0
 20
0.0
 30
0.0
  9
$PLIMCHECK
 70
     0
  9
$PEXTMIN
 10
0.0
 20
0.0
 30
0.0
  9
$PEXTMAX
 10
0.0
 20
0.0
 30
0.0
  9
$PLIMMIN
 10
0.0
 20
0.0
  9
$PLIMMAX
 10
12.0
 20
9.0
  9
$UNITMODE
 70
     0
  9
$VISRETAIN
 70
     1
  9
$PLINEGEN
 70
     0
  9
$PSLTSCALE
 70
     1
  9
$TREEDEPTH
 70
  3020
  9
$CMLSTYLE
  2
Standard
  9
$CMLJUST
 70
     0
  9
$CMLSCALE
 40
20.0
  9
$PROXYGRAPHICS
 70
     1
  9
$MEASUREMENT
 70
     1
  9
$CELWEIGHT
370
    -1
  9
$ENDCAPS
280
     0
  9
$JOINSTYLE
280
     0
  9
$LWDISPLAY
290
     0
  9
$INSUNITS
 70
     4
  9
$HYPERLINKBASE
  1

  9
$STYLESHEET
  1

  9
$XEDIT
290
     1
  9
$CEPSNTYPE
380
     0
  9
$PSTYLEMODE
290
     1
  9
$FINGERPRINTGUID
  2
{FDEAD578-A652-11D2-9A35-0060089B3A3F}
  9
$VERSIONGUID
  2
{F6933432-844A-594A-B332-49CA6E020204}
  9
$EXTNAMES
290
     1
  9
$PSVPSCALE
 40
0.0
  9
$OLESTARTUP
290
     0
  9
$SORTENTS
280
   127
  9
$INDEXCTL
280
     0
  9
$HIDETEXT
280
     1
  9
$XCLIPFRAME
280
     0
  9
$HALOGAP
280
     0
  9
$OBSCOLOR
 70
   257
  9
$OBSLTYPE
280
     0
  9
$INTERSECTIONDISPLAY
280
     0
  9
$INTERSECTIONCOLOR
 70
   257
  9
$DIMASSOC
280
     2
  9
$PROJECTNAME
  1

  9
$CAMERADISPLAY
290
     0
  9
$LENSLENGTH
 40
50.0
  9
$CAMERAHEIGHT
 40
0.0
  9
$STEPSPERSEC
 40
2.0
  9
$STEPSIZE
 40
6.0
  9
$3DDWFPREC
 40
2.0
  9
$PSOLWIDTH
 40
0.25
  9
$PSOLHEIGHT
 40
4.0
  9
$LOFTANG1
 40
1.570796326794896
  9
$LOFTANG2
 40
1.570796326794896
  9
$LOFTMAG1
 40
0.0
  9
$LOFTMAG2
 40
0.0
  9
$LOFTPARAM
 70
     7
  9
$LOFTNORMALS
280
     1
  9
$LATITUDE
 40
37.795
  9
$LONGITUDE
 40
-122.394
  9
$NORTHDIRECTION
 40
0.0
  9
$TIMEZONE
 70
 -8000
  9
$LIGHTGLYPHDISPLAY
280
     1
  9
$TILEMODELIGHTSYNCH
280
     1
  9
$CMATERIAL
347
61F3
  9
$SOLIDHIST
280
     1
  9
$SHOWHIST
280
     1
  9
$DWFFRAME
280
     2
  9
$DGNFRAME
280
     0
  9
$REALWORLDSCALE
290
     1
  9
$INTERFERECOLOR
 62
     1
  9
$INTERFEREOBJVS
345
6200
  9
$INTERFEREVPVS
346
6270
  9
$CSHADOW
280
     0
  9
$SHADOWPLANELOCATION
 40
0.0
  0
ENDSEC
  0
SECTION
  2
CLASSES
  0
CLASS
  1
ACDBDICTIONARYWDFLT
  2
AcDbDictionaryWithDefault
  3
ObjectDBX Classes
 90
        0
 91
        1
280
     0
281
     0
  0
CLASS
  1
ACDBPLACEHOLDER
  2
AcDbPlaceHolder
  3
ObjectDBX Classes
 90
        0
 91
        1
280
     0
281
     0
  0
CLASS
  1
LAYOUT
  2
AcDbLayout
  3
ObjectDBX Classes
 90
        0
 91
        3
280
     0
281
     0
  0
CLASS
  1
DICTIONARYVAR
  2
AcDbDictionaryVar
  3
ObjectDBX Classes
 90
        0
 91
       12
280
     0
281
     0
  0
CLASS
  1
DIMASSOC
  2
AcDbDimAssoc
  3
"AcDbDimAssoc|Product Desc:     AcDim ARX App For Dimension|Company:          Autodesk, Inc.|WEB Address:      www.autodesk.com"
 90
        0
 91
       32
280
     0
281
     0
  0
CLASS
  1
MATERIAL
  2
AcDbMaterial
  3
ObjectDBX Classes
 90
     1153
 91
        3
280
     0
281
     0
  0
CLASS
  1
VISUALSTYLE
  2
AcDbVisualStyle
  3
ObjectDBX Classes
 90
     4095
 91
       26
280
     0
281
     0
  0
CLASS
  1
TABLESTYLE
  2
AcDbTableStyle
  3
ObjectDBX Classes
 90
     4095
 91
        1
280
     0
281
     0
  0
CLASS
  1
VLO-VL
  2
vlo_VL
  3
VL|AutoLISP based application
 90
      129
 91
        3
280
     0
281
     0
  0
CLASS
  1
SORTENTSTABLE
  2
AcDbSortentsTable
  3
ObjectDBX Classes
 90
        0
 91
        1
280
     0
281
     0
  0
CLASS
  1
SCALE
  2
AcDbScale
  3
ObjectDBX Classes
 90
     1153
 91
       17
280
     0
281
     0
  0
CLASS
  1
MLEADERSTYLE
  2
AcDbMLeaderStyle
  3
ACDB_MLEADERSTYLE_CLASS
 90
     4095
 91
        1
280
     0
281
     0
  0
CLASS
  1
ACDBSECTIONVIEWSTYLE
  2
AcDbSectionViewStyle
  3
ObjectDBX Classes
 90
     1025
 91
        1
280
     0
281
     0
  0
CLASS
  1
ACDBDETAILVIEWSTYLE
  2
AcDbDetailViewStyle
  3
ObjectDBX Classes
 90
     1025
 91
        1
280
     0
281
     0
  0
CLASS
  1
CELLSTYLEMAP
  2
AcDbCellStyleMap
  3
ObjectDBX Classes
 90
     1152
 91
        1
280
     0
281
     0
  0
ENDSEC
  0
SECTION
  2
TABLES
  0
TABLE
  2
VPORT
  5
8
330
0
100
AcDbSymbolTable
 70
     1
  0
VPORT
  5
61F1
330
8
100
AcDbSymbolTableRecord
100
AcDbViewportTableRecord
  2
*Active
 70
     0
 10
0.0
 20
0.0
 11
1.0
 21
1.0
 12
-25561.33160521976
 22
2461.290826997812
 13
0.0
 23
0.0
 14
10.0
 24
10.0
 15
10.0
 25
10.0
 16
0.0
 26
0.0
 36
1.0
 17
0.0
 27
0.0
 37
0.0
 40
1520.666578335162
 41
1.913595933926302
 42
50.0
 43
0.0
 44
0.0
 50
0.0
 51
0.0
 71
     0
 72
  1000
 73
     1
 74
     3
 75
     0
 76
     0
 77
     0
 78
     0
281
     0
 65
     1
110
0.0
120
0.0
130
0.0
111
1.0
121
0.0
131
0.0
112
0.0
122
1.0
132
0.0
 79
     0
146
0.0
348
61FC
 60
     3
 61
     5
292
     1
282
     1
141
0.0
142
0.0
 63
   250
421
  3355443
1001
ACAD_NAV_VCDISPLAY
1070
     3
  0
ENDTAB
  0
TABLE
  2
LTYPE
  5
5
330
0
100
AcDbSymbolTable
 70
     4
  0
LTYPE
  5
14
330
5
100
AcDbSymbolTableRecord
100
AcDbLinetypeTableRecord
  2
ByBlock
 70
     0
  3

 72
    65
 73
     0
 40
0.0
  0
LTYPE
  5
15
330
5
100
AcDbSymbolTableRecord
100
AcDbLinetypeTableRecord
  2
ByLayer
 70
     0
  3

 72
    65
 73
     0
 40
0.0
  0
LTYPE
  5
16
330
5
100
AcDbSymbolTableRecord
100
AcDbLinetypeTableRecord
  2
Continuous
 70
     0
  3
Solid line
 72
    65
 73
     0
 40
0.0
  0
LTYPE
  5
8F
330
5
100
AcDbSymbolTableRecord
100
AcDbLinetypeTableRecord
  2
ACAD_ISO02W100
 70
     0
  3
ISO dash __ __ __ __ __ __ __ __ __ __ __ __ __
 72
    65
 73
     2
 40
15.0
 49
12.0
 74
     0
 49
-3.0
 74
     0
  0
LTYPE
  5
2E41
330
5
100
AcDbSymbolTableRecord
100
AcDbLinetypeTableRecord
  2
CENTER
 70
     0
  3
Center ____ _ ____ _ ____ _ ____ _ ____ _ ____
 72
    65
 73
     4
 40
50.8
 49
31.75
 74
     0
 49
-6.349999999999999
 74
     0
 49
6.349999999999999
 74
     0
 49
-6.349999999999999
 74
     0
  0
ENDTAB
  0
TABLE
  2
LAYER
  5
2
102
{ACAD_XDICTIONARY
360
645E
102
}
330
0
100
AcDbSymbolTable
 70
    22
  0
LAYER
  5
10
102
{ACAD_XDICTIONARY
360
629C
102
}
330
2
100
AcDbSymbolTableRecord
100
AcDbLayerTableRecord
  2
0
 70
     0
 62
     7
  6
Continuous
370
    25
390
F
347
61F5
348
0
  0
LAYER
  5
84
102
{ACAD_XDICTIONARY
360
629E
102
}
330
2
100
AcDbSymbolTableRecord
100
AcDbLayerTableRecord
  2
base
 70
     0
 62
     4
  6
Continuous
370
    25
390
F
347
61F5
348
0
  0
LAYER
  5
1DA
330
2
100
AcDbSymbolTableRecord
100
AcDbLayerTableRecord
  2
Defpoints
 70
     0
 62
     7
  6
Continuous
290
     0
370
    -3
390
F
347
61F5
348
0
  0
LAYER
  5
2D93
102
{ACAD_XDICTIONARY
360
62A0
102
}
330
2
100
AcDbSymbolTableRecord
100
AcDbLayerTableRecord
  2
DIM
 70
     0
 62
     7
  6
Continuous
370
     5
390
F
347
61F5
348
0
  0
LAYER
  5
32FC
102
{ACAD_XDICTIONARY
360
62A2
102
}
330
2
100
AcDbSymbolTableRecord
100
AcDbLayerTableRecord
  2
1dim
 70
     0
 62
     7
  6
Continuous
370
    13
390
F
347
61F5
348
0
  0
LAYER
  5
32FD
102
{ACAD_XDICTIONARY
360
62A4
102
}
330
2
100
AcDbSymbolTableRecord
100
AcDbLayerTableRecord
  2
2上模板
 70
     0
 62
     2
  6
Continuous
370
    40
390
F
347
61F5
348
0
1001
AcadStringInfo
1000
MIFCodePage
1070
     5
  0
LAYER
  5
32FE
102
{ACAD_XDICTIONARY
360
62A6
102
}
330
2
100
AcDbSymbolTableRecord
100
AcDbLayerTableRecord
  2
3上夹板
 70
     0
 62
     3
  6
Continuous
370
    40
390
F
347
61F5
348
0
1001
AcadStringInfo
1000
MIFCodePage
1070
     5
  0
LAYER
  5
32FF
102
{ACAD_XDICTIONARY
360
62A8
102
}
330
2
100
AcDbSymbolTableRecord
100
AcDbLayerTableRecord
  2
4上冲头
 70
     0
 62
     4
  6
Continuous
370
    40
390
F
347
61F5
348
0
1001
AcadStringInfo
1000
MIFCodePage
1070
     5
  0
LAYER
  5
3300
102
{ACAD_XDICTIONARY
360
62AA
102
}
330
2
100
AcDbSymbolTableRecord
100
AcDbLayerTableRecord
  2
5脱料板
 70
     0
 62
     5
  6
Continuous
370
    40
390
F
347
61F5
348
0
1001
AcadStringInfo
1000
MIFCodePage
1070
     5
  0
LAYER
  5
3301
102
{ACAD_XDICTIONARY
360
62AC
102
}
330
2
100
AcDbSymbolTableRecord
100
AcDbLayerTableRecord
  2
6下模板
 70
     0
 62
     6
  6
Continuous
370
    40
390
F
347
61F5
348
0
1001
AcadStringInfo
1000
MIFCodePage
1070
     5
  0
LAYER
  5
3302
102
{ACAD_XDICTIONARY
360
62AE
102
}
330
2
100
AcDbSymbolTableRecord
100
AcDbLayerTableRecord
  2
7下垫板
 70
     0
 62
    43
  6
Continuous
370
    40
390
F
347
61F5
348
0
1001
AcadStringInfo
1000
MIFCodePage
1070
     5
  0
LAYER
  5
3303
102
{ACAD_XDICTIONARY
360
62B0
102
}
330
2
100
AcDbSymbolTableRecord
100
AcDbLayerTableRecord
  2
8下模板
 70
     0
 62
   115
  6
Continuous
370
    40
390
F
347
61F5
348
0
1001
AcadStringInfo
1000
MIFCodePage
1070
     5
  0
LAYER
  5
3304
102
{ACAD_XDICTIONARY
360
62B2
102
}
330
2
100
AcDbSymbolTableRecord
100
AcDbLayerTableRecord
  2
9下模芯
 70
     0
 62
   217
  6
Continuous
370
    40
390
F
347
61F5
348
0
1001
AcadStringInfo
1000
MIFCodePage
1070
     5
  0
LAYER
  5
3305
102
{ACAD_XDICTIONARY
360
62B4
102
}
330
2
100
AcDbSymbolTableRecord
100
AcDbLayerTableRecord
  2
2dim
 70
     0
 62
     7
  6
Continuous
370
    13
390
F
347
61F5
348
0
  0
LAYER
  5
3306
102
{ACAD_XDICTIONARY
360
62B6
102
}
330
2
100
AcDbSymbolTableRecord
100
AcDbLayerTableRecord
  2
3dim
 70
     0
 62
     7
  6
Continuous
370
    13
390
F
347
61F5
348
0
  0
LAYER
  5
3307
102
{ACAD_XDICTIONARY
360
62B8
102
}
330
2
100
AcDbSymbolTableRecord
100
AcDbLayerTableRecord
  2
4dim
 70
     0
 62
     7
  6
Continuous
370
    13
390
F
347
61F5
348
0
  0
LAYER
  5
3308
102
{ACAD_XDICTIONARY
360
62BA
102
}
330
2
100
AcDbSymbolTableRecord
100
AcDbLayerTableRecord
  2
5dim
 70
     0
 62
     7
  6
Continuous
370
    13
390
F
347
61F5
348
0
  0
LAYER
  5
3309
102
{ACAD_XDICTIONARY
360
62BC
102
}
330
2
100
AcDbSymbolTableRecord
100
AcDbLayerTableRecord
  2
6dim
 70
     0
 62
     7
  6
Continuous
370
    13
390
F
347
61F5
348
0
  0
LAYER
  5
330A
102
{ACAD_XDICTIONARY
360
62BE
102
}
330
2
100
AcDbSymbolTableRecord
100
AcDbLayerTableRecord
  2
7dim
 70
     0
 62
     7
  6
Continuous
370
    13
390
F
347
61F5
348
0
  0
LAYER
  5
330B
102
{ACAD_XDICTIONARY
360
62C0
102
}
330
2
100
AcDbSymbolTableRecord
100
AcDbLayerTableRecord
  2
8dim
 70
     0
 62
     7
  6
Continuous
370
    13
390
F
347
61F5
348
0
  0
LAYER
  5
330C
102
{ACAD_XDICTIONARY
360
62C2
102
}
330
2
100
AcDbSymbolTableRecord
100
AcDbLayerTableRecord
  2
9dim
 70
     0
 62
     7
  6
Continuous
370
    13
390
F
347
61F5
348
0
  0
LAYER
  5
330D
102
{ACAD_XDICTIONARY
360
62C4
102
}
330
2
100
AcDbSymbolTableRecord
100
AcDbLayerTableRecord
  2
1上模座
 70
     0
 62
     1
  6
Continuous
370
    40
390
F
347
61F5
348
0
1001
AcadStringInfo
1000
MIFCodePage
1070
     5
  0
ENDTAB
  0
TABLE
  2
STYLE
  5
3
330
0
100
AcDbSymbolTable
 70
     2
  0
STYLE
  5
11
330
3
100
AcDbSymbolTableRecord
100
AcDbTextStyleTableRecord
  2
Standard
 70
     0
 40
0.0
 41
1.0
 50
0.0
 71
     0
 42
2.5
  3
simhei.ttf
  4

1001
ACAD
1000
SimHei
1071
    34306
  0
STYLE
  5
2E40
330
3
100
AcDbSymbolTableRecord
100
AcDbTextStyleTableRecord
  2

 70
     1
 40
0.0
 41
1.0
 50
0.0
 71
     0
 42
2.5
  3
ltypeshp.shx
  4

  0
ENDTAB
  0
TABLE
  2
VIEW
  5
6
330
0
100
AcDbSymbolTable
 70
     2
  0
ENDTAB
  0
TABLE
  2
UCS
  5
7
330
0
100
AcDbSymbolTable
 70
     0
  0
ENDTAB
  0
TABLE
  2
APPID
  5
9
330
0
100
AcDbSymbolTable
 70
     5
  0
APPID
  5
12
330
9
100
AcDbSymbolTableRecord
100
AcDbRegAppTableRecord
  2
ACAD
 70
     0
  0
APPID
  5
6293
330
9
100
AcDbSymbolTableRecord
100
AcDbRegAppTableRecord
  2
AcadStringInfo
 70
     0
  0
APPID
  5
62C6
330
9
100
AcDbSymbolTableRecord
100
AcDbRegAppTableRecord
  2
ACAD_NAV_VCDISPLAY
 70
     0
  0
APPID
  5
6412
330
9
100
AcDbSymbolTableRecord
100
AcDbRegAppTableRecord
  2
AcadAnnoMonitorAlertIconDisabled
 70
     0
  0
APPID
  5
6413
330
9
100
AcDbSymbolTableRecord
100
AcDbRegAppTableRecord
  2
ACAD_EXEMPT_FROM_CAD_STANDARDS
 70
     0
  0
ENDTAB
  0
TABLE
  2
DIMSTYLE
  5
A
330
0
100
AcDbSymbolTable
 70
     1
100
AcDbDimStyleTable
 71
     1
340
27
  0
DIMSTYLE
105
27
102
{ACAD_REACTORS
330
3B66
330
3B95
330
3BB3
330
3BCB
330
3BE3
330
3C13
330
3C4F
330
3C67
330
3CAD
330
3CBF
330
3D57
330
3D78
330
3DAD
330
3EBC
330
3ED8
330
3EF0
330
3F22
330
3F49
330
3F60
330
3F7C
330
418D
330
4232
330
4259
330
4271
330
42C4
330
42DC
330
431C
330
4343
330
436A
330
4391
330
44E6
330
44FE
330
4516
330
452E
330
454A
330
557D
330
5669
330
567E
330
5691
330
56F9
330
3E05
330
5739
330
575D
330
68AC
102
}
330
A
100
AcDbSymbolTableRecord
100
AcDbDimStyleTableRecord
  2
ISO-25
 70
     0
 41
2.0
 42
1.0
 43
3.75
 44
1.25
 73
     0
 74
     0
 77
     1
 78
     8
140
3.0
141
2.5
143
0.03937007874016
147
5.0
171
     3
172
     1
271
     2
272
     2
274
     3
278
    44
283
     0
284
     8
340
11
  0
ENDTAB
  0
TABLE
  2
BLOCK_RECORD
  5
1
330
0
100
AcDbSymbolTable
 70
    45
  0
BLOCK_RECORD
  5
1F
102
{ACAD_XDICTIONARY
360
6239
102
}
330
1
100
AcDbSymbolTableRecord
100
AcDbBlockTableRecord
  2
*Model_Space
340
22
 70
     0
280
     1
281
     0
  0
BLOCK_RECORD
  5
50
330
1
100
AcDbSymbolTableRecord
100
AcDbBlockTableRecord
  2
*Paper_Space
340
51
 70
     0
280
     1
281
     0
  0
BLOCK_RECORD
  5
55
330
1
100
AcDbSymbolTableRecord
100
AcDbBlockTableRecord
  2
*Paper_Space0
340
56
 70
     0
280
     1
281
     0
  0
BLOCK_RECORD
  5
3B67
330
1
100
AcDbSymbolTableRecord
100
AcDbBlockTableRecord
  2
*D1
340
0
 70
     0
280
     1
281
     0
  0
BLOCK_RECORD
  5
3B96
330
1
100
AcDbSymbolTableRecord
100
AcDbBlockTableRecord
  2
*D2
340
0
 70
     0
280
     1
281
     0
  0
BLOCK_RECORD
  5
3BB4
330
1
100
AcDbSymbolTableRecord
100
AcDbBlockTableRecord
  2
*D3
340
0
 70
     0
280
     1
281
     0
  0
BLOCK_RECORD
  5
3BCC
330
1
100
AcDbSymbolTableRecord
100
AcDbBlockTableRecord
  2
*D4
340
0
 70
     0
280
     1
281
     0
  0
BLOCK_RECORD
  5
3BE4
330
1
100
AcDbSymbolTableRecord
100
AcDbBlockTableRecord
  2
*D5
340
0
 70
     0
280
     1
281
     0
  0
BLOCK_RECORD
  5
3C14
330
1
100
AcDbSymbolTableRecord
100
AcDbBlockTableRecord
  2
*D6
340
0
 70
     0
280
     1
281
     0
  0
BLOCK_RECORD
  5
3C50
330
1
100
AcDbSymbolTableRecord
100
AcDbBlockTableRecord
  2
*D7
340
0
 70
     0
280
     1
281
     0
  0
BLOCK_RECORD
  5
3C68
330
1
100
AcDbSymbolTableRecord
100
AcDbBlockTableRecord
  2
*D8
340
0
 70
     0
280
     1
281
     0
  0
BLOCK_RECORD
  5
3CAE
330
1
100
AcDbSymbolTableRecord
100
AcDbBlockTableRecord
  2
*D9
340
0
 70
     0
280
     1
281
     0
  0
BLOCK_RECORD
  5
3CC0
330
1
100
AcDbSymbolTableRecord
100
AcDbBlockTableRecord
  2
*D10
340
0
 70
     0
280
     1
281
     0
  0
BLOCK_RECORD
  5
3D58
330
1
100
AcDbSymbolTableRecord
100
AcDbBlockTableRecord
  2
*D11
340
0
 70
     0
280
     1
281
     0
  0
BLOCK_RECORD
  5
3D79
330
1
100
AcDbSymbolTableRecord
100
AcDbBlockTableRecord
  2
*D12
340
0
 70
     0
280
     1
281
     0
  0
BLOCK_RECORD
  5
3DAE
330
1
100
AcDbSymbolTableRecord
100
AcDbBlockTableRecord
  2
*D13
340
0
 70
     0
280
     1
281
     0
  0
BLOCK_RECORD
  5
3E06
330
1
100
AcDbSymbolTableRecord
100
AcDbBlockTableRecord
  2
*D14
340
0
 70
     0
280
     1
281
     0
  0
BLOCK_RECORD
  5
3EBD
330
1
100
AcDbSymbolTableRecord
100
AcDbBlockTableRecord
  2
*D15
340
0
 70
     0
280
     1
281
     0
  0
BLOCK_RECORD
  5
3ED9
330
1
100
AcDbSymbolTableRecord
100
AcDbBlockTableRecord
  2
*D16
340
0
 70
     0
280
     1
281
     0
  0
BLOCK_RECORD
  5
3EF1
330
1
100
AcDbSymbolTableRecord
100
AcDbBlockTableRecord
  2
*D17
340
0
 70
     0
280
     1
281
     0
  0
BLOCK_RECORD
  5
3F23
330
1
100
AcDbSymbolTableRecord
100
AcDbBlockTableRecord
  2
*D18
340
0
 70
     0
280
     1
281
     0
  0
BLOCK_RECORD
  5
3F4A
330
1
100
AcDbSymbolTableRecord
100
AcDbBlockTableRecord
  2
*D19
340
0
 70
     0
280
     1
281
     0
  0
BLOCK_RECORD
  5
3F61
330
1
100
AcDbSymbolTableRecord
100
AcDbBlockTableRecord
  2
*D20
340
0
 70
     0
280
     1
281
     0
  0
BLOCK_RECORD
  5
3F7D
330
1
100
AcDbSymbolTableRecord
100
AcDbBlockTableRecord
  2
*D21
340
0
 70
     0
280
     1
281
     0
  0
BLOCK_RECORD
  5
418E
330
1
100
AcDbSymbolTableRecord
100
AcDbBlockTableRecord
  2
*D22
340
0
 70
     0
280
     1
281
     0
  0
BLOCK_RECORD
  5
4233
330
1
100
AcDbSymbolTableRecord
100
AcDbBlockTableRecord
  2
*D23
340
0
 70
     0
280
     1
281
     0
  0
BLOCK_RECORD
  5
425A
330
1
100
AcDbSymbolTableRecord
100
AcDbBlockTableRecord
  2
*D24
340
0
 70
     0
280
     1
281
     0
  0
BLOCK_RECORD
  5
4272
330
1
100
AcDbSymbolTableRecord
100
AcDbBlockTableRecord
  2
*D25
340
0
 70
     0
280
     1
281
     0
  0
BLOCK_RECORD
  5
42C5
330
1
100
AcDbSymbolTableRecord
100
AcDbBlockTableRecord
  2
*D26
340
0
 70
     0
280
     1
281
     0
  0
BLOCK_RECORD
  5
42DD
330
1
100
AcDbSymbolTableRecord
100
AcDbBlockTableRecord
  2
*D27
340
0
 70
     0
280
     1
281
     0
  0
BLOCK_RECORD
  5
431D
330
1
100
AcDbSymbolTableRecord
100
AcDbBlockTableRecord
  2
*D28
340
0
 70
     0
280
     1
281
     0
  0
BLOCK_RECORD
  5
4344
330
1
100
AcDbSymbolTableRecord
100
AcDbBlockTableRecord
  2
*D29
340
0
 70
     0
280
     1
281
     0
  0
BLOCK_RECORD
  5
436B
330
1
100
AcDbSymbolTableRecord
100
AcDbBlockTableRecord
  2
*D30
340
0
 70
     0
280
     1
281
     0
  0
BLOCK_RECORD
  5
4392
330
1
100
AcDbSymbolTableRecord
100
AcDbBlockTableRecord
  2
*D31
340
0
 70
     0
280
     1
281
     0
  0
BLOCK_RECORD
  5
44E7
330
1
100
AcDbSymbolTableRecord
100
AcDbBlockTableRecord
  2
*D32
340
0
 70
     0
280
     1
281
     0
  0
BLOCK_RECORD
  5
44FF
330
1
100
AcDbSymbolTableRecord
100
AcDbBlockTableRecord
  2
*D33
340
0
 70
     0
280
     1
281
     0
  0
BLOCK_RECORD
  5
4517
330
1
100
AcDbSymbolTableRecord
100
AcDbBlockTableRecord
  2
*D34
340
0
 70
     0
280
     1
281
     0
  0
BLOCK_RECORD
  5
452F
330
1
100
AcDbSymbolTableRecord
100
AcDbBlockTableRecord
  2
*D35
340
0
 70
     0
280
     1
281
     0
  0
BLOCK_RECORD
  5
454B
330
1
100
AcDbSymbolTableRecord
100
AcDbBlockTableRecord
  2
*D36
340
0
 70
     0
280
     1
281
     0
  0
BLOCK_RECORD
  5
557E
330
1
100
AcDbSymbolTableRecord
100
AcDbBlockTableRecord
  2
*D37
340
0
 70
     0
280
     1
281
     0
  0
BLOCK_RECORD
  5
566A
330
1
100
AcDbSymbolTableRecord
100
AcDbBlockTableRecord
  2
*D38
340
0
 70
     0
280
     1
281
     0
  0
BLOCK_RECORD
  5
567F
330
1
100
AcDbSymbolTableRecord
100
AcDbBlockTableRecord
  2
*D39
340
0
 70
     0
280
     1
281
     0
  0
BLOCK_RECORD
  5
5692
330
1
100
AcDbSymbolTableRecord
100
AcDbBlockTableRecord
  2
*D40
340
0
 70
     0
280
     1
281
     0
  0
BLOCK_RECORD
  5
56FA
330
1
100
AcDbSymbolTableRecord
100
AcDbBlockTableRecord
  2
*D41
340
0
 70
     0
280
     1
281
     0
  0
BLOCK_RECORD
  5
573A
330
1
100
AcDbSymbolTableRecord
100
AcDbBlockTableRecord
  2
*D42
340
0
 70
     0
280
     1
281
     0
  0
BLOCK_RECORD
  5
575E
330
1
100
AcDbSymbolTableRecord
100
AcDbBlockTableRecord
  2
*D43
340
0
 70
     0
280
     1
281
     0
  0
BLOCK_RECORD
  5
68AD
330
1
100
AcDbSymbolTableRecord
100
AcDbBlockTableRecord
  2
*D44
340
0
 70
     0
280
     1
281
     0
  0
ENDTAB
  0
ENDSEC
  0
SECTION
  2
BLOCKS
  0
BLOCK
  5
20
330
1F
100
AcDbEntity
  8
0
100
AcDbBlockBegin
  2
*Model_Space
 70
     0
 10
0.0
 20
0.0
 30
0.0
  3
*Model_Space
  1

  0
ENDBLK
  5
21
330
1F
100
AcDbEntity
  8
0
100
AcDbBlockEnd
  0
BLOCK
  5
52
330
50
100
AcDbEntity
 67
     1
  8
0
100
AcDbBlockBegin
  2
*Paper_Space
 70
     0
 10
0.0
 20
0.0
 30
0.0
  3
*Paper_Space
  1

  0
ENDBLK
  5
53
330
50
100
AcDbEntity
 67
     1
  8
0
100
AcDbBlockEnd
  0
BLOCK
  5
57
330
55
100
AcDbEntity
 67
     1
  8
0
100
AcDbBlockBegin
  2
*Paper_Space0
 70
     0
 10
0.0
 20
0.0
 30
0.0
  3
*Paper_Space0
  1

  0
ENDBLK
  5
58
330
55
100
AcDbEntity
 67
     1
  8
0
100
AcDbBlockEnd
  0
BLOCK
  5
3B71
330
3B67
100
AcDbEntity
  8
0
100
AcDbBlockBegin
  2
*D1
 70
     1
 10
0.0
 20
0.0
 30
0.0
  3
*D1
  1

  0
LINE
  5
66E7
330
3B67
100
AcDbEntity
  8
DIM
 62
     0
440
 16777216
370
    -2
100
AcDbLine
 10
-26089.5646966004
 20
2200.966414814393
 30
0.0
 11
-26089.5646966004
 21
2026.993620777546
 31
0.0
  0
LINE
  5
66E8
330
3B67
100
AcDbEntity
  8
DIM
 62
     0
440
 16777216
370
    -2
100
AcDbLine
 10
-25454.5646966004
 20
2200.966414814393
 30
0.0
 11
-25454.5646966004
 21
2026.993620777546
 31
0.0
  0
LINE
  5
66E9
330
3B67
100
AcDbEntity
  8
DIM
 62
     0
440
 16777216
370
    -2
100
AcDbLine
 10
-26074.5646966004
 20
2028.243620777546
 30
0.0
 11
-25469.5646966004
 21
2028.243620777546
 31
0.0
  0
SOLID
  5
66EA
330
3B67
100
AcDbEntity
  8
DIM
 62
     0
440
 16777216
100
AcDbTrace
 10
-26074.5646966004
 20
2030.743620777546
 30
0.0
 11
-26074.5646966004
 21
2025.743620777546
 31
0.0
 12
-26089.5646966004
 22
2028.243620777546
 32
0.0
 13
-26089.5646966004
 23
2028.243620777546
 33
0.0
  0
SOLID
  5
66EB
330
3B67
100
AcDbEntity
  8
DIM
 62
     0
440
 16777216
100
AcDbTrace
 10
-25469.5646966004
 20
2030.743620777546
 30
0.0
 11
-25469.5646966004
 21
2025.743620777546
 31
0.0
 12
-25454.5646966004
 22
2028.243620777546
 32
0.0
 13
-25454.5646966004
 23
2028.243620777546
 33
0.0
  0
MTEXT
  5
66EC
330
3B67
100
AcDbEntity
  8
DIM
 62
     0
440
 16777216
100
AcDbMText
 10
-25772.0646966004
 20
2046.903733137097
 30
0.0
 40
25.0
 41
0.0
 46
0.0
 71
     5
 72
     1
  1
635{\fSimHei|b0|i0|c134|p49; [25"]}
 73
     1
 44
1.0
  0
POINT
  5
66ED
330
3B67
100
AcDbEntity
  8
Defpoints
 62
     0
440
 16777216
100
AcDbPoint
 10
-26089.5646966004
 20
2201.966414814393
 30
0.0
  0
POINT
  5
66EE
330
3B67
100
AcDbEntity
  8
Defpoints
 62
     0
440
 16777216
100
AcDbPoint
 10
-25454.5646966004
 20
2201.966414814393
 30
0.0
  0
POINT
  5
66EF
330
3B67
100
AcDbEntity
  8
Defpoints
 62
     0
440
 16777216
100
AcDbPoint
 10
-25454.5646966004
 20
2028.243620777546
 30
0.0
  0
ENDBLK
  5
3B72
330
3B67
100
AcDbEntity
  8
0
100
AcDbBlockEnd
  0
BLOCK
  5
3B9D
330
3B96
100
AcDbEntity
  8
0
100
AcDbBlockBegin
  2
*D2
 70
     1
 10
0.0
 20
0.0
 30
0.0
  3
*D2
  1

  0
LINE
  5
66F6
330
3B96
100
AcDbEntity
  8
DIM
 62
     0
440
 16777216
370
    -2
100
AcDbLine
 10
-25311.62823566576
 20
1985.841519579817
 30
0.0
 11
-25458.54264102243
 21
2161.327766531618
 31
0.0
  0
MTEXT
  5
66F7
330
3B96
100
AcDbEntity
  8
DIM
 62
     0
440
 16777216
100
AcDbMText
 10
-25365.96303910011
 20
2079.812294332451
 30
0.0
 40
25.0
 41
0.0
 46
0.0
 71
     5
 72
     1
  1
{\fSimHei|b0|i0|c134|p49;4-}R38{\fSimHei|b0|i0|c134|p49; [1.5"]}
 11
0.6419255769426141
 21
-0.7667669487314201
 31
0.0
 73
     1
 44
1.0
  0
LINE
  5
66F8
330
3B96
100
AcDbEntity
  8
DIM
 62
     0
440
 16777216
370
    -2
100
AcDbLine
 10
-25492.5646966004
 20
2201.966414814402
 30
0.0
 11
-25468.17152467657
 21
2172.82927076259
 31
0.0
  0
SOLID
  5
66F9
330
3B96
100
AcDbEntity
  8
DIM
 62
     0
440
 16777216
100
AcDbTrace
 10
-25456.62572365061
 20
2162.932580473975
 30
0.0
 11
-25460.45955839427
 21
2159.722952589262
 31
0.0
 12
-25468.17152467657
 22
2172.82927076259
 32
0.0
 13
-25468.17152467657
 23
2172.82927076259
 33
0.0
  0
POINT
  5
66FA
330
3B96
100
AcDbEntity
  8
Defpoints
 62
     0
440
 16777216
100
AcDbPoint
 10
-25468.17152467657
 20
2172.82927076259
 30
0.0
  0
POINT
  5
66FB
330
3B96
100
AcDbEntity
  8
Defpoints
 62
     0
440
 16777216
100
AcDbPoint
 10
-25492.5646966004
 20
2201.966414814402
 30
0.0
  0
ENDBLK
  5
3B9E
330
3B96
100
AcDbEntity
  8
0
100
AcDbBlockEnd
  0
BLOCK
  5
3BBE
330
3BB4
100
AcDbEntity
  8
0
100
AcDbBlockBegin
  2
*D3
 70
     1
 10
0.0
 20
0.0
 30
0.0
  3
*D3
  1

  0
LINE
  5
6641
330
3BB4
100
AcDbEntity
  8
DIM
 62
     0
440
 16777216
370
    -2
100
AcDbLine
 10
-25928.56469660042
 20
2213.966414814388
 30
0.0
 11
-26169.08848356747
 21
2213.966414814388
 31
0.0
  0
LINE
  5
6642
330
3BB4
100
AcDbEntity
  8
DIM
 62
     0
440
 16777216
370
    -2
100
AcDbLine
 10
-25928.56469660044
 20
2613.966414814394
 30
0.0
 11
-26169.08848356747
 21
2613.966414814394
 31
0.0
  0
LINE
  5
6643
330
3BB4
100
AcDbEntity
  8
DIM
 62
     0
440
 16777216
370
    -2
100
AcDbLine
 10
-26167.83848356747
 20
2228.966414814388
 30
0.0
 11
-26167.83848356747
 21
2598.966414814394
 31
0.0
  0
SOLID
  5
6644
330
3BB4
100
AcDbEntity
  8
DIM
 62
     0
440
 16777216
100
AcDbTrace
 10
-26170.33848356747
 20
2228.966414814388
 30
0.0
 11
-26165.33848356747
 21
2228.966414814388
 31
0.0
 12
-26167.83848356747
 22
2213.966414814388
 32
0.0
 13
-26167.83848356747
 23
2213.966414814388
 33
0.0
  0
SOLID
  5
6645
330
3BB4
100
AcDbEntity
  8
DIM
 62
     0
440
 16777216
100
AcDbTrace
 10
-26170.33848356747
 20
2598.966414814394
 30
0.0
 11
-26165.33848356747
 21
2598.966414814394
 31
0.0
 12
-26167.83848356747
 22
2613.966414814394
 32
0.0
 13
-26167.83848356747
 23
2613.966414814394
 33
0.0
  0
MTEXT
  5
6646
330
3BB4
100
AcDbEntity
  8
DIM
 62
     0
440
 16777216
100
AcDbMText
 10
-26186.49859592701
 20
2413.966414814399
 30
0.0
 40
25.0
 41
0.0
 46
0.0
 71
     5
 72
     1
  1
400{\fSimHei|b0|i0|c134|p49; [15.75"]}
 11
0.0000000000000001
 21
1.0
 31
0.0
 73
     1
 44
1.0
  0
POINT
  5
6647
330
3BB4
100
AcDbEntity
  8
Defpoints
 62
     0
440
 16777216
100
AcDbPoint
 10
-25927.56469660042
 20
2213.966414814388
 30
0.0
  0
POINT
  5
6648
330
3BB4
100
AcDbEntity
  8
Defpoints
 62
     0
440
 16777216
100
AcDbPoint
 10
-25927.56469660044
 20
2613.966414814394
 30
0.0
  0
POINT
  5
6649
330
3BB4
100
AcDbEntity
  8
Defpoints
 62
     0
440
 16777216
100
AcDbPoint
 10
-26167.83848356747
 20
2613.966414814394
 30
0.0
  0
ENDBLK
  5
3BBF
330
3BB4
100
AcDbEntity
  8
0
100
AcDbBlockEnd
  0
BLOCK
  5
3BD6
330
3BCC
100
AcDbEntity
  8
0
100
AcDbBlockBegin
  2
*D4
 70
     1
 10
0.0
 20
0.0
 30
0.0
  3
*D4
  1

  0
LINE
  5
681E
330
3BCC
100
AcDbEntity
  8
DIM
 62
     0
440
 16777216
370
    -2
100
AcDbLine
 10
-26052.56469660041
 20
2099.397001100129
 30
0.0
 11
-26167.83848356777
 21
2099.397001100129
 31
0.0
  0
LINE
  5
681F
330
3BCC
100
AcDbEntity
  8
DIM
 62
     0
440
 16777216
370
    -2
100
AcDbLine
 10
-26051.20159008393
 20
2149.397001100123
 30
0.0
 11
-26167.83848356777
 21
2149.397001100123
 31
0.0
  0
LINE
  5
6820
330
3BCC
100
AcDbEntity
  8
DIM
 62
     0
440
 16777216
370
    -2
100
AcDbLine
 10
-26166.58848356777
 20
2114.397001100128
 30
0.0
 11
-26166.58848356777
 21
2134.397001100123
 31
0.0
  0
LINE
  5
6821
330
3BCC
100
AcDbEntity
  8
DIM
 62
     0
440
 16777216
370
    -2
100
AcDbLine
 10
-26166.58848356777
 20
2149.397001100123
 30
0.0
 11
-26166.58848356777
 21
2227.840821324843
 31
0.0
  0
SOLID
  5
6822
330
3BCC
100
AcDbEntity
  8
DIM
 62
     0
440
 16777216
100
AcDbTrace
 10
-26169.08848356777
 20
2114.397001100128
 30
0.0
 11
-26164.08848356777
 21
2114.397001100128
 31
0.0
 12
-26166.58848356777
 22
2099.397001100129
 32
0.0
 13
-26166.58848356777
 23
2099.397001100129
 33
0.0
  0
SOLID
  5
6823
330
3BCC
100
AcDbEntity
  8
DIM
 62
     0
440
 16777216
100
AcDbTrace
 10
-26169.08848356777
 20
2134.397001100123
 30
0.0
 11
-26164.08848356777
 21
2134.397001100123
 31
0.0
 12
-26166.58848356777
 22
2149.397001100123
 32
0.0
 13
-26166.58848356777
 23
2149.397001100123
 33
0.0
  0
MTEXT
  5
6824
330
3BCC
100
AcDbEntity
  8
DIM
 62
     0
440
 16777216
100
AcDbMText
 10
-26206.15215397975
 20
2196.11891121249
 30
0.0
 40
25.0
 41
32.6174792681195
 46
0.0
 71
     5
 72
     1
  1
50{\fSimHei|b0|i0|c134|p49; [2"]}
 11
0.0000000000000001
 21
1.0
 31
0.0
 73
     1
 44
1.0
  0
POINT
  5
6825
330
3BCC
100
AcDbEntity
  8
Defpoints
 62
     0
440
 16777216
100
AcDbPoint
 10
-26051.56469660041
 20
2099.397001100129
 30
0.0
  0
POINT
  5
6826
330
3BCC
100
AcDbEntity
  8
Defpoints
 62
     0
440
 16777216
100
AcDbPoint
 10
-26050.20159008393
 20
2149.397001100123
 30
0.0
  0
POINT
  5
6827
330
3BCC
100
AcDbEntity
  8
Defpoints
 62
     0
440
 16777216
100
AcDbPoint
 10
-26166.58848356777
 20
2149.397001100123
 30
0.0
  0
ENDBLK
  5
3BD7
330
3BCC
100
AcDbEntity
  8
0
100
AcDbBlockEnd
  0
BLOCK
  5
3BEE
330
3BE4
100
AcDbEntity
  8
0
100
AcDbBlockBegin
  2
*D5
 70
     1
 10
0.0
 20
0.0
 30
0.0
  3
*D5
  1

  0
LINE
  5
662F
330
3BE4
100
AcDbEntity
  8
DIM
 62
     0
440
 16777216
370
    -2
100
AcDbLine
 10
-26052.56469660041
 20
2721.966414814394
 30
0.0
 11
-26243.87963446832
 21
2721.966414814394
 31
0.0
  0
LINE
  5
6630
330
3BE4
100
AcDbEntity
  8
DIM
 62
     0
440
 16777216
370
    -2
100
AcDbLine
 10
-26133.49786601598
 20
2163.966414814394
 30
0.0
 11
-26243.87963446832
 21
2163.966414814394
 31
0.0
  0
LINE
  5
6631
330
3BE4
100
AcDbEntity
  8
DIM
 62
     0
440
 16777216
370
    -2
100
AcDbLine
 10
-26242.62963446832
 20
2706.966414814394
 30
0.0
 11
-26242.62963446832
 21
2178.966414814394
 31
0.0
  0
SOLID
  5
6632
330
3BE4
100
AcDbEntity
  8
DIM
 62
     0
440
 16777216
100
AcDbTrace
 10
-26245.12963446832
 20
2706.966414814394
 30
0.0
 11
-26240.12963446832
 21
2706.966414814394
 31
0.0
 12
-26242.62963446832
 22
2721.966414814394
 32
0.0
 13
-26242.62963446832
 23
2721.966414814394
 33
0.0
  0
SOLID
  5
6633
330
3BE4
100
AcDbEntity
  8
DIM
 62
     0
440
 16777216
100
AcDbTrace
 10
-26245.12963446832
 20
2178.966414814394
 30
0.0
 11
-26240.12963446832
 21
2178.966414814394
 31
0.0
 12
-26242.62963446832
 22
2163.966414814394
 32
0.0
 13
-26242.62963446832
 23
2163.966414814394
 33
0.0
  0
MTEXT
  5
6634
330
3BE4
100
AcDbEntity
  8
DIM
 62
     0
440
 16777216
100
AcDbMText
 10
-26261.28974682786
 20
2442.966414814402
 30
0.0
 40
25.0
 41
0.0
 46
0.0
 71
     5
 72
     1
  1
558{\fSimHei|b0|i0|c134|p49; [22"]}
 11
0.0000000000000001
 21
1.0
 31
0.0
 73
     1
 44
1.0
  0
POINT
  5
6635
330
3BE4
100
AcDbEntity
  8
Defpoints
 62
     0
440
 16777216
100
AcDbPoint
 10
-26051.56469660041
 20
2721.966414814394
 30
0.0
  0
POINT
  5
6636
330
3BE4
100
AcDbEntity
  8
Defpoints
 62
     0
440
 16777216
100
AcDbPoint
 10
-26132.49786601598
 20
2163.966414814394
 30
0.0
  0
POINT
  5
6637
330
3BE4
100
AcDbEntity
  8
Defpoints
 62
     0
440
 16777216
100
AcDbPoint
 10
-26242.62963446832
 20
2163.966414814394
 30
0.0
  0
ENDBLK
  5
3BEF
330
3BE4
100
AcDbEntity
  8
0
100
AcDbBlockEnd
  0
BLOCK
  5
3C1E
330
3C14
100
AcDbEntity
  8
0
100
AcDbBlockBegin
  2
*D6
 70
     1
 10
0.0
 20
0.0
 30
0.0
  3
*D6
  1

  0
LINE
  5
65ED
330
3C14
100
AcDbEntity
  8
DIM
 62
     0
440
 16777216
370
    -2
100
AcDbLine
 10
-25875.58337115932
 20
2689.542118843244
 30
0.0
 11
-25875.58337115932
 21
2777.134667209357
 31
0.0
  0
LINE
  5
65EE
330
3C14
100
AcDbEntity
  8
DIM
 62
     0
440
 16777216
370
    -2
100
AcDbLine
 10
-25773.98337115932
 20
2722.966414814393
 30
0.0
 11
-25773.98337115932
 21
2777.134667209357
 31
0.0
  0
LINE
  5
65EF
330
3C14
100
AcDbEntity
  8
DIM
 62
     0
440
 16777216
370
    -2
100
AcDbLine
 10
-25860.58337115932
 20
2775.884667209357
 30
0.0
 11
-25788.98337115932
 21
2775.884667209357
 31
0.0
  0
MTEXT
  5
65F0
330
3C14
100
AcDbEntity
  8
DIM
 62
     0
440
 16777216
100
AcDbMText
 10
-25814.5540560238
 20
2792.999835748683
 30
0.0
 40
25.0
 41
0.0
 46
0.0
 71
     5
 72
     1
  1
{\fSimHei|b0|i0|c134|p49;3-}101,6{\fSimHei|b0|i0|c134|p49; [4"]}
 73
     1
 44
1.0
  0
SOLID
  5
65F1
330
3C14
100
AcDbEntity
  8
DIM
 62
     0
440
 16777216
100
AcDbTrace
 10
-25860.58337115932
 20
2778.384667209357
 30
0.0
 11
-25860.58337115932
 21
2773.384667209357
 31
0.0
 12
-25875.58337115932
 22
2775.884667209357
 32
0.0
 13
-25875.58337115932
 23
2775.884667209357
 33
0.0
  0
SOLID
  5
65F2
330
3C14
100
AcDbEntity
  8
DIM
 62
     0
440
 16777216
100
AcDbTrace
 10
-25788.98337115932
 20
2778.384667209357
 30
0.0
 11
-25788.98337115932
 21
2773.384667209357
 31
0.0
 12
-25773.98337115932
 22
2775.884667209357
 32
0.0
 13
-25773.98337115932
 23
2775.884667209357
 33
0.0
  0
POINT
  5
65F3
330
3C14
100
AcDbEntity
  8
Defpoints
 62
     0
440
 16777216
100
AcDbPoint
 10
-25875.58337115932
 20
2688.542118843244
 30
0.0
  0
POINT
  5
65F4
330
3C14
100
AcDbEntity
  8
Defpoints
 62
     0
440
 16777216
100
AcDbPoint
 10
-25773.98337115932
 20
2721.966414814393
 30
0.0
  0
POINT
  5
65F5
330
3C14
100
AcDbEntity
  8
Defpoints
 62
     0
440
 16777216
100
AcDbPoint
 10
-25773.98337115932
 20
2775.884667209357
 30
0.0
  0
ENDBLK
  5
3C1F
330
3C14
100
AcDbEntity
  8
0
100
AcDbBlockEnd
  0
BLOCK
  5
3C5A
330
3C50
100
AcDbEntity
  8
0
100
AcDbBlockBegin
  2
*D7
 70
     1
 10
0.0
 20
0.0
 30
0.0
  3
*D7
  1

  0
LINE
  5
6536
330
3C50
100
AcDbEntity
  8
DIM
 62
     0
440
 16777216
370
    -2
100
AcDbLine
 10
-25924.5646966004
 20
2700.966414814393
 30
0.0
 11
-25924.5646966004
 21
2824.078951907475
 31
0.0
  0
LINE
  5
6537
330
3C50
100
AcDbEntity
  8
DIM
 62
     0
440
 16777216
370
    -2
100
AcDbLine
 10
-25619.5646966004
 20
2700.966414814393
 30
0.0
 11
-25619.5646966004
 21
2824.078951907475
 31
0.0
  0
LINE
  5
6538
330
3C50
100
AcDbEntity
  8
DIM
 62
     0
440
 16777216
370
    -2
100
AcDbLine
 10
-25909.5646966004
 20
2822.828951907475
 30
0.0
 11
-25634.5646966004
 21
2822.828951907475
 31
0.0
  0
SOLID
  5
6539
330
3C50
100
AcDbEntity
  8
DIM
 62
     0
440
 16777216
100
AcDbTrace
 10
-25909.5646966004
 20
2825.328951907475
 30
0.0
 11
-25909.5646966004
 21
2820.328951907475
 31
0.0
 12
-25924.5646966004
 22
2822.828951907475
 32
0.0
 13
-25924.5646966004
 23
2822.828951907475
 33
0.0
  0
SOLID
  5
653A
330
3C50
100
AcDbEntity
  8
DIM
 62
     0
440
 16777216
100
AcDbTrace
 10
-25634.5646966004
 20
2825.328951907475
 30
0.0
 11
-25634.5646966004
 21
2820.328951907475
 31
0.0
 12
-25619.5646966004
 22
2822.828951907475
 32
0.0
 13
-25619.5646966004
 23
2822.828951907475
 33
0.0
  0
MTEXT
  5
653B
330
3C50
100
AcDbEntity
  8
DIM
 62
     0
440
 16777216
100
AcDbMText
 10
-25772.0646966004
 20
2841.489064267026
 30
0.0
 40
25.0
 41
0.0
 46
0.0
 71
     5
 72
     1
  1
305{\fSimHei|b0|i0|c134|p49; [12"]}
 73
     1
 44
1.0
  0
POINT
  5
653C
330
3C50
100
AcDbEntity
  8
Defpoints
 62
     0
440
 16777216
100
AcDbPoint
 10
-25924.5646966004
 20
2699.966414814393
 30
0.0
  0
POINT
  5
653D
330
3C50
100
AcDbEntity
  8
Defpoints
 62
     0
440
 16777216
100
AcDbPoint
 10
-25619.5646966004
 20
2699.966414814393
 30
0.0
  0
POINT
  5
653E
330
3C50
100
AcDbEntity
  8
Defpoints
 62
     0
440
 16777216
100
AcDbPoint
 10
-25619.5646966004
 20
2822.828951907475
 30
0.0
  0
ENDBLK
  5
3C5B
330
3C50
100
AcDbEntity
  8
0
100
AcDbBlockEnd
  0
BLOCK
  5
3C72
330
3C68
100
AcDbEntity
  8
0
100
AcDbBlockBegin
  2
*D8
 70
     1
 10
0.0
 20
0.0
 30
0.0
  3
*D8
  1

  0
LINE
  5
6524
330
3C68
100
AcDbEntity
  8
DIM
 62
     0
440
 16777216
370
    -2
100
AcDbLine
 10
-25927.0646966004
 20
2692.966414814393
 30
0.0
 11
-25927.0646966004
 21
2872.099379470667
 31
0.0
  0
LINE
  5
6525
330
3C68
100
AcDbEntity
  8
DIM
 62
     0
440
 16777216
370
    -2
100
AcDbLine
 10
-25617.0646966004
 20
2692.966414814393
 30
0.0
 11
-25617.0646966004
 21
2872.099379470667
 31
0.0
  0
LINE
  5
6526
330
3C68
100
AcDbEntity
  8
DIM
 62
     0
440
 16777216
370
    -2
100
AcDbLine
 10
-25912.0646966004
 20
2870.849379470667
 30
0.0
 11
-25632.0646966004
 21
2870.849379470667
 31
0.0
  0
SOLID
  5
6527
330
3C68
100
AcDbEntity
  8
DIM
 62
     0
440
 16777216
100
AcDbTrace
 10
-25912.0646966004
 20
2873.349379470667
 30
0.0
 11
-25912.0646966004
 21
2868.349379470667
 31
0.0
 12
-25927.0646966004
 22
2870.849379470667
 32
0.0
 13
-25927.0646966004
 23
2870.849379470667
 33
0.0
  0
SOLID
  5
6528
330
3C68
100
AcDbEntity
  8
DIM
 62
     0
440
 16777216
100
AcDbTrace
 10
-25632.0646966004
 20
2873.349379470667
 30
0.0
 11
-25632.0646966004
 21
2868.349379470667
 31
0.0
 12
-25617.0646966004
 22
2870.849379470667
 32
0.0
 13
-25617.0646966004
 23
2870.849379470667
 33
0.0
  0
MTEXT
  5
6529
330
3C68
100
AcDbEntity
  8
DIM
 62
     0
440
 16777216
100
AcDbMText
 10
-25772.0646966004
 20
2889.509491830217
 30
0.0
 40
25.0
 41
0.0
 46
0.0
 71
     5
 72
     1
  1
310{\fSimHei|b0|i0|c134|p49; [12.2"]}
 73
     1
 44
1.0
  0
POINT
  5
652A
330
3C68
100
AcDbEntity
  8
Defpoints
 62
     0
440
 16777216
100
AcDbPoint
 10
-25927.0646966004
 20
2691.966414814393
 30
0.0
  0
POINT
  5
652B
330
3C68
100
AcDbEntity
  8
Defpoints
 62
     0
440
 16777216
100
AcDbPoint
 10
-25617.0646966004
 20
2691.966414814393
 30
0.0
  0
POINT
  5
652C
330
3C68
100
AcDbEntity
  8
Defpoints
 62
     0
440
 16777216
100
AcDbPoint
 10
-25617.0646966004
 20
2870.849379470667
 30
0.0
  0
ENDBLK
  5
3C73
330
3C68
100
AcDbEntity
  8
0
100
AcDbBlockEnd
  0
BLOCK
  5
3CB5
330
3CAE
100
AcDbEntity
  8
0
100
AcDbBlockBegin
  2
*D9
 70
     1
 10
0.0
 20
0.0
 30
0.0
  3
*D9
  1

  0
LINE
  5
6181
330
3CAE
100
AcDbEntity
  8
DIM
 62
     0
440
 16777216
370
    -2
100
AcDbLine
 10
-25617.20525465795
 20
2502.418573607493
 30
0.0
 11
-25632.21854530905
 21
2609.803541049217
 31
0.0
  0
MTEXT
  5
6182
330
3CAE
100
AcDbEntity
  8
DIM
 62
     0
440
 16777216
100
AcDbMText
 10
-25608.32273775362
 20
2550.829451379126
 30
0.0
 40
25.0
 41
0.0
 46
0.0
 71
     5
 72
     1
  1
2-R20
 11
0.1384614654671819
 21
-0.9903678218625039
 31
0.0
 73
     1
 44
1.0
  0
LINE
  5
6183
330
3CAE
100
AcDbEntity
  8
DIM
 62
     0
440
 16777216
370
    -2
100
AcDbLine
 10
-25637.0646966004
 20
2644.466414814396
 30
0.0
 11
-25634.29546729106
 21
2624.659058377155
 31
0.0
  0
SOLID
  5
6184
330
3CAE
100
AcDbEntity
  8
DIM
 62
     0
440
 16777216
100
AcDbTrace
 10
-25629.7426257544
 20
2610.149694712885
 30
0.0
 11
-25634.69446486371
 21
2609.457387385549
 31
0.0
 12
-25634.29546729106
 22
2624.659058377155
 32
0.0
 13
-25634.29546729106
 23
2624.659058377155
 33
0.0
  0
POINT
  5
6185
330
3CAE
100
AcDbEntity
  8
Defpoints
 62
     0
440
 16777216
100
AcDbPoint
 10
-25634.29546729106
 20
2624.659058377155
 30
0.0
  0
POINT
  5
6186
330
3CAE
100
AcDbEntity
  8
Defpoints
 62
     0
440
 16777216
100
AcDbPoint
 10
-25637.0646966004
 20
2644.466414814396
 30
0.0
  0
ENDBLK
  5
3CB6
330
3CAE
100
AcDbEntity
  8
0
100
AcDbBlockEnd
  0
BLOCK
  5
3CC9
330
3CC0
100
AcDbEntity
  8
0
100
AcDbBlockBegin
  2
*D10
 70
     1
 10
0.0
 20
0.0
 30
0.0
  3
*D10
  1

  0
LINE
  5
661E
330
3CC0
100
AcDbEntity
  8
DIM
 62
     0
440
 16777216
370
    -2
100
AcDbLine
 10
-25422.63389776815
 20
2799.262048845087
 30
0.0
 11
-25543.82321452695
 21
2687.960548924928
 31
0.0
  0
LINE
  5
661F
330
3CC0
100
AcDbEntity
  8
DIM
 62
     0
440
 16777216
370
    -2
100
AcDbLine
 10
-25593.90617867387
 20
2641.963845757649
 30
0.0
 11
-25604.95389135335
 21
2631.817514176634
 31
0.0
  0
MTEXT
  5
6620
330
3CC0
100
AcDbEntity
  8
DIM
 62
     0
440
 16777216
100
AcDbMText
 10
-25487.86925561676
 20
2793.531462477433
 30
0.0
 40
25.0
 41
10.84071744433234
 46
0.0
 71
     5
 72
     1
  1
{\fSimHei|b0|i0|c134|p49;4-\Ftxt|c0;%%C\fArial|b0|i0|c0|p34;38 [1.5"]}
 11
0.7365141786311666
 21
0.6764221054011009
 31
0.0
 73
     1
 44
1.0
  0
LINE
  5
6621
330
3CC0
100
AcDbEntity
  8
DIM
 62
     0
440
 16777216
370
    -2
100
AcDbLine
 10
-25582.85846599441
 20
2652.110177338667
 30
0.0
 11
-25554.87092720643
 21
2677.81421734391
 31
0.0
  0
SOLID
  5
6622
330
3CC0
100
AcDbEntity
  8
DIM
 62
     0
440
 16777216
100
AcDbTrace
 10
-25595.59723393738
 20
2643.805131204228
 30
0.0
 11
-25592.21512341038
 21
2640.122560311072
 31
0.0
 12
-25582.85846599441
 22
2652.110177338667
 32
0.0
 13
-25582.85846599441
 23
2652.110177338667
 33
0.0
  0
SOLID
  5
6623
330
3CC0
100
AcDbEntity
  8
DIM
 62
     0
440
 16777216
100
AcDbTrace
 10
-25545.51426979046
 20
2689.801834371507
 30
0.0
 11
-25542.13215926345
 21
2686.119263478351
 31
0.0
 12
-25554.87092720643
 22
2677.81421734391
 32
0.0
 13
-25554.87092720643
 23
2677.81421734391
 33
0.0
  0
POINT
  5
6624
330
3CC0
100
AcDbEntity
  8
Defpoints
 62
     0
440
 16777216
100
AcDbPoint
 10
-25554.87092720643
 20
2677.81421734391
 30
0.0
  0
POINT
  5
6625
330
3CC0
100
AcDbEntity
  8
Defpoints
 62
     0
440
 16777216
100
AcDbPoint
 10
-25582.85846599441
 20
2652.110177338667
 30
0.0
  0
ENDBLK
  5
3CCA
330
3CC0
100
AcDbEntity
  8
0
100
AcDbBlockEnd
  0
BLOCK
  5
3D62
330
3D58
100
AcDbEntity
  8
0
100
AcDbBlockBegin
  2
*D11
 70
     1
 10
0.0
 20
0.0
 30
0.0
  3
*D11
  1

  0
LINE
  5
6719
330
3D58
100
AcDbEntity
  8
DIM
 62
     0
440
 16777216
370
    -2
100
AcDbLine
 10
-25506.56469660041
 20
2502.966414814399
 30
0.0
 11
-25540.09346274995
 21
2502.966414814399
 31
0.0
  0
LINE
  5
671A
330
3D58
100
AcDbEntity
  8
DIM
 62
     0
440
 16777216
370
    -2
100
AcDbLine
 10
-25506.56469660042
 20
2324.966414814389
 30
0.0
 11
-25540.09346274995
 21
2324.966414814389
 31
0.0
  0
LINE
  5
671B
330
3D58
100
AcDbEntity
  8
DIM
 62
     0
440
 16777216
370
    -2
100
AcDbLine
 10
-25538.84346274995
 20
2487.966414814399
 30
0.0
 11
-25538.84346274995
 21
2339.966414814389
 31
0.0
  0
SOLID
  5
671C
330
3D58
100
AcDbEntity
  8
DIM
 62
     0
440
 16777216
100
AcDbTrace
 10
-25541.34346274995
 20
2487.966414814399
 30
0.0
 11
-25536.34346274995
 21
2487.966414814399
 31
0.0
 12
-25538.84346274995
 22
2502.966414814399
 32
0.0
 13
-25538.84346274995
 23
2502.966414814399
 33
0.0
  0
SOLID
  5
671D
330
3D58
100
AcDbEntity
  8
DIM
 62
     0
440
 16777216
100
AcDbTrace
 10
-25541.34346274995
 20
2339.966414814389
 30
0.0
 11
-25536.34346274995
 21
2339.966414814389
 31
0.0
 12
-25538.84346274995
 22
2324.966414814389
 32
0.0
 13
-25538.84346274995
 23
2324.966414814389
 33
0.0
  0
MTEXT
  5
671E
330
3D58
100
AcDbEntity
  8
DIM
 62
     0
440
 16777216
100
AcDbMText
 10
-25557.50357510949
 20
2413.9664148144
 30
0.0
 40
25.0
 41
0.0
 46
0.0
 71
     5
 72
     1
  1
{\fSimHei|b0|i0|c134|p49;2-}178{\fSimHei|b0|i0|c134|p49; [7"]}
 11
0.0000000000000001
 21
1.0
 31
0.0
 73
     1
 44
1.0
  0
POINT
  5
671F
330
3D58
100
AcDbEntity
  8
Defpoints
 62
     0
440
 16777216
100
AcDbPoint
 10
-25505.56469660041
 20
2502.966414814399
 30
0.0
  0
POINT
  5
6720
330
3D58
100
AcDbEntity
  8
Defpoints
 62
     0
440
 16777216
100
AcDbPoint
 10
-25505.56469660041
 20
2324.966414814389
 30
0.0
  0
POINT
  5
6721
330
3D58
100
AcDbEntity
  8
Defpoints
 62
     0
440
 16777216
100
AcDbPoint
 10
-25538.84346274995
 20
2324.966414814389
 30
0.0
  0
ENDBLK
  5
3D63
330
3D58
100
AcDbEntity
  8
0
100
AcDbBlockEnd
  0
BLOCK
  5
3D83
330
3D79
100
AcDbEntity
  8
0
100
AcDbBlockBegin
  2
*D12
 70
     1
 10
0.0
 20
0.0
 30
0.0
  3
*D12
  1

  0
LINE
  5
679D
330
3D79
100
AcDbEntity
  8
DIM
 62
     0
440
 16777216
370
    -2
100
AcDbLine
 10
-25927.5646966004
 20
2214.966414814387
 30
0.0
 11
-25927.5646966004
 21
2241.649713239945
 31
0.0
  0
LINE
  5
679E
330
3D79
100
AcDbEntity
  8
DIM
 62
     0
440
 16777216
370
    -2
100
AcDbLine
 10
-25616.56469660039
 20
2214.966414814389
 30
0.0
 11
-25616.56469660039
 21
2241.649713239945
 31
0.0
  0
LINE
  5
679F
330
3D79
100
AcDbEntity
  8
DIM
 62
     0
440
 16777216
370
    -2
100
AcDbLine
 10
-25912.5646966004
 20
2240.399713239945
 30
0.0
 11
-25631.56469660039
 21
2240.399713239945
 31
0.0
  0
SOLID
  5
67A0
330
3D79
100
AcDbEntity
  8
DIM
 62
     0
440
 16777216
100
AcDbTrace
 10
-25912.5646966004
 20
2242.899713239946
 30
0.0
 11
-25912.5646966004
 21
2237.899713239945
 31
0.0
 12
-25927.5646966004
 22
2240.399713239945
 32
0.0
 13
-25927.5646966004
 23
2240.399713239945
 33
0.0
  0
SOLID
  5
67A1
330
3D79
100
AcDbEntity
  8
DIM
 62
     0
440
 16777216
100
AcDbTrace
 10
-25631.56469660039
 20
2242.899713239946
 30
0.0
 11
-25631.56469660039
 21
2237.899713239945
 31
0.0
 12
-25616.56469660039
 22
2240.399713239945
 32
0.0
 13
-25616.56469660039
 23
2240.399713239945
 33
0.0
  0
MTEXT
  5
67A2
330
3D79
100
AcDbEntity
  8
DIM
 62
     0
440
 16777216
100
AcDbMText
 10
-25772.0646966004
 20
2259.059825599496
 30
0.0
 40
25.0
 41
0.0
 46
0.0
 71
     5
 72
     1
  1
{\fSimHei|b0|i0|c134|p49;2-}311{\fSimHei|b0|i0|c134|p49; [12.2"]}
 73
     1
 44
1.0
  0
POINT
  5
67A3
330
3D79
100
AcDbEntity
  8
Defpoints
 62
     0
440
 16777216
100
AcDbPoint
 10
-25927.5646966004
 20
2213.966414814388
 30
0.0
  0
POINT
  5
67A4
330
3D79
100
AcDbEntity
  8
Defpoints
 62
     0
440
 16777216
100
AcDbPoint
 10
-25616.56469660039
 20
2213.966414814388
 30
0.0
  0
POINT
  5
67A5
330
3D79
100
AcDbEntity
  8
Defpoints
 62
     0
440
 16777216
100
AcDbPoint
 10
-25616.56469660039
 20
2240.399713239945
 30
0.0
  0
ENDBLK
  5
3D84
330
3D79
100
AcDbEntity
  8
0
100
AcDbBlockEnd
  0
BLOCK
  5
3DBE
330
3DAE
100
AcDbEntity
  8
0
100
AcDbBlockBegin
  2
*D13
 70
     1
 10
0.0
 20
0.0
 30
0.0
  3
*D13
  1

  0
LINE
  5
6158
330
3DAE
100
AcDbEntity
  8
DIM
 62
     0
440
 16777216
370
    -2
100
AcDbLine
 10
-26144.53231852658
 20
3315.633625490598
 30
0.0
 11
-26144.53231852658
 21
3056.302004567351
 31
0.0
  0
LINE
  5
6159
330
3DAE
100
AcDbEntity
  8
DIM
 62
     0
440
 16777216
370
    -2
100
AcDbLine
 10
-26139.10423237381
 20
3267.133450203855
 30
0.0
 11
-26122.57932077626
 21
3057.1645401981
 31
0.0
  0
ARC
  5
615A
330
3DAE
100
AcDbEntity
  8
DIM
 62
     0
440
 16777216
370
    -2
100
AcDbCircle
 10
-26144.53231852658
 20
3336.103824186505
 30
0.0
 40
278.5518196191536
100
AcDbArc
 50
263.826264678873
 51
270.0000000000004
  0
LINE
  5
615B
330
3DAE
100
AcDbEntity
  8
DIM
 62
     0
440
 16777216
370
    -2
100
AcDbLine
 10
-26174.48878969958
 20
3059.167502899458
 30
0.0
 11
-26287.17606519258
 21
3071.356995069289
 31
0.0
  0
ARC
  5
615C
330
3DAE
100
AcDbEntity
  8
DIM
 62
     0
440
 16777216
370
    -2
100
AcDbCircle
 10
-26144.53231852658
 20
3336.103824186505
 30
0.0
 40
278.5518196191536
100
AcDbArc
 50
263.8285050889848
 51
266.9142525444926
  0
ARC
  5
615D
330
3DAE
100
AcDbEntity
  8
DIM
 62
     0
440
 16777216
370
    -2
100
AcDbCircle
 10
-26144.53231852658
 20
3336.103824186505
 30
0.0
 40
278.5518196191536
100
AcDbArc
 50
277.5857474555054
 51
280.6714949110132
  0
ARC
  5
615E
330
3DAE
100
AcDbEntity
  8
DIM
 62
     0
440
 16777216
370
    -2
100
AcDbCircle
 10
-26144.53231852658
 20
3336.103824186505
 30
0.0
 40
278.5518196191536
100
AcDbArc
 50
270.0000000000004
 51
274.4999999999976
  0
SOLID
  5
615F
330
3DAE
100
AcDbEntity
  8
DIM
 62
     0
440
 16777216
100
AcDbTrace
 10
-26159.45956795433
 20
3060.454972793421
 30
0.0
 11
-26159.59419281534
 21
3055.456785507335
 31
0.0
 12
-26144.53231852658
 22
3057.552004567352
 32
0.0
 13
-26144.53231852658
 23
3057.552004567352
 33
0.0
  0
SOLID
  5
6160
330
3DAE
100
AcDbEntity
  8
DIM
 62
     0
440
 16777216
100
AcDbTrace
 10
-26107.49756209615
 20
3057.503667703031
 30
0.0
 11
-26108.02392520838
 21
3062.475884700917
 31
0.0
 12
-26122.67739464592
 22
3058.410686865266
 32
0.0
 13
-26122.67739464592
 23
3058.410686865266
 33
0.0
  0
MTEXT
  5
6161
330
3DAE
100
AcDbEntity
  8
DIM
 62
     0
440
 16777216
100
AcDbMText
 10
-26228.99081889425
 20
3082.287228149925
 30
0.0
 40
25.0
 41
0.0
 46
0.0
 71
     5
 72
     1
  1
4,50°
 11
0.9942003669754686
 21
-0.1075436204795222
 31
0.0
 73
     1
 44
1.0
  0
POINT
  5
6162
330
3DAE
100
AcDbEntity
  8
Defpoints
 62
     0
440
 16777216
100
AcDbPoint
 10
-26129.9540426836
 20
3057.93375015519
 30
0.0
  0
POINT
  5
6163
330
3DAE
100
AcDbEntity
  8
Defpoints
 62
     0
440
 16777216
100
AcDbPoint
 10
-26144.53231852658
 20
3336.103824186505
 30
0.0
  0
POINT
  5
6164
330
3DAE
100
AcDbEntity
  8
Defpoints
 62
     0
440
 16777216
100
AcDbPoint
 10
-26144.53231852658
 20
3336.103824186505
 30
0.0
  0
POINT
  5
6165
330
3DAE
100
AcDbEntity
  8
Defpoints
 62
     0
440
 16777216
100
AcDbPoint
 10
-26139.18269146954
 20
3268.130367537589
 30
0.0
  0
POINT
  5
6166
330
3DAE
100
AcDbEntity
  8
Defpoints
 62
     0
440
 16777216
100
AcDbPoint
 10
-26144.53231852658
 20
3316.633625490598
 30
0.0
  0
ENDBLK
  5
3DBF
330
3DAE
100
AcDbEntity
  8
0
100
AcDbBlockEnd
  0
BLOCK
  5
3E10
330
3E06
100
AcDbEntity
  8
0
100
AcDbBlockBegin
  2
*D14
 70
     1
 10
0.0
 20
0.0
 30
0.0
  3
*D14
  1

  0
LINE
  5
6434
330
3E06
100
AcDbEntity
  8
DIM
 62
     0
440
 16777216
370
    -2
100
AcDbLine
 10
-25357.64459558774
 20
3347.53306961214
 30
0.0
 11
-25308.65271150695
 21
3347.53306961214
 31
0.0
  0
LINE
  5
6435
330
3E06
100
AcDbEntity
  8
DIM
 62
     0
440
 16777216
370
    -2
100
AcDbLine
 10
-25720.34772563777
 20
3144.33306961214
 30
0.0
 11
-25308.65271150695
 21
3144.333069612141
 31
0.0
  0
LINE
  5
6436
330
3E06
100
AcDbEntity
  8
DIM
 62
     0
440
 16777216
370
    -2
100
AcDbLine
 10
-25309.90271150695
 20
3332.53306961214
 30
0.0
 11
-25309.90271150695
 21
3159.333069612141
 31
0.0
  0
SOLID
  5
6437
330
3E06
100
AcDbEntity
  8
DIM
 62
     0
440
 16777216
100
AcDbTrace
 10
-25312.40271150695
 20
3332.53306961214
 30
0.0
 11
-25307.40271150695
 21
3332.53306961214
 31
0.0
 12
-25309.90271150695
 22
3347.53306961214
 32
0.0
 13
-25309.90271150695
 23
3347.53306961214
 33
0.0
  0
SOLID
  5
6438
330
3E06
100
AcDbEntity
  8
DIM
 62
     0
440
 16777216
100
AcDbTrace
 10
-25312.40271150695
 20
3159.333069612141
 30
0.0
 11
-25307.40271150695
 21
3159.333069612141
 31
0.0
 12
-25309.90271150695
 22
3144.333069612141
 32
0.0
 13
-25309.90271150695
 23
3144.333069612141
 33
0.0
  0
MTEXT
  5
6439
330
3E06
100
AcDbEntity
  8
DIM
 62
     0
440
 16777216
100
AcDbMText
 10
-25328.56282386649
 20
3245.933069612146
 30
0.0
 40
25.0
 41
0.0
 46
0.0
 71
     5
 72
     1
  1
{\fSimHei|b0|i0|c134|p49;203 [8"]}
 11
0.0000000000000001
 21
1.0
 31
0.0
 73
     1
 44
1.0
  0
POINT
  5
643A
330
3E06
100
AcDbEntity
  8
Defpoints
 62
     0
440
 16777216
100
AcDbPoint
 10
-25358.64459558774
 20
3347.53306961214
 30
0.0
  0
POINT
  5
643B
330
3E06
100
AcDbEntity
  8
Defpoints
 62
     0
440
 16777216
100
AcDbPoint
 10
-25721.34772563777
 20
3144.33306961214
 30
0.0
  0
POINT
  5
643C
330
3E06
100
AcDbEntity
  8
Defpoints
 62
     0
440
 16777216
100
AcDbPoint
 10
-25309.90271150695
 20
3144.333069612141
 30
0.0
  0
ENDBLK
  5
3E11
330
3E06
100
AcDbEntity
  8
0
100
AcDbBlockEnd
  0
BLOCK
  5
3EC9
330
3EBD
100
AcDbEntity
  8
0
100
AcDbBlockBegin
  2
*D15
 70
     1
 10
0.0
 20
0.0
 30
0.0
  3
*D15
  1

  0
LINE
  5
6144
330
3EBD
100
AcDbEntity
  8
DIM
 62
     0
440
 16777216
370
    -2
100
AcDbLine
 10
-25020.52433247084
 20
3281.278716342154
 30
0.0
 11
-25020.52433247084
 21
3326.010182408978
 31
0.0
  0
LINE
  5
6145
330
3EBD
100
AcDbEntity
  8
DIM
 62
     0
440
 16777216
370
    -2
100
AcDbLine
 10
-25045.52433247086
 20
3256.278716342155
 30
0.0
 11
-25045.52433247086
 21
3326.010182408978
 31
0.0
  0
LINE
  5
6146
330
3EBD
100
AcDbEntity
  8
DIM
 62
     0
440
 16777216
370
    -2
100
AcDbLine
 10
-25005.52433247084
 20
3324.760182408978
 30
0.0
 11
-24990.52433247084
 21
3324.760182408978
 31
0.0
  0
LINE
  5
6147
330
3EBD
100
AcDbEntity
  8
DIM
 62
     0
440
 16777216
370
    -2
100
AcDbLine
 10
-25060.52433247086
 20
3324.760182408978
 30
0.0
 11
-25075.52433247086
 21
3324.760182408978
 31
0.0
  0
LINE
  5
6148
330
3EBD
100
AcDbEntity
  8
DIM
 62
     0
440
 16777216
370
    -2
100
AcDbLine
 10
-25020.52433247084
 20
3324.760182408978
 30
0.0
 11
-25045.52433247086
 21
3324.760182408978
 31
0.0
  0
SOLID
  5
6149
330
3EBD
100
AcDbEntity
  8
DIM
 62
     0
440
 16777216
100
AcDbTrace
 10
-25005.52433247084
 20
3327.260182408978
 30
0.0
 11
-25005.52433247084
 21
3322.260182408978
 31
0.0
 12
-25020.52433247084
 22
3324.760182408978
 32
0.0
 13
-25020.52433247084
 23
3324.760182408978
 33
0.0
  0
SOLID
  5
614A
330
3EBD
100
AcDbEntity
  8
DIM
 62
     0
440
 16777216
100
AcDbTrace
 10
-25060.52433247086
 20
3327.260182408978
 30
0.0
 11
-25060.52433247086
 21
3322.260182408978
 31
0.0
 12
-25045.52433247086
 22
3324.760182408978
 32
0.0
 13
-25045.52433247086
 23
3324.760182408978
 33
0.0
  0
MTEXT
  5
614B
330
3EBD
100
AcDbEntity
  8
DIM
 62
     0
440
 16777216
100
AcDbMText
 10
-25033.02433247085
 20
3340.260182408978
 30
0.0
 40
25.0
 41
0.0
 46
0.0
 71
     5
 72
     1
  1
5
 73
     1
 44
1.0
  0
POINT
  5
614C
330
3EBD
100
AcDbEntity
  8
Defpoints
 62
     0
440
 16777216
100
AcDbPoint
 10
-25020.52433247084
 20
3280.278716342154
 30
0.0
  0
POINT
  5
614D
330
3EBD
100
AcDbEntity
  8
Defpoints
 62
     0
440
 16777216
100
AcDbPoint
 10
-25045.52433247086
 20
3255.278716342154
 30
0.0
  0
POINT
  5
614E
330
3EBD
100
AcDbEntity
  8
Defpoints
 62
     0
440
 16777216
100
AcDbPoint
 10
-25045.52433247086
 20
3324.760182408978
 30
0.0
  0
ENDBLK
  5
3ECA
330
3EBD
100
AcDbEntity
  8
0
100
AcDbBlockEnd
  0
BLOCK
  5
3EE3
330
3ED9
100
AcDbEntity
  8
0
100
AcDbBlockBegin
  2
*D16
 70
     1
 10
0.0
 20
0.0
 30
0.0
  3
*D16
  1

  0
LINE
  5
64A8
330
3ED9
100
AcDbEntity
  8
DIM
 62
     0
440
 16777216
370
    -2
100
AcDbLine
 10
-25020.52433247084
 20
3304.644449375567
 30
0.0
 11
-25020.52433247084
 21
3354.010182408978
 31
0.0
  0
LINE
  5
64A9
330
3ED9
100
AcDbEntity
  8
DIM
 62
     0
440
 16777216
370
    -2
100
AcDbLine
 10
-24945.52433247085
 20
3281.278716342155
 30
0.0
 11
-24945.52433247085
 21
3354.010182408978
 31
0.0
  0
LINE
  5
64AA
330
3ED9
100
AcDbEntity
  8
DIM
 62
     0
440
 16777216
370
    -2
100
AcDbLine
 10
-25005.52433247084
 20
3352.760182408978
 30
0.0
 11
-24960.52433247085
 21
3352.760182408978
 31
0.0
  0
SOLID
  5
64AB
330
3ED9
100
AcDbEntity
  8
DIM
 62
     0
440
 16777216
100
AcDbTrace
 10
-25005.52433247084
 20
3355.260182408978
 30
0.0
 11
-25005.52433247084
 21
3350.260182408978
 31
0.0
 12
-25020.52433247084
 22
3352.760182408978
 32
0.0
 13
-25020.52433247084
 23
3352.760182408978
 33
0.0
  0
SOLID
  5
64AC
330
3ED9
100
AcDbEntity
  8
DIM
 62
     0
440
 16777216
100
AcDbTrace
 10
-24960.52433247085
 20
3355.260182408978
 30
0.0
 11
-24960.52433247085
 21
3350.260182408978
 31
0.0
 12
-24945.52433247085
 22
3352.760182408978
 32
0.0
 13
-24945.52433247085
 23
3352.760182408978
 33
0.0
  0
MTEXT
  5
64AD
330
3ED9
100
AcDbEntity
  8
DIM
 62
     0
440
 16777216
100
AcDbMText
 10
-24990.52433247084
 20
3392.253628101862
 30
0.0
 40
25.0
 41
23.0241064735128
 46
0.0
 71
     5
 72
     1
  1
{\fSimHei|b0|i0|c134|p49;15 [.6"]}
 73
     1
 44
1.0
  0
POINT
  5
64AE
330
3ED9
100
AcDbEntity
  8
Defpoints
 62
     0
440
 16777216
100
AcDbPoint
 10
-25020.52433247084
 20
3303.644449375566
 30
0.0
  0
POINT
  5
64AF
330
3ED9
100
AcDbEntity
  8
Defpoints
 62
     0
440
 16777216
100
AcDbPoint
 10
-24945.52433247085
 20
3280.278716342154
 30
0.0
  0
POINT
  5
64B0
330
3ED9
100
AcDbEntity
  8
Defpoints
 62
     0
440
 16777216
100
AcDbPoint
 10
-24945.52433247085
 20
3352.760182408978
 30
0.0
  0
ENDBLK
  5
3EE4
330
3ED9
100
AcDbEntity
  8
0
100
AcDbBlockEnd
  0
BLOCK
  5
3EFD
330
3EF1
100
AcDbEntity
  8
0
100
AcDbBlockBegin
  2
*D17
 70
     1
 10
0.0
 20
0.0
 30
0.0
  3
*D17
  1

  0
LINE
  5
6130
330
3EF1
100
AcDbEntity
  8
DIM
 62
     0
440
 16777216
370
    -2
100
AcDbLine
 10
-24920.52433247086
 20
3256.278716342156
 30
0.0
 11
-24920.52433247086
 21
3326.010182408978
 31
0.0
  0
LINE
  5
6131
330
3EF1
100
AcDbEntity
  8
DIM
 62
     0
440
 16777216
370
    -2
100
AcDbLine
 10
-24945.52433247085
 20
3282.278716342155
 30
0.0
 11
-24945.52433247085
 21
3326.010182408978
 31
0.0
  0
LINE
  5
6132
330
3EF1
100
AcDbEntity
  8
DIM
 62
     0
440
 16777216
370
    -2
100
AcDbLine
 10
-24960.52433247085
 20
3324.760182408978
 30
0.0
 11
-24975.52433247085
 21
3324.760182408978
 31
0.0
  0
LINE
  5
6133
330
3EF1
100
AcDbEntity
  8
DIM
 62
     0
440
 16777216
370
    -2
100
AcDbLine
 10
-24905.52433247087
 20
3324.760182408978
 30
0.0
 11
-24861.14862625617
 21
3324.760182408978
 31
0.0
  0
LINE
  5
6134
330
3EF1
100
AcDbEntity
  8
DIM
 62
     0
440
 16777216
370
    -2
100
AcDbLine
 10
-24945.52433247085
 20
3324.760182408978
 30
0.0
 11
-24920.52433247086
 21
3324.760182408978
 31
0.0
  0
SOLID
  5
6135
330
3EF1
100
AcDbEntity
  8
DIM
 62
     0
440
 16777216
100
AcDbTrace
 10
-24960.52433247085
 20
3327.260182408978
 30
0.0
 11
-24960.52433247085
 21
3322.260182408978
 31
0.0
 12
-24945.52433247085
 22
3324.760182408978
 32
0.0
 13
-24945.52433247085
 23
3324.760182408978
 33
0.0
  0
SOLID
  5
6136
330
3EF1
100
AcDbEntity
  8
DIM
 62
     0
440
 16777216
100
AcDbTrace
 10
-24905.52433247087
 20
3327.260182408978
 30
0.0
 11
-24905.52433247087
 21
3322.260182408978
 31
0.0
 12
-24920.52433247086
 22
3324.760182408978
 32
0.0
 13
-24920.52433247086
 23
3324.760182408978
 33
0.0
  0
MTEXT
  5
6137
330
3EF1
100
AcDbEntity
  8
DIM
 62
     0
440
 16777216
100
AcDbMText
 10
-24871.35201608668
 20
3340.260182408978
 30
0.0
 40
25.0
 41
0.0
 46
0.0
 71
     5
 72
     1
  1
5
 73
     1
 44
1.0
  0
POINT
  5
6138
330
3EF1
100
AcDbEntity
  8
Defpoints
 62
     0
440
 16777216
100
AcDbPoint
 10
-24920.52433247086
 20
3255.278716342156
 30
0.0
  0
POINT
  5
6139
330
3EF1
100
AcDbEntity
  8
Defpoints
 62
     0
440
 16777216
100
AcDbPoint
 10
-24945.52433247085
 20
3281.278716342155
 30
0.0
  0
POINT
  5
613A
330
3EF1
100
AcDbEntity
  8
Defpoints
 62
     0
440
 16777216
100
AcDbPoint
 10
-24945.52433247085
 20
3324.760182408978
 30
0.0
  0
ENDBLK
  5
3EFE
330
3EF1
100
AcDbEntity
  8
0
100
AcDbBlockEnd
  0
BLOCK
  5
3F2F
330
3F23
100
AcDbEntity
  8
0
100
AcDbBlockBegin
  2
*D18
 70
     1
 10
0.0
 20
0.0
 30
0.0
  3
*D18
  1

  0
LINE
  5
6420
330
3F23
100
AcDbEntity
  8
DIM
 62
     0
440
 16777216
370
    -2
100
AcDbLine
 10
-24944.52433247088
 20
3280.278716342157
 30
0.0
 11
-24754.25781133116
 21
3280.278716342157
 31
0.0
  0
LINE
  5
6421
330
3F23
100
AcDbEntity
  8
DIM
 62
     0
440
 16777216
370
    -2
100
AcDbLine
 10
-24841.76996211377
 20
3255.278716342159
 30
0.0
 11
-24754.25781133116
 21
3255.278716342159
 31
0.0
  0
LINE
  5
6422
330
3F23
100
AcDbEntity
  8
DIM
 62
     0
440
 16777216
370
    -2
100
AcDbLine
 10
-24755.50781133116
 20
3240.278716342159
 30
0.0
 11
-24755.50781133116
 21
3225.278716342159
 31
0.0
  0
LINE
  5
6423
330
3F23
100
AcDbEntity
  8
DIM
 62
     0
440
 16777216
370
    -2
100
AcDbLine
 10
-24755.50781133116
 20
3295.278716342157
 30
0.0
 11
-24755.50781133116
 21
3434.115794993842
 31
0.0
  0
LINE
  5
6424
330
3F23
100
AcDbEntity
  8
DIM
 62
     0
440
 16777216
370
    -2
100
AcDbLine
 10
-24755.50781133116
 20
3255.278716342159
 30
0.0
 11
-24755.50781133116
 21
3280.278716342157
 31
0.0
  0
SOLID
  5
6425
330
3F23
100
AcDbEntity
  8
DIM
 62
     0
440
 16777216
100
AcDbTrace
 10
-24758.00781133116
 20
3240.278716342159
 30
0.0
 11
-24753.00781133116
 21
3240.278716342159
 31
0.0
 12
-24755.50781133116
 22
3255.278716342159
 32
0.0
 13
-24755.50781133116
 23
3255.278716342159
 33
0.0
  0
SOLID
  5
6426
330
3F23
100
AcDbEntity
  8
DIM
 62
     0
440
 16777216
100
AcDbTrace
 10
-24758.00781133116
 20
3295.278716342157
 30
0.0
 11
-24753.00781133116
 21
3295.278716342157
 31
0.0
 12
-24755.50781133116
 22
3280.278716342157
 32
0.0
 13
-24755.50781133116
 23
3280.278716342157
 33
0.0
  0
MTEXT
  5
6427
330
3F23
100
AcDbEntity
  8
DIM
 62
     0
440
 16777216
100
AcDbMText
 10
-24774.16792369071
 20
3372.197255668005
 30
0.0
 40
25.0
 41
0.0
 46
0.0
 71
     5
 72
     1
  1
{\fSimHei|b0|i0|c134|p49;5 [.2"]}
 11
0.0000000000000001
 21
1.0
 31
0.0
 73
     1
 44
1.0
  0
POINT
  5
6428
330
3F23
100
AcDbEntity
  8
Defpoints
 62
     0
440
 16777216
100
AcDbPoint
 10
-24945.52433247088
 20
3280.278716342157
 30
0.0
  0
POINT
  5
6429
330
3F23
100
AcDbEntity
  8
Defpoints
 62
     0
440
 16777216
100
AcDbPoint
 10
-24842.76996211377
 20
3255.278716342159
 30
0.0
  0
POINT
  5
642A
330
3F23
100
AcDbEntity
  8
Defpoints
 62
     0
440
 16777216
100
AcDbPoint
 10
-24755.50781133116
 20
3255.278716342159
 30
0.0
  0
ENDBLK
  5
3F30
330
3F23
100
AcDbEntity
  8
0
100
AcDbBlockEnd
  0
BLOCK
  5
3F50
330
3F4A
100
AcDbEntity
  8
0
100
AcDbBlockBegin
  2
*D19
 70
     1
 10
0.0
 20
0.0
 30
0.0
  3
*D19
  1

  0
LINE
  5
64BB
330
3F4A
100
AcDbEntity
  8
DIM
 62
     0
440
 16777216
370
    -2
100
AcDbLine
 10
-24943.60291561094
 20
3122.461801191961
 30
0.0
 11
-24832.03021479296
 21
3231.250479683911
 31
0.0
  0
MTEXT
  5
64BC
330
3F4A
100
AcDbEntity
  8
DIM
 62
     0
440
 16777216
100
AcDbMText
 10
-24906.21339089965
 20
3184.980584881665
 30
0.0
 40
25.0
 41
0.0
 46
0.0
 71
     5
 72
     1
  1
{\fSimHei|b0|i0|c134|p49;R6 [.2"]}
 11
0.7159831547191251
 21
0.6981175561167686
 31
0.0
 73
     1
 44
1.0
  0
SOLID
  5
64BD
330
3F4A
100
AcDbEntity
  8
DIM
 62
     0
440
 16777216
100
AcDbTrace
 10
-24833.77550868326
 20
3233.04043757071
 30
0.0
 11
-24830.28492090267
 21
3229.460521797113
 31
0.0
 12
-24821.29046747217
 22
3241.722243025662
 32
0.0
 13
-24821.29046747217
 23
3241.722243025662
 33
0.0
  0
POINT
  5
64BE
330
3F4A
100
AcDbEntity
  8
Defpoints
 62
     0
440
 16777216
100
AcDbPoint
 10
-24821.29046747217
 20
3241.722243025662
 30
0.0
  0
POINT
  5
64BF
330
3F4A
100
AcDbEntity
  8
Defpoints
 62
     0
440
 16777216
100
AcDbPoint
 10
-24842.76996211375
 20
3220.778716342162
 30
0.0
  0
ENDBLK
  5
3F51
330
3F4A
100
AcDbEntity
  8
0
100
AcDbBlockEnd
  0
BLOCK
  5
3F6D
330
3F61
100
AcDbEntity
  8
0
100
AcDbBlockBegin
  2
*D20
 70
     1
 10
0.0
 20
0.0
 30
0.0
  3
*D20
  1

  0
LINE
  5
6115
330
3F61
100
AcDbEntity
  8
DIM
 62
     0
440
 16777216
370
    -2
100
AcDbLine
 10
-25021.52433247085
 20
3280.278716342154
 30
0.0
 11
-25074.06645045561
 21
3280.278716342154
 31
0.0
  0
LINE
  5
6116
330
3F61
100
AcDbEntity
  8
DIM
 62
     0
440
 16777216
370
    -2
100
AcDbLine
 10
-25046.52433247086
 20
3255.278716342154
 30
0.0
 11
-25074.06645045561
 21
3255.278716342154
 31
0.0
  0
LINE
  5
6117
330
3F61
100
AcDbEntity
  8
DIM
 62
     0
440
 16777216
370
    -2
100
AcDbLine
 10
-25072.81645045562
 20
3295.278716342154
 30
0.0
 11
-25072.81645045562
 21
3310.278716342154
 31
0.0
  0
LINE
  5
6118
330
3F61
100
AcDbEntity
  8
DIM
 62
     0
440
 16777216
370
    -2
100
AcDbLine
 10
-25072.81645045562
 20
3240.278716342154
 30
0.0
 11
-25072.81645045562
 21
3225.278716342155
 31
0.0
  0
LINE
  5
6119
330
3F61
100
AcDbEntity
  8
DIM
 62
     0
440
 16777216
370
    -2
100
AcDbLine
 10
-25072.81645045562
 20
3280.278716342154
 30
0.0
 11
-25072.81645045562
 21
3255.278716342154
 31
0.0
  0
SOLID
  5
611A
330
3F61
100
AcDbEntity
  8
DIM
 62
     0
440
 16777216
100
AcDbTrace
 10
-25075.31645045562
 20
3295.278716342154
 30
0.0
 11
-25070.31645045562
 21
3295.278716342154
 31
0.0
 12
-25072.81645045562
 22
3280.278716342154
 32
0.0
 13
-25072.81645045562
 23
3280.278716342154
 33
0.0
  0
SOLID
  5
611B
330
3F61
100
AcDbEntity
  8
DIM
 62
     0
440
 16777216
100
AcDbTrace
 10
-25075.31645045562
 20
3240.278716342154
 30
0.0
 11
-25070.31645045562
 21
3240.278716342154
 31
0.0
 12
-25072.81645045562
 22
3255.278716342154
 32
0.0
 13
-25072.81645045562
 23
3255.278716342154
 33
0.0
  0
MTEXT
  5
611C
330
3F61
100
AcDbEntity
  8
DIM
 62
     0
440
 16777216
100
AcDbMText
 10
-25088.31645045562
 20
3267.778716342151
 30
0.0
 40
25.0
 41
0.0
 46
0.0
 71
     5
 72
     1
  1
5
 11
0.0000000000000001
 21
1.0
 31
0.0
 73
     1
 44
1.0
  0
POINT
  5
611D
330
3F61
100
AcDbEntity
  8
Defpoints
 62
     0
440
 16777216
100
AcDbPoint
 10
-25020.52433247084
 20
3280.278716342154
 30
0.0
  0
POINT
  5
611E
330
3F61
100
AcDbEntity
  8
Defpoints
 62
     0
440
 16777216
100
AcDbPoint
 10
-25045.52433247086
 20
3255.278716342154
 30
0.0
  0
POINT
  5
611F
330
3F61
100
AcDbEntity
  8
Defpoints
 62
     0
440
 16777216
100
AcDbPoint
 10
-25072.81645045562
 20
3255.278716342154
 30
0.0
  0
ENDBLK
  5
3F6E
330
3F61
100
AcDbEntity
  8
0
100
AcDbBlockEnd
  0
BLOCK
  5
3F87
330
3F7D
100
AcDbEntity
  8
0
100
AcDbBlockBegin
  2
*D21
 70
     1
 10
0.0
 20
0.0
 30
0.0
  3
*D21
  1

  0
LINE
  5
6451
330
3F7D
100
AcDbEntity
  8
DIM
 62
     0
440
 16777216
370
    -2
100
AcDbLine
 10
-24955.52433247088
 20
3212.278716342157
 30
0.0
 11
-24955.52433247088
 21
3129.317313743914
 31
0.0
  0
LINE
  5
6452
330
3F7D
100
AcDbEntity
  8
DIM
 62
     0
440
 16777216
370
    -2
100
AcDbLine
 10
-25045.52433247086
 20
3255.278716342154
 30
0.0
 11
-25045.52433247086
 21
3129.317313743914
 31
0.0
  0
LINE
  5
6453
330
3F7D
100
AcDbEntity
  8
DIM
 62
     0
440
 16777216
370
    -2
100
AcDbLine
 10
-24970.52433247088
 20
3130.567313743914
 30
0.0
 11
-25030.52433247086
 21
3130.567313743914
 31
0.0
  0
LINE
  5
6454
330
3F7D
100
AcDbEntity
  8
DIM
 62
     0
440
 16777216
370
    -2
100
AcDbLine
 10
-25045.52433247086
 20
3130.567313743914
 30
0.0
 11
-25199.67039988659
 21
3130.567313743914
 31
0.0
  0
SOLID
  5
6455
330
3F7D
100
AcDbEntity
  8
DIM
 62
     0
440
 16777216
100
AcDbTrace
 10
-24970.52433247088
 20
3133.067313743914
 30
0.0
 11
-24970.52433247088
 21
3128.067313743914
 31
0.0
 12
-24955.52433247088
 22
3130.567313743914
 32
0.0
 13
-24955.52433247088
 23
3130.567313743914
 33
0.0
  0
SOLID
  5
6456
330
3F7D
100
AcDbEntity
  8
DIM
 62
     0
440
 16777216
100
AcDbTrace
 10
-25030.52433247086
 20
3133.067313743914
 30
0.0
 11
-25030.52433247086
 21
3128.067313743914
 31
0.0
 12
-25045.52433247086
 22
3130.567313743914
 32
0.0
 13
-25045.52433247086
 23
3130.567313743914
 33
0.0
  0
MTEXT
  5
6457
330
3F7D
100
AcDbEntity
  8
DIM
 62
     0
440
 16777216
100
AcDbMText
 10
-25130.09736617873
 20
3149.227426103464
 30
0.0
 40
25.0
 41
0.0
 46
0.0
 71
     5
 72
     1
  1
{\fSimHei|b0|i0|c134|p49;18 [.7"]}
 73
     1
 44
1.0
  0
POINT
  5
6458
330
3F7D
100
AcDbEntity
  8
Defpoints
 62
     0
440
 16777216
100
AcDbPoint
 10
-24955.52433247088
 20
3213.278716342156
 30
0.0
  0
POINT
  5
6459
330
3F7D
100
AcDbEntity
  8
Defpoints
 62
     0
440
 16777216
100
AcDbPoint
 10
-25045.52433247086
 20
3256.278716342155
 30
0.0
  0
POINT
  5
645A
330
3F7D
100
AcDbEntity
  8
Defpoints
 62
     0
440
 16777216
100
AcDbPoint
 10
-25045.52433247086
 20
3130.567313743914
 30
0.0
  0
ENDBLK
  5
3F88
330
3F7D
100
AcDbEntity
  8
0
100
AcDbBlockEnd
  0
BLOCK
  5
4198
330
418E
100
AcDbEntity
  8
0
100
AcDbBlockBegin
  2
*D22
 70
     1
 10
0.0
 20
0.0
 30
0.0
  3
*D22
  1

  0
LINE
  5
68C2
330
418E
100
AcDbEntity
  8
DIM
 62
     0
440
 16777216
370
    -2
100
AcDbLine
 10
-25900.17556750301
 20
2664.962197341279
 30
0.0
 11
-26174.80264478195
 21
2664.962197341279
 31
0.0
  0
LINE
  5
68C3
330
418E
100
AcDbEntity
  8
DIM
 62
     0
440
 16777216
370
    -2
100
AcDbLine
 10
-26151.153114935
 20
2721.966414814394
 30
0.0
 11
-26174.80264478195
 21
2721.966414814394
 31
0.0
  0
LINE
  5
68C4
330
418E
100
AcDbEntity
  8
DIM
 62
     0
440
 16777216
370
    -2
100
AcDbLine
 10
-26173.55264478195
 20
2679.962197341279
 30
0.0
 11
-26173.55264478195
 21
2706.966414814394
 31
0.0
  0
LINE
  5
68C5
330
418E
100
AcDbEntity
  8
DIM
 62
     0
440
 16777216
370
    -2
100
AcDbLine
 10
-26173.55264478195
 20
2721.966414814394
 30
0.0
 11
-26173.55264478195
 21
2914.736077735742
 31
0.0
  0
SOLID
  5
68C6
330
418E
100
AcDbEntity
  8
DIM
 62
     0
440
 16777216
100
AcDbTrace
 10
-26176.05264478195
 20
2679.962197341279
 30
0.0
 11
-26171.05264478195
 21
2679.962197341279
 31
0.0
 12
-26173.55264478195
 22
2664.962197341279
 32
0.0
 13
-26173.55264478195
 23
2664.962197341279
 33
0.0
  0
SOLID
  5
68C7
330
418E
100
AcDbEntity
  8
DIM
 62
     0
440
 16777216
100
AcDbTrace
 10
-26176.05264478195
 20
2706.966414814394
 30
0.0
 11
-26171.05264478195
 21
2706.966414814394
 31
0.0
 12
-26173.55264478195
 22
2721.966414814394
 32
0.0
 13
-26173.55264478195
 23
2721.966414814394
 33
0.0
  0
MTEXT
  5
68C8
330
418E
100
AcDbEntity
  8
DIM
 62
     0
440
 16777216
100
AcDbMText
 10
-26192.21275714149
 20
2825.851246275076
 30
0.0
 40
25.0
 41
0.0
 46
0.0
 71
     5
 72
     1
  1
57{\fSimHei|b0|i0|c134|p49; [2.24"]}
 11
0.0000000000000001
 21
1.0
 31
0.0
 73
     1
 44
1.0
  0
POINT
  5
68C9
330
418E
100
AcDbEntity
  8
Defpoints
 62
     0
440
 16777216
100
AcDbPoint
 10
-25899.17556750301
 20
2664.962197341279
 30
0.0
  0
POINT
  5
68CA
330
418E
100
AcDbEntity
  8
Defpoints
 62
     0
440
 16777216
100
AcDbPoint
 10
-26150.15311493499
 20
2721.966414814394
 30
0.0
  0
POINT
  5
68CB
330
418E
100
AcDbEntity
  8
Defpoints
 62
     0
440
 16777216
100
AcDbPoint
 10
-26173.55264478195
 20
2721.966414814394
 30
0.0
  0
ENDBLK
  5
4199
330
418E
100
AcDbEntity
  8
0
100
AcDbBlockEnd
  0
BLOCK
  5
423F
330
4233
100
AcDbEntity
  8
0
100
AcDbBlockBegin
  2
*D23
 70
     1
 10
0.0
 20
0.0
 30
0.0
  3
*D23
  1

  0
LINE
  5
60F8
330
4233
100
AcDbEntity
  8
DIM
 62
     0
440
 16777216
370
    -2
100
AcDbLine
 10
-25261.8968034871
 20
1639.45355380939
 30
0.0
 11
-25261.8968034871
 21
1765.024473562726
 31
0.0
  0
LINE
  5
60F9
330
4233
100
AcDbEntity
  8
DIM
 62
     0
440
 16777216
370
    -2
100
AcDbLine
 10
-25236.8968034871
 20
1664.453553809389
 30
0.0
 11
-25236.8968034871
 21
1765.024473562726
 31
0.0
  0
LINE
  5
60FA
330
4233
100
AcDbEntity
  8
DIM
 62
     0
440
 16777216
370
    -2
100
AcDbLine
 10
-25221.8968034871
 20
1763.774473562726
 30
0.0
 11
-25206.8968034871
 21
1763.774473562726
 31
0.0
  0
LINE
  5
60FB
330
4233
100
AcDbEntity
  8
DIM
 62
     0
440
 16777216
370
    -2
100
AcDbLine
 10
-25276.8968034871
 20
1763.774473562726
 30
0.0
 11
-25334.55051139674
 21
1763.774473562726
 31
0.0
  0
LINE
  5
60FC
330
4233
100
AcDbEntity
  8
DIM
 62
     0
440
 16777216
370
    -2
100
AcDbLine
 10
-25236.8968034871
 20
1763.774473562726
 30
0.0
 11
-25261.8968034871
 21
1763.774473562726
 31
0.0
  0
SOLID
  5
60FD
330
4233
100
AcDbEntity
  8
DIM
 62
     0
440
 16777216
100
AcDbTrace
 10
-25221.8968034871
 20
1766.274473562726
 30
0.0
 11
-25221.8968034871
 21
1761.274473562725
 31
0.0
 12
-25236.8968034871
 22
1763.774473562726
 32
0.0
 13
-25236.8968034871
 23
1763.774473562726
 33
0.0
  0
SOLID
  5
60FE
330
4233
100
AcDbEntity
  8
DIM
 62
     0
440
 16777216
100
AcDbTrace
 10
-25276.8968034871
 20
1766.274473562726
 30
0.0
 11
-25276.8968034871
 21
1761.274473562725
 31
0.0
 12
-25261.8968034871
 22
1763.774473562726
 32
0.0
 13
-25261.8968034871
 23
1763.774473562726
 33
0.0
  0
MTEXT
  5
60FF
330
4233
100
AcDbEntity
  8
DIM
 62
     0
440
 16777216
100
AcDbMText
 10
-25324.34712156623
 20
1779.274473562725
 30
0.0
 40
25.0
 41
0.0
 46
0.0
 71
     5
 72
     1
  1
5
 73
     1
 44
1.0
  0
POINT
  5
6100
330
4233
100
AcDbEntity
  8
Defpoints
 62
     0
440
 16777216
100
AcDbPoint
 10
-25261.8968034871
 20
1638.453553809389
 30
0.0
  0
POINT
  5
6101
330
4233
100
AcDbEntity
  8
Defpoints
 62
     0
440
 16777216
100
AcDbPoint
 10
-25236.8968034871
 20
1663.453553809389
 30
0.0
  0
POINT
  5
6102
330
4233
100
AcDbEntity
  8
Defpoints
 62
     0
440
 16777216
100
AcDbPoint
 10
-25236.8968034871
 20
1763.774473562726
 30
0.0
  0
ENDBLK
  5
4240
330
4233
100
AcDbEntity
  8
0
100
AcDbBlockEnd
  0
BLOCK
  5
4264
330
425A
100
AcDbEntity
  8
0
100
AcDbBlockBegin
  2
*D24
 70
     1
 10
0.0
 20
0.0
 30
0.0
  3
*D24
  1

  0
LINE
  5
60EF
330
425A
100
AcDbEntity
  8
DIM
 62
     0
440
 16777216
370
    -2
100
AcDbLine
 10
-25236.8968034871
 20
1698.824177631274
 30
0.0
 11
-25236.8968034871
 21
1765.024473562726
 31
0.0
  0
LINE
  5
60F0
330
425A
100
AcDbEntity
  8
DIM
 62
     0
440
 16777216
370
    -2
100
AcDbLine
 10
-25161.8968034871
 20
1664.453553809391
 30
0.0
 11
-25161.8968034871
 21
1765.024473562726
 31
0.0
  0
LINE
  5
60F1
330
425A
100
AcDbEntity
  8
DIM
 62
     0
440
 16777216
370
    -2
100
AcDbLine
 10
-25221.8968034871
 20
1763.774473562726
 30
0.0
 11
-25176.8968034871
 21
1763.774473562726
 31
0.0
  0
SOLID
  5
60F2
330
425A
100
AcDbEntity
  8
DIM
 62
     0
440
 16777216
100
AcDbTrace
 10
-25221.8968034871
 20
1766.274473562726
 30
0.0
 11
-25221.8968034871
 21
1761.274473562725
 31
0.0
 12
-25236.8968034871
 22
1763.774473562726
 32
0.0
 13
-25236.8968034871
 23
1763.774473562726
 33
0.0
  0
SOLID
  5
60F3
330
425A
100
AcDbEntity
  8
DIM
 62
     0
440
 16777216
100
AcDbTrace
 10
-25176.8968034871
 20
1766.274473562726
 30
0.0
 11
-25176.8968034871
 21
1761.274473562725
 31
0.0
 12
-25161.8968034871
 22
1763.774473562726
 32
0.0
 13
-25161.8968034871
 23
1763.774473562726
 33
0.0
  0
MTEXT
  5
60F4
330
425A
100
AcDbEntity
  8
DIM
 62
     0
440
 16777216
100
AcDbMText
 10
-25199.3968034871
 20
1779.274473562725
 30
0.0
 40
25.0
 41
0.0
 46
0.0
 71
     5
 72
     1
  1
15
 73
     1
 44
1.0
  0
POINT
  5
60F5
330
425A
100
AcDbEntity
  8
Defpoints
 62
     0
440
 16777216
100
AcDbPoint
 10
-25236.8968034871
 20
1697.824177631274
 30
0.0
  0
POINT
  5
60F6
330
425A
100
AcDbEntity
  8
Defpoints
 62
     0
440
 16777216
100
AcDbPoint
 10
-25161.8968034871
 20
1663.453553809391
 30
0.0
  0
POINT
  5
60F7
330
425A
100
AcDbEntity
  8
Defpoints
 62
     0
440
 16777216
100
AcDbPoint
 10
-25161.8968034871
 20
1763.774473562726
 30
0.0
  0
ENDBLK
  5
4265
330
425A
100
AcDbEntity
  8
0
100
AcDbBlockEnd
  0
BLOCK
  5
427E
330
4272
100
AcDbEntity
  8
0
100
AcDbBlockBegin
  2
*D25
 70
     1
 10
0.0
 20
0.0
 30
0.0
  3
*D25
  1

  0
LINE
  5
60E4
330
4272
100
AcDbEntity
  8
DIM
 62
     0
440
 16777216
370
    -2
100
AcDbLine
 10
-25161.8968034871
 20
1698.824177631275
 30
0.0
 11
-25161.8968034871
 21
1765.024473562726
 31
0.0
  0
LINE
  5
60E5
330
4272
100
AcDbEntity
  8
DIM
 62
     0
440
 16777216
370
    -2
100
AcDbLine
 10
-25151.89680348708
 20
1654.453553809389
 30
0.0
 11
-25151.89680348708
 21
1765.024473562726
 31
0.0
  0
LINE
  5
60E6
330
4272
100
AcDbEntity
  8
DIM
 62
     0
440
 16777216
370
    -2
100
AcDbLine
 10
-25176.8968034871
 20
1763.774473562726
 30
0.0
 11
-25191.8968034871
 21
1763.774473562726
 31
0.0
  0
LINE
  5
60E7
330
4272
100
AcDbEntity
  8
DIM
 62
     0
440
 16777216
370
    -2
100
AcDbLine
 10
-25136.89680348708
 20
1763.774473562726
 30
0.0
 11
-25101.49002382606
 21
1763.774473562726
 31
0.0
  0
LINE
  5
60E8
330
4272
100
AcDbEntity
  8
DIM
 62
     0
440
 16777216
370
    -2
100
AcDbLine
 10
-25161.8968034871
 20
1763.774473562726
 30
0.0
 11
-25151.89680348708
 21
1763.774473562726
 31
0.0
  0
SOLID
  5
60E9
330
4272
100
AcDbEntity
  8
DIM
 62
     0
440
 16777216
100
AcDbTrace
 10
-25176.8968034871
 20
1766.274473562726
 30
0.0
 11
-25176.8968034871
 21
1761.274473562725
 31
0.0
 12
-25161.8968034871
 22
1763.774473562726
 32
0.0
 13
-25161.8968034871
 23
1763.774473562726
 33
0.0
  0
SOLID
  5
60EA
330
4272
100
AcDbEntity
  8
DIM
 62
     0
440
 16777216
100
AcDbTrace
 10
-25136.89680348708
 20
1766.274473562726
 30
0.0
 11
-25136.89680348708
 21
1761.274473562725
 31
0.0
 12
-25151.89680348708
 22
1763.774473562726
 32
0.0
 13
-25151.89680348708
 23
1763.774473562726
 33
0.0
  0
MTEXT
  5
60EB
330
4272
100
AcDbEntity
  8
DIM
 62
     0
440
 16777216
100
AcDbMText
 10
-25111.69341365657
 20
1779.274473562725
 30
0.0
 40
25.0
 41
0.0
 46
0.0
 71
     5
 72
     1
  1
2
 73
     1
 44
1.0
  0
POINT
  5
60EC
330
4272
100
AcDbEntity
  8
Defpoints
 62
     0
440
 16777216
100
AcDbPoint
 10
-25161.8968034871
 20
1697.824177631275
 30
0.0
  0
POINT
  5
60ED
330
4272
100
AcDbEntity
  8
Defpoints
 62
     0
440
 16777216
100
AcDbPoint
 10
-25151.89680348708
 20
1653.45355380939
 30
0.0
  0
POINT
  5
60EE
330
4272
100
AcDbEntity
  8
Defpoints
 62
     0
440
 16777216
100
AcDbPoint
 10
-25151.89680348708
 20
1763.774473562726
 30
0.0
  0
ENDBLK
  5
427F
330
4272
100
AcDbEntity
  8
0
100
AcDbBlockEnd
  0
BLOCK
  5
42CF
330
42C5
100
AcDbEntity
  8
0
100
AcDbBlockBegin
  2
*D26
 70
     1
 10
0.0
 20
0.0
 30
0.0
  3
*D26
  1

  0
LINE
  5
60DB
330
42C5
100
AcDbEntity
  8
DIM
 62
     0
440
 16777216
370
    -2
100
AcDbLine
 10
-25071.8968034871
 20
1654.453553809389
 30
0.0
 11
-25071.8968034871
 21
1688.109981945636
 31
0.0
  0
LINE
  5
60DC
330
42C5
100
AcDbEntity
  8
DIM
 62
     0
440
 16777216
370
    -2
100
AcDbLine
 10
-24881.8968034871
 20
1654.45355380939
 30
0.0
 11
-24881.8968034871
 21
1688.109981945636
 31
0.0
  0
LINE
  5
60DD
330
42C5
100
AcDbEntity
  8
DIM
 62
     0
440
 16777216
370
    -2
100
AcDbLine
 10
-25056.8968034871
 20
1686.859981945636
 30
0.0
 11
-24896.8968034871
 21
1686.859981945636
 31
0.0
  0
SOLID
  5
60DE
330
42C5
100
AcDbEntity
  8
DIM
 62
     0
440
 16777216
100
AcDbTrace
 10
-25056.8968034871
 20
1689.359981945636
 30
0.0
 11
-25056.8968034871
 21
1684.359981945636
 31
0.0
 12
-25071.8968034871
 22
1686.859981945636
 32
0.0
 13
-25071.8968034871
 23
1686.859981945636
 33
0.0
  0
SOLID
  5
60DF
330
42C5
100
AcDbEntity
  8
DIM
 62
     0
440
 16777216
100
AcDbTrace
 10
-24896.8968034871
 20
1689.359981945636
 30
0.0
 11
-24896.8968034871
 21
1684.359981945636
 31
0.0
 12
-24881.8968034871
 22
1686.859981945636
 32
0.0
 13
-24881.8968034871
 23
1686.859981945636
 33
0.0
  0
MTEXT
  5
60E0
330
42C5
100
AcDbEntity
  8
DIM
 62
     0
440
 16777216
100
AcDbMText
 10
-24976.8968034871
 20
1702.359981945636
 30
0.0
 40
25.0
 41
0.0
 46
0.0
 71
     5
 72
     1
  1
{\Ftxt.shx|c0;%%c}38
 73
     1
 44
1.0
  0
POINT
  5
60E1
330
42C5
100
AcDbEntity
  8
Defpoints
 62
     0
440
 16777216
100
AcDbPoint
 10
-25071.8968034871
 20
1653.45355380939
 30
0.0
  0
POINT
  5
60E2
330
42C5
100
AcDbEntity
  8
Defpoints
 62
     0
440
 16777216
100
AcDbPoint
 10
-24881.8968034871
 20
1653.45355380939
 30
0.0
  0
POINT
  5
60E3
330
42C5
100
AcDbEntity
  8
Defpoints
 62
     0
440
 16777216
100
AcDbPoint
 10
-24881.8968034871
 20
1686.859981945636
 30
0.0
  0
ENDBLK
  5
42D0
330
42C5
100
AcDbEntity
  8
0
100
AcDbBlockEnd
  0
BLOCK
  5
42E7
330
42DD
100
AcDbEntity
  8
0
100
AcDbBlockBegin
  2
*D27
 70
     1
 10
0.0
 20
0.0
 30
0.0
  3
*D27
  1

  0
LINE
  5
60D2
330
42DD
100
AcDbEntity
  8
DIM
 62
     0
440
 16777216
370
    -2
100
AcDbLine
 10
-25151.89680348708
 20
1762.774473562726
 30
0.0
 11
-25151.89680348708
 21
1720.945090694353
 31
0.0
  0
LINE
  5
60D3
330
42DD
100
AcDbEntity
  8
DIM
 62
     0
440
 16777216
370
    -2
100
AcDbLine
 10
-24801.89680348706
 20
1654.453553809389
 30
0.0
 11
-24801.89680348706
 21
1723.445090694353
 31
0.0
  0
LINE
  5
60D4
330
42DD
100
AcDbEntity
  8
DIM
 62
     0
440
 16777216
370
    -2
100
AcDbLine
 10
-25136.89680348708
 20
1722.195090694353
 30
0.0
 11
-24816.89680348706
 21
1722.195090694353
 31
0.0
  0
SOLID
  5
60D5
330
42DD
100
AcDbEntity
  8
DIM
 62
     0
440
 16777216
100
AcDbTrace
 10
-25136.89680348708
 20
1724.695090694353
 30
0.0
 11
-25136.89680348708
 21
1719.695090694353
 31
0.0
 12
-25151.89680348708
 22
1722.195090694353
 32
0.0
 13
-25151.89680348708
 23
1722.195090694353
 33
0.0
  0
SOLID
  5
60D6
330
42DD
100
AcDbEntity
  8
DIM
 62
     0
440
 16777216
100
AcDbTrace
 10
-24816.89680348706
 20
1724.695090694353
 30
0.0
 11
-24816.89680348706
 21
1719.695090694353
 31
0.0
 12
-24801.89680348706
 22
1722.195090694353
 32
0.0
 13
-24801.89680348706
 23
1722.195090694353
 33
0.0
  0
MTEXT
  5
60D7
330
42DD
100
AcDbEntity
  8
DIM
 62
     0
440
 16777216
100
AcDbMText
 10
-24976.89680348707
 20
1737.695090694353
 30
0.0
 40
25.0
 41
0.0
 46
0.0
 71
     5
 72
     1
  1
70
 73
     1
 44
1.0
  0
POINT
  5
60D8
330
42DD
100
AcDbEntity
  8
Defpoints
 62
     0
440
 16777216
100
AcDbPoint
 10
-25151.89680348708
 20
1763.774473562726
 30
0.0
  0
POINT
  5
60D9
330
42DD
100
AcDbEntity
  8
Defpoints
 62
     0
440
 16777216
100
AcDbPoint
 10
-24801.89680348706
 20
1653.45355380939
 30
0.0
  0
POINT
  5
60DA
330
42DD
100
AcDbEntity
  8
Defpoints
 62
     0
440
 16777216
100
AcDbPoint
 10
-24801.89680348706
 20
1722.195090694353
 30
0.0
  0
ENDBLK
  5
42E8
330
42DD
100
AcDbEntity
  8
0
100
AcDbBlockEnd
  0
BLOCK
  5
4329
330
431D
100
AcDbEntity
  8
0
100
AcDbBlockBegin
  2
*D28
 70
     1
 10
0.0
 20
0.0
 30
0.0
  3
*D28
  1

  0
LINE
  5
60C7
330
431D
100
AcDbEntity
  8
DIM
 62
     0
440
 16777216
370
    -2
100
AcDbLine
 10
-24801.89680348706
 20
1689.949322251871
 30
0.0
 11
-24801.89680348706
 21
1723.445090694353
 31
0.0
  0
LINE
  5
60C8
330
431D
100
AcDbEntity
  8
DIM
 62
     0
440
 16777216
370
    -2
100
AcDbLine
 10
-24789.39680348708
 20
1639.45355380939
 30
0.0
 11
-24789.39680348708
 21
1723.445090694353
 31
0.0
  0
LINE
  5
60C9
330
431D
100
AcDbEntity
  8
DIM
 62
     0
440
 16777216
370
    -2
100
AcDbLine
 10
-24816.89680348706
 20
1722.195090694353
 30
0.0
 11
-24831.89680348706
 21
1722.195090694353
 31
0.0
  0
LINE
  5
60CA
330
431D
100
AcDbEntity
  8
DIM
 62
     0
440
 16777216
370
    -2
100
AcDbLine
 10
-24774.39680348708
 20
1722.195090694353
 30
0.0
 11
-24702.97307467352
 21
1722.195090694353
 31
0.0
  0
LINE
  5
60CB
330
431D
100
AcDbEntity
  8
DIM
 62
     0
440
 16777216
370
    -2
100
AcDbLine
 10
-24801.89680348706
 20
1722.195090694353
 30
0.0
 11
-24789.39680348708
 21
1722.195090694353
 31
0.0
  0
SOLID
  5
60CC
330
431D
100
AcDbEntity
  8
DIM
 62
     0
440
 16777216
100
AcDbTrace
 10
-24816.89680348706
 20
1724.695090694353
 30
0.0
 11
-24816.89680348706
 21
1719.695090694353
 31
0.0
 12
-24801.89680348706
 22
1722.195090694353
 32
0.0
 13
-24801.89680348706
 23
1722.195090694353
 33
0.0
  0
SOLID
  5
60CD
330
431D
100
AcDbEntity
  8
DIM
 62
     0
440
 16777216
100
AcDbTrace
 10
-24774.39680348708
 20
1724.695090694353
 30
0.0
 11
-24774.39680348708
 21
1719.695090694353
 31
0.0
 12
-24789.39680348708
 22
1722.195090694353
 32
0.0
 13
-24789.39680348708
 23
1722.195090694353
 33
0.0
  0
MTEXT
  5
60CE
330
431D
100
AcDbEntity
  8
DIM
 62
     0
440
 16777216
100
AcDbMText
 10
-24731.1849390803
 20
1737.695090694353
 30
0.0
 40
25.0
 41
0.0
 46
0.0
 71
     5
 72
     1
  1
2.5
 73
     1
 44
1.0
  0
POINT
  5
60CF
330
431D
100
AcDbEntity
  8
Defpoints
 62
     0
440
 16777216
100
AcDbPoint
 10
-24801.89680348706
 20
1688.949322251871
 30
0.0
  0
POINT
  5
60D0
330
431D
100
AcDbEntity
  8
Defpoints
 62
     0
440
 16777216
100
AcDbPoint
 10
-24789.39680348708
 20
1638.453553809389
 30
0.0
  0
POINT
  5
60D1
330
431D
100
AcDbEntity
  8
Defpoints
 62
     0
440
 16777216
100
AcDbPoint
 10
-24789.39680348708
 20
1722.195090694353
 30
0.0
  0
ENDBLK
  5
432A
330
431D
100
AcDbEntity
  8
0
100
AcDbBlockEnd
  0
BLOCK
  5
4350
330
4344
100
AcDbEntity
  8
0
100
AcDbBlockBegin
  2
*D29
 70
     1
 10
0.0
 20
0.0
 30
0.0
  3
*D29
  1

  0
LINE
  5
60BC
330
4344
100
AcDbEntity
  8
DIM
 62
     0
440
 16777216
370
    -2
100
AcDbLine
 10
-25150.89680348708
 20
1653.45355380939
 30
0.0
 11
-25101.65918125715
 21
1653.45355380939
 31
0.0
  0
LINE
  5
60BD
330
4344
100
AcDbEntity
  8
DIM
 62
     0
440
 16777216
370
    -2
100
AcDbLine
 10
-25160.8968034871
 20
1663.453553809391
 30
0.0
 11
-25101.65918125715
 21
1663.453553809391
 31
0.0
  0
LINE
  5
60BE
330
4344
100
AcDbEntity
  8
DIM
 62
     0
440
 16777216
370
    -2
100
AcDbLine
 10
-25102.90918125715
 20
1638.453553809389
 30
0.0
 11
-25102.90918125715
 21
1623.45355380939
 31
0.0
  0
LINE
  5
60BF
330
4344
100
AcDbEntity
  8
DIM
 62
     0
440
 16777216
370
    -2
100
AcDbLine
 10
-25102.90918125715
 20
1678.453553809391
 30
0.0
 11
-25102.90918125715
 21
1713.860333470409
 31
0.0
  0
LINE
  5
60C0
330
4344
100
AcDbEntity
  8
DIM
 62
     0
440
 16777216
370
    -2
100
AcDbLine
 10
-25102.90918125715
 20
1653.45355380939
 30
0.0
 11
-25102.90918125715
 21
1663.453553809391
 31
0.0
  0
SOLID
  5
60C1
330
4344
100
AcDbEntity
  8
DIM
 62
     0
440
 16777216
100
AcDbTrace
 10
-25105.40918125715
 20
1638.453553809389
 30
0.0
 11
-25100.40918125715
 21
1638.453553809389
 31
0.0
 12
-25102.90918125715
 22
1653.45355380939
 32
0.0
 13
-25102.90918125715
 23
1653.45355380939
 33
0.0
  0
SOLID
  5
60C2
330
4344
100
AcDbEntity
  8
DIM
 62
     0
440
 16777216
100
AcDbTrace
 10
-25105.40918125715
 20
1678.453553809391
 30
0.0
 11
-25100.40918125715
 21
1678.453553809391
 31
0.0
 12
-25102.90918125715
 22
1663.453553809391
 32
0.0
 13
-25102.90918125715
 23
1663.453553809391
 33
0.0
  0
MTEXT
  5
60C3
330
4344
100
AcDbEntity
  8
DIM
 62
     0
440
 16777216
100
AcDbMText
 10
-25118.40918125715
 20
1703.656943639896
 30
0.0
 40
25.0
 41
0.0
 46
0.0
 71
     5
 72
     1
  1
2
 11
0.0000000000000001
 21
1.0
 31
0.0
 73
     1
 44
1.0
  0
POINT
  5
60C4
330
4344
100
AcDbEntity
  8
Defpoints
 62
     0
440
 16777216
100
AcDbPoint
 10
-25151.89680348708
 20
1653.45355380939
 30
0.0
  0
POINT
  5
60C5
330
4344
100
AcDbEntity
  8
Defpoints
 62
     0
440
 16777216
100
AcDbPoint
 10
-25161.8968034871
 20
1663.453553809391
 30
0.0
  0
POINT
  5
60C6
330
4344
100
AcDbEntity
  8
Defpoints
 62
     0
440
 16777216
100
AcDbPoint
 10
-25102.90918125715
 20
1663.453553809391
 30
0.0
  0
ENDBLK
  5
4351
330
4344
100
AcDbEntity
  8
0
100
AcDbBlockEnd
  0
BLOCK
  5
4377
330
436B
100
AcDbEntity
  8
0
100
AcDbBlockBegin
  2
*D30
 70
     1
 10
0.0
 20
0.0
 30
0.0
  3
*D30
  1

  0
LINE
  5
60B1
330
436B
100
AcDbEntity
  8
DIM
 62
     0
440
 16777216
370
    -2
100
AcDbLine
 10
-24757.12411953038
 20
1638.453553809387
 30
0.0
 11
-24703.83136320052
 21
1638.453553809387
 31
0.0
  0
LINE
  5
60B2
330
436B
100
AcDbEntity
  8
DIM
 62
     0
440
 16777216
370
    -2
100
AcDbLine
 10
-24800.89680348708
 20
1653.45355380939
 30
0.0
 11
-24703.83136320052
 21
1653.45355380939
 31
0.0
  0
LINE
  5
60B3
330
436B
100
AcDbEntity
  8
DIM
 62
     0
440
 16777216
370
    -2
100
AcDbLine
 10
-24705.08136320052
 20
1623.453553809387
 30
0.0
 11
-24705.08136320052
 21
1608.453553809387
 31
0.0
  0
LINE
  5
60B4
330
436B
100
AcDbEntity
  8
DIM
 62
     0
440
 16777216
370
    -2
100
AcDbLine
 10
-24705.08136320052
 20
1668.45355380939
 30
0.0
 11
-24705.08136320052
 21
1703.860333470406
 31
0.0
  0
LINE
  5
60B5
330
436B
100
AcDbEntity
  8
DIM
 62
     0
440
 16777216
370
    -2
100
AcDbLine
 10
-24705.08136320052
 20
1638.453553809387
 30
0.0
 11
-24705.08136320052
 21
1653.45355380939
 31
0.0
  0
SOLID
  5
60B6
330
436B
100
AcDbEntity
  8
DIM
 62
     0
440
 16777216
100
AcDbTrace
 10
-24707.58136320052
 20
1623.453553809387
 30
0.0
 11
-24702.58136320051
 21
1623.453553809387
 31
0.0
 12
-24705.08136320052
 22
1638.453553809387
 32
0.0
 13
-24705.08136320052
 23
1638.453553809387
 33
0.0
  0
SOLID
  5
60B7
330
436B
100
AcDbEntity
  8
DIM
 62
     0
440
 16777216
100
AcDbTrace
 10
-24707.58136320052
 20
1668.45355380939
 30
0.0
 11
-24702.58136320051
 21
1668.45355380939
 31
0.0
 12
-24705.08136320052
 22
1653.45355380939
 32
0.0
 13
-24705.08136320052
 23
1653.45355380939
 33
0.0
  0
MTEXT
  5
60B8
330
436B
100
AcDbEntity
  8
DIM
 62
     0
440
 16777216
100
AcDbMText
 10
-24720.58136320052
 20
1693.656943639894
 30
0.0
 40
25.0
 41
0.0
 46
0.0
 71
     5
 72
     1
  1
3
 11
0.0000000000000001
 21
1.0
 31
0.0
 73
     1
 44
1.0
  0
POINT
  5
60B9
330
436B
100
AcDbEntity
  8
Defpoints
 62
     0
440
 16777216
100
AcDbPoint
 10
-24758.12411953038
 20
1638.453553809387
 30
0.0
  0
POINT
  5
60BA
330
436B
100
AcDbEntity
  8
Defpoints
 62
     0
440
 16777216
100
AcDbPoint
 10
-24801.89680348708
 20
1653.45355380939
 30
0.0
  0
POINT
  5
60BB
330
436B
100
AcDbEntity
  8
Defpoints
 62
     0
440
 16777216
100
AcDbPoint
 10
-24705.08136320052
 20
1653.45355380939
 30
0.0
  0
ENDBLK
  5
4378
330
436B
100
AcDbEntity
  8
0
100
AcDbBlockEnd
  0
BLOCK
  5
439E
330
4392
100
AcDbEntity
  8
0
100
AcDbBlockBegin
  2
*D31
 70
     1
 10
0.0
 20
0.0
 30
0.0
  3
*D31
  1

  0
LINE
  5
60A6
330
4392
100
AcDbEntity
  8
DIM
 62
     0
440
 16777216
370
    -2
100
AcDbLine
 10
-25237.8968034871
 20
1663.453553809389
 30
0.0
 11
-25310.03312822459
 21
1663.453553809389
 31
0.0
  0
LINE
  5
60A7
330
4392
100
AcDbEntity
  8
DIM
 62
     0
440
 16777216
370
    -2
100
AcDbLine
 10
-25262.8968034871
 20
1638.453553809389
 30
0.0
 11
-25310.03312822459
 21
1638.453553809389
 31
0.0
  0
LINE
  5
60A8
330
4392
100
AcDbEntity
  8
DIM
 62
     0
440
 16777216
370
    -2
100
AcDbLine
 10
-25308.78312822459
 20
1678.453553809389
 30
0.0
 11
-25308.78312822459
 21
1693.453553809389
 31
0.0
  0
LINE
  5
60A9
330
4392
100
AcDbEntity
  8
DIM
 62
     0
440
 16777216
370
    -2
100
AcDbLine
 10
-25308.78312822459
 20
1623.45355380939
 30
0.0
 11
-25308.78312822459
 21
1608.453553809389
 31
0.0
  0
LINE
  5
60AA
330
4392
100
AcDbEntity
  8
DIM
 62
     0
440
 16777216
370
    -2
100
AcDbLine
 10
-25308.78312822459
 20
1663.453553809389
 30
0.0
 11
-25308.78312822459
 21
1638.453553809389
 31
0.0
  0
SOLID
  5
60AB
330
4392
100
AcDbEntity
  8
DIM
 62
     0
440
 16777216
100
AcDbTrace
 10
-25311.28312822459
 20
1678.453553809389
 30
0.0
 11
-25306.28312822459
 21
1678.453553809389
 31
0.0
 12
-25308.78312822459
 22
1663.453553809389
 32
0.0
 13
-25308.78312822459
 23
1663.453553809389
 33
0.0
  0
SOLID
  5
60AC
330
4392
100
AcDbEntity
  8
DIM
 62
     0
440
 16777216
100
AcDbTrace
 10
-25311.28312822459
 20
1623.45355380939
 30
0.0
 11
-25306.28312822459
 21
1623.45355380939
 31
0.0
 12
-25308.78312822459
 22
1638.453553809389
 32
0.0
 13
-25308.78312822459
 23
1638.453553809389
 33
0.0
  0
MTEXT
  5
60AD
330
4392
100
AcDbEntity
  8
DIM
 62
     0
440
 16777216
100
AcDbMText
 10
-25324.28312822459
 20
1650.953553809385
 30
0.0
 40
25.0
 41
0.0
 46
0.0
 71
     5
 72
     1
  1
5
 11
0.0000000000000001
 21
1.0
 31
0.0
 73
     1
 44
1.0
  0
POINT
  5
60AE
330
4392
100
AcDbEntity
  8
Defpoints
 62
     0
440
 16777216
100
AcDbPoint
 10
-25236.8968034871
 20
1663.453553809389
 30
0.0
  0
POINT
  5
60AF
330
4392
100
AcDbEntity
  8
Defpoints
 62
     0
440
 16777216
100
AcDbPoint
 10
-25261.8968034871
 20
1638.453553809389
 30
0.0
  0
POINT
  5
60B0
330
4392
100
AcDbEntity
  8
Defpoints
 62
     0
440
 16777216
100
AcDbPoint
 10
-25308.78312822459
 20
1638.453553809389
 30
0.0
  0
ENDBLK
  5
439F
330
4392
100
AcDbEntity
  8
0
100
AcDbBlockEnd
  0
BLOCK
  5
44F1
330
44E7
100
AcDbEntity
  8
0
100
AcDbBlockBegin
  2
*D32
 70
     1
 10
0.0
 20
0.0
 30
0.0
  3
*D32
  1

  0
LINE
  5
675F
330
44E7
100
AcDbEntity
  8
DIM
 62
     0
440
 16777216
370
    -2
100
AcDbLine
 10
-25149.14743675308
 20
2362.808851155318
 30
0.0
 11
-25149.14743675308
 21
2475.220217754866
 31
0.0
  0
LINE
  5
6760
330
44E7
100
AcDbEntity
  8
DIM
 62
     0
440
 16777216
370
    -2
100
AcDbLine
 10
-24867.14743675307
 20
2362.808851155316
 30
0.0
 11
-24867.14743675307
 21
2475.220217754866
 31
0.0
  0
LINE
  5
6761
330
44E7
100
AcDbEntity
  8
DIM
 62
     0
440
 16777216
370
    -2
100
AcDbLine
 10
-25134.14743675308
 20
2473.970217754866
 30
0.0
 11
-24882.14743675306
 21
2473.970217754866
 31
0.0
  0
SOLID
  5
6762
330
44E7
100
AcDbEntity
  8
DIM
 62
     0
440
 16777216
100
AcDbTrace
 10
-25134.14743675308
 20
2476.470217754866
 30
0.0
 11
-25134.14743675308
 21
2471.470217754867
 31
0.0
 12
-25149.14743675308
 22
2473.970217754866
 32
0.0
 13
-25149.14743675308
 23
2473.970217754866
 33
0.0
  0
SOLID
  5
6763
330
44E7
100
AcDbEntity
  8
DIM
 62
     0
440
 16777216
100
AcDbTrace
 10
-24882.14743675306
 20
2476.470217754866
 30
0.0
 11
-24882.14743675306
 21
2471.470217754867
 31
0.0
 12
-24867.14743675307
 22
2473.970217754866
 32
0.0
 13
-24867.14743675307
 23
2473.970217754866
 33
0.0
  0
MTEXT
  5
6764
330
44E7
100
AcDbEntity
  8
DIM
 62
     0
440
 16777216
100
AcDbMText
 10
-25008.14743675307
 20
2492.99170479443
 30
0.0
 40
25.0
 41
0.0
 46
0.0
 71
     5
 72
     1
  1
{\Ftxt|c0;%%C\fArial|b0|i0|c0|p34;90 [3.5"]}
 73
     1
 44
1.0
  0
POINT
  5
6765
330
44E7
100
AcDbEntity
  8
Defpoints
 62
     0
440
 16777216
100
AcDbPoint
 10
-25149.14743675308
 20
2361.808851155318
 30
0.0
  0
POINT
  5
6766
330
44E7
100
AcDbEntity
  8
Defpoints
 62
     0
440
 16777216
100
AcDbPoint
 10
-24867.14743675307
 20
2361.808851155316
 30
0.0
  0
POINT
  5
6767
330
44E7
100
AcDbEntity
  8
Defpoints
 62
     0
440
 16777216
100
AcDbPoint
 10
-24867.14743675307
 20
2473.970217754866
 30
0.0
  0
ENDBLK
  5
44F2
330
44E7
100
AcDbEntity
  8
0
100
AcDbBlockEnd
  0
BLOCK
  5
4509
330
44FF
100
AcDbEntity
  8
0
100
AcDbBlockBegin
  2
*D33
 70
     1
 10
0.0
 20
0.0
 30
0.0
  3
*D33
  1

  0
LINE
  5
674D
330
44FF
100
AcDbEntity
  8
DIM
 62
     0
440
 16777216
370
    -2
100
AcDbLine
 10
-25179.14743675308
 20
2368.808851155318
 30
0.0
 11
-25179.14743675308
 21
2529.048103291419
 31
0.0
  0
LINE
  5
674E
330
44FF
100
AcDbEntity
  8
DIM
 62
     0
440
 16777216
370
    -2
100
AcDbLine
 10
-24837.14743675307
 20
2368.808851155318
 30
0.0
 11
-24837.14743675307
 21
2529.048103291419
 31
0.0
  0
LINE
  5
674F
330
44FF
100
AcDbEntity
  8
DIM
 62
     0
440
 16777216
370
    -2
100
AcDbLine
 10
-25164.14743675308
 20
2527.79810329142
 30
0.0
 11
-24852.14743675308
 21
2527.79810329142
 31
0.0
  0
SOLID
  5
6750
330
44FF
100
AcDbEntity
  8
DIM
 62
     0
440
 16777216
100
AcDbTrace
 10
-25164.14743675308
 20
2530.29810329142
 30
0.0
 11
-25164.14743675308
 21
2525.29810329142
 31
0.0
 12
-25179.14743675308
 22
2527.79810329142
 32
0.0
 13
-25179.14743675308
 23
2527.79810329142
 33
0.0
  0
SOLID
  5
6751
330
44FF
100
AcDbEntity
  8
DIM
 62
     0
440
 16777216
100
AcDbTrace
 10
-24852.14743675308
 20
2530.29810329142
 30
0.0
 11
-24852.14743675308
 21
2525.29810329142
 31
0.0
 12
-24837.14743675307
 22
2527.79810329142
 32
0.0
 13
-24837.14743675307
 23
2527.79810329142
 33
0.0
  0
MTEXT
  5
6752
330
44FF
100
AcDbEntity
  8
DIM
 62
     0
440
 16777216
100
AcDbMText
 10
-25008.14743675308
 20
2546.819590330983
 30
0.0
 40
25.0
 41
0.0
 46
0.0
 71
     5
 72
     1
  1
{\Ftxt|c0;%%C\fArial|b0|i0|c0|p34;114 [4.5"]}
 73
     1
 44
1.0
  0
POINT
  5
6753
330
44FF
100
AcDbEntity
  8
Defpoints
 62
     0
440
 16777216
100
AcDbPoint
 10
-25179.14743675308
 20
2367.808851155317
 30
0.0
  0
POINT
  5
6754
330
44FF
100
AcDbEntity
  8
Defpoints
 62
     0
440
 16777216
100
AcDbPoint
 10
-24837.14743675307
 20
2367.808851155317
 30
0.0
  0
POINT
  5
6755
330
44FF
100
AcDbEntity
  8
Defpoints
 62
     0
440
 16777216
100
AcDbPoint
 10
-24837.14743675307
 20
2527.79810329142
 30
0.0
  0
ENDBLK
  5
450A
330
44FF
100
AcDbEntity
  8
0
100
AcDbBlockEnd
  0
BLOCK
  5
4521
330
4517
100
AcDbEntity
  8
0
100
AcDbBlockBegin
  2
*D34
 70
     1
 10
0.0
 20
0.0
 30
0.0
  3
*D34
  1

  0
LINE
  5
673B
330
4517
100
AcDbEntity
  8
DIM
 62
     0
440
 16777216
370
    -2
100
AcDbLine
 10
-25186.64743675312
 20
2377.808851155318
 30
0.0
 11
-25186.64743675312
 21
2577.117849709323
 31
0.0
  0
LINE
  5
673C
330
4517
100
AcDbEntity
  8
DIM
 62
     0
440
 16777216
370
    -2
100
AcDbLine
 10
-24829.64743675306
 20
2377.808851155316
 30
0.0
 11
-24829.64743675306
 21
2577.117849709323
 31
0.0
  0
LINE
  5
673D
330
4517
100
AcDbEntity
  8
DIM
 62
     0
440
 16777216
370
    -2
100
AcDbLine
 10
-25171.64743675312
 20
2575.867849709323
 30
0.0
 11
-24844.64743675306
 21
2575.867849709323
 31
0.0
  0
SOLID
  5
673E
330
4517
100
AcDbEntity
  8
DIM
 62
     0
440
 16777216
100
AcDbTrace
 10
-25171.64743675312
 20
2578.367849709322
 30
0.0
 11
-25171.64743675312
 21
2573.367849709323
 31
0.0
 12
-25186.64743675312
 22
2575.867849709323
 32
0.0
 13
-25186.64743675312
 23
2575.867849709323
 33
0.0
  0
SOLID
  5
673F
330
4517
100
AcDbEntity
  8
DIM
 62
     0
440
 16777216
100
AcDbTrace
 10
-24844.64743675306
 20
2578.367849709322
 30
0.0
 11
-24844.64743675306
 21
2573.367849709323
 31
0.0
 12
-24829.64743675306
 22
2575.867849709323
 32
0.0
 13
-24829.64743675306
 23
2575.867849709323
 33
0.0
  0
MTEXT
  5
6740
330
4517
100
AcDbEntity
  8
DIM
 62
     0
440
 16777216
100
AcDbMText
 10
-25008.14743675309
 20
2594.889336748886
 30
0.0
 40
25.0
 41
0.0
 46
0.0
 71
     5
 72
     1
  1
{\Ftxt|c0;%%C\fArial|b0|i0|c0|p34;119 [4.7"]}
 73
     1
 44
1.0
  0
POINT
  5
6741
330
4517
100
AcDbEntity
  8
Defpoints
 62
     0
440
 16777216
100
AcDbPoint
 10
-25186.64743675312
 20
2376.808851155317
 30
0.0
  0
POINT
  5
6742
330
4517
100
AcDbEntity
  8
Defpoints
 62
     0
440
 16777216
100
AcDbPoint
 10
-24829.64743675306
 20
2376.808851155316
 30
0.0
  0
POINT
  5
6743
330
4517
100
AcDbEntity
  8
Defpoints
 62
     0
440
 16777216
100
AcDbPoint
 10
-24829.64743675306
 20
2575.867849709323
 30
0.0
  0
ENDBLK
  5
4522
330
4517
100
AcDbEntity
  8
0
100
AcDbBlockEnd
  0
BLOCK
  5
453B
330
452F
100
AcDbEntity
  8
0
100
AcDbBlockBegin
  2
*D35
 70
     1
 10
0.0
 20
0.0
 30
0.0
  3
*D35
  1

  0
LINE
  5
6773
330
452F
100
AcDbEntity
  8
DIM
 62
     0
440
 16777216
370
    -2
100
AcDbLine
 10
-24836.14743675308
 20
2367.808851155318
 30
0.0
 11
-24731.78668128438
 21
2367.808851155318
 31
0.0
  0
LINE
  5
6774
330
452F
100
AcDbEntity
  8
DIM
 62
     0
440
 16777216
370
    -2
100
AcDbLine
 10
-24828.64743675305
 20
2376.808851155319
 30
0.0
 11
-24731.78668128438
 21
2376.808851155319
 31
0.0
  0
LINE
  5
6775
330
452F
100
AcDbEntity
  8
DIM
 62
     0
440
 16777216
370
    -2
100
AcDbLine
 10
-24733.03668128438
 20
2352.808851155318
 30
0.0
 11
-24733.03668128438
 21
2337.808851155319
 31
0.0
  0
LINE
  5
6776
330
452F
100
AcDbEntity
  8
DIM
 62
     0
440
 16777216
370
    -2
100
AcDbLine
 10
-24733.03668128438
 20
2391.808851155318
 30
0.0
 11
-24733.03668128438
 21
2547.780761267678
 31
0.0
  0
LINE
  5
6777
330
452F
100
AcDbEntity
  8
DIM
 62
     0
440
 16777216
370
    -2
100
AcDbLine
 10
-24733.03668128438
 20
2367.808851155318
 30
0.0
 11
-24733.03668128438
 21
2376.808851155319
 31
0.0
  0
SOLID
  5
6778
330
452F
100
AcDbEntity
  8
DIM
 62
     0
440
 16777216
100
AcDbTrace
 10
-24735.53668128438
 20
2352.808851155318
 30
0.0
 11
-24730.53668128438
 21
2352.808851155318
 31
0.0
 12
-24733.03668128438
 22
2367.808851155318
 32
0.0
 13
-24733.03668128438
 23
2367.808851155318
 33
0.0
  0
SOLID
  5
6779
330
452F
100
AcDbEntity
  8
DIM
 62
     0
440
 16777216
100
AcDbTrace
 10
-24735.53668128438
 20
2391.808851155318
 30
0.0
 11
-24730.53668128438
 21
2391.808851155318
 31
0.0
 12
-24733.03668128438
 22
2376.808851155319
 32
0.0
 13
-24733.03668128438
 23
2376.808851155319
 33
0.0
  0
MTEXT
  5
677A
330
452F
100
AcDbEntity
  8
DIM
 62
     0
440
 16777216
100
AcDbMText
 10
-24751.69679364392
 20
2477.294806211504
 30
0.0
 40
25.0
 41
0.0
 46
0.0
 71
     5
 72
     1
  1
{\fSimHei|b0|i0|c134|p49;3 [.12"]}
 11
0.0000000000000001
 21
1.0
 31
0.0
 73
     1
 44
1.0
  0
POINT
  5
677B
330
452F
100
AcDbEntity
  8
Defpoints
 62
     0
440
 16777216
100
AcDbPoint
 10
-24837.14743675308
 20
2367.808851155318
 30
0.0
  0
POINT
  5
677C
330
452F
100
AcDbEntity
  8
Defpoints
 62
     0
440
 16777216
100
AcDbPoint
 10
-24829.64743675305
 20
2376.808851155319
 30
0.0
  0
POINT
  5
677D
330
452F
100
AcDbEntity
  8
Defpoints
 62
     0
440
 16777216
100
AcDbPoint
 10
-24733.03668128438
 20
2376.808851155319
 30
0.0
  0
ENDBLK
  5
453C
330
452F
100
AcDbEntity
  8
0
100
AcDbBlockEnd
  0
BLOCK
  5
4557
330
454B
100
AcDbEntity
  8
0
100
AcDbBlockBegin
  2
*D36
 70
     1
 10
0.0
 20
0.0
 30
0.0
  3
*D36
  1

  0
LINE
  5
6789
330
454B
100
AcDbEntity
  8
DIM
 62
     0
440
 16777216
370
    -2
100
AcDbLine
 10
-24866.14743675308
 20
2361.808851155317
 30
0.0
 11
-24688.88438916211
 21
2361.808851155317
 31
0.0
  0
LINE
  5
678A
330
454B
100
AcDbEntity
  8
DIM
 62
     0
440
 16777216
370
    -2
100
AcDbLine
 10
-24828.64743675306
 20
2376.808851155317
 30
0.0
 11
-24688.88438916211
 21
2376.808851155317
 31
0.0
  0
LINE
  5
678B
330
454B
100
AcDbEntity
  8
DIM
 62
     0
440
 16777216
370
    -2
100
AcDbLine
 10
-24690.1343891621
 20
2346.808851155317
 30
0.0
 11
-24690.1343891621
 21
2331.808851155317
 31
0.0
  0
LINE
  5
678C
330
454B
100
AcDbEntity
  8
DIM
 62
     0
440
 16777216
370
    -2
100
AcDbLine
 10
-24690.1343891621
 20
2391.808851155317
 30
0.0
 11
-24690.1343891621
 21
2530.645929807003
 31
0.0
  0
LINE
  5
678D
330
454B
100
AcDbEntity
  8
DIM
 62
     0
440
 16777216
370
    -2
100
AcDbLine
 10
-24690.1343891621
 20
2361.808851155317
 30
0.0
 11
-24690.1343891621
 21
2376.808851155317
 31
0.0
  0
SOLID
  5
678E
330
454B
100
AcDbEntity
  8
DIM
 62
     0
440
 16777216
100
AcDbTrace
 10
-24692.63438916211
 20
2346.808851155317
 30
0.0
 11
-24687.6343891621
 21
2346.808851155317
 31
0.0
 12
-24690.1343891621
 22
2361.808851155317
 32
0.0
 13
-24690.1343891621
 23
2361.808851155317
 33
0.0
  0
SOLID
  5
678F
330
454B
100
AcDbEntity
  8
DIM
 62
     0
440
 16777216
100
AcDbTrace
 10
-24692.63438916211
 20
2391.808851155317
 30
0.0
 11
-24687.6343891621
 21
2391.808851155317
 31
0.0
 12
-24690.1343891621
 22
2376.808851155317
 32
0.0
 13
-24690.1343891621
 23
2376.808851155317
 33
0.0
  0
MTEXT
  5
6790
330
454B
100
AcDbEntity
  8
DIM
 62
     0
440
 16777216
100
AcDbMText
 10
-24708.79450152165
 20
2468.727390481166
 30
0.0
 40
25.0
 41
0.0
 46
0.0
 71
     5
 72
     1
  1
{\fSimHei|b0|i0|c134|p49;5 [.2"]}
 11
0.0000000000000001
 21
1.0
 31
0.0
 73
     1
 44
1.0
  0
POINT
  5
6791
330
454B
100
AcDbEntity
  8
Defpoints
 62
     0
440
 16777216
100
AcDbPoint
 10
-24867.14743675308
 20
2361.808851155317
 30
0.0
  0
POINT
  5
6792
330
454B
100
AcDbEntity
  8
Defpoints
 62
     0
440
 16777216
100
AcDbPoint
 10
-24829.64743675306
 20
2376.808851155317
 30
0.0
  0
POINT
  5
6793
330
454B
100
AcDbEntity
  8
Defpoints
 62
     0
440
 16777216
100
AcDbPoint
 10
-24690.1343891621
 20
2376.808851155317
 30
0.0
  0
ENDBLK
  5
4558
330
454B
100
AcDbEntity
  8
0
100
AcDbBlockEnd
  0
BLOCK
  5
5588
330
557E
100
AcDbEntity
  8
0
100
AcDbBlockBegin
  2
*D37
 70
     1
 10
0.0
 20
0.0
 30
0.0
  3
*D37
  1

  0
LINE
  5
66D5
330
557E
100
AcDbEntity
  8
DIM
 62
     0
440
 16777216
370
    -2
100
AcDbLine
 10
-26038.5646966004
 20
2323.966414814388
 30
0.0
 11
-26038.5646966004
 21
2090.689799872602
 31
0.0
  0
LINE
  5
66D6
330
557E
100
AcDbEntity
  8
DIM
 62
     0
440
 16777216
370
    -2
100
AcDbLine
 10
-25505.5646966004
 20
2323.966414814388
 30
0.0
 11
-25505.5646966004
 21
2090.689799872602
 31
0.0
  0
LINE
  5
66D7
330
557E
100
AcDbEntity
  8
DIM
 62
     0
440
 16777216
370
    -2
100
AcDbLine
 10
-26023.5646966004
 20
2091.939799872602
 30
0.0
 11
-25520.5646966004
 21
2091.939799872602
 31
0.0
  0
SOLID
  5
66D8
330
557E
100
AcDbEntity
  8
DIM
 62
     0
440
 16777216
100
AcDbTrace
 10
-26023.5646966004
 20
2094.439799872602
 30
0.0
 11
-26023.5646966004
 21
2089.439799872602
 31
0.0
 12
-26038.5646966004
 22
2091.939799872602
 32
0.0
 13
-26038.5646966004
 23
2091.939799872602
 33
0.0
  0
SOLID
  5
66D9
330
557E
100
AcDbEntity
  8
DIM
 62
     0
440
 16777216
100
AcDbTrace
 10
-25520.5646966004
 20
2094.439799872602
 30
0.0
 11
-25520.5646966004
 21
2089.439799872602
 31
0.0
 12
-25505.5646966004
 22
2091.939799872602
 32
0.0
 13
-25505.5646966004
 23
2091.939799872602
 33
0.0
  0
MTEXT
  5
66DA
330
557E
100
AcDbEntity
  8
DIM
 62
     0
440
 16777216
100
AcDbMText
 10
-25772.0646966004
 20
2110.599912232153
 30
0.0
 40
25.0
 41
0.0
 46
0.0
 71
     5
 72
     1
  1
533{\fSimHei|b0|i0|c134|p49; \{21"]}
 73
     1
 44
1.0
  0
POINT
  5
66DB
330
557E
100
AcDbEntity
  8
Defpoints
 62
     0
440
 16777216
100
AcDbPoint
 10
-26038.5646966004
 20
2324.966414814388
 30
0.0
  0
POINT
  5
66DC
330
557E
100
AcDbEntity
  8
Defpoints
 62
     0
440
 16777216
100
AcDbPoint
 10
-25505.5646966004
 20
2324.966414814388
 30
0.0
  0
POINT
  5
66DD
330
557E
100
AcDbEntity
  8
Defpoints
 62
     0
440
 16777216
100
AcDbPoint
 10
-25505.5646966004
 20
2091.939799872602
 30
0.0
  0
ENDBLK
  5
5589
330
557E
100
AcDbEntity
  8
0
100
AcDbBlockEnd
  0
BLOCK
  5
5670
330
566A
100
AcDbEntity
  8
0
100
AcDbBlockBegin
  2
*D38
 70
     1
 10
0.0
 20
0.0
 30
0.0
  3
*D38
  1

  0
LINE
  5
6067
330
566A
100
AcDbEntity
  8
DIM
 62
     0
440
 16777216
370
    -2
100
AcDbLine
 10
-26024.33509787403
 20
2620.350943125251
 30
0.0
 11
-25939.96445469965
 21
2685.835034710916
 31
0.0
  0
MTEXT
  5
6068
330
566A
100
AcDbEntity
  8
DIM
 62
     0
440
 16777216
100
AcDbMText
 10
-26018.69307087066
 20
2644.35084410064
 30
0.0
 40
25.0
 41
0.0
 46
0.0
 71
     5
 72
     1
  1
R5
 11
0.7899758099256945
 21
0.6131380103469717
 31
0.0
 73
     1
 44
1.0
  0
SOLID
  5
6069
330
566A
100
AcDbEntity
  8
DIM
 62
     0
440
 16777216
100
AcDbTrace
 10
-25941.49729972552
 20
2687.80997423573
 30
0.0
 11
-25938.43160967378
 21
2683.860095186101
 31
0.0
 12
-25928.11481755077
 22
2695.032104866119
 32
0.0
 13
-25928.11481755077
 23
2695.032104866119
 33
0.0
  0
POINT
  5
606A
330
566A
100
AcDbEntity
  8
Defpoints
 62
     0
440
 16777216
100
AcDbPoint
 10
-25928.11481755077
 20
2695.032104866119
 30
0.0
  0
POINT
  5
606B
330
566A
100
AcDbEntity
  8
Defpoints
 62
     0
440
 16777216
100
AcDbPoint
 10
-25932.06469660039
 20
2691.96641481439
 30
0.0
  0
ENDBLK
  5
5671
330
566A
100
AcDbEntity
  8
0
100
AcDbBlockEnd
  0
BLOCK
  5
5685
330
567F
100
AcDbEntity
  8
0
100
AcDbBlockBegin
  2
*D39
 70
     1
 10
0.0
 20
0.0
 30
0.0
  3
*D39
  1

  0
LINE
  5
670B
330
567F
100
AcDbEntity
  8
DIM
 62
     0
440
 16777216
370
    -2
100
AcDbLine
 10
-25777.54189714047
 20
2499.674845377425
 30
0.0
 11
-26022.65585801698
 21
2523.621188204685
 31
0.0
  0
MTEXT
  5
670C
330
567F
100
AcDbEntity
  8
DIM
 62
     0
440
 16777216
100
AcDbMText
 10
-25890.82005748039
 20
2529.490474325088
 30
0.0
 40
25.0
 41
0.0
 46
0.0
 71
     5
 72
     1
  1
{\fSimHei|b0|i0|c134|p49;8-}R250{\fSimHei|b0|i0|c134|p49; [9.8"]}
 11
0.9952617600259593
 21
-0.0972318313621102
 31
0.0
 73
     1
 44
1.0
  0
SOLID
  5
670D
330
567F
100
AcDbEntity
  8
DIM
 62
     0
440
 16777216
100
AcDbTrace
 10
-26022.41277843857
 20
2526.10934260475
 30
0.0
 11
-26022.89893759539
 21
2521.13303380462
 31
0.0
 12
-26037.58478441737
 22
2525.079665675117
 32
0.0
 13
-26037.58478441737
 23
2525.079665675117
 33
0.0
  0
POINT
  5
670E
330
567F
100
AcDbEntity
  8
Defpoints
 62
     0
440
 16777216
100
AcDbPoint
 10
-26037.58478441737
 20
2525.079665675117
 30
0.0
  0
POINT
  5
670F
330
567F
100
AcDbEntity
  8
Defpoints
 62
     0
440
 16777216
100
AcDbPoint
 10
-25788.76934441086
 20
2500.771707834586
 30
0.0
  0
ENDBLK
  5
5686
330
567F
100
AcDbEntity
  8
0
100
AcDbBlockEnd
  0
BLOCK
  5
5698
330
5692
100
AcDbEntity
  8
0
100
AcDbBlockBegin
  2
*D40
 70
     1
 10
0.0
 20
0.0
 30
0.0
  3
*D40
  1

  0
LINE
  5
6701
330
5692
100
AcDbEntity
  8
DIM
 62
     0
440
 16777216
370
    -2
100
AcDbLine
 10
-25872.38603574533
 20
2392.476921887399
 30
0.0
 11
-25999.33035429196
 21
2247.220419660109
 31
0.0
  0
MTEXT
  5
6702
330
5692
100
AcDbEntity
  8
DIM
 62
     0
440
 16777216
100
AcDbMText
 10
-25944.97342615872
 20
2337.775253117689
 30
0.0
 40
25.0
 41
0.0
 46
0.0
 71
     5
 72
     1
  1
{\fSimHei|b0|i0|c134|p49;4-}R78{\fSimHei|b0|i0|c134|p49; [3"]}
 11
0.6580490623012408
 21
0.7529750537730036
 31
0.0
 73
     1
 44
1.0
  0
SOLID
  5
6703
330
5692
100
AcDbEntity
  8
DIM
 62
     0
440
 16777216
100
AcDbTrace
 10
-26001.21279192639
 20
2248.865542315861
 30
0.0
 11
-25997.44791665753
 21
2245.575297004356
 31
0.0
 12
-26009.20109022648
 22
2235.925793853514
 32
0.0
 13
-26009.20109022648
 23
2235.925793853514
 33
0.0
  0
POINT
  5
6704
330
5692
100
AcDbEntity
  8
Defpoints
 62
     0
440
 16777216
100
AcDbPoint
 10
-26009.20109022648
 20
2235.925793853514
 30
0.0
  0
POINT
  5
6705
330
5692
100
AcDbEntity
  8
Defpoints
 62
     0
440
 16777216
100
AcDbPoint
 10
-25957.87326336699
 20
2294.657848047802
 30
0.0
  0
ENDBLK
  5
5699
330
5692
100
AcDbEntity
  8
0
100
AcDbBlockEnd
  0
BLOCK
  5
5704
330
56FA
100
AcDbEntity
  8
0
100
AcDbBlockBegin
  2
*D41
 70
     1
 10
0.0
 20
0.0
 30
0.0
  3
*D41
  1

  0
LINE
  5
6053
330
56FA
100
AcDbEntity
  8
DIM
 62
     0
440
 16777216
370
    -2
100
AcDbLine
 10
-26038.5646966004
 20
2162.966414814393
 30
0.0
 11
-26038.5646966004
 21
2090.689799872602
 31
0.0
  0
LINE
  5
6054
330
56FA
100
AcDbEntity
  8
DIM
 62
     0
440
 16777216
370
    -2
100
AcDbLine
 10
-26089.5646966004
 20
2162.966414814393
 30
0.0
 11
-26089.5646966004
 21
2090.689799872602
 31
0.0
  0
LINE
  5
6055
330
56FA
100
AcDbEntity
  8
DIM
 62
     0
440
 16777216
370
    -2
100
AcDbLine
 10
-26053.5646966004
 20
2091.939799872602
 30
0.0
 11
-26074.5646966004
 21
2091.939799872602
 31
0.0
  0
LINE
  5
6056
330
56FA
100
AcDbEntity
  8
DIM
 62
     0
440
 16777216
370
    -2
100
AcDbLine
 10
-26089.5646966004
 20
2091.939799872602
 30
0.0
 11
-26173.98277569645
 21
2091.939799872602
 31
0.0
  0
SOLID
  5
6057
330
56FA
100
AcDbEntity
  8
DIM
 62
     0
440
 16777216
100
AcDbTrace
 10
-26053.5646966004
 20
2094.439799872602
 30
0.0
 11
-26053.5646966004
 21
2089.439799872602
 31
0.0
 12
-26038.5646966004
 22
2091.939799872602
 32
0.0
 13
-26038.5646966004
 23
2091.939799872602
 33
0.0
  0
SOLID
  5
6058
330
56FA
100
AcDbEntity
  8
DIM
 62
     0
440
 16777216
100
AcDbTrace
 10
-26074.5646966004
 20
2094.439799872602
 30
0.0
 11
-26074.5646966004
 21
2089.439799872602
 31
0.0
 12
-26089.5646966004
 22
2091.939799872602
 32
0.0
 13
-26089.5646966004
 23
2091.939799872602
 33
0.0
  0
MTEXT
  5
6059
330
56FA
100
AcDbEntity
  8
DIM
 62
     0
440
 16777216
100
AcDbMText
 10
-26139.27373614842
 20
2107.439799872602
 30
0.0
 40
25.0
 41
0.0
 46
0.0
 71
     5
 72
     1
  1
2-51
 73
     1
 44
1.0
  0
POINT
  5
605A
330
56FA
100
AcDbEntity
  8
Defpoints
 62
     0
440
 16777216
100
AcDbPoint
 10
-26038.5646966004
 20
2163.966414814393
 30
0.0
  0
POINT
  5
605B
330
56FA
100
AcDbEntity
  8
Defpoints
 62
     0
440
 16777216
100
AcDbPoint
 10
-26089.5646966004
 20
2163.966414814393
 30
0.0
  0
POINT
  5
605C
330
56FA
100
AcDbEntity
  8
Defpoints
 62
     0
440
 16777216
100
AcDbPoint
 10
-26089.5646966004
 20
2091.939799872602
 30
0.0
  0
ENDBLK
  5
5705
330
56FA
100
AcDbEntity
  8
0
100
AcDbBlockEnd
  0
BLOCK
  5
574A
330
573A
100
AcDbEntity
  8
0
100
AcDbBlockBegin
  2
*D42
 70
     1
 10
0.0
 20
0.0
 30
0.0
  3
*D42
  1

  0
LINE
  5
6224
330
573A
100
AcDbEntity
  8
DIM
 62
     0
440
 16777216
370
    -2
100
AcDbLine
 10
-26077.88630586707
 20
3157.24223814323
 30
0.0
 11
-26265.64596219155
 21
3167.082304770143
 31
0.0
  0
LINE
  5
6225
330
573A
100
AcDbEntity
  8
DIM
 62
     0
440
 16777216
370
    -2
100
AcDbLine
 10
-25832.56469660041
 20
3144.333069612139
 30
0.0
 11
-26266.24167187916
 21
3144.33306961214
 31
0.0
  0
ARC
  5
6226
330
573A
100
AcDbEntity
  8
DIM
 62
     0
440
 16777216
370
    -2
100
AcDbCircle
 10
-25831.5646966004
 20
3144.333069612138
 30
0.0
 40
433.4269752787575
100
AcDbArc
 50
173.033434035402
 51
176.9999999999999
  0
LINE
  5
6227
330
573A
100
AcDbEntity
  8
DIM
 62
     0
440
 16777216
370
    -2
100
AcDbLine
 10
-26261.79172280401
 20
3196.903487370609
 30
0.0
 11
-26250.92807856621
 21
3285.809635608431
 31
0.0
  0
ARC
  5
6228
330
573A
100
AcDbEntity
  8
DIM
 62
     0
440
 16777216
370
    -2
100
AcDbCircle
 10
-25831.5646966004
 20
3144.333069612138
 30
0.0
 40
433.4269752787575
100
AcDbArc
 50
173.0340281651749
 51
175.0170140825874
  0
ARC
  5
6229
330
573A
100
AcDbEntity
  8
DIM
 62
     0
440
 16777216
370
    -2
100
AcDbCircle
 10
-25831.5646966004
 20
3144.333069612138
 30
0.0
 40
433.4269752787575
100
AcDbArc
 50
181.9829859174124
 51
183.9659718348249
  0
ARC
  5
622A
330
573A
100
AcDbEntity
  8
DIM
 62
     0
440
 16777216
370
    -2
100
AcDbCircle
 10
-25831.5646966004
 20
3144.333069612138
 30
0.0
 40
433.4269752787575
100
AcDbArc
 50
176.9999999999999
 51
179.9999999999998
  0
SOLID
  5
622B
330
573A
100
AcDbEntity
  8
DIM
 62
     0
440
 16777216
100
AcDbTrace
 10
-26260.85961390043
 20
3181.80647987417
 30
0.0
 11
-26265.84748588252
 21
3182.154521668047
 31
0.0
 12
-26264.39767527311
 22
3167.016884824839
 32
0.0
 13
-26264.39767527311
 23
3167.016884824839
 33
0.0
  0
SOLID
  5
622C
330
573A
100
AcDbEntity
  8
DIM
 62
     0
440
 16777216
100
AcDbTrace
 10
-26267.23173827297
 20
3129.292055598739
 30
0.0
 11
-26262.23248689599
 21
3129.378575363633
 31
0.0
 12
-26264.99167187916
 22
3144.33306961214
 32
0.0
 13
-26264.99167187916
 23
3144.33306961214
 33
0.0
  0
MTEXT
  5
622D
330
573A
100
AcDbEntity
  8
DIM
 62
     0
440
 16777216
100
AcDbMText
 10
-26273.3487096048
 20
3243.432462648048
 30
0.0
 40
25.0
 41
0.0
 46
0.0
 71
     5
 72
     1
  1
3,00\U+00B0
 11
0.121290138262989
 21
0.9926170975558223
 31
0.0
 73
     1
 44
1.0
  0
POINT
  5
622E
330
573A
100
AcDbEntity
  8
Defpoints
 62
     0
440
 16777216
100
AcDbPoint
 10
-26264.92565885148
 20
3151.897413345587
 30
0.0
  0
POINT
  5
622F
330
573A
100
AcDbEntity
  8
Defpoints
 62
     0
440
 16777216
100
AcDbPoint
 10
-25712.56469660038
 20
3144.333069612138
 30
0.0
  0
POINT
  5
6230
330
573A
100
AcDbEntity
  8
Defpoints
 62
     0
440
 16777216
100
AcDbPoint
 10
-25831.5646966004
 20
3144.333069612138
 30
0.0
  0
POINT
  5
6231
330
573A
100
AcDbEntity
  8
Defpoints
 62
     0
440
 16777216
100
AcDbPoint
 10
-26076.88767633232
 20
3157.189902186987
 30
0.0
  0
POINT
  5
6232
330
573A
100
AcDbEntity
  8
Defpoints
 62
     0
440
 16777216
100
AcDbPoint
 10
-25831.5646966004
 20
3144.333069612138
 30
0.0
  0
ENDBLK
  5
574B
330
573A
100
AcDbEntity
  8
0
100
AcDbBlockEnd
  0
BLOCK
  5
5764
330
575E
100
AcDbEntity
  8
0
100
AcDbBlockBegin
  2
*D43
 70
     1
 10
0.0
 20
0.0
 30
0.0
  3
*D43
  1

  0
LINE
  5
6442
330
575E
100
AcDbEntity
  8
DIM
 62
     0
440
 16777216
370
    -2
100
AcDbLine
 10
-25964.15989872144
 20
3323.691885541388
 30
0.0
 11
-26097.94627412294
 21
3186.275460744739
 31
0.0
  0
MTEXT
  5
6443
330
575E
100
AcDbEntity
  8
DIM
 62
     0
440
 16777216
100
AcDbMText
 10
-26039.19134419362
 20
3273.374392370892
 30
0.0
 40
25.0
 41
0.0
 46
0.0
 71
     5
 72
     1
  1
R65{\fSimHei|b0|i0|c134|p49; [2.6"]}
 11
0.6975796713769676
 21
0.7165072240261099
 31
0.0
 73
     1
 44
1.0
  0
SOLID
  5
6444
330
575E
100
AcDbEntity
  8
DIM
 62
     0
440
 16777216
100
AcDbTrace
 10
-26099.737542183
 20
3188.019409923181
 30
0.0
 11
-26096.15500606287
 21
3184.531511566297
 31
0.0
 12
-26108.40996919359
 22
3175.527852384349
 32
0.0
 13
-26108.40996919359
 23
3175.527852384349
 33
0.0
  0
POINT
  5
6445
330
575E
100
AcDbEntity
  8
Defpoints
 62
     0
440
 16777216
100
AcDbPoint
 10
-26108.40996919359
 20
3175.527852384349
 30
0.0
  0
POINT
  5
6446
330
575E
100
AcDbEntity
  8
Defpoints
 62
     0
440
 16777216
100
AcDbPoint
 10
-26063.06729055408
 20
3222.100821946053
 30
0.0
  0
ENDBLK
  5
5765
330
575E
100
AcDbEntity
  8
0
100
AcDbBlockEnd
  0
BLOCK
  5
68AE
330
68AD
100
AcDbEntity
  8
0
 62
     0
100
AcDbBlockBegin
  2
*D44
 70
     1
 10
0.0
 20
0.0
 30
0.0
  3
*D44
  1

  0
LINE
  5
68CC
330
68AD
100
AcDbEntity
  8
DIM
 62
     0
440
 16777216
370
    -2
100
AcDbLine
 10
-25900.17556750301
 20
2664.962197341279
 30
0.0
 11
-26174.80264478195
 21
2664.962197341279
 31
0.0
  0
LINE
  5
68CD
330
68AD
100
AcDbEntity
  8
DIM
 62
     0
440
 16777216
370
    -2
100
AcDbLine
 10
-26151.153114935
 20
2721.966414814394
 30
0.0
 11
-26174.80264478195
 21
2721.966414814394
 31
0.0
  0
LINE
  5
68CE
330
68AD
100
AcDbEntity
  8
DIM
 62
     0
440
 16777216
370
    -2
100
AcDbLine
 10
-26173.55264478195
 20
2679.962197341279
 30
0.0
 11
-26173.55264478195
 21
2706.966414814394
 31
0.0
  0
LINE
  5
68CF
330
68AD
100
AcDbEntity
  8
DIM
 62
     0
440
 16777216
370
    -2
100
AcDbLine
 10
-26173.55264478195
 20
2721.966414814394
 30
0.0
 11
-26173.55264478195
 21
2914.736077735742
 31
0.0
  0
SOLID
  5
68D0
330
68AD
100
AcDbEntity
  8
DIM
 62
     0
440
 16777216
100
AcDbTrace
 10
-26176.05264478195
 20
2679.962197341279
 30
0.0
 11
-26171.05264478195
 21
2679.962197341279
 31
0.0
 12
-26173.55264478195
 22
2664.962197341279
 32
0.0
 13
-26173.55264478195
 23
2664.962197341279
 33
0.0
  0
SOLID
  5
68D1
330
68AD
100
AcDbEntity
  8
DIM
 62
     0
440
 16777216
100
AcDbTrace
 10
-26176.05264478195
 20
2706.966414814394
 30
0.0
 11
-26171.05264478195
 21
2706.966414814394
 31
0.0
 12
-26173.55264478195
 22
2721.966414814394
 32
0.0
 13
-26173.55264478195
 23
2721.966414814394
 33
0.0
  0
MTEXT
  5
68D2
330
68AD
100
AcDbEntity
  8
DIM
 62
     0
440
 16777216
100
AcDbMText
 10
-26192.21275714149
 20
2825.851246275076
 30
0.0
 40
25.0
 41
0.0
 46
0.0
 71
     5
 72
     1
  1
57{\fSimHei|b0|i0|c134|p49; [2.24"]}
 11
0.0000000000000001
 21
1.0
 31
0.0
 73
     1
 44
1.0
  0
POINT
  5
68D3
330
68AD
100
AcDbEntity
  8
Defpoints
 62
     0
440
 16777216
100
AcDbPoint
 10
-25899.17556750301
 20
2664.962197341279
 30
0.0
  0
POINT
  5
68D4
330
68AD
100
AcDbEntity
  8
Defpoints
 62
     0
440
 16777216
100
AcDbPoint
 10
-26150.15311493499
 20
2721.966414814394
 30
0.0
  0
POINT
  5
68D5
330
68AD
100
AcDbEntity
  8
Defpoints
 62
     0
440
 16777216
100
AcDbPoint
 10
-26173.55264478195
 20
2721.966414814394
 30
0.0
  0
ENDBLK
  5
68AF
330
68AD
100
AcDbEntity
  8
0
 62
     0
100
AcDbBlockEnd
  0
ENDSEC
  0
SECTION
  2
ENTITIES
  0
LINE
  5
39D0
330
1F
100
AcDbEntity
  8
DIM
  6
CENTER
 62
     0
100
AcDbLine
 10
-25772.06469660039
 20
2721.966414814393
 30
0.0
 11
-25772.0646966004
 21
2278.927042411218
 31
0.0
  0
LINE
  5
39D1
330
1F
100
AcDbEntity
  8
DIM
  6
CENTER
 62
     0
100
AcDbLine
 10
-26038.5646966004
 20
2413.966414814393
 30
0.0
 11
-25578.08452474587
 21
2413.966414814393
 31
0.0
  0
CIRCLE
  5
39D2
330
1F
100
AcDbEntity
  8
base
 62
     0
100
AcDbCircle
 10
-25772.0646966004
 20
2413.966414814393
 30
0.0
 40
47.0
  0
CIRCLE
  5
39D3
330
1F
100
AcDbEntity
  8
base
 62
     0
100
AcDbCircle
 10
-25772.0646966004
 20
2413.966414814393
 30
0.0
 40
57.0
  0
CIRCLE
  5
39D4
330
1F
100
AcDbEntity
  8
base
 62
     0
100
AcDbCircle
 10
-25772.0646966004
 20
2413.966414814393
 30
0.0
 40
59.5
  0
LINE
  5
39DD
330
1F
100
AcDbEntity
  8
base
 62
     0
100
AcDbLine
 10
-25907.0646966004
 20
2624.466414814393
 30
0.0
 11
-25637.0646966004
 21
2624.466414814393
 31
0.0
  0
LINE
  5
39DF
102
{ACAD_REACTORS
330
3C7E
102
}
330
1F
100
AcDbEntity
  8
base
 62
     0
100
AcDbLine
 10
-25617.0646966004
 20
2644.466414814393
 30
0.0
 11
-25617.0646966004
 21
2691.966414814393
 31
0.0
  0
LINE
  5
39E0
330
1F
100
AcDbEntity
  8
base
 62
     0
100
AcDbLine
 10
-25927.0646966004
 20
2644.466414814393
 30
0.0
 11
-25927.0646966004
 21
2691.966414814393
 31
0.0
  0
ARC
  5
39E3
330
1F
100
AcDbEntity
  8
base
 62
     0
100
AcDbCircle
 10
-25612.0646966004
 20
2691.966414814393
 30
0.0
 40
5.0
100
AcDbArc
 50
90.0
 51
180.0
  0
ARC
  5
39E4
102
{ACAD_REACTORS
330
3C7E
330
5678
102
}
330
1F
100
AcDbEntity
  8
base
 62
     0
100
AcDbCircle
 10
-25932.0646966004
 20
2691.966414814393
 30
0.0
 40
5.0
100
AcDbArc
 50
0.0
 51
90.0
  0
LINE
  5
39E5
102
{ACAD_REACTORS
330
3C66
102
}
330
1F
100
AcDbEntity
  8
base
 62
     0
100
AcDbLine
 10
-25924.5646966004
 20
2644.466414814393
 30
0.0
 11
-25924.5646966004
 21
2699.966414814393
 31
0.0
  0
LINE
  5
39E7
330
1F
100
AcDbEntity
  8
base
 62
     0
100
AcDbLine
 10
-25907.0646966004
 20
2626.966414814393
 30
0.0
 11
-25637.0646966004
 21
2626.966414814393
 31
0.0
  0
LINE
  5
39E9
102
{ACAD_REACTORS
330
3C66
102
}
330
1F
100
AcDbEntity
  8
base
 62
     0
100
AcDbLine
 10
-25619.5646966004
 20
2644.466414814394
 30
0.0
 11
-25619.5646966004
 21
2699.966414814393
 31
0.0
  0
LWPOLYLINE
  5
39EC
330
1F
100
AcDbEntity
  8
base
 62
     0
100
AcDbPolyline
 90
        2
 70
     0
 43
0.0
 10
-25924.5646966004
 20
2699.966414814393
 10
-25619.5646966004
 20
2699.966414814393
  0
ARC
  5
39EF
330
1F
100
AcDbEntity
  8
base
 62
     0
100
AcDbCircle
 10
-25617.5646966004
 20
2699.966414814393
 30
0.0
 40
2.0
100
AcDbArc
 50
90.0
 51
180.0
  0
ARC
  5
39F0
330
1F
100
AcDbEntity
  8
base
 62
     0
100
AcDbCircle
 10
-25926.5646966004
 20
2699.966414814393
 30
0.0
 40
2.0
100
AcDbArc
 50
0.000000000000007
 51
90.0
  0
LINE
  5
39FC
330
1F
100
AcDbEntity
  8
DIM
  6
CENTER
 62
     0
100
AcDbLine
 10
-25545.28477509844
 20
2664.962197341278
 30
0.0
 11
-25897.24461810236
 21
2664.962197341278
 31
0.0
  0
CIRCLE
  5
39FD
330
1F
100
AcDbEntity
  8
base
 62
     0
100
AcDbCircle
 10
-25772.0646966004
 20
2664.962197341278
 30
0.0
 40
19.0
  0
CIRCLE
  5
39FE
330
1F
100
AcDbEntity
  8
base
 62
     0
100
AcDbCircle
 10
-25873.6646966004
 20
2664.962197341278
 30
0.0
 40
19.0
  0
CIRCLE
  5
39FF
330
1F
100
AcDbEntity
  8
base
 62
     0
100
AcDbCircle
 10
-25670.4646966004
 20
2664.962197341278
 30
0.0
 40
19.0
  0
CIRCLE
  5
3A00
102
{ACAD_REACTORS
330
3CD4
102
}
330
1F
100
AcDbEntity
  8
base
 62
     0
100
AcDbCircle
 10
-25568.8646966004
 20
2664.962197341278
 30
0.0
 40
19.0
  0
LINE
  5
3A02
330
1F
100
AcDbEntity
  8
DIM
  6
CENTER
 62
     0
100
AcDbLine
 10
-25873.6646966004
 20
2688.542118843244
 30
0.0
 11
-25873.6646966004
 21
2641.382275839313
 31
0.0
  0
LINE
  5
3A04
330
1F
100
AcDbEntity
  8
DIM
  6
CENTER
 62
     0
100
AcDbLine
 10
-25670.4646966004
 20
2688.542118843244
 30
0.0
 11
-25670.4646966004
 21
2641.382275839313
 31
0.0
  0
LINE
  5
3A05
330
1F
100
AcDbEntity
  8
DIM
  6
CENTER
 62
     0
100
AcDbLine
 10
-25568.8646966004
 20
2688.542118843244
 30
0.0
 11
-25568.8646966004
 21
2641.382275839313
 31
0.0
  0
LINE
  5
3A34
330
1F
100
AcDbEntity
  8
base
 62
     0
100
AcDbLine
 10
-26191.0646966004
 20
3342.533069612139
 30
0.0
 11
-26186.47474710674
 21
3347.123019105796
 31
0.0
  0
LINE
  5
3A35
102
{ACAD_REACTORS
330
3E1C
102
}
330
1F
100
AcDbEntity
  8
base
 62
     0
100
AcDbLine
 10
-26185.48479761308
 20
3347.533069612139
 30
0.0
 11
-25358.64459558772
 21
3347.533069612139
 31
0.0
  0
LINE
  5
3A36
330
1F
100
AcDbEntity
  8
base
 62
     0
100
AcDbLine
 10
-26170.65464609406
 20
3347.1230191058
 30
0.0
 11
-26166.2111432098
 21
3342.679516221546
 31
0.0
  0
LINE
  5
3A37
330
1F
100
AcDbEntity
  8
base
 62
     0
100
AcDbLine
 10
-26190.42830049733
 20
3341.896673509071
 30
0.0
 11
-26185.83835100368
 21
3346.486623002731
 31
0.0
  0
LINE
  5
3A38
330
1F
100
AcDbEntity
  8
base
 62
     0
100
AcDbLine
 10
-26185.48479761308
 20
3346.633069612138
 30
0.0
 11
-26171.64459558772
 21
3346.633069612139
 31
0.0
  0
LINE
  5
3A39
330
1F
100
AcDbEntity
  8
base
 62
     0
100
AcDbLine
 10
-26171.29104219713
 20
3346.486623002733
 30
0.0
 11
-26166.84753931288
 21
3342.043120118477
 31
0.0
  0
LINE
  5
3A3A
330
1F
100
AcDbEntity
  8
base
 62
     0
100
AcDbLine
 10
-26191.0646966004
 20
3342.533069612139
 30
0.0
 11
-26190.42830049733
 21
3341.896673509071
 31
0.0
  0
LINE
  5
3A3C
330
1F
100
AcDbEntity
  8
base
 62
     0
100
AcDbLine
 10
-26165.85758981921
 20
3341.633069612139
 30
0.0
 11
-26150.51382252898
 21
3341.633069612139
 31
0.0
  0
LINE
  5
3A3D
330
1F
100
AcDbEntity
  8
base
 62
     0
100
AcDbLine
 10
-26165.85758981921
 20
3342.533069612139
 30
0.0
 11
-25378.27180338159
 21
3342.533069612138
 31
0.0
  0
LINE
  5
3A40
330
1F
100
AcDbEntity
  8
base
 62
     0
100
AcDbLine
 10
-26143.63509292622
 20
3336.174437372661
 30
0.0
 11
-26138.28546586919
 21
3268.200980723738
 31
0.0
  0
LINE
  5
3A44
102
{ACAD_REACTORS
330
3DD0
102
}
330
1F
100
AcDbEntity
  8
base
 62
     0
100
AcDbLine
 10
-26144.53231852658
 20
3336.103824186506
 30
0.0
 11
-26139.18269146954
 21
3268.130367537589
 31
0.0
  0
ARC
  5
3A45
330
1F
100
AcDbEntity
  8
base
 62
     0
100
AcDbCircle
 10
-26150.51382252898
 20
3335.633069612139
 30
0.0
 40
6.0
100
AcDbArc
 50
4.500000000000154
 51
90.0
  0
ARC
  5
3A46
330
1F
100
AcDbEntity
  8
base
 62
     0
100
AcDbCircle
 10
-26150.51382252898
 20
3335.633069612139
 30
0.0
 40
6.9
100
AcDbArc
 50
4.500000000000154
 51
90.0
  0
LINE
  5
3A48
102
{ACAD_REACTORS
330
575C
102
}
330
1F
100
AcDbEntity
  8
base
 62
     0
100
AcDbLine
 10
-25712.56469660038
 20
3144.333069612139
 30
0.0
 11
-25831.56469660041
 21
3144.333069612139
 31
0.0
  0
LINE
  5
3A51
330
1F
100
AcDbEntity
  8
base
 62
     0
100
AcDbLine
 10
-25661.49602655247
 20
3146.10823008889
 30
0.0
 11
-25712.12498480976
 21
3143.454878819211
 31
0.0
  0
LINE
  5
3A52
330
1F
100
AcDbEntity
  8
base
 62
     0
100
AcDbLine
 10
-25661.54312891309
 20
3147.00699667017
 30
0.0
 11
-25712.56469660038
 21
3144.333069612139
 31
0.0
  0
ARC
  5
3A64
330
1F
100
AcDbEntity
  8
base
 62
     0
100
AcDbCircle
 10
-25393.61557067182
 20
3335.633069612139
 30
0.0
 40
6.9
100
AcDbArc
 50
90.0
 51
175.4999999999998
  0
ARC
  5
3A65
330
1F
100
AcDbEntity
  8
base
 62
     0
100
AcDbCircle
 10
-25393.61557067182
 20
3335.633069612139
 30
0.0
 40
6.0
100
AcDbArc
 50
90.0
 51
175.4999999999998
  0
LINE
  5
3A66
330
1F
100
AcDbEntity
  8
base
 62
     0
100
AcDbLine
 10
-25399.59707467422
 20
3336.103824186506
 30
0.0
 11
-25404.94670173127
 21
3268.130367537584
 31
0.0
  0
LINE
  5
3A68
330
1F
100
AcDbEntity
  8
base
 62
     0
100
AcDbLine
 10
-25400.49430027457
 20
3336.174437372661
 30
0.0
 11
-25409.89014367082
 21
3216.788927510886
 31
0.0
  0
LINE
  5
3A69
330
1F
100
AcDbEntity
  8
base
 62
     0
100
AcDbLine
 10
-25378.27180338159
 20
3341.633069612139
 30
0.0
 11
-25393.61557067182
 21
3341.633069612139
 31
0.0
  0
LINE
  5
3A6A
330
1F
100
AcDbEntity
  8
base
 62
     0
100
AcDbLine
 10
-25353.0646966004
 20
3342.533069612139
 30
0.0
 11
-25353.70109270347
 21
3341.896673509071
 31
0.0
  0
LINE
  5
3A6B
330
1F
100
AcDbEntity
  8
base
 62
     0
100
AcDbLine
 10
-25372.83835100367
 20
3346.486623002732
 30
0.0
 11
-25377.28185388792
 21
3342.043120118478
 31
0.0
  0
LINE
  5
3A6C
330
1F
100
AcDbEntity
  8
base
 62
     0
100
AcDbLine
 10
-25358.64459558772
 20
3346.633069612139
 30
0.0
 11
-25372.48479761307
 21
3346.633069612139
 31
0.0
  0
LINE
  5
3A6D
330
1F
100
AcDbEntity
  8
base
 62
     0
100
AcDbLine
 10
-25353.70109270347
 20
3341.896673509071
 30
0.0
 11
-25358.29104219713
 21
3346.486623002732
 31
0.0
  0
LINE
  5
3A6E
330
1F
100
AcDbEntity
  8
base
 62
     0
100
AcDbLine
 10
-25373.47474710673
 20
3347.123019105799
 30
0.0
 11
-25377.91824999099
 21
3342.679516221544
 31
0.0
  0
LINE
  5
3A70
330
1F
100
AcDbEntity
  8
base
 62
     0
100
AcDbLine
 10
-25353.0646966004
 20
3342.533069612139
 30
0.0
 11
-25357.65464609406
 21
3347.123019105799
 31
0.0
  0
LINE
  5
3A77
330
1F
100
AcDbEntity
  8
base
 62
     0
100
AcDbLine
 10
-25924.5646966004
 20
3345.533069612139
 30
0.0
 11
-25619.5646966004
 21
3345.533069612138
 31
0.0
  0
LINE
  5
3A78
330
1F
100
AcDbEntity
  8
base
 62
     0
100
AcDbLine
 10
-25927.0646966004
 20
3342.533069612139
 30
0.0
 11
-25924.5646966004
 21
3345.533069612138
 31
0.0
  0
LINE
  5
3A79
330
1F
100
AcDbEntity
  8
base
 62
     0
100
AcDbLine
 10
-25617.0646966004
 20
3342.533069612139
 30
0.0
 11
-25619.5646966004
 21
3345.533069612138
 31
0.0
  0
LINE
  5
3A7A
330
1F
100
AcDbEntity
  8
base
 62
     0
100
AcDbLine
 10
-25715.06469660039
 20
3141.333069612139
 30
0.0
 11
-25829.0646966004
 21
3141.333069612139
 31
0.0
  0
LINE
  5
3A7B
330
1F
100
AcDbEntity
  8
base
 62
     0
100
AcDbLine
 10
-25725.06469660039
 20
3139.333069612139
 30
0.0
 11
-25819.0646966004
 21
3139.333069612139
 31
0.0
  0
LINE
  5
3A7E
330
1F
100
AcDbEntity
  8
base
 62
     0
100
AcDbLine
 10
-25819.0646966004
 20
3139.333069612139
 30
0.0
 11
-25829.0646966004
 21
3141.333069612139
 31
0.0
  0
LINE
  5
3A7F
330
1F
100
AcDbEntity
  8
base
 62
     0
100
AcDbLine
 10
-25829.0646966004
 20
3141.333069612139
 30
0.0
 11
-25831.56469660041
 21
3144.333069612139
 31
0.0
  0
LINE
  5
3A80
330
1F
100
AcDbEntity
  8
base
 62
     0
100
AcDbLine
 10
-25819.15381416262
 20
3138.433069612139
 30
0.0
 11
-25829.55271802961
 21
3140.512850385536
 31
0.0
  0
LINE
  5
3A81
330
1F
100
AcDbEntity
  8
base
 62
     0
100
AcDbLine
 10
-25829.55271802961
 20
3140.512850385536
 30
0.0
 11
-25832.00440839103
 21
3143.454878819211
 31
0.0
  0
LINE
  5
3A82
330
1F
100
AcDbEntity
  8
base
 62
     0
100
AcDbLine
 10
-25724.97557903818
 20
3138.433069612139
 30
0.0
 11
-25819.15381416262
 21
3138.433069612139
 31
0.0
  0
LINE
  5
3A83
330
1F
100
AcDbEntity
  8
base
 62
     0
100
AcDbLine
 10
-25714.57667517118
 20
3140.512850385536
 30
0.0
 11
-25712.12498480976
 21
3143.454878819211
 31
0.0
  0
LINE
  5
3A84
330
1F
100
AcDbEntity
  8
base
 62
     0
100
AcDbLine
 10
-25724.97557903818
 20
3138.433069612139
 30
0.0
 11
-25714.57667517118
 21
3140.512850385536
 31
0.0
  0
LINE
  5
3A85
330
1F
100
AcDbEntity
  8
base
 62
     0
100
AcDbLine
 10
-25715.0646966004
 20
3141.333069612139
 30
0.0
 11
-25712.56469660038
 21
3144.333069612139
 31
0.0
  0
LINE
  5
3A86
330
1F
100
AcDbEntity
  8
base
 62
     0
100
AcDbLine
 10
-25725.06469660039
 20
3139.333069612139
 30
0.0
 11
-25715.0646966004
 21
3141.333069612139
 31
0.0
  0
LINE
  5
3A89
330
1F
100
AcDbEntity
  8
DIM
  6
CENTER
 62
     0
100
AcDbLine
 10
-25772.0646966004
 20
3355.968000823874
 30
0.0
 11
-25772.0646966004
 21
3102.005657558601
 31
0.0
  0
LWPOLYLINE
  5
3AC3
330
1F
100
AcDbEntity
  8
base
 62
     0
100
AcDbPolyline
 90
       20
 70
     1
 43
0.0
 10
-26182.76469660041
 20
3346.633069612139
 42
0.4142135623730951
 10
-26184.56469660041
 20
3344.833069612138
 10
-26184.56469660041
 20
3334.133069612139
 42
1.000000000000909
 10
-26181.56469660041
 20
3334.13306961214
 10
-26181.56469660041
 20
3338.133069612139
 10
-26182.36469660041
 20
3338.133069612139
 10
-26182.36469660041
 20
3334.133069612139
 42
-0.9999999999999998
 10
-26183.76469660041
 20
3334.133069612139
 10
-26183.76469660041
 20
3344.833069612138
 42
-0.4142135623730951
 10
-26182.76469660041
 20
3345.833069612139
 10
-26174.8646966004
 20
3345.833069612139
 42
-0.4142135623730951
 10
-26173.8646966004
 20
3344.833069612138
 10
-26173.86469660041
 20
3334.133069612139
 42
-0.9999999999999998
 10
-26175.2646966004
 20
3334.133069612139
 10
-26175.2646966004
 20
3338.133069612139
 10
-26176.0646966004
 20
3338.133069612139
 10
-26176.0646966004
 20
3334.13306961214
 42
1.000000000000909
 10
-26173.0646966004
 20
3334.133069612139
 10
-26173.0646966004
 20
3344.833069612138
 42
0.4142135623730951
 10
-26174.8646966004
 20
3346.633069612139
  0
LWPOLYLINE
  5
3AC4
330
1F
100
AcDbEntity
  8
base
 62
     0
100
AcDbPolyline
 90
       20
 70
     1
 43
0.0
 10
-25361.36469660039
 20
3346.633069612139
 42
-0.4142135623730951
 10
-25359.56469660039
 20
3344.833069612138
 10
-25359.56469660039
 20
3334.133069612139
 42
-1.000000000000909
 10
-25362.5646966004
 20
3334.13306961214
 10
-25362.56469660039
 20
3338.133069612139
 10
-25361.76469660039
 20
3338.133069612139
 10
-25361.76469660039
 20
3334.133069612139
 42
0.9999999999999998
 10
-25360.36469660039
 20
3334.133069612139
 10
-25360.36469660039
 20
3344.833069612138
 42
0.4142135623730951
 10
-25361.36469660039
 20
3345.833069612139
 10
-25369.26469660039
 20
3345.833069612139
 42
0.4142135623730951
 10
-25370.2646966004
 20
3344.833069612138
 10
-25370.26469660039
 20
3334.133069612139
 42
0.9999999999999998
 10
-25368.8646966004
 20
3334.133069612139
 10
-25368.8646966004
 20
3338.133069612139
 10
-25368.0646966004
 20
3338.133069612139
 10
-25368.06469660039
 20
3334.13306961214
 42
-1.000000000000909
 10
-25371.0646966004
 20
3334.133069612139
 10
-25371.0646966004
 20
3344.833069612138
 42
-0.4142135623730951
 10
-25369.26469660039
 20
3346.633069612139
  0
LWPOLYLINE
  5
3AD0
330
1F
100
AcDbEntity
  8
Defpoints
 62
     0
100
AcDbPolyline
 90
        2
 70
     0
 43
0.0
 10
-25497.06469660039
 20
2703.882777452197
 10
-26047.06469660039
 20
2703.882777452197
  0
DIMENSION
  5
3B66
330
1F
100
AcDbEntity
  8
DIM
 62
     0
100
AcDbDimension
280
     0
  2
*D1
 10
-25454.5646966004
 20
2028.243620777546
 30
0.0
 11
-25772.0646966004
 21
2046.903733137097
 31
0.0
 70
    32
  1
<>{\fSimHei|b0|i0|c134|p49; [25"]}
 71
     5
 42
635.0
 73
     0
 74
     0
 75
     0
  3
ISO-25
100
AcDbAlignedDimension
 13
-26089.5646966004
 23
2201.966414814393
 33
0.0
 14
-25454.5646966004
 24
2201.966414814393
 34
0.0
100
AcDbRotatedDimension
1001
ACAD
1000
DSTYLE
1002
{
1070
    41
1040
15.0
1070
   140
1040
25.0
1070
   141
1040
0.5
1070
   147
1040
3.0
1070
   179
1070
     2
1002
}
  0
DIMENSION
  5
3B95
330
1F
100
AcDbEntity
  8
DIM
 62
     0
100
AcDbDimension
280
     0
  2
*D2
 10
-25492.5646966004
 20
2201.966414814402
 30
0.0
 11
-25365.96303910011
 21
2079.812294332451
 31
0.0
 70
    36
  1
{\fSimHei|b0|i0|c134|p49;4-}<>{\fSimHei|b0|i0|c134|p49; [1.5"]}
 71
     5
 42
38.00000000001819
 73
     0
 74
     0
 75
     0
  3
ISO-25
100
AcDbRadialDimension
 15
-25468.17152467657
 25
2172.82927076259
 35
0.0
 40
0.0
1001
ACAD
1000
DSTYLE
1002
{
1070
    41
1040
15.0
1070
   140
1040
25.0
1070
   141
1040
0.5
1070
   147
1040
3.0
1070
   179
1070
     2
1070
   288
1070
     1
1002
}
  0
DIMENSION
  5
3BB3
330
1F
100
AcDbEntity
  8
DIM
 62
     0
100
AcDbDimension
280
     0
  2
*D3
 10
-26167.83848356747
 20
2613.966414814394
 30
0.0
 11
-26186.49859592701
 21
2413.966414814399
 31
0.0
 70
    32
  1
<>{\fSimHei|b0|i0|c134|p49; [15.75"]}
 71
     5
 42
400.0000000000055
 73
     0
 74
     0
 75
     0
  3
ISO-25
100
AcDbAlignedDimension
 13
-25927.5646966004
 23
2213.966414814388
 33
0.0
 14
-25927.56469660043
 24
2613.966414814393
 34
0.0
 50
90.0
100
AcDbRotatedDimension
1001
ACAD
1000
DSTYLE
1002
{
1070
    41
1040
15.0
1070
   140
1040
25.0
1070
   141
1040
0.5
1070
   147
1040
3.0
1070
   179
1070
     2
1002
}
  0
DIMENSION
  5
3BCB
330
1F
100
AcDbEntity
  8
DIM
 62
     0
100
AcDbDimension
280
     0
  2
*D4
 10
-26166.58848356777
 20
2149.397001100123
 30
0.0
 11
-26206.15215397975
 21
2196.11891121249
 31
0.0
 70
    32
  1
<>{\fSimHei|b0|i0|c134|p49; [2"]}
 71
     5
 42
49.99999999999499
 73
     0
 74
     0
 75
     0
  3
ISO-25
100
AcDbAlignedDimension
 13
-26051.5646966004
 23
2099.397001100127
 33
0.0
 14
-26050.20159008392
 24
2149.397001100123
 34
0.0
 50
90.0
100
AcDbRotatedDimension
1001
ACAD
1000
DSTYLE
1002
{
1070
    41
1040
15.0
1070
   140
1040
25.0
1070
   141
1040
0.5
1070
   147
1040
3.0
1070
   179
1070
     2
1002
}
  0
DIMENSION
  5
3BE3
330
1F
100
AcDbEntity
  8
DIM
 62
     0
100
AcDbDimension
280
     0
  2
*D5
 10
-26242.62963446832
 20
2163.966414814394
 30
0.0
 11
-26261.28974682786
 21
2442.966414814402
 31
0.0
 70
    32
  1
<>{\fSimHei|b0|i0|c134|p49; [22"]}
 71
     5
 42
558.0
 73
     0
 74
     0
 75
     0
  3
ISO-25
100
AcDbAlignedDimension
 13
-26051.5646966004
 23
2721.966414814393
 33
0.0
 14
-26132.49786601596
 24
2163.966414814393
 34
0.0
 50
90.0
100
AcDbRotatedDimension
1001
ACAD
1000
DSTYLE
1002
{
1070
    41
1040
15.0
1070
   140
1040
25.0
1070
   141
1040
0.5
1070
   147
1040
3.0
1070
   179
1070
     2
1002
}
  0
DIMENSION
  5
3C13
330
1F
100
AcDbEntity
  8
DIM
 62
     0
100
AcDbDimension
280
     0
  2
*D6
 10
-25773.98337115932
 20
2775.884667209357
 30
0.0
 11
-25814.5540560238
 21
2792.999835748683
 31
0.0
 70
   160
  1
{\fSimHei|b0|i0|c134|p49;3-}<>{\fSimHei|b0|i0|c134|p49; [4"]}
 71
     5
 42
101.5999999999985
 73
     0
 74
     0
 75
     0
  3
ISO-25
100
AcDbAlignedDimension
 13
-25875.58337115932
 23
2688.542118843244
 33
0.0
 14
-25773.98337115932
 24
2721.966414814393
 34
0.0
100
AcDbRotatedDimension
1001
ACAD
1000
DSTYLE
1002
{
1070
    41
1040
15.0
1070
   140
1040
25.0
1070
   141
1040
0.5
1070
   147
1040
3.0
1070
   179
1070
     2
1070
   279
1070
     2
1002
}
  0
DIMENSION
  5
3C4F
102
{ACAD_XDICTIONARY
360
3C5C
102
}
102
{ACAD_REACTORS
330
3C66
102
}
330
1F
100
AcDbEntity
  8
DIM
 62
     0
100
AcDbDimension
280
     0
  2
*D7
 10
-25619.5646966004
 20
2822.828951907475
 30
0.0
 11
-25772.0646966004
 21
2841.489064267026
 31
0.0
 70
    32
  1
<>{\fSimHei|b0|i0|c134|p49; [12"]}
 71
     5
 42
305.0
 73
     0
 74
     0
 75
     0
  3
ISO-25
100
AcDbAlignedDimension
 13
-25924.5646966004
 23
2699.966414814393
 33
0.0
 14
-25619.5646966004
 24
2699.966414814393
 34
0.0
100
AcDbRotatedDimension
1001
ACAD
1000
DSTYLE
1002
{
1070
    41
1040
15.0
1070
   140
1040
25.0
1070
   141
1040
0.5
1070
   147
1040
3.0
1070
   179
1070
     2
1002
}
  0
DIMENSION
  5
3C67
102
{ACAD_XDICTIONARY
360
3C74
102
}
102
{ACAD_REACTORS
330
3C7E
102
}
330
1F
100
AcDbEntity
  8
DIM
 62
     0
100
AcDbDimension
280
     0
  2
*D8
 10
-25617.0646966004
 20
2870.849379470667
 30
0.0
 11
-25772.0646966004
 21
2889.509491830217
 31
0.0
 70
    32
  1
<>{\fSimHei|b0|i0|c134|p49; [12.2"]}
 71
     5
 42
310.0
 73
     0
 74
     0
 75
     0
  3
ISO-25
100
AcDbAlignedDimension
 13
-25927.0646966004
 23
2691.966414814393
 33
0.0
 14
-25617.0646966004
 24
2691.966414814393
 34
0.0
100
AcDbRotatedDimension
1001
ACAD
1000
DSTYLE
1002
{
1070
    41
1040
15.0
1070
   140
1040
25.0
1070
   141
1040
0.5
1070
   147
1040
3.0
1070
   179
1070
     2
1002
}
  0
DIMENSION
  5
3CAD
330
1F
100
AcDbEntity
  8
DIM
 62
     0
100
AcDbDimension
280
     0
  2
*D9
 10
-25637.0646966004
 20
2644.466414814396
 30
0.0
 11
-25608.32273775362
 21
2550.829451379126
 31
0.0
 70
    36
  1
2-<>
 71
     5
 42
19.9999999999909
 73
     0
 74
     0
 75
     0
  3
ISO-25
100
AcDbRadialDimension
 15
-25634.29546729106
 25
2624.659058377155
 35
0.0
 40
0.0
1001
ACAD
1000
DSTYLE
1002
{
1070
    41
1040
15.0
1070
   140
1040
25.0
1070
   141
1040
0.5
1070
   147
1040
3.0
1070
   179
1070
     2
1070
   288
1070
     1
1002
}
  0
DIMENSION
  5
3CBF
102
{ACAD_XDICTIONARY
360
3CCB
102
}
102
{ACAD_REACTORS
330
3CD4
102
}
330
1F
100
AcDbEntity
  8
DIM
 62
     0
100
AcDbDimension
280
     0
  2
*D10
 10
-25582.85846599441
 20
2652.110177338667
 30
0.0
 11
-25460.87596861322
 21
2764.140142401961
 31
0.0
 70
   163
  1
{\fSimHei|b0|i0|c134|p49;4-\Ftxt|c0;%%C\fArial|b0|i0|c0|p34;38 [1.5"]}
 71
     5
 42
38.00000000000364
 73
     0
 74
     0
 75
     0
  3
ISO-25
100
AcDbDiametricDimension
 15
-25554.87092720643
 25
2677.81421734391
 35
0.0
 40
0.0
1001
ACAD
1000
DSTYLE
1002
{
1070
    41
1040
15.0
1070
   140
1040
25.0
1070
   141
1040
0.5
1070
   147
1040
3.0
1070
   179
1070
     2
1070
   288
1070
     1
1002
}
  0
DIMENSION
  5
3D57
330
1F
100
AcDbEntity
  8
DIM
 62
     0
100
AcDbDimension
280
     0
  2
*D11
 10
-25538.84346274995
 20
2324.966414814389
 30
0.0
 11
-25557.50357510949
 21
2413.9664148144
 31
0.0
 70
    32
  1
{\fSimHei|b0|i0|c134|p49;2-}<>{\fSimHei|b0|i0|c134|p49; [7"]}
 71
     5
 42
178.00000000001
 73
     0
 74
     0
 75
     0
  3
ISO-25
100
AcDbAlignedDimension
 13
-25505.5646966004
 23
2502.966414814398
 33
0.0
 14
-25505.5646966004
 24
2324.966414814388
 34
0.0
 50
90.0
100
AcDbRotatedDimension
1001
ACAD
1000
DSTYLE
1002
{
1070
    41
1040
15.0
1070
   140
1040
25.0
1070
   141
1040
0.5
1070
   147
1040
3.0
1070
   179
1070
     2
1002
}
  0
DIMENSION
  5
3D78
330
1F
100
AcDbEntity
  8
DIM
 62
     0
100
AcDbDimension
280
     0
  2
*D12
 10
-25616.56469660039
 20
2240.399713239945
 30
0.0
 11
-25772.0646966004
 21
2259.059825599496
 31
0.0
 70
    32
  1
{\fSimHei|b0|i0|c134|p49;2-}<>{\fSimHei|b0|i0|c134|p49; [12.2"]}
 71
     5
 42
311.0000000000145
 73
     0
 74
     0
 75
     0
  3
ISO-25
100
AcDbAlignedDimension
 13
-25927.5646966004
 23
2213.966414814388
 33
0.0
 14
-25616.56469660039
 24
2213.966414814388
 34
0.0
100
AcDbRotatedDimension
1001
ACAD
1000
DSTYLE
1002
{
1070
    41
1040
15.0
1070
   140
1040
25.0
1070
   141
1040
0.5
1070
   147
1040
3.0
1070
   179
1070
     2
1002
}
  0
LINE
  5
3D9B
330
1F
100
AcDbEntity
  8
DIM
  6
CENTER
 62
     0
100
AcDbLine
 10
-25772.0646966004
 20
2233.449439983612
 30
0.0
 11
-25772.0646966004
 21
2213.966414814388
 31
0.0
  0
LINE
  5
3D9E
330
1F
100
AcDbEntity
  8
DIM
  6
CENTER
 62
     0
100
AcDbLine
 10
-25530.9922274536
 20
2413.966414814393
 30
0.0
 11
-25505.5646966004
 21
2413.966414814393
 31
0.0
  0
LINE
  5
3D9F
102
{ACAD_REACTORS
330
3DD0
102
}
330
1F
100
AcDbEntity
  8
DIM
 62
     0
100
AcDbLine
 10
-26144.53231852658
 20
3336.103824186506
 30
0.0
 11
-26144.53231852658
 21
3316.633625490599
 31
0.0
  0
ARC
  5
3DA0
330
1F
100
AcDbEntity
  8
base
 62
     0
100
AcDbCircle
 10
-26165.85758981921
 20
3343.033069612139
 30
0.0
 40
0.5
100
AcDbArc
 50
225.0
 51
270.0
  0
ARC
  5
3DA2
330
1F
100
AcDbEntity
  8
base
 62
     0
100
AcDbCircle
 10
-26165.85758981921
 20
3343.033069612139
 30
0.0
 40
1.399999999999999
100
AcDbArc
 50
225.0
 51
270.0
  0
ARC
  5
3DA3
330
1F
100
AcDbEntity
  8
base
 62
     0
100
AcDbCircle
 10
-25378.27180338159
 20
3343.033069612138
 30
0.0
 40
0.5
100
AcDbArc
 50
270.0
 51
315.0
  0
ARC
  5
3DA4
330
1F
100
AcDbEntity
  8
base
 62
     0
100
AcDbCircle
 10
-25372.48479761307
 20
3346.133069612139
 30
0.0
 40
0.5
100
AcDbArc
 50
89.99999999999817
 51
135.0000000000026
  0
ARC
  5
3DA5
330
1F
100
AcDbEntity
  8
base
 62
     0
100
AcDbCircle
 10
-25358.64459558772
 20
3346.133069612139
 30
0.0
 40
0.5
100
AcDbArc
 50
45.0
 51
89.99999999999813
  0
ARC
  5
3DA6
330
1F
100
AcDbEntity
  8
base
 62
     0
100
AcDbCircle
 10
-25378.27180338159
 20
3343.033069612138
 30
0.0
 40
1.399999999999999
100
AcDbArc
 50
270.0
 51
315.0
  0
ARC
  5
3DA7
330
1F
100
AcDbEntity
  8
base
 62
     0
100
AcDbCircle
 10
-25372.48479761307
 20
3346.133069612139
 30
0.0
 40
1.399999999999999
100
AcDbArc
 50
89.99999999999817
 51
135.0000000000026
  0
ARC
  5
3DA8
330
1F
100
AcDbEntity
  8
base
 62
     0
100
AcDbCircle
 10
-25358.64459558772
 20
3346.133069612139
 30
0.0
 40
1.399999999999999
100
AcDbArc
 50
45.0
 51
89.99999999999813
  0
ARC
  5
3DA9
330
1F
100
AcDbEntity
  8
base
 62
     0
100
AcDbCircle
 10
-26171.64459558772
 20
3346.13306961214
 30
0.0
 40
0.5
100
AcDbArc
 50
44.99999999999148
 51
90.00000000000184
  0
ARC
  5
3DAA
330
1F
100
AcDbEntity
  8
base
 62
     0
100
AcDbCircle
 10
-26185.48479761308
 20
3346.133069612138
 30
0.0
 40
0.5
100
AcDbArc
 50
90.00000000000371
 51
135.0
  0
ARC
  5
3DAB
330
1F
100
AcDbEntity
  8
base
 62
     0
100
AcDbCircle
 10
-26185.48479761308
 20
3346.133069612138
 30
0.0
 40
1.399999999999999
100
AcDbArc
 50
90.00000000000371
 51
135.0
  0
ARC
  5
3DAC
330
1F
100
AcDbEntity
  8
base
 62
     0
100
AcDbCircle
 10
-26171.64459558772
 20
3346.13306961214
 30
0.0
 40
1.399999999999999
100
AcDbArc
 50
44.99999999999148
 51
90.00000000000184
  0
DIMENSION
  5
3DAD
102
{ACAD_XDICTIONARY
360
3DC0
102
}
102
{ACAD_REACTORS
330
3DD0
102
}
330
1F
100
AcDbEntity
  8
DIM
 62
     0
100
AcDbDimension
280
     0
  2
*D13
 10
-26144.53231852658
 20
3316.633625490599
 30
0.0
 11
-26228.99081889425
 21
3082.287228149925
 31
0.0
 70
    34
 71
     5
 42
0.0785398163396955
 73
     0
 74
     0
 75
     0
  3
ISO-25
100
AcDb2LineAngularDimension
 13
-26144.53231852658
 23
3336.103824186506
 33
0.0
 14
-26139.18269146954
 24
3268.130367537589
 34
0.0
 15
-26144.53231852658
 25
3336.103824186506
 35
0.0
 16
-26129.9540426836
 26
3057.93375015519
 36
0.0
1001
ACAD
1000
DSTYLE
1002
{
1070
    41
1040
15.0
1070
   140
1040
25.0
1070
   141
1040
0.5
1070
   147
1040
3.0
1070
   179
1070
     2
1002
}
  0
DIMENSION
  5
3E05
102
{ACAD_XDICTIONARY
360
3E12
102
}
102
{ACAD_REACTORS
330
3E1C
102
}
330
1F
100
AcDbEntity
  8
DIM
 62
     0
100
AcDbDimension
280
     0
  2
*D14
 10
-25309.90271150695
 20
3144.333069612141
 30
0.0
 11
-25328.56282386649
 21
3245.933069612146
 31
0.0
 70
    32
  1
{\fSimHei|b0|i0|c134|p49;203 [8"]}
 71
     5
 42
203.1999999999994
 73
     0
 74
     0
 75
     0
  3
ISO-25
100
AcDbAlignedDimension
 13
-25358.64459558772
 23
3347.533069612139
 33
0.0
 14
-25721.34772563776
 24
3144.333069612139
 34
0.0
 50
90.0
100
AcDbRotatedDimension
1001
ACAD
1000
DSTYLE
1002
{
1070
    41
1040
15.0
1070
   140
1040
25.0
1070
   141
1040
0.5
1070
   147
1040
3.0
1070
   179
1070
     2
1002
}
  0
LINE
  5
3E1D
330
1F
100
AcDbEntity
  8
DIM
 62
     0
100
AcDbLine
 10
-25772.0646966004
 20
2750.050541011875
 30
0.0
 11
-25736.70244596576
 21
2750.050541011875
 31
0.0
  0
LINE
  5
3E1E
330
1F
100
AcDbEntity
  8
DIM
 62
     0
100
AcDbLine
 10
-25772.0646966004
 20
2589.54304234271
 30
0.0
 11
-25736.70244596576
 21
2589.54304234271
 31
0.0
  0
SOLID
  5
3E30
330
1F
100
AcDbEntity
  8
DIM
 62
     0
100
AcDbTrace
 10
-25750.73160244136
 20
2752.550541011875
 30
0.0
 11
-25750.73160244136
 21
2747.550541011875
 31
0.0
 12
-25735.73160244136
 22
2750.050541011875
 32
0.0
 13
-25735.73160244136
 23
2750.050541011875
 33
0.0
  0
SOLID
  5
3E32
330
1F
100
AcDbEntity
  8
DIM
 62
     0
100
AcDbTrace
 10
-25750.73160244136
 20
2592.04304234271
 30
0.0
 11
-25750.73160244136
 21
2587.04304234271
 31
0.0
 12
-25735.73160244136
 22
2589.54304234271
 32
0.0
 13
-25735.73160244136
 23
2589.54304234271
 33
0.0
  0
MTEXT
  5
3E33
330
1F
100
AcDbEntity
  8
DIM
 62
     0
100
AcDbMText
 10
-25731.92200436054
 20
2763.264521567806
 30
0.0
 40
20.0
 41
128.9671207706997
 46
0.0
 71
     1
 72
     5
  1
{\fArial|b0|i0|c0|p32;A}
 73
     1
 44
1.0
  0
MTEXT
  5
3E34
330
1F
100
AcDbEntity
  8
DIM
 62
     0
100
AcDbMText
 10
-25731.92200436054
 20
2602.716978396266
 30
0.0
 40
20.0
 41
128.9671207706997
 46
0.0
 71
     1
 72
     5
  1
{\fArial|b0|i0|c0|p32;A}
 73
     1
 44
1.0
  0
LINE
  5
3E35
330
1F
100
AcDbEntity
  8
DIM
 62
     0
100
AcDbLine
 10
-26089.5646966004
 20
2413.966414814393
 30
0.0
 11
-26113.74889744019
 21
2413.966414814393
 31
0.0
  0
LINE
  5
3E36
330
1F
100
AcDbEntity
  8
DIM
 62
     0
100
AcDbLine
 10
-26113.74889744019
 20
2413.966414814393
 30
0.0
 11
-26113.74889744019
 21
2458.996167917554
 31
0.0
  0
SOLID
  5
3E37
330
1F
100
AcDbEntity
  8
DIM
 62
     0
100
AcDbTrace
 10
-26116.24889744019
 20
2458.996167917554
 30
0.0
 11
-26111.2488974402
 21
2458.996167917554
 31
0.0
 12
-26113.74889744019
 22
2473.996167917554
 32
0.0
 13
-26113.74889744019
 23
2473.996167917554
 33
0.0
  0
SOLID
  5
3E38
330
1F
100
AcDbEntity
  8
DIM
 62
     0
100
AcDbTrace
 10
-25427.8804957606
 20
2458.996167917554
 30
0.0
 11
-25432.88049576061
 21
2458.996167917554
 31
0.0
 12
-25430.38049576061
 22
2473.996167917554
 32
0.0
 13
-25430.38049576061
 23
2473.996167917554
 33
0.0
  0
LINE
  5
3E39
330
1F
100
AcDbEntity
  8
DIM
 62
     0
100
AcDbLine
 10
-25430.38049576061
 20
2413.966414814393
 30
0.0
 11
-25430.38049576061
 21
2458.996167917554
 31
0.0
  0
LINE
  5
3E3A
330
1F
100
AcDbEntity
  8
DIM
 62
     0
100
AcDbLine
 10
-25454.5646966004
 20
2413.966414814393
 30
0.0
 11
-25430.38049576061
 21
2413.966414814393
 31
0.0
  0
MTEXT
  5
3E3B
330
1F
100
AcDbEntity
  8
DIM
 62
     0
100
AcDbMText
 10
-25435.70212799303
 20
2502.756127742449
 30
0.0
 40
25.0
 41
128.9671207706997
 46
0.0
 71
     1
 72
     5
  1
{\fArial|b0|i0|c0|p32;B}
 73
     1
 44
1.0
  0
MTEXT
  5
3E3C
330
1F
100
AcDbEntity
  8
DIM
 62
     0
100
AcDbMText
 10
-26119.07052967262
 20
2502.843721606218
 30
0.0
 40
25.0
 41
128.9671207706997
 46
0.0
 71
     1
 72
     5
  1
{\fArial|b0|i0|c0|p32;B}
 73
     1
 44
1.0
  0
MTEXT
  5
3E6E
330
1F
100
AcDbEntity
  8
DIM
 62
     0
100
AcDbMText
 10
-25796.23092178733
 20
3422.886594508338
 30
0.0
 40
25.0
 41
128.9671207706997
 46
0.0
 71
     1
 72
     5
  1
{\fArial|b0|i0|c0|p32;B--B}
 73
     1
 44
1.0
  0
LINE
  5
3E6F
330
1F
100
AcDbEntity
  8
base
 62
     0
100
AcDbLine
 10
-25353.70109270347
 20
3341.896673509071
 30
0.0
 11
-25359.56469660039
 21
3341.896673509071
 31
0.0
  0
LINE
  5
3E70
330
1F
100
AcDbEntity
  8
base
 62
     0
100
AcDbLine
 10
-25371.0646966004
 20
3341.896673509071
 30
0.0
 11
-25377.4541213548
 21
3341.896673509071
 31
0.0
  0
LINE
  5
3E71
330
1F
100
AcDbEntity
  8
base
 62
     0
100
AcDbLine
 10
-26190.42830049733
 20
3341.896673509071
 30
0.0
 11
-26184.56469660041
 21
3341.896673509071
 31
0.0
  0
LINE
  5
3E72
330
1F
100
AcDbEntity
  8
base
 62
     0
100
AcDbLine
 10
-26173.0646966004
 20
3341.896673509071
 30
0.0
 11
-26166.675271846
 21
3341.896673509071
 31
0.0
  0
CIRCLE
  5
3E73
102
{ACAD_REACTORS
330
3E79
102
}
330
1F
100
AcDbEntity
  8
DIM
 62
     0
100
AcDbCircle
 10
-26169.16773348188
 20
3339.904003848359
 30
0.0
 40
28.69489356133272
  0
LEADER
  5
3E76
102
{ACAD_XDICTIONARY
360
3E78
102
}
102
{ACAD_REACTORS
330
3E79
102
}
330
1F
100
AcDbEntity
  8
DIM
 62
     0
100
AcDbLeader
  3
ISO-25
 73
     0
 75
     1
 40
25.0
 41
11.1731843575419
 76
     3
 10
-26197.86262704321
 20
3339.904003848359
 30
0.0
 10
-26264.83980768065
 20
3394.746016653207
 30
0.0
 10
-26279.83980768065
 20
3394.746016653207
 30
0.0
340
3E77
213
0.0
223
12.5
233
0.0
1001
ACAD
1000
DSTYLE
1002
{
1070
    77
1070
     0
1070
    41
1040
15.0
1070
   140
1040
25.0
1070
   141
1040
0.5
1070
   147
1040
3.0
1070
   179
1070
     2
1002
}
  0
MTEXT
  5
3E77
102
{ACAD_REACTORS
330
3E76
102
}
330
1F
100
AcDbEntity
  8
DIM
 62
     0
100
AcDbMText
 10
-26282.83980768065
 20
3382.246016653207
 30
0.0
 40
25.0
 41
0.0
 46
0.0
 71
     9
 72
     1
  1
{\fSimSun|b0|i0|c134|p2;I}
 73
     1
 44
1.0
  0
CIRCLE
  5
3E7A
330
1F
100
AcDbEntity
  8
DIM
 62
     0
100
AcDbCircle
 10
-25772.0646966004
 20
3156.206350442833
 30
0.0
 40
62.80076380018278
  0
LEADER
  5
3E7B
330
1F
100
AcDbEntity
  8
DIM
 62
     0
100
AcDbLeader
  3
ISO-25
 73
     0
 74
     0
 75
     1
 40
25.0
 41
29.05027932960893
 76
     3
 10
-25735.57708128601
 20
3125.172739878954
 30
0.0
 10
-25686.92122047452
 20
3104.81242808352
 30
0.0
 10
-25671.92122047452
 20
3104.81242808352
 30
0.0
340
3E7C
213
0.0
223
-12.5
233
0.0
1001
ACAD
1000
DSTYLE
1002
{
1070
    77
1070
     0
1070
    41
1040
15.0
1070
   140
1040
25.0
1070
   141
1040
0.5
1070
   147
1040
3.0
1070
   179
1070
     2
1002
}
  0
MTEXT
  5
3E7C
102
{ACAD_REACTORS
330
3E7B
102
}
330
1F
100
AcDbEntity
  8
DIM
 62
     0
100
AcDbMText
 10
-25668.92122047452
 20
3117.31242808352
 30
0.0
 40
25.0
 41
0.0
 46
0.0
 71
     1
 72
     1
  1
{\fSimSun|b0|i0|c134|p2;II}
 73
     1
 44
1.0
  0
LINE
  5
3E81
330
1F
100
AcDbEntity
  8
base
 62
     0
100
AcDbLine
 10
-24955.52433247088
 20
3252.096735826815
 30
0.0
 11
-24923.57720869887
 21
3252.096735826815
 31
0.0
  0
LINE
  5
3E82
330
1F
100
AcDbEntity
  8
base
 62
     0
100
AcDbLine
 10
-25042.34235195552
 20
3252.096735826815
 30
0.0
 11
-25013.0243324709
 21
3252.096735826815
 31
0.0
  0
ARC
  5
3E86
330
1F
100
AcDbEntity
  8
base
 62
     0
100
AcDbCircle
 10
-24948.42382740747
 20
3273.278716342158
 30
0.0
 40
7.0
100
AcDbArc
 50
44.99999999999148
 51
90.00000000000184
  0
ARC
  5
3E87
330
1F
100
AcDbEntity
  8
base
 62
     0
100
AcDbCircle
 10
-25017.62483753427
 20
3273.278716342154
 30
0.0
 40
7.0
100
AcDbArc
 50
90.00000000000371
 51
135.0
  0
ARC
  5
3E88
330
1F
100
AcDbEntity
  8
base
 62
     0
100
AcDbCircle
 10
-25017.62483753427
 20
3273.278716342154
 30
0.0
 40
2.5
100
AcDbArc
 50
90.00000000000371
 51
135.0
  0
ARC
  5
3E89
330
1F
100
AcDbEntity
  8
base
 62
     0
100
AcDbCircle
 10
-24948.42382740747
 20
3273.278716342158
 30
0.0
 40
2.5
100
AcDbArc
 50
44.99999999999148
 51
90.00000000000184
  0
ARC
  5
3E8A
330
1F
100
AcDbEntity
  8
base
 62
     0
100
AcDbCircle
 10
-24919.48879856494
 20
3257.778716342157
 30
0.0
 40
7.0
100
AcDbArc
 50
225.0
 51
270.0
  0
ARC
  5
3E8B
330
1F
100
AcDbEntity
  8
base
 62
     0
100
AcDbCircle
 10
-24919.48879856494
 20
3257.778716342157
 30
0.0
 40
2.5
100
AcDbArc
 50
225.0
 51
270.0
  0
LWPOLYLINE
  5
3E8D
102
{ACAD_REACTORS
330
3F93
330
49C4
102
}
330
1F
100
AcDbEntity
  8
base
 62
     0
100
AcDbPolyline
 90
       20
 70
     1
 43
0.0
 10
-25004.0243324709
 20
3275.778716342156
 42
0.4142135623730951
 10
-25013.0243324709
 20
3266.778716342155
 10
-25013.0243324709
 20
3213.278716342156
 42
1.000000000000909
 10
-24998.02433247088
 20
3213.278716342161
 10
-24998.0243324709
 20
3233.278716342158
 10
-25002.0243324709
 20
3233.278716342158
 10
-25002.0243324709
 20
3213.278716342156
 42
-0.9999999999999998
 10
-25009.02433247091
 20
3213.278716342156
 10
-25009.02433247091
 20
3266.778716342155
 42
-0.4142135623730951
 10
-25004.0243324709
 20
3271.778716342156
 10
-24964.52433247088
 20
3271.778716342158
 42
-0.4142135623730951
 10
-24959.52433247088
 20
3266.778716342155
 10
-24959.5243324709
 20
3213.278716342156
 42
-0.9999999999999998
 10
-24966.52433247088
 20
3213.278716342156
 10
-24966.52433247088
 20
3233.278716342158
 10
-24970.52433247088
 20
3233.278716342158
 10
-24970.5243324709
 20
3213.278716342161
 42
1.000000000000909
 10
-24955.52433247088
 20
3213.278716342156
 10
-24955.52433247088
 20
3266.778716342155
 42
0.4142135623730951
 10
-24964.52433247088
 20
3275.778716342156
  0
ARC
  5
3E8E
330
1F
100
AcDbEntity
  8
base
 62
     0
100
AcDbCircle
 10
-24842.76996211375
 20
3220.778716342156
 30
0.0
 40
34.5
100
AcDbArc
 50
4.500000000000154
 51
90.0
  0
ARC
  5
3E8F
330
1F
100
AcDbEntity
  8
base
 62
     0
100
AcDbCircle
 10
-24842.76996211375
 20
3220.778716342156
 30
0.0
 40
30.0
100
AcDbArc
 50
4.500000000000154
 51
90.0
  0
LINE
  5
3E90
330
1F
100
AcDbEntity
  8
base
 62
     0
100
AcDbLine
 10
-24812.86244210175
 20
3223.132489213992
 30
0.0
 11
-24809.17961426382
 21
3176.337724697271
 31
0.0
  0
LINE
  5
3E91
330
1F
100
AcDbEntity
  8
base
 62
     0
100
AcDbLine
 10
-24808.37631409998
 20
3223.485555144767
 30
0.0
 11
-24804.62230331989
 21
3175.786325591284
 31
0.0
  0
LINE
  5
3E92
102
{ACAD_REACTORS
330
3F3D
102
}
330
1F
100
AcDbEntity
  8
base
 62
     0
100
AcDbLine
 10
-24920.52433247086
 20
3255.278716342156
 30
0.0
 11
-24842.76996211375
 21
3255.278716342157
 31
0.0
  0
LINE
  5
3E93
330
1F
100
AcDbEntity
  8
base
 62
     0
100
AcDbLine
 10
-24919.48879856494
 20
3250.778716342154
 30
0.0
 11
-24842.76996211375
 21
3250.778716342154
 31
0.0
  0
LINE
  5
3E94
330
1F
100
AcDbEntity
  8
base
 62
     0
100
AcDbLine
 10
-25045.52433247086
 20
3255.278716342154
 30
0.0
 11
-25042.34235195552
 21
3252.096735826815
 31
0.0
  0
LINE
  5
3E95
330
1F
100
AcDbEntity
  8
base
 62
     0
100
AcDbLine
 10
-24946.65606045451
 20
3275.046483295125
 30
0.0
 11
-24924.43854603325
 21
3252.828968873848
 31
0.0
  0
LINE
  5
3E96
330
1F
100
AcDbEntity
  8
base
 62
     0
100
AcDbLine
 10
-25017.62483753427
 20
3275.778716342154
 30
0.0
 11
-24948.42382740747
 21
3275.778716342158
 31
0.0
  0
LINE
  5
3E97
330
1F
100
AcDbEntity
  8
base
 62
     0
100
AcDbLine
 10
-25042.34235195552
 20
3252.096735826815
 30
0.0
 11
-25019.39260448723
 21
3275.046483295121
 31
0.0
  0
LINE
  5
3E98
102
{ACAD_REACTORS
330
3EEF
330
3F0B
102
}
330
1F
100
AcDbEntity
  8
base
 62
     0
100
AcDbLine
 10
-24945.52433247085
 20
3280.278716342154
 30
0.0
 11
-24920.52433247086
 21
3255.278716342156
 31
0.0
  0
LINE
  5
3E99
102
{ACAD_REACTORS
330
3F3D
330
3F7B
102
}
330
1F
100
AcDbEntity
  8
base
 62
     0
100
AcDbLine
 10
-25020.52433247084
 20
3280.278716342154
 30
0.0
 11
-24945.52433247086
 21
3280.278716342155
 31
0.0
  0
LINE
  5
3E9A
102
{ACAD_REACTORS
330
3ED7
102
}
330
1F
100
AcDbEntity
  8
base
 62
     0
100
AcDbLine
 10
-25045.52433247086
 20
3255.278716342154
 30
0.0
 11
-25020.52433247084
 21
3280.278716342154
 31
0.0
  0
DIMENSION
  5
3EBC
102
{ACAD_XDICTIONARY
360
3ECB
102
}
102
{ACAD_REACTORS
330
3ED7
102
}
330
1F
100
AcDbEntity
  8
DIM
 62
     0
100
AcDbDimension
280
     0
  2
*D15
 10
-25045.52433247086
 20
3324.760182408978
 30
0.0
 11
-25033.02433247085
 21
3340.260182408978
 31
0.0
 70
    32
  1
5
 71
     5
 42
25.00000000001819
 73
     0
 74
     0
 75
     0
  3
ISO-25
100
AcDbAlignedDimension
 13
-25020.52433247084
 23
3280.278716342154
 33
0.0
 14
-25045.52433247086
 24
3255.278716342154
 34
0.0
100
AcDbRotatedDimension
1001
ACAD
1000
DSTYLE
1002
{
1070
    41
1040
15.0
1070
   140
1040
25.0
1070
   141
1040
0.5
1070
   147
1040
3.0
1070
   179
1070
     2
1002
}
  0
DIMENSION
  5
3ED8
102
{ACAD_XDICTIONARY
360
3EE5
102
}
102
{ACAD_REACTORS
330
3EEF
102
}
330
1F
100
AcDbEntity
  8
DIM
 62
     0
100
AcDbDimension
280
     0
  2
*D16
 10
-24945.52433247085
 20
3352.760182408978
 30
0.0
 11
-24990.52433247084
 21
3352.760182408978
 31
0.0
 70
   160
  1
{\fSimHei|b0|i0|c134|p49;15 [.6"]}
 71
     5
 42
74.99999999998909
 73
     0
 74
     0
 75
     0
  3
ISO-25
100
AcDbAlignedDimension
 13
-25020.52433247084
 23
3303.644449375566
 33
0.0
 14
-24945.52433247085
 24
3280.278716342154
 34
0.0
100
AcDbRotatedDimension
1001
ACAD
1000
DSTYLE
1002
{
1070
    41
1040
15.0
1070
   140
1040
25.0
1070
   141
1040
0.5
1070
   147
1040
3.0
1070
   179
1070
     2
1002
}
  0
DIMENSION
  5
3EF0
102
{ACAD_XDICTIONARY
360
3EFF
102
}
102
{ACAD_REACTORS
330
3F0B
102
}
330
1F
100
AcDbEntity
  8
DIM
 62
     0
100
AcDbDimension
280
     0
  2
*D17
 10
-24945.52433247085
 20
3324.760182408978
 30
0.0
 11
-24871.35201608668
 21
3324.760182408978
 31
0.0
 70
   160
  1
5
 71
     5
 42
24.99999999998909
 73
     0
 74
     0
 75
     0
  3
ISO-25
100
AcDbAlignedDimension
 13
-24920.52433247086
 23
3255.278716342156
 33
0.0
 14
-24945.52433247085
 24
3281.278716342155
 34
0.0
100
AcDbRotatedDimension
1001
ACAD
1000
DSTYLE
1002
{
1070
    41
1040
15.0
1070
   140
1040
25.0
1070
   141
1040
0.5
1070
   147
1040
3.0
1070
   179
1070
     2
1002
}
  0
DIMENSION
  5
3F22
102
{ACAD_XDICTIONARY
360
3F31
102
}
102
{ACAD_REACTORS
330
3F3D
102
}
330
1F
100
AcDbEntity
  8
DIM
 62
     0
100
AcDbDimension
280
     0
  2
*D18
 10
-24755.50781133116
 20
3255.278716342159
 30
0.0
 11
-24755.50781133116
 21
3372.197255668005
 31
0.0
 70
   160
  1
{\fSimHei|b0|i0|c134|p49;5 [.2"]}
 71
     5
 42
24.99999999999818
 73
     0
 74
     0
 75
     0
  3
ISO-25
100
AcDbAlignedDimension
 13
-24945.52433247086
 23
3280.278716342155
 33
0.0
 14
-24842.76996211375
 24
3255.278716342157
 34
0.0
 50
90.0
100
AcDbRotatedDimension
1001
ACAD
1000
DSTYLE
1002
{
1070
    41
1040
15.0
1070
   140
1040
25.0
1070
   141
1040
0.5
1070
   147
1040
3.0
1070
   179
1070
     2
1002
}
  0
DIMENSION
  5
3F49
330
1F
100
AcDbEntity
  8
DIM
 62
     0
100
AcDbDimension
280
     0
  2
*D19
 10
-24842.76996211375
 20
3220.778716342162
 30
0.0
 11
-24893.18643886234
 21
3171.620258767062
 31
0.0
 70
   164
  1
{\fSimHei|b0|i0|c134|p49;R6 [.2"]}
 71
     5
 42
29.99999999999636
 73
     0
 74
     0
 75
     0
  3
ISO-25
100
AcDbRadialDimension
 15
-24821.29046747217
 25
3241.722243025662
 35
0.0
 40
0.0
1001
ACAD
1000
DSTYLE
1002
{
1070
    41
1040
15.0
1070
   140
1040
25.0
1070
   141
1040
0.5
1070
   147
1040
3.0
1070
   179
1070
     2
1070
   279
1070
     1
1070
   288
1070
     1
1002
}
  0
DIMENSION
  5
3F60
102
{ACAD_XDICTIONARY
360
3F6F
102
}
102
{ACAD_REACTORS
330
3F7B
102
}
330
1F
100
AcDbEntity
  8
DIM
 62
     0
100
AcDbDimension
280
     0
  2
*D20
 10
-25072.81645045562
 20
3255.278716342154
 30
0.0
 11
-25088.31645045562
 21
3267.778716342151
 31
0.0
 70
    32
  1
5
 71
     5
 42
24.99999999999955
 73
     0
 74
     0
 75
     0
  3
ISO-25
100
AcDbAlignedDimension
 13
-25020.52433247084
 23
3280.278716342154
 33
0.0
 14
-25045.52433247086
 24
3255.278716342154
 34
0.0
 50
90.0
100
AcDbRotatedDimension
1001
ACAD
1000
DSTYLE
1002
{
1070
    41
1040
15.0
1070
   140
1040
25.0
1070
   141
1040
0.5
1070
   147
1040
3.0
1070
   179
1070
     2
1002
}
  0
DIMENSION
  5
3F7C
102
{ACAD_XDICTIONARY
360
3F89
102
}
102
{ACAD_REACTORS
330
3F93
102
}
330
1F
100
AcDbEntity
  8
DIM
 62
     0
100
AcDbDimension
280
     0
  2
*D21
 10
-25045.52433247086
 20
3130.567313743914
 30
0.0
 11
-25130.09736617873
 21
3149.227426103464
 31
0.0
 70
    32
  1
{\fSimHei|b0|i0|c134|p49;18 [.7"]}
 71
     5
 42
89.99999999997816
 73
     0
 74
     0
 75
     0
  3
ISO-25
100
AcDbAlignedDimension
 13
-24955.52433247088
 23
3213.278716342156
 33
0.0
 14
-25045.52433247086
 24
3256.278716342155
 34
0.0
100
AcDbRotatedDimension
1001
ACAD
1000
DSTYLE
1002
{
1070
    41
1040
15.0
1070
   140
1040
25.0
1070
   141
1040
0.5
1070
   147
1040
3.0
1070
   179
1070
     2
1002
}
  0
ARC
  5
416E
330
1F
100
AcDbEntity
  8
base
 62
     0
100
AcDbCircle
 10
-25637.0646966004
 20
2644.466414814393
 30
0.0
 40
20.0
100
AcDbArc
 50
270.0
 51
0.0
  0
ARC
  5
4170
330
1F
100
AcDbEntity
  8
base
 62
     0
100
AcDbCircle
 10
-25637.0646966004
 20
2644.466414814393
 30
0.0
 40
17.5
100
AcDbArc
 50
270.0
 51
0.0
  0
ARC
  5
4171
330
1F
100
AcDbEntity
  8
base
 62
     0
100
AcDbCircle
 10
-25907.0646966004
 20
2644.466414814393
 30
0.0
 40
20.0
100
AcDbArc
 50
180.0
 51
269.9999999999999
  0
ARC
  5
4172
330
1F
100
AcDbEntity
  8
base
 62
     0
100
AcDbCircle
 10
-25907.0646966004
 20
2644.466414814393
 30
0.0
 40
17.5
100
AcDbArc
 50
180.0
 51
269.9999999999999
  0
DIMENSION
  5
418D
330
1F
100
AcDbEntity
  8
DIM
 62
     0
100
AcDbDimension
280
     0
  2
*D22
 10
-26173.55264478195
 20
2721.966414814394
 30
0.0
 11
-26173.55264478194
 21
2825.851246275076
 31
0.0
 70
   160
  1
<>{\fSimHei|b0|i0|c134|p49; [2.24"]}
 71
     5
 42
57.00421747311475
 73
     0
 74
     0
 75
     0
  3
ISO-25
100
AcDbAlignedDimension
 13
-25899.175567503
 23
2664.962197341278
 33
0.0
 14
-26150.15311493498
 24
2721.966414814393
 34
0.0
 50
90.0
100
AcDbRotatedDimension
1001
ACAD
1000
DSTYLE
1002
{
1070
    41
1040
15.0
1070
   140
1040
25.0
1070
   141
1040
0.5
1070
   147
1040
3.0
1070
   179
1070
     2
1002
}
  0
LINE
  5
41EC
330
1F
100
AcDbEntity
  8
base
 62
     0
100
AcDbLine
 10
-24759.99819694765
 20
1633.953553809385
 30
0.0
 11
-24791.504490744
 21
1633.953553809385
 31
0.0
  0
LINE
  5
41ED
330
1F
100
AcDbEntity
  8
base
 62
     0
100
AcDbLine
 10
-24804.004490744
 20
1648.953553809389
 30
0.0
 11
-24791.504490744
 21
1633.953553809385
 31
0.0
  0
LINE
  5
41EE
102
{ACAD_REACTORS
330
4337
330
4385
102
}
330
1F
100
AcDbEntity
  8
base
 62
     0
100
AcDbLine
 10
-24801.89680348708
 20
1653.45355380939
 30
0.0
 11
-24789.39680348708
 21
1638.453553809389
 31
0.0
  0
LINE
  5
41EF
330
1F
100
AcDbEntity
  8
base
 62
     0
100
AcDbLine
 10
-24759.99819694765
 20
1638.453553809387
 30
0.0
 11
-24789.39680348706
 21
1638.453553809387
 31
0.0
  0
LINE
  5
41F0
330
1F
100
AcDbEntity
  8
base
 62
     0
100
AcDbLine
 10
-24804.004490744
 20
1648.953553809389
 30
0.0
 11
-25153.76076451778
 21
1648.953553809389
 31
0.0
  0
LINE
  5
41F1
102
{ACAD_REACTORS
330
42F3
330
435E
102
}
330
1F
100
AcDbEntity
  8
base
 62
     0
100
AcDbLine
 10
-24801.89680348706
 20
1653.45355380939
 30
0.0
 11
-25151.89680348708
 21
1653.45355380939
 31
0.0
  0
LINE
  5
41F2
102
{ACAD_REACTORS
330
43AC
102
}
330
1F
100
AcDbEntity
  8
base
 62
     0
100
AcDbLine
 10
-25161.8968034871
 20
1663.453553809391
 30
0.0
 11
-25236.8968034871
 21
1663.453553809389
 31
0.0
  0
LINE
  5
41F3
330
1F
100
AcDbEntity
  8
base
 62
     0
100
AcDbLine
 10
-25261.8968034871
 20
1638.453553809389
 30
0.0
 11
-25258.71482297175
 21
1635.27157329405
 31
0.0
  0
LINE
  5
41F4
330
1F
100
AcDbEntity
  8
base
 62
     0
100
AcDbLine
 10
-25163.02853147076
 20
1658.221320762358
 30
0.0
 11
-25153.76076451778
 21
1648.953553809389
 31
0.0
  0
LINE
  5
41F5
330
1F
100
AcDbEntity
  8
base
 62
     0
100
AcDbLine
 10
-25233.99730855049
 20
1658.953553809391
 30
0.0
 11
-25164.79629842372
 21
1658.953553809391
 31
0.0
  0
LINE
  5
41F6
330
1F
100
AcDbEntity
  8
base
 62
     0
100
AcDbLine
 10
-25258.71482297175
 20
1635.27157329405
 30
0.0
 11
-25235.76507550345
 21
1658.221320762358
 31
0.0
  0
LINE
  5
41F7
102
{ACAD_REACTORS
330
4270
330
428C
102
}
330
1F
100
AcDbEntity
  8
base
 62
     0
100
AcDbLine
 10
-25161.8968034871
 20
1663.453553809391
 30
0.0
 11
-25151.89680348708
 21
1653.45355380939
 31
0.0
  0
LINE
  5
41F8
102
{ACAD_REACTORS
330
424D
102
}
330
1F
100
AcDbEntity
  8
base
 62
     0
100
AcDbLine
 10
-25261.8968034871
 20
1638.453553809389
 30
0.0
 11
-25236.8968034871
 21
1663.453553809389
 31
0.0
  0
ARC
  5
41F9
330
1F
100
AcDbEntity
  8
base
 62
     0
100
AcDbCircle
 10
-25164.79629842372
 20
1656.453553809391
 30
0.0
 40
2.5
100
AcDbArc
 50
44.99999999999739
 51
90.00000000000184
  0
ARC
  5
41FA
330
1F
100
AcDbEntity
  8
base
 62
     0
100
AcDbCircle
 10
-25233.99730855049
 20
1656.453553809391
 30
0.0
 40
2.5
100
AcDbArc
 50
90.00000000000186
 51
135.0
  0
ARC
  5
41FB
330
1F
100
AcDbEntity
  8
base
 62
     0
100
AcDbCircle
 10
-25164.79629842372
 20
1656.453553809391
 30
0.0
 40
7.0
100
AcDbArc
 50
44.99999999999739
 51
90.00000000000184
  0
ARC
  5
41FC
330
1F
100
AcDbEntity
  8
base
 62
     0
100
AcDbCircle
 10
-25233.99730855049
 20
1656.453553809391
 30
0.0
 40
7.0
100
AcDbArc
 50
90.00000000000186
 51
135.0
  0
LINE
  5
41FD
330
1F
100
AcDbEntity
  8
DIM
  6
CENTER
 62
     0
100
AcDbLine
 10
-24976.8968034871
 20
1672.489554544323
 30
0.0
 11
-24976.8968034871
 21
1614.224272961688
 31
0.0
  0
LINE
  5
41FE
102
{ACAD_REACTORS
330
42DB
102
}
330
1F
100
AcDbEntity
  8
base
 62
     0
100
AcDbLine
 10
-25071.8968034871
 20
1648.953553809389
 30
0.0
 11
-25071.8968034871
 21
1653.45355380939
 31
0.0
  0
LINE
  5
41FF
102
{ACAD_REACTORS
330
42DB
102
}
330
1F
100
AcDbEntity
  8
base
 62
     0
100
AcDbLine
 10
-24881.8968034871
 20
1653.45355380939
 30
0.0
 11
-24881.8968034871
 21
1648.953553809389
 31
0.0
  0
DIMENSION
  5
4232
102
{ACAD_XDICTIONARY
360
4241
102
}
102
{ACAD_REACTORS
330
424D
102
}
330
1F
100
AcDbEntity
  8
DIM
 62
     0
100
AcDbDimension
280
     0
  2
*D23
 10
-25236.8968034871
 20
1763.774473562726
 30
0.0
 11
-25324.34712156623
 21
1763.774473562726
 31
0.0
 70
   160
  1
5
 71
     5
 42
25.0
 73
     0
 74
     0
 75
     0
  3
ISO-25
100
AcDbAlignedDimension
 13
-25261.8968034871
 23
1638.453553809389
 33
0.0
 14
-25236.8968034871
 24
1663.453553809389
 34
0.0
100
AcDbRotatedDimension
1001
ACAD
1000
DSTYLE
1002
{
1070
    41
1040
15.0
1070
   140
1040
25.0
1070
   141
1040
0.5
1070
   147
1040
3.0
1070
   179
1070
     2
1002
}
  0
DIMENSION
  5
4259
102
{ACAD_XDICTIONARY
360
4266
102
}
102
{ACAD_REACTORS
330
4270
102
}
330
1F
100
AcDbEntity
  8
DIM
 62
     0
100
AcDbDimension
280
     0
  2
*D24
 10
-25161.8968034871
 20
1763.774473562726
 30
0.0
 11
-25199.3968034871
 21
1779.274473562725
 31
0.0
 70
    32
  1
15
 71
     5
 42
75.0
 73
     0
 74
     0
 75
     0
  3
ISO-25
100
AcDbAlignedDimension
 13
-25236.8968034871
 23
1697.824177631274
 33
0.0
 14
-25161.8968034871
 24
1663.453553809391
 34
0.0
100
AcDbRotatedDimension
1001
ACAD
1000
DSTYLE
1002
{
1070
    41
1040
15.0
1070
   140
1040
25.0
1070
   141
1040
0.5
1070
   147
1040
3.0
1070
   179
1070
     2
1002
}
  0
DIMENSION
  5
4271
102
{ACAD_XDICTIONARY
360
4280
102
}
102
{ACAD_REACTORS
330
428C
102
}
330
1F
100
AcDbEntity
  8
DIM
 62
     0
100
AcDbDimension
280
     0
  2
*D25
 10
-25151.89680348708
 20
1763.774473562726
 30
0.0
 11
-25111.69341365657
 21
1779.274473562725
 31
0.0
 70
    32
  1
2
 71
     5
 42
10.00000000001819
 73
     0
 74
     0
 75
     0
  3
ISO-25
100
AcDbAlignedDimension
 13
-25161.8968034871
 23
1697.824177631275
 33
0.0
 14
-25151.89680348708
 24
1653.45355380939
 34
0.0
100
AcDbRotatedDimension
1001
ACAD
1000
DSTYLE
1002
{
1070
    41
1040
15.0
1070
   140
1040
25.0
1070
   141
1040
0.5
1070
   147
1040
3.0
1070
   179
1070
     2
1002
}
  0
DIMENSION
  5
42C4
102
{ACAD_XDICTIONARY
360
42D1
102
}
102
{ACAD_REACTORS
330
42DB
102
}
330
1F
100
AcDbEntity
  8
DIM
 62
     0
100
AcDbDimension
280
     0
  2
*D26
 10
-24881.8968034871
 20
1686.859981945636
 30
0.0
 11
-24976.8968034871
 21
1702.359981945636
 31
0.0
 70
    32
  1
{\Ftxt.shx|c0;%%c}38
 71
     5
 42
190.0
 73
     0
 74
     0
 75
     0
  3
ISO-25
100
AcDbAlignedDimension
 13
-25071.8968034871
 23
1653.45355380939
 33
0.0
 14
-24881.8968034871
 24
1653.45355380939
 34
0.0
100
AcDbRotatedDimension
1001
ACAD
1000
DSTYLE
1002
{
1070
    41
1040
15.0
1070
   140
1040
25.0
1070
   141
1040
0.5
1070
   147
1040
3.0
1070
   179
1070
     2
1002
}
  0
DIMENSION
  5
42DC
102
{ACAD_XDICTIONARY
360
42E9
102
}
102
{ACAD_REACTORS
330
42F3
102
}
330
1F
100
AcDbEntity
  8
DIM
 62
     0
100
AcDbDimension
280
     0
  2
*D27
 10
-24801.89680348706
 20
1722.195090694353
 30
0.0
 11
-24976.89680348707
 21
1737.695090694353
 31
0.0
 70
    32
  1
70
 71
     5
 42
350.0000000000182
 73
     0
 74
     0
 75
     0
  3
ISO-25
100
AcDbAlignedDimension
 13
-25151.89680348708
 23
1763.774473562726
 33
0.0
 14
-24801.89680348706
 24
1653.45355380939
 34
0.0
100
AcDbRotatedDimension
1001
ACAD
1000
DSTYLE
1002
{
1070
    41
1040
15.0
1070
   140
1040
25.0
1070
   141
1040
0.5
1070
   147
1040
3.0
1070
   179
1070
     2
1002
}
  0
DIMENSION
  5
431C
102
{ACAD_XDICTIONARY
360
432B
102
}
102
{ACAD_REACTORS
330
4337
102
}
330
1F
100
AcDbEntity
  8
DIM
 62
     0
100
AcDbDimension
280
     0
  2
*D28
 10
-24789.39680348708
 20
1722.195090694353
 30
0.0
 11
-24731.1849390803
 21
1737.695090694353
 31
0.0
 70
    32
  1
2.5
 71
     5
 42
12.49999999998181
 73
     0
 74
     0
 75
     0
  3
ISO-25
100
AcDbAlignedDimension
 13
-24801.89680348706
 23
1688.949322251871
 33
0.0
 14
-24789.39680348708
 24
1638.453553809389
 34
0.0
100
AcDbRotatedDimension
1001
ACAD
1000
DSTYLE
1002
{
1070
    41
1040
15.0
1070
   140
1040
25.0
1070
   141
1040
0.5
1070
   147
1040
3.0
1070
   179
1070
     2
1002
}
  0
DIMENSION
  5
4343
102
{ACAD_XDICTIONARY
360
4352
102
}
102
{ACAD_REACTORS
330
435E
102
}
330
1F
100
AcDbEntity
  8
DIM
 62
     0
100
AcDbDimension
280
     0
  2
*D29
 10
-25102.90918125715
 20
1663.453553809391
 30
0.0
 11
-25118.40918125715
 21
1703.656943639896
 31
0.0
 70
    32
  1
2
 71
     5
 42
10.00000000000204
 73
     0
 74
     0
 75
     0
  3
ISO-25
100
AcDbAlignedDimension
 13
-25151.89680348708
 23
1653.45355380939
 33
0.0
 14
-25161.8968034871
 24
1663.453553809391
 34
0.0
 50
90.0
100
AcDbRotatedDimension
1001
ACAD
1000
DSTYLE
1002
{
1070
    41
1040
15.0
1070
   140
1040
25.0
1070
   141
1040
0.5
1070
   147
1040
3.0
1070
   179
1070
     2
1002
}
  0
DIMENSION
  5
436A
102
{ACAD_XDICTIONARY
360
4379
102
}
102
{ACAD_REACTORS
330
4385
102
}
330
1F
100
AcDbEntity
  8
DIM
 62
     0
100
AcDbDimension
280
     0
  2
*D30
 10
-24705.08136320052
 20
1653.45355380939
 30
0.0
 11
-24720.58136320052
 21
1693.656943639894
 31
0.0
 70
    32
  1
3
 71
     5
 42
15.00000000000227
 73
     0
 74
     0
 75
     0
  3
ISO-25
100
AcDbAlignedDimension
 13
-24758.12411953038
 23
1638.453553809387
 33
0.0
 14
-24801.89680348708
 24
1653.45355380939
 34
0.0
 50
90.0
100
AcDbRotatedDimension
1001
ACAD
1000
DSTYLE
1002
{
1070
    41
1040
15.0
1070
   140
1040
25.0
1070
   141
1040
0.5
1070
   147
1040
3.0
1070
   179
1070
     2
1002
}
  0
DIMENSION
  5
4391
102
{ACAD_XDICTIONARY
360
43A0
102
}
102
{ACAD_REACTORS
330
43AC
102
}
330
1F
100
AcDbEntity
  8
DIM
 62
     0
100
AcDbDimension
280
     0
  2
*D31
 10
-25308.78312822459
 20
1638.453553809389
 30
0.0
 11
-25324.28312822459
 21
1650.953553809385
 31
0.0
 70
    32
  1
5
 71
     5
 42
24.99999999999977
 73
     0
 74
     0
 75
     0
  3
ISO-25
100
AcDbAlignedDimension
 13
-25236.8968034871
 23
1663.453553809389
 33
0.0
 14
-25261.8968034871
 24
1638.453553809389
 34
0.0
 50
90.0
100
AcDbRotatedDimension
1001
ACAD
1000
DSTYLE
1002
{
1070
    41
1040
15.0
1070
   140
1040
25.0
1070
   141
1040
0.5
1070
   147
1040
3.0
1070
   179
1070
     2
1002
}
  0
LINE
  5
4419
330
1F
100
AcDbEntity
  8
base
 62
     0
100
AcDbLine
 10
-24867.14743675307
 20
2361.808851155316
 30
0.0
 11
-24837.14743675307
 21
2367.808851155317
 31
0.0
  0
LINE
  5
441A
102
{ACAD_REACTORS
330
4515
102
}
330
1F
100
AcDbEntity
  8
base
 62
     0
100
AcDbLine
 10
-24837.14743675307
 20
2367.808851155317
 30
0.0
 11
-24829.64743675303
 21
2376.808851155317
 31
0.0
  0
LINE
  5
441B
330
1F
100
AcDbEntity
  8
base
 62
     0
100
AcDbLine
 10
-24866.88008406642
 20
2359.108851155319
 30
0.0
 11
-24835.68337246544
 21
2365.348193475508
 31
0.0
  0
LINE
  5
441C
330
1F
100
AcDbEntity
  8
base
 62
     0
100
AcDbLine
 10
-24835.68337246544
 20
2365.348193475508
 30
0.0
 11
-24828.32830138117
 21
2374.174278776532
 31
0.0
  0
LINE
  5
441D
330
1F
100
AcDbEntity
  8
base
 62
     0
100
AcDbLine
 10
-24866.88008406642
 20
2359.108851155319
 30
0.0
 11
-25149.41478943976
 21
2359.108851155317
 31
0.0
  0
LINE
  5
441E
330
1F
100
AcDbEntity
  8
base
 62
     0
100
AcDbLine
 10
-25180.61150104072
 20
2365.348193475508
 30
0.0
 11
-25187.96657212498
 21
2374.174278776534
 31
0.0
  0
LINE
  5
441F
330
1F
100
AcDbEntity
  8
base
 62
     0
100
AcDbLine
 10
-25149.41478943976
 20
2359.108851155317
 30
0.0
 11
-25180.61150104072
 21
2365.348193475508
 31
0.0
  0
LINE
  5
4420
102
{ACAD_REACTORS
330
4515
102
}
330
1F
100
AcDbEntity
  8
base
 62
     0
100
AcDbLine
 10
-25179.14743675308
 20
2367.808851155317
 30
0.0
 11
-25186.64743675312
 21
2376.808851155317
 31
0.0
  0
LINE
  5
4421
330
1F
100
AcDbEntity
  8
base
 62
     0
100
AcDbLine
 10
-25149.14743675308
 20
2361.808851155318
 30
0.0
 11
-25179.14743675308
 21
2367.808851155317
 31
0.0
  0
LINE
  5
4422
102
{ACAD_REACTORS
330
44FD
330
4565
102
}
330
1F
100
AcDbEntity
  8
base
 62
     0
100
AcDbLine
 10
-24867.14743675307
 20
2361.808851155316
 30
0.0
 11
-25149.14743675308
 21
2361.808851155318
 31
0.0
  0
LINE
  5
4423
102
{ACAD_REACTORS
330
4549
102
}
330
1F
100
AcDbEntity
  8
base
 62
     0
100
AcDbLine
 10
-24837.14743675307
 20
2367.808851155317
 30
0.0
 11
-25179.14743675309
 21
2367.808851155317
 31
0.0
  0
LINE
  5
4424
102
{ACAD_REACTORS
330
452D
330
4549
102
}
330
1F
100
AcDbEntity
  8
base
 62
     0
100
AcDbLine
 10
-24781.83324431161
 20
2379.314686799384
 30
0.0
 11
-24829.64743675303
 21
2376.808851155317
 31
0.0
  0
LINE
  5
4425
330
1F
100
AcDbEntity
  8
base
 62
     0
100
AcDbLine
 10
-24783.0839416948
 20
2376.545435192779
 30
0.0
 11
-24828.32830138117
 21
2374.174278776532
 31
0.0
  0
LINE
  5
4426
330
1F
100
AcDbEntity
  8
base
 62
     0
100
AcDbLine
 10
-25234.61526560245
 20
2376.619033208144
 30
0.0
 11
-25187.96657212498
 21
2374.174278776534
 31
0.0
  0
LINE
  5
4427
330
1F
100
AcDbEntity
  8
base
 62
     0
100
AcDbLine
 10
-25235.8662247072
 20
2379.388298530994
 30
0.0
 11
-25186.64743675312
 21
2376.808851155317
 31
0.0
  0
LINE
  5
4428
330
1F
100
AcDbEntity
  8
DIM
  6
CENTER
 62
     0
100
AcDbLine
 10
-25008.14743675308
 20
2429.305495498728
 30
0.0
 11
-25008.14743675308
 21
2305.295227827117
 31
0.0
  0
LINE
  5
4429
102
{ACAD_REACTORS
330
452D
330
4565
102
}
330
1F
100
AcDbEntity
  8
base
 62
     0
100
AcDbLine
 10
-24829.64743675304
 20
2376.808851155316
 30
0.0
 11
-25186.64743675312
 21
2376.808851155317
 31
0.0
  0
SPLINE
  5
443C
330
1F
100
AcDbEntity
  8
DIM
 62
     0
100
AcDbSpline
210
0.0
220
0.0
230
1.0
 70
  1064
 71
     3
 72
    10
 73
     6
 74
     4
 42
0.000000001
 43
0.0000000001
 44
0.0000000001
 40
0.0
 40
0.0
 40
0.0
 40
0.0
 40
40.80790498120574
 40
91.3845118779921
 40
139.8589590178559
 40
139.8589590178559
 40
139.8589590178559
 40
139.8589590178559
 10
-25234.1047422119
 20
2442.17882204928
 30
0.0
 10
-25239.69095720786
 20
2428.902567832504
 30
0.0
 10
-25252.20062980401
 20
2399.171955302237
 30
0.0
 10
-25216.40615338148
 20
2354.946403771476
 30
0.0
 10
-25236.45395544817
 20
2324.605493845496
 30
0.0
 10
-25246.2651193071
 20
2309.757001331341
 30
0.0
 11
-25234.1047422119
 21
2442.17882204928
 31
0.0
 11
-25243.70503424683
 21
2402.516251509798
 31
0.0
 11
-25227.70454752197
 21
2354.537322908174
 31
0.0
 11
-25246.2651193071
 21
2309.757001331341
 31
0.0
  0
SPLINE
  5
443D
330
1F
100
AcDbEntity
  8
DIM
 62
     0
100
AcDbSpline
210
0.0
220
0.0
230
1.0
 70
  1064
 71
     3
 72
    10
 73
     6
 74
     4
 42
0.000000001
 43
0.0000000001
 44
0.0000000001
 40
0.0
 40
0.0
 40
0.0
 40
0.0
 40
40.80790498120574
 40
91.3845118779921
 40
139.8589590178559
 40
139.8589590178559
 40
139.8589590178559
 40
139.8589590178559
 10
-24783.56140829341
 20
2442.17882204928
 30
0.0
 10
-24777.97519329747
 20
2428.902567832504
 30
0.0
 10
-24765.4655207013
 20
2399.171955302237
 30
0.0
 10
-24801.25999712384
 20
2354.946403771476
 30
0.0
 10
-24781.21219505714
 20
2324.605493845496
 30
0.0
 10
-24771.40103119822
 20
2309.757001331341
 30
0.0
 11
-24783.56140829341
 21
2442.17882204928
 31
0.0
 11
-24773.96111625849
 21
2402.516251509798
 31
0.0
 11
-24789.96160298335
 21
2354.537322908174
 31
0.0
 11
-24771.40103119822
 21
2309.757001331341
 31
0.0
  0
DIMENSION
  5
44E6
102
{ACAD_XDICTIONARY
360
44F3
102
}
102
{ACAD_REACTORS
330
44FD
102
}
330
1F
100
AcDbEntity
  8
DIM
 62
     0
100
AcDbDimension
280
     0
  2
*D32
 10
-24867.14743675307
 20
2473.970217754866
 30
0.0
 11
-25008.14743675307
 21
2492.99170479443
 31
0.0
 70
    32
  1
{\Ftxt|c0;%%C\fArial|b0|i0|c0|p34;90 [3.5"]}
 71
     5
 42
282.0000000000109
 73
     0
 74
     0
 75
     0
  3
ISO-25
100
AcDbAlignedDimension
 13
-25149.14743675308
 23
2361.808851155318
 33
0.0
 14
-24867.14743675307
 24
2361.808851155316
 34
0.0
100
AcDbRotatedDimension
1001
ACAD
1000
DSTYLE
1002
{
1070
    41
1040
15.0
1070
   140
1040
25.0
1070
   141
1040
0.5
1070
   147
1040
3.0
1070
   179
1070
     2
1002
}
  0
DIMENSION
  5
44FE
102
{ACAD_XDICTIONARY
360
450B
102
}
102
{ACAD_REACTORS
330
4515
102
}
330
1F
100
AcDbEntity
  8
DIM
 62
     0
100
AcDbDimension
280
     0
  2
*D33
 10
-24837.14743675307
 20
2527.79810329142
 30
0.0
 11
-25008.14743675308
 21
2546.819590330983
 31
0.0
 70
    32
  1
{\Ftxt|c0;%%C\fArial|b0|i0|c0|p34;114 [4.5"]}
 71
     5
 42
342.0
 73
     0
 74
     0
 75
     0
  3
ISO-25
100
AcDbAlignedDimension
 13
-25179.14743675308
 23
2367.808851155317
 33
0.0
 14
-24837.14743675307
 24
2367.808851155317
 34
0.0
100
AcDbRotatedDimension
1001
ACAD
1000
DSTYLE
1002
{
1070
    41
1040
15.0
1070
   140
1040
25.0
1070
   141
1040
0.5
1070
   147
1040
3.0
1070
   179
1070
     2
1002
}
  0
DIMENSION
  5
4516
102
{ACAD_XDICTIONARY
360
4523
102
}
102
{ACAD_REACTORS
330
452D
102
}
330
1F
100
AcDbEntity
  8
DIM
 62
     0
100
AcDbDimension
280
     0
  2
*D34
 10
-24829.64743675306
 20
2575.867849709323
 30
0.0
 11
-25008.14743675309
 21
2594.889336748886
 31
0.0
 70
    32
  1
{\Ftxt|c0;%%C\fArial|b0|i0|c0|p34;119 [4.7"]}
 71
     5
 42
357.0000000000618
 73
     0
 74
     0
 75
     0
  3
ISO-25
100
AcDbAlignedDimension
 13
-25186.64743675312
 23
2376.808851155317
 33
0.0
 14
-24829.64743675306
 24
2376.808851155316
 34
0.0
100
AcDbRotatedDimension
1001
ACAD
1000
DSTYLE
1002
{
1070
    41
1040
15.0
1070
   140
1040
25.0
1070
   141
1040
0.5
1070
   147
1040
3.0
1070
   179
1070
     2
1002
}
  0
DIMENSION
  5
452E
102
{ACAD_XDICTIONARY
360
453D
102
}
102
{ACAD_REACTORS
330
4549
102
}
330
1F
100
AcDbEntity
  8
DIM
 62
     0
100
AcDbDimension
280
     0
  2
*D35
 10
-24733.03668128438
 20
2376.808851155319
 30
0.0
 11
-24751.69679364392
 21
2477.294806211504
 31
0.0
 70
    32
  1
{\fSimHei|b0|i0|c134|p49;3 [.12"]}
 71
     5
 42
9.0
 73
     0
 74
     0
 75
     0
  3
ISO-25
100
AcDbAlignedDimension
 13
-24837.14743675307
 23
2367.808851155317
 33
0.0
 14
-24829.64743675303
 24
2376.808851155317
 34
0.0
 50
90.0
100
AcDbRotatedDimension
1001
ACAD
1000
DSTYLE
1002
{
1070
    41
1040
15.0
1070
   140
1040
25.0
1070
   141
1040
0.5
1070
   147
1040
3.0
1070
   179
1070
     2
1002
}
  0
DIMENSION
  5
454A
102
{ACAD_XDICTIONARY
360
4559
102
}
102
{ACAD_REACTORS
330
4565
102
}
330
1F
100
AcDbEntity
  8
DIM
 62
     0
100
AcDbDimension
280
     0
  2
*D36
 10
-24690.1343891621
 20
2376.808851155317
 30
0.0
 11
-24708.79450152165
 21
2468.727390481166
 31
0.0
 70
    32
  1
{\fSimHei|b0|i0|c134|p49;5 [.2"]}
 71
     5
 42
15.0
 73
     0
 74
     0
 75
     0
  3
ISO-25
100
AcDbAlignedDimension
 13
-24867.14743675307
 23
2361.808851155316
 33
0.0
 14
-24829.64743675304
 24
2376.808851155316
 34
0.0
 50
90.0
100
AcDbRotatedDimension
1001
ACAD
1000
DSTYLE
1002
{
1070
    41
1040
15.0
1070
   140
1040
25.0
1070
   141
1040
0.5
1070
   147
1040
3.0
1070
   179
1070
     2
1002
}
  0
LWPOLYLINE
  5
485B
330
1F
100
AcDbEntity
  8
Defpoints
 62
     0
100
AcDbPolyline
 90
        4
 70
     1
 43
0.0
 10
-25461.0646966004
 20
2205.466414814393
 10
-25461.0646966004
 20
2680.466414814393
 10
-25472.5646966004
 20
2680.466414814393
 10
-25472.5646966004
 20
2205.466414814393
  0
LWPOLYLINE
  5
485C
330
1F
100
AcDbEntity
  8
Defpoints
 62
     0
100
AcDbPolyline
 90
        2
 70
     0
 43
0.0
 10
-25497.0646966004
 20
2182.050052176589
 10
-26047.0646966004
 20
2182.050052176589
  0
LEADER
  5
49C1
102
{ACAD_XDICTIONARY
360
49C3
102
}
102
{ACAD_REACTORS
330
49C4
102
}
330
1F
100
AcDbEntity
  8
DIM
 62
     0
100
AcDbLeader
  3
ISO-25
 76
     2
 10
-25013.0243324709
 20
3213.278716342156
 30
0.0
 10
-25097.75862159894
 20
3171.916230304758
 30
0.0
213
0.0
223
12.5
233
0.0
1001
ACAD
1000
DSTYLE
1002
{
1070
    77
1070
     0
1070
    41
1040
15.0
1070
   140
1040
25.0
1070
   141
1040
0.5
1070
   147
1040
3.0
1070
   179
1070
     2
1002
}
  0
SPLINE
  5
524B
330
1F
100
AcDbEntity
  8
DIM
 62
     0
100
AcDbSpline
210
0.0
220
0.0
230
1.0
 70
  1064
 71
     3
 72
    10
 73
     6
 74
     4
 42
0.000000001
 43
0.0000000001
 44
0.0000000001
 40
0.0
 40
0.0
 40
0.0
 40
0.0
 40
35.41334802267697
 40
71.19042638046368
 40
107.3859215700223
 40
107.3859215700223
 40
107.3859215700223
 40
107.3859215700223
 10
-24765.38482347149
 20
3187.175904617706
 30
0.0
 10
-24776.35570130011
 20
3181.598097559609
 30
0.0
 10
-24798.41013879321
 20
3170.385193812704
 30
0.0
 10
-24835.08578057754
 20
3184.977007592956
 30
0.0
 10
-24857.44695959002
 20
3173.79813306892
 30
0.0
 10
-24868.69254811753
 20
3168.176201281344
 30
0.0
 11
-24765.38482347149
 21
3187.175904617706
 31
0.0
 11
-24798.85652841209
 21
3175.610863046478
 31
0.0
 11
-24834.39438664824
 21
3179.741234434942
 31
0.0
 11
-24868.69254811753
 21
3168.176201281344
 31
0.0
  0
DIMENSION
  5
557D
102
{ACAD_XDICTIONARY
360
558A
102
}
102
{ACAD_REACTORS
330
5594
102
}
330
1F
100
AcDbEntity
  8
DIM
 62
     0
100
AcDbDimension
280
     0
  2
*D37
 10
-25505.5646966004
 20
2091.939799872602
 30
0.0
 11
-25772.0646966004
 21
2110.599912232153
 31
0.0
 70
    32
  1
<>{\fSimHei|b0|i0|c134|p49; \{21"]}
 71
     5
 42
533.0
 73
     0
 74
     0
 75
     0
  3
ISO-25
100
AcDbAlignedDimension
 13
-26038.5646966004
 23
2324.966414814388
 33
0.0
 14
-25505.5646966004
 24
2324.966414814388
 34
0.0
100
AcDbRotatedDimension
1001
ACAD
1000
DSTYLE
1002
{
1070
    41
1040
15.0
1070
   140
1040
25.0
1070
   141
1040
0.5
1070
   147
1040
3.0
1070
   179
1070
     2
1002
}
  0
LINE
  5
5595
330
1F
100
AcDbEntity
  8
base
 62
     0
100
AcDbLine
 10
-25612.0646966004
 20
2696.966414814393
 30
0.0
 11
-25492.5646966004
 21
2696.966414814393
 31
0.0
  0
ARC
  5
5596
330
1F
100
AcDbEntity
  8
base
 62
     0
100
AcDbCircle
 10
-25492.5646966004
 20
2683.966414814393
 30
0.0
 40
13.0
100
AcDbArc
 50
0.0
 51
90.0
  0
LINE
  5
5597
330
1F
100
AcDbEntity
  8
base
 62
     0
100
AcDbLine
 10
-25479.5646966004
 20
2683.966414814393
 30
0.0
 11
-25479.5646966004
 21
2201.966414814393
 31
0.0
  0
ARC
  5
5598
330
1F
100
AcDbEntity
  8
base
 62
     0
100
AcDbCircle
 10
-25492.5646966004
 20
2201.966414814393
 30
0.0
 40
13.0
100
AcDbArc
 50
270.0
 51
0.0
  0
LINE
  5
5599
330
1F
100
AcDbEntity
  8
base
 62
     0
100
AcDbLine
 10
-25492.5646966004
 20
2188.966414814393
 30
0.0
 11
-26051.5646966004
 21
2188.966414814393
 31
0.0
  0
ARC
  5
559A
330
1F
100
AcDbEntity
  8
base
 62
     0
100
AcDbCircle
 10
-26051.5646966004
 20
2201.966414814393
 30
0.0
 40
13.0
100
AcDbArc
 50
180.0
 51
270.0
  0
LINE
  5
559B
330
1F
100
AcDbEntity
  8
base
 62
     0
100
AcDbLine
 10
-26064.5646966004
 20
2201.966414814393
 30
0.0
 11
-26064.5646966004
 21
2683.966414814393
 31
0.0
  0
ARC
  5
559C
330
1F
100
AcDbEntity
  8
base
 62
     0
100
AcDbCircle
 10
-26051.5646966004
 20
2683.966414814393
 30
0.0
 40
13.0
100
AcDbArc
 50
90.0
 51
180.0
  0
LINE
  5
559D
330
1F
100
AcDbEntity
  8
base
 62
     0
100
AcDbLine
 10
-26051.5646966004
 20
2696.966414814393
 30
0.0
 11
-25932.0646966004
 21
2696.966414814393
 31
0.0
  0
ARC
  5
559E
330
1F
100
AcDbEntity
  8
base
 62
     0
100
AcDbCircle
 10
-26051.5646966004
 20
2201.966414814393
 30
0.0
 40
18.0
100
AcDbArc
 50
180.0
 51
270.0
  0
LINE
  5
559F
330
1F
100
AcDbEntity
  8
base
 62
     0
100
AcDbLine
 10
-26069.5646966004
 20
2201.966414814393
 30
0.0
 11
-26069.5646966004
 21
2683.966414814393
 31
0.0
  0
ARC
  5
55A0
330
1F
100
AcDbEntity
  8
base
 62
     0
100
AcDbCircle
 10
-26051.5646966004
 20
2683.966414814393
 30
0.0
 40
18.0
100
AcDbArc
 50
90.0
 51
180.0
  0
LINE
  5
55A1
330
1F
100
AcDbEntity
  8
base
 62
     0
100
AcDbLine
 10
-26051.5646966004
 20
2701.966414814393
 30
0.0
 11
-25492.5646966004
 21
2701.966414814393
 31
0.0
  0
ARC
  5
55A2
330
1F
100
AcDbEntity
  8
base
 62
     0
100
AcDbCircle
 10
-25492.5646966004
 20
2683.966414814393
 30
0.0
 40
18.0
100
AcDbArc
 50
0.0
 51
90.0
  0
LINE
  5
55A3
330
1F
100
AcDbEntity
  8
base
 62
     0
100
AcDbLine
 10
-25474.56469660041
 20
2683.966414814393
 30
0.0
 11
-25474.5646966004
 21
2201.966414814393
 31
0.0
  0
ARC
  5
55A4
330
1F
100
AcDbEntity
  8
base
 62
     0
100
AcDbCircle
 10
-25492.5646966004
 20
2201.966414814393
 30
0.0
 40
18.0
100
AcDbArc
 50
270.0
 51
0.0
  0
LINE
  5
55A5
330
1F
100
AcDbEntity
  8
base
 62
     0
100
AcDbLine
 10
-25492.5646966004
 20
2183.966414814393
 30
0.0
 11
-26051.5646966004
 21
2183.966414814393
 31
0.0
  0
ARC
  5
55A6
330
1F
100
AcDbEntity
  8
base
 62
     0
100
AcDbCircle
 10
-26051.5646966004
 20
2201.966414814393
 30
0.0
 40
33.0
100
AcDbArc
 50
180.0
 51
270.0
  0
LINE
  5
55A7
330
1F
100
AcDbEntity
  8
base
 62
     0
100
AcDbLine
 10
-26084.5646966004
 20
2201.966414814393
 30
0.0
 11
-26084.5646966004
 21
2683.966414814393
 31
0.0
  0
ARC
  5
55A8
330
1F
100
AcDbEntity
  8
base
 62
     0
100
AcDbCircle
 10
-26051.5646966004
 20
2683.966414814393
 30
0.0
 40
33.0
100
AcDbArc
 50
90.0
 51
180.0
  0
LINE
  5
55A9
330
1F
100
AcDbEntity
  8
base
 62
     0
100
AcDbLine
 10
-26051.5646966004
 20
2716.966414814393
 30
0.0
 11
-25492.5646966004
 21
2716.966414814393
 31
0.0
  0
ARC
  5
55AA
330
1F
100
AcDbEntity
  8
base
 62
     0
100
AcDbCircle
 10
-25492.5646966004
 20
2683.966414814393
 30
0.0
 40
33.0
100
AcDbArc
 50
0.0
 51
90.0
  0
LINE
  5
55AB
330
1F
100
AcDbEntity
  8
base
 62
     0
100
AcDbLine
 10
-25459.5646966004
 20
2683.966414814393
 30
0.0
 11
-25459.5646966004
 21
2201.966414814393
 31
0.0
  0
ARC
  5
55AC
330
1F
100
AcDbEntity
  8
base
 62
     0
100
AcDbCircle
 10
-25492.5646966004
 20
2201.966414814393
 30
0.0
 40
33.0
100
AcDbArc
 50
270.0
 51
0.0
  0
LINE
  5
55AD
330
1F
100
AcDbEntity
  8
base
 62
     0
100
AcDbLine
 10
-25492.5646966004
 20
2168.966414814393
 30
0.0
 11
-26051.5646966004
 21
2168.966414814393
 31
0.0
  0
ARC
  5
55AE
330
1F
100
AcDbEntity
  8
base
 62
     0
100
AcDbCircle
 10
-26051.5646966004
 20
2201.966414814393
 30
0.0
 40
38.0
100
AcDbArc
 50
180.0
 51
270.0
  0
LINE
  5
55AF
330
1F
100
AcDbEntity
  8
base
 62
     0
100
AcDbLine
 10
-26089.5646966004
 20
2201.966414814393
 30
0.0
 11
-26089.5646966004
 21
2683.966414814393
 31
0.0
  0
ARC
  5
55B0
330
1F
100
AcDbEntity
  8
base
 62
     0
100
AcDbCircle
 10
-26051.5646966004
 20
2683.966414814393
 30
0.0
 40
38.0
100
AcDbArc
 50
90.0
 51
180.0
  0
LINE
  5
55B1
330
1F
100
AcDbEntity
  8
base
 62
     0
100
AcDbLine
 10
-26051.5646966004
 20
2721.966414814393
 30
0.0
 11
-25492.5646966004
 21
2721.966414814393
 31
0.0
  0
ARC
  5
55B2
330
1F
100
AcDbEntity
  8
base
 62
     0
100
AcDbCircle
 10
-25492.5646966004
 20
2683.966414814393
 30
0.0
 40
38.0
100
AcDbArc
 50
0.0
 51
90.0
  0
LINE
  5
55B3
330
1F
100
AcDbEntity
  8
base
 62
     0
100
AcDbLine
 10
-25454.5646966004
 20
2683.966414814393
 30
0.0
 11
-25454.5646966004
 21
2201.966414814393
 31
0.0
  0
ARC
  5
55B4
330
1F
100
AcDbEntity
  8
base
 62
     0
100
AcDbCircle
 10
-25492.5646966004
 20
2201.966414814393
 30
0.0
 40
38.0
100
AcDbArc
 50
270.0
 51
0.0
  0
LINE
  5
55B5
330
1F
100
AcDbEntity
  8
base
 62
     0
100
AcDbLine
 10
-25492.5646966004
 20
2163.966414814393
 30
0.0
 11
-26051.5646966004
 21
2163.966414814393
 31
0.0
  0
DIMENSION
  5
5669
102
{ACAD_XDICTIONARY
360
5672
102
}
102
{ACAD_REACTORS
330
5678
102
}
330
1F
100
AcDbEntity
  8
DIM
 62
     0
100
AcDbDimension
280
     0
  2
*D38
 10
-25932.06469660039
 20
2691.96641481439
 30
0.0
 11
-26009.18943171028
 21
2632.106219046791
 31
0.0
 70
   164
 71
     5
 42
4.999999999992724
 73
     0
 74
     0
 75
     0
  3
ISO-25
100
AcDbRadialDimension
 15
-25928.11481755077
 25
2695.032104866119
 35
0.0
 40
0.0
1001
ACAD
1000
DSTYLE
1002
{
1070
    41
1040
15.0
1070
   140
1040
25.0
1070
   141
1040
0.5
1070
   147
1040
3.0
1070
   179
1070
     2
1070
   279
1070
     1
1070
   288
1070
     1
1002
}
  0
DIMENSION
  5
567E
330
1F
100
AcDbEntity
  8
DIM
 62
     0
100
AcDbDimension
280
     0
  2
*D39
 10
-25788.76934441086
 20
2500.771707834586
 30
0.0
 11
-25892.63441437853
 21
2510.918778055839
 31
0.0
 70
   164
  1
{\fSimHei|b0|i0|c134|p49;8-}<>{\fSimHei|b0|i0|c134|p49; [9.8"]}
 71
     5
 42
250.0000000000218
 73
     0
 74
     0
 75
     0
  3
ISO-25
100
AcDbRadialDimension
 15
-26037.58478441737
 25
2525.079665675117
 35
0.0
 40
0.0
1001
ACAD
1000
DSTYLE
1002
{
1070
    41
1040
15.0
1070
   140
1040
25.0
1070
   141
1040
0.5
1070
   147
1040
3.0
1070
   179
1070
     2
1070
   288
1070
     1
1002
}
  0
DIMENSION
  5
5691
102
{ACAD_XDICTIONARY
360
569A
102
}
102
{ACAD_REACTORS
330
56A0
102
}
330
1F
100
AcDbEntity
  8
DIM
 62
     0
100
AcDbDimension
280
     0
  2
*D40
 10
-25957.87326336699
 20
2294.657848047802
 30
0.0
 11
-25930.92282705138
 21
2325.495983677051
 31
0.0
 70
   164
  1
{\fSimHei|b0|i0|c134|p49;4-}<>{\fSimHei|b0|i0|c134|p49; [3"]}
 71
     5
 42
77.99999999999272
 73
     0
 74
     0
 75
     0
  3
ISO-25
100
AcDbRadialDimension
 15
-26009.20109022648
 25
2235.925793853514
 35
0.0
 40
0.0
1001
ACAD
1000
DSTYLE
1002
{
1070
    41
1040
15.0
1070
   140
1040
25.0
1070
   141
1040
0.5
1070
   147
1040
3.0
1070
   179
1070
     2
1070
   288
1070
     1
1002
}
  0
SPLINE
  5
56C8
330
1F
100
AcDbEntity
  8
DIM
 62
     0
100
AcDbSpline
210
0.0
220
0.0
230
1.0
 70
  1064
 71
     3
 72
    10
 73
     6
 74
     4
 42
0.000000001
 43
0.0000000001
 44
0.0000000001
 40
0.0
 40
0.0
 40
0.0
 40
0.0
 40
35.41334802267697
 40
71.19042638046368
 40
107.3859215700223
 40
107.3859215700223
 40
107.3859215700223
 40
107.3859215700223
 10
-24684.76107667627
 20
1597.643903282324
 30
0.0
 10
-24695.7319545049
 20
1592.066096224227
 30
0.0
 10
-24717.786391998
 20
1580.853192477323
 30
0.0
 10
-24754.46203378233
 20
1595.445006257573
 30
0.0
 10
-24776.82321279481
 20
1584.266131733537
 30
0.0
 10
-24788.06880132232
 20
1578.644199945962
 30
0.0
 11
-24684.76107667627
 21
1597.643903282324
 31
0.0
 11
-24718.23278161688
 21
1586.078861711096
 31
0.0
 11
-24753.77063985303
 21
1590.20923309956
 31
0.0
 11
-24788.06880132232
 21
1578.644199945962
 31
0.0
  0
LINE
  5
56C9
330
1F
100
AcDbEntity
  8
base
 62
     0
100
AcDbLine
 10
-24725.60454893389
 20
1606.660392612
 30
0.0
 11
-24723.99855652468
 21
1586.254324255902
 31
0.0
  0
LINE
  5
56CA
330
1F
100
AcDbEntity
  8
base
 62
     0
100
AcDbLine
 10
-24730.09067693566
 20
1606.307326681224
 30
0.0
 11
-24728.55586746861
 21
1586.805723361889
 31
0.0
  0
ARC
  5
56CB
330
1F
100
AcDbEntity
  8
base
 62
     0
100
AcDbCircle
 10
-24759.99819694765
 20
1603.953553809384
 30
0.0
 40
30.0
100
AcDbArc
 50
4.500000000008371
 51
90.0
  0
ARC
  5
56CC
330
1F
100
AcDbEntity
  8
base
 62
     0
100
AcDbCircle
 10
-24759.99819694765
 20
1603.953553809384
 30
0.0
 40
34.5
100
AcDbArc
 50
4.500000000008371
 51
90.0
  0
DIMENSION
  5
56F9
330
1F
100
AcDbEntity
  8
DIM
 62
     0
100
AcDbDimension
280
     0
  2
*D41
 10
-26089.5646966004
 20
2091.939799872602
 30
0.0
 11
-26139.27373614842
 21
2107.439799872602
 31
0.0
 70
    32
  1
2-<>
 71
     5
 42
51.0
 73
     0
 74
     0
 75
     0
  3
ISO-25
100
AcDbAlignedDimension
 13
-26038.5646966004
 23
2163.966414814393
 33
0.0
 14
-26089.5646966004
 24
2163.966414814393
 34
0.0
100
AcDbRotatedDimension
1001
ACAD
1000
DSTYLE
1002
{
1070
    41
1040
15.0
1070
   140
1040
25.0
1070
   141
1040
0.5
1070
   147
1040
3.0
1070
   179
1070
     2
1002
}
  0
LWPOLYLINE
  5
5710
102
{ACAD_REACTORS
330
5594
330
56A0
102
}
330
1F
100
AcDbEntity
  8
base
 62
     0
100
AcDbPolyline
 90
       16
 70
     1
 43
0.0
 10
-25505.5646966004
 20
2502.966414814398
 42
0.0443133481007857
 10
-25509.47666350943
 20
2547.019564184435
 42
0.313867620107919
 10
-25572.51154723036
 20
2610.054447905366
 42
0.0443133481007883
 10
-25616.56469660039
 20
2613.966414814398
 10
-25927.56469660044
 20
2613.96641481439
 42
0.0443133481007884
 10
-25971.61784597044
 20
2610.054447905366
 42
0.3138676201079068
 10
-26034.65272969136
 20
2547.019564184436
 42
0.0443133481007857
 10
-26038.5646966004
 20
2502.966414814398
 10
-26038.5646966004
 20
2324.966414814388
 42
0.0443133481007853
 10
-26034.65272969136
 20
2280.91326544435
 42
0.3138676201079086
 10
-25971.61784597044
 20
2217.87838172342
 42
0.0443133481007882
 10
-25927.5646966004
 20
2213.966414814388
 10
-25616.56469660039
 20
2213.966414814388
 42
0.0443133481007885
 10
-25572.51154723035
 20
2217.87838172342
 42
0.3138676201079085
 10
-25509.47666350943
 20
2280.91326544435
 42
0.0443133481007856
 10
-25505.5646966004
 20
2324.966414814388
  0
LINE
  5
5726
102
{ACAD_REACTORS
330
575C
102
}
330
1F
100
AcDbEntity
  8
base
 62
     0
100
AcDbLine
 10
-25831.56469660041
 20
3144.333069612139
 30
0.0
 11
-26076.88767633232
 21
3157.189902186987
 31
0.0
  0
LINE
  5
5727
330
1F
100
AcDbEntity
  8
base
 62
     0
100
AcDbLine
 10
-25832.00440839103
 20
3143.454878819211
 30
0.0
 11
-26076.93477869294
 21
3156.291135605707
 31
0.0
  0
DIMENSION
  5
5739
102
{ACAD_XDICTIONARY
360
574C
102
}
102
{ACAD_REACTORS
330
575C
102
}
330
1F
100
AcDbEntity
  8
DIM
 62
     0
100
AcDbDimension
280
     0
  2
*D42
 10
-25831.56469660041
 20
3144.333069612139
 30
0.0
 11
-26273.3487096048
 21
3243.432462648049
 31
0.0
 70
    34
 71
     5
 42
0.0523598775598284
 73
     0
 74
     0
 75
     0
  3
ISO-25
100
AcDb2LineAngularDimension
 13
-25831.56469660041
 23
3144.333069612139
 33
0.0
 14
-26076.88767633232
 24
3157.189902186987
 34
0.0
 15
-25712.56469660038
 25
3144.333069612139
 35
0.0
 16
-26264.92565885148
 26
3151.897413345587
 36
0.0
1001
ACAD
1000
DSTYLE
1002
{
1070
    41
1040
15.0
1070
   140
1040
25.0
1070
   141
1040
0.5
1070
   147
1040
3.0
1070
   179
1070
     2
1002
}
  0
DIMENSION
  5
575D
330
1F
100
AcDbEntity
  8
DIM
 62
     0
100
AcDbDimension
280
     0
  2
*D43
 10
-26063.06729055408
 20
3222.100821946053
 30
0.0
 11
-26025.82123888686
 21
3260.357477323259
 31
0.0
 70
   164
  1
<>{\fSimHei|b0|i0|c134|p49; [2.6"]}
 71
     5
 42
65.00000000000546
 73
     0
 74
     0
 75
     0
  3
ISO-25
100
AcDbRadialDimension
 15
-26108.40996919359
 25
3175.527852384349
 35
0.0
 40
0.0
1001
ACAD
1000
DSTYLE
1002
{
1070
    41
1040
15.0
1070
   140
1040
25.0
1070
   141
1040
0.5
1070
   147
1040
3.0
1070
   179
1070
     2
1070
   288
1070
     1
1002
}
  0
LINE
  5
5772
330
1F
100
AcDbEntity
  8
base
 62
     0
100
AcDbLine
 10
-25712.12498480976
 20
3143.454878819211
 30
0.0
 11
-25467.19461450785
 21
3156.291135605707
 31
0.0
  0
LINE
  5
5773
330
1F
100
AcDbEntity
  8
base
 62
     0
100
AcDbLine
 10
-25712.56469660038
 20
3144.333069612139
 30
0.0
 11
-25471.28793320768
 21
3156.97784897415
 31
0.0
  0
LWPOLYLINE
  5
5794
330
1F
100
AcDbEntity
  8
Defpoints
 62
     0
100
AcDbPolyline
 90
        4
 70
     1
 43
0.0
 10
-26083.06469660039
 20
2205.466414814393
 10
-26083.06469660039
 20
2680.466414814393
 10
-26071.56469660039
 20
2680.466414814393
 10
-26071.56469660039
 20
2205.466414814393
  0
LINE
  5
5795
330
1F
100
AcDbEntity
  8
Defpoints
 62
     0
100
AcDbLine
 10
-26047.06469660039
 20
2715.382777452197
 30
0.0
 11
-26047.06469660039
 21
2703.882777452197
 31
0.0
  0
LINE
  5
5796
330
1F
100
AcDbEntity
  8
Defpoints
 62
     0
100
AcDbLine
 10
-25497.06469660039
 20
2715.382777452197
 30
0.0
 11
-25497.06469660039
 21
2703.882777452197
 31
0.0
  0
LWPOLYLINE
  5
5797
330
1F
100
AcDbEntity
  8
Defpoints
 62
     0
100
AcDbPolyline
 90
        2
 70
     0
 43
0.0
 10
-26047.06469660039
 20
2715.382777452197
 10
-25497.06469660039
 20
2715.382777452197
  0
LWPOLYLINE
  5
5798
330
1F
100
AcDbEntity
  8
Defpoints
 62
     0
100
AcDbPolyline
 90
        2
 70
     0
 43
0.0
 10
-26047.0646966004
 20
2170.550052176589
 10
-25497.0646966004
 20
2170.550052176589
  0
LINE
  5
5799
330
1F
100
AcDbEntity
  8
Defpoints
 62
     0
100
AcDbLine
 10
-25497.0646966004
 20
2182.050052176589
 30
0.0
 11
-25497.0646966004
 21
2170.550052176589
 31
0.0
  0
LINE
  5
579A
330
1F
100
AcDbEntity
  8
Defpoints
 62
     0
100
AcDbLine
 10
-26047.0646966004
 20
2182.050052176589
 30
0.0
 11
-26047.0646966004
 21
2170.550052176589
 31
0.0
  0
ARC
  5
6238
330
1F
100
AcDbEntity
  8
base
 62
     0
100
AcDbCircle
 10
-25474.68977036348
 20
3221.888768733196
 30
0.0
 40
65.0
100
AcDbArc
 50
273.0
 51
355.4999999999998
  0
LINE
  5
623B
330
1F
100
AcDbEntity
  8
base
 62
     0
100
AcDbLine
 10
-25399.69676640759
 20
3336.111670096079
 30
0.0
 11
-25409.09260980384
 21
3216.726160234304
 31
0.0
  0
ARC
  5
623C
330
1F
100
AcDbEntity
  8
base
 62
     0
100
AcDbCircle
 10
-25474.68977036348
 20
3221.888768733196
 30
0.0
 40
65.8
100
AcDbArc
 50
273.0
 51
355.4999999999998
  0
LINE
  5
6254
330
1F
100
AcDbEntity
  8
base
 62
     0
100
AcDbLine
 10
-26143.63509292623
 20
3336.174437372661
 30
0.0
 11
-26134.23924952998
 21
3216.788927510886
 31
0.0
  0
LINE
  5
6255
330
1F
100
AcDbEntity
  8
base
 62
     0
100
AcDbLine
 10
-26144.43262679321
 20
3336.111670096079
 30
0.0
 11
-26135.03678339696
 21
3216.726160234304
 31
0.0
  0
ARC
  5
6256
330
1F
100
AcDbEntity
  8
base
 62
     0
100
AcDbCircle
 10
-26069.43962283733
 20
3221.888768733196
 30
0.0
 40
64.99999999999999
100
AcDbArc
 50
184.5000000000126
 51
266.9999999999944
  0
ARC
  5
6257
330
1F
100
AcDbEntity
  8
base
 62
     0
100
AcDbCircle
 10
-26069.43962283733
 20
3221.888768733196
 30
0.0
 40
65.79999999999998
100
AcDbArc
 50
184.5000000000126
 51
266.9999999999944
  0
DIMENSION
  5
68AC
330
1F
100
AcDbEntity
  8
DIM
 62
     0
100
AcDbDimension
280
     0
  2
*D44
 10
-26173.55264478195
 20
2721.966414814394
 30
0.0
 11
-26173.55264478194
 21
2825.851246275076
 31
0.0
 70
   160
  1
<>{\fSimHei|b0|i0|c134|p49; [2.24"]}
 71
     5
 42
57.00421747311475
 73
     0
 74
     0
 75
     0
  3
ISO-25
100
AcDbAlignedDimension
 13
-25899.175567503
 23
2664.962197341278
 33
0.0
 14
-26150.15311493498
 24
2721.966414814393
 34
0.0
 50
90.0
100
AcDbRotatedDimension
1001
ACAD
1000
DSTYLE
1002
{
1070
    41
1040
15.0
1070
   140
1040
25.0
1070
   141
1040
0.5
1070
   147
1040
3.0
1070
   179
1070
     2
1002
}
  0
ENDSEC
  0
SECTION
  2
OBJECTS
  0
DICTIONARY
  5
C
330
0
100
AcDbDictionary
281
     1
  3
ACAD_CIP_PREVIOUS_PRODUCT_INFO
350
629B
  3
ACAD_COLOR
350
6B
  3
ACAD_DETAILVIEWSTYLE
350
6290
  3
ACAD_GROUP
350
D
  3
ACAD_LAYOUT
350
1A
  3
ACAD_MATERIAL
350
6A
  3
ACAD_MLEADERSTYLE
350
628C
  3
ACAD_MLINESTYLE
350
17
  3
ACAD_PLOTSETTINGS
350
19
  3
ACAD_PLOTSTYLENAME
350
E
  3
ACAD_SCALELIST
350
627A
  3
ACAD_SECTIONVIEWSTYLE
350
628E
  3
ACAD_TABLESTYLE
350
6207
  3
ACAD_VISUALSTYLE
350
61F6
  3
AcadDim
350
3E75
  3
ACDB_RECOMPOSE_DATA
350
68E8
  3
AcDbVariableDictionary
350
5E
  3
lxx_dict
350
6212
  0
DICTIONARY
  5
645E
330
2
100
AcDbDictionary
280
     1
281
     1
  3
ACAD_LAYERSTATES
360
645F
  0
DICTIONARY
  5
629C
330
10
100
AcDbDictionary
280
     1
281
     1
  3
ADSK_XREC_LAYER_RECONCILED
360
629D
  0
DICTIONARY
  5
629E
330
84
100
AcDbDictionary
280
     1
281
     1
  3
ADSK_XREC_LAYER_RECONCILED
360
629F
  0
DICTIONARY
  5
62A0
330
2D93
100
AcDbDictionary
280
     1
281
     1
  3
ADSK_XREC_LAYER_RECONCILED
360
62A1
  0
DICTIONARY
  5
62A2
330
32FC
100
AcDbDictionary
280
     1
281
     1
  3
ADSK_XREC_LAYER_RECONCILED
360
62A3
  0
DICTIONARY
  5
62A4
330
32FD
100
AcDbDictionary
280
     1
281
     1
  3
ADSK_XREC_LAYER_RECONCILED
360
62A5
  0
DICTIONARY
  5
62A6
330
32FE
100
AcDbDictionary
280
     1
281
     1
  3
ADSK_XREC_LAYER_RECONCILED
360
62A7
  0
DICTIONARY
  5
62A8
330
32FF
100
AcDbDictionary
280
     1
281
     1
  3
ADSK_XREC_LAYER_RECONCILED
360
62A9
  0
DICTIONARY
  5
62AA
330
3300
100
AcDbDictionary
280
     1
281
     1
  3
ADSK_XREC_LAYER_RECONCILED
360
62AB
  0
DICTIONARY
  5
62AC
330
3301
100
AcDbDictionary
280
     1
281
     1
  3
ADSK_XREC_LAYER_RECONCILED
360
62AD
  0
DICTIONARY
  5
62AE
330
3302
100
AcDbDictionary
280
     1
281
     1
  3
ADSK_XREC_LAYER_RECONCILED
360
62AF
  0
DICTIONARY
  5
62B0
330
3303
100
AcDbDictionary
280
     1
281
     1
  3
ADSK_XREC_LAYER_RECONCILED
360
62B1
  0
DICTIONARY
  5
62B2
330
3304
100
AcDbDictionary
280
     1
281
     1
  3
ADSK_XREC_LAYER_RECONCILED
360
62B3
  0
DICTIONARY
  5
62B4
330
3305
100
AcDbDictionary
280
     1
281
     1
  3
ADSK_XREC_LAYER_RECONCILED
360
62B5
  0
DICTIONARY
  5
62B6
330
3306
100
AcDbDictionary
280
     1
281
     1
  3
ADSK_XREC_LAYER_RECONCILED
360
62B7
  0
DICTIONARY
  5
62B8
330
3307
100
AcDbDictionary
280
     1
281
     1
  3
ADSK_XREC_LAYER_RECONCILED
360
62B9
  0
DICTIONARY
  5
62BA
330
3308
100
AcDbDictionary
280
     1
281
     1
  3
ADSK_XREC_LAYER_RECONCILED
360
62BB
  0
DICTIONARY
  5
62BC
330
3309
100
AcDbDictionary
280
     1
281
     1
  3
ADSK_XREC_LAYER_RECONCILED
360
62BD
  0
DICTIONARY
  5
62BE
330
330A
100
AcDbDictionary
280
     1
281
     1
  3
ADSK_XREC_LAYER_RECONCILED
360
62BF
  0
DICTIONARY
  5
62C0
330
330B
100
AcDbDictionary
280
     1
281
     1
  3
ADSK_XREC_LAYER_RECONCILED
360
62C1
  0
DICTIONARY
  5
62C2
330
330C
100
AcDbDictionary
280
     1
281
     1
  3
ADSK_XREC_LAYER_RECONCILED
360
62C3
  0
DICTIONARY
  5
62C4
330
330D
100
AcDbDictionary
280
     1
281
     1
  3
ADSK_XREC_LAYER_RECONCILED
360
62C5
  0
DICTIONARY
  5
6239
330
1F
100
AcDbDictionary
280
     1
281
     1
  3
ACAD_SORTENTS
360
623A
  0
DICTIONARY
  5
3C5C
330
3C4F
100
AcDbDictionary
280
     1
281
     1
  3
ACAD_DIMASSOC
360
3C66
  0
DICTIONARY
  5
3C74
330
3C67
100
AcDbDictionary
280
     1
281
     1
  3
ACAD_DIMASSOC
360
3C7E
  0
DICTIONARY
  5
3CCB
330
3CBF
100
AcDbDictionary
280
     1
281
     1
  3
ACAD_DIMASSOC
360
3CD4
  0
DICTIONARY
  5
3DC0
330
3DAD
100
AcDbDictionary
280
     1
281
     1
  3
ACAD_DIMASSOC
360
3DD0
  0
DICTIONARY
  5
3E12
330
3E05
100
AcDbDictionary
280
     1
281
     1
  3
ACAD_DIMASSOC
360
3E1C
  0
DICTIONARY
  5
3E78
330
3E76
100
AcDbDictionary
280
     1
281
     1
  3
ACAD_DIMASSOC
360
3E79
  0
DICTIONARY
  5
3ECB
330
3EBC
100
AcDbDictionary
280
     1
281
     1
  3
ACAD_DIMASSOC
360
3ED7
  0
DICTIONARY
  5
3EE5
330
3ED8
100
AcDbDictionary
280
     1
281
     1
  3
ACAD_DIMASSOC
360
3EEF
  0
DICTIONARY
  5
3EFF
330
3EF0
100
AcDbDictionary
280
     1
281
     1
  3
ACAD_DIMASSOC
360
3F0B
  0
DICTIONARY
  5
3F31
330
3F22
100
AcDbDictionary
280
     1
281
     1
  3
ACAD_DIMASSOC
360
3F3D
  0
DICTIONARY
  5
3F6F
330
3F60
100
AcDbDictionary
280
     1
281
     1
  3
ACAD_DIMASSOC
360
3F7B
  0
DICTIONARY
  5
3F89
330
3F7C
100
AcDbDictionary
280
     1
281
     1
  3
ACAD_DIMASSOC
360
3F93
  0
DICTIONARY
  5
4241
330
4232
100
AcDbDictionary
280
     1
281
     1
  3
ACAD_DIMASSOC
360
424D
  0
DICTIONARY
  5
4266
330
4259
100
AcDbDictionary
280
     1
281
     1
  3
ACAD_DIMASSOC
360
4270
  0
DICTIONARY
  5
4280
330
4271
100
AcDbDictionary
280
     1
281
     1
  3
ACAD_DIMASSOC
360
428C
  0
DICTIONARY
  5
42D1
330
42C4
100
AcDbDictionary
280
     1
281
     1
  3
ACAD_DIMASSOC
360
42DB
  0
DICTIONARY
  5
42E9
330
42DC
100
AcDbDictionary
280
     1
281
     1
  3
ACAD_DIMASSOC
360
42F3
  0
DICTIONARY
  5
432B
330
431C
100
AcDbDictionary
280
     1
281
     1
  3
ACAD_DIMASSOC
360
4337
  0
DICTIONARY
  5
4352
330
4343
100
AcDbDictionary
280
     1
281
     1
  3
ACAD_DIMASSOC
360
435E
  0
DICTIONARY
  5
4379
330
436A
100
AcDbDictionary
280
     1
281
     1
  3
ACAD_DIMASSOC
360
4385
  0
DICTIONARY
  5
43A0
330
4391
100
AcDbDictionary
280
     1
281
     1
  3
ACAD_DIMASSOC
360
43AC
  0
DICTIONARY
  5
44F3
330
44E6
100
AcDbDictionary
280
     1
281
     1
  3
ACAD_DIMASSOC
360
44FD
  0
DICTIONARY
  5
450B
330
44FE
100
AcDbDictionary
280
     1
281
     1
  3
ACAD_DIMASSOC
360
4515
  0
DICTIONARY
  5
4523
330
4516
100
AcDbDictionary
280
     1
281
     1
  3
ACAD_DIMASSOC
360
452D
  0
DICTIONARY
  5
453D
330
452E
100
AcDbDictionary
280
     1
281
     1
  3
ACAD_DIMASSOC
360
4549
  0
DICTIONARY
  5
4559
330
454A
100
AcDbDictionary
280
     1
281
     1
  3
ACAD_DIMASSOC
360
4565
  0
DICTIONARY
  5
49C3
330
49C1
100
AcDbDictionary
280
     1
281
     1
  3
ACAD_DIMASSOC
360
49C4
  0
DICTIONARY
  5
558A
330
557D
100
AcDbDictionary
280
     1
281
     1
  3
ACAD_DIMASSOC
360
5594
  0
DICTIONARY
  5
5672
330
5669
100
AcDbDictionary
280
     1
281
     1
  3
ACAD_DIMASSOC
360
5678
  0
DICTIONARY
  5
569A
330
5691
100
AcDbDictionary
280
     1
281
     1
  3
ACAD_DIMASSOC
360
56A0
  0
DICTIONARY
  5
574C
330
5739
100
AcDbDictionary
280
     1
281
     1
  3
ACAD_DIMASSOC
360
575C
  0
XRECORD
  5
629B
102
{ACAD_REACTORS
330
C
102
}
330
C
100
AcDbXrecord
280
     1
300
ACDLT
300
2018
300

  0
DICTIONARY
  5
6B
102
{ACAD_REACTORS
330
C
102
}
330
C
100
AcDbDictionary
281
     1
  0
DICTIONARY
  5
6290
102
{ACAD_REACTORS
330
C
102
}
330
C
100
AcDbDictionary
281
     1
  3
Metric50
350
6291
  0
DICTIONARY
  5
D
102
{ACAD_REACTORS
330
C
102
}
330
C
100
AcDbDictionary
281
     1
  0
DICTIONARY
  5
1A
102
{ACAD_REACTORS
330
C
102
}
330
C
100
AcDbDictionary
281
     1
  3
Layout1
350
51
  3
Layout2
350
56
  3
Model
350
22
  0
DICTIONARY
  5
6A
102
{ACAD_REACTORS
330
C
102
}
330
C
100
AcDbDictionary
281
     1
  3
ByBlock
350
61F4
  3
ByLayer
350
61F3
  3
Global
350
61F5
  0
DICTIONARY
  5
628C
102
{ACAD_REACTORS
330
C
102
}
330
C
100
AcDbDictionary
281
     1
  3
Standard
350
628D
  0
DICTIONARY
  5
17
102
{ACAD_REACTORS
330
C
102
}
330
C
100
AcDbDictionary
281
     1
  3
Standard
350
18
  0
DICTIONARY
  5
19
102
{ACAD_REACTORS
330
C
102
}
330
C
100
AcDbDictionary
281
     1
  0
ACDBDICTIONARYWDFLT
  5
E
102
{ACAD_REACTORS
330
C
102
}
330
C
100
AcDbDictionary
281
     1
  3
Normal
350
F
100
AcDbDictionaryWithDefault
340
F
  0
DICTIONARY
  5
627A
102
{ACAD_REACTORS
330
C
102
}
330
C
100
AcDbDictionary
281
     1
  3
A0
350
627B
  3
A1
350
627C
  3
A2
350
627D
  3
A3
350
627E
  3
A4
350
627F
  3
A5
350
6280
  3
A6
350
6281
  3
A7
350
6282
  3
A8
350
6283
  3
A9
350
6284
  3
B0
350
6285
  3
B1
350
6286
  3
B2
350
6287
  3
B3
350
6288
  3
B4
350
6289
  3
B5
350
628A
  3
B6
350
628B
  0
DICTIONARY
  5
628E
102
{ACAD_REACTORS
330
C
102
}
330
C
100
AcDbDictionary
281
     1
  3
Metric50
350
628F
  0
DICTIONARY
  5
6207
102
{ACAD_REACTORS
330
C
102
}
330
C
100
AcDbDictionary
281
     1
  3
Standard
350
6208
  0
DICTIONARY
  5
61F6
102
{ACAD_REACTORS
330
C
102
}
330
C
100
AcDbDictionary
281
     1
  3
2dWireframe
350
61FC
  3
3D Hidden
350
61FE
  3
3dWireframe
350
61FD
  3
Basic
350
61FB
  3
Brighten
350
6202
  3
ColorChange
350
6206
  3
Conceptual
350
61FF
  3
Dim
350
6201
  3
EdgeColorOff
350
6279
  3
Facepattern
350
6205
  3
Flat
350
61F7
  3
FlatWithEdges
350
61F8
  3
Gouraud
350
61F9
  3
GouraudWithEdges
350
61FA
  3
Hidden
350
6271
  3
JitterOff
350
6277
  3
Linepattern
350
6204
  3
OverhangOff
350
6278
  3
Realistic
350
6200
  3
Shaded
350
6276
  3
Shaded with edges
350
6275
  3
Shades of Gray
350
6272
  3
Sketchy
350
6273
  3
Thicken
350
6203
  3
Wireframe
350
6270
  3
X-Ray
350
6274
  0
XRECORD
  5
3E75
102
{ACAD_REACTORS
330
C
102
}
330
C
100
AcDbXrecord
280
     1
 90
   990106
  3

 60
     0
 61
     0
 62
     1
 63
     3
 64
     0
 65
     0
 66
     0
 67
     3
 68
     1
 69
     0
 70
     0
 71
     0
 72
     0
 40
0.0
170
     0
340
0
  0
XRECORD
  5
68E8
102
{ACAD_REACTORS
330
C
102
}
330
C
100
AcDbXrecord
280
     1
 90
        1
330
3C13
330
6208
  0
DICTIONARY
  5
5E
102
{ACAD_REACTORS
330
C
102
}
330
C
100
AcDbDictionary
281
     1
  3
CANNOSCALE
350
6844
  3
CMLEADERSTYLE
350
6840
  3
CTABLESTYLE
350
6214
  3
CVIEWDETAILSTYLE
350
6841
  3
CVIEWSECTIONSTYLE
350
6842
  3
DIMASSOC
350
5F
  3
HIDETEXT
350
63
  3
LAYEREVAL
350
6846
  3
LAYERNOTIFY
350
6847
  3
LIGHTINGUNITS
350
6845
  3
MSLTSCALE
350
6843
  3
PROJECTNAME
350
1CF
  0
DICTIONARY
  5
6212
102
{ACAD_REACTORS
330
C
102
}
330
C
100
AcDbDictionary
281
     1
  3
lxx_dimth
350
6213
  0
DICTIONARY
  5
645F
102
{ACAD_REACTORS
330
645E
102
}
330
645E
100
AcDbDictionary
281
     1
  0
XRECORD
  5
629D
102
{ACAD_REACTORS
330
629C
102
}
330
629C
100
AcDbXrecord
280
     1
290
     1
  0
XRECORD
  5
629F
102
{ACAD_REACTORS
330
629E
102
}
330
629E
100
AcDbXrecord
280
     1
290
     1
  0
XRECORD
  5
62A1
102
{ACAD_REACTORS
330
62A0
102
}
330
62A0
100
AcDbXrecord
280
     1
290
     1
  0
XRECORD
  5
62A3
102
{ACAD_REACTORS
330
62A2
102
}
330
62A2
100
AcDbXrecord
280
     1
290
     1
  0
XRECORD
  5
62A5
102
{ACAD_REACTORS
330
62A4
102
}
330
62A4
100
AcDbXrecord
280
     1
290
     1
  0
XRECORD
  5
62A7
102
{ACAD_REACTORS
330
62A6
102
}
330
62A6
100
AcDbXrecord
280
     1
290
     1
  0
XRECORD
  5
62A9
102
{ACAD_REACTORS
330
62A8
102
}
330
62A8
100
AcDbXrecord
280
     1
290
     1
  0
XRECORD
  5
62AB
102
{ACAD_REACTORS
330
62AA
102
}
330
62AA
100
AcDbXrecord
280
     1
290
     1
  0
XRECORD
  5
62AD
102
{ACAD_REACTORS
330
62AC
102
}
330
62AC
100
AcDbXrecord
280
     1
290
     1
  0
XRECORD
  5
62AF
102
{ACAD_REACTORS
330
62AE
102
}
330
62AE
100
AcDbXrecord
280
     1
290
     1
  0
XRECORD
  5
62B1
102
{ACAD_REACTORS
330
62B0
102
}
330
62B0
100
AcDbXrecord
280
     1
290
     1
  0
XRECORD
  5
62B3
102
{ACAD_REACTORS
330
62B2
102
}
330
62B2
100
AcDbXrecord
280
     1
290
     1
  0
XRECORD
  5
62B5
102
{ACAD_REACTORS
330
62B4
102
}
330
62B4
100
AcDbXrecord
280
     1
290
     1
  0
XRECORD
  5
62B7
102
{ACAD_REACTORS
330
62B6
102
}
330
62B6
100
AcDbXrecord
280
     1
290
     1
  0
XRECORD
  5
62B9
102
{ACAD_REACTORS
330
62B8
102
}
330
62B8
100
AcDbXrecord
280
     1
290
     1
  0
XRECORD
  5
62BB
102
{ACAD_REACTORS
330
62BA
102
}
330
62BA
100
AcDbXrecord
280
     1
290
     1
  0
XRECORD
  5
62BD
102
{ACAD_REACTORS
330
62BC
102
}
330
62BC
100
AcDbXrecord
280
     1
290
     1
  0
XRECORD
  5
62BF
102
{ACAD_REACTORS
330
62BE
102
}
330
62BE
100
AcDbXrecord
280
     1
290
     1
  0
XRECORD
  5
62C1
102
{ACAD_REACTORS
330
62C0
102
}
330
62C0
100
AcDbXrecord
280
     1
290
     1
  0
XRECORD
  5
62C3
102
{ACAD_REACTORS
330
62C2
102
}
330
62C2
100
AcDbXrecord
280
     1
290
     1
  0
XRECORD
  5
62C5
102
{ACAD_REACTORS
330
62C4
102
}
330
62C4
100
AcDbXrecord
280
     1
290
     1
  0
SORTENTSTABLE
  5
623A
102
{ACAD_REACTORS
330
6239
102
}
330
6239
100
AcDbSortentsTable
330
1F
331
3A7E
  5
3A7F
331
3A37
  5
3A37
331
3A7A
  5
3A7B
331
39D2
  5
39D2
331
3DAC
  5
3DAD
331
3DA8
  5
3DA9
331
3C13
  5
3C4F
331
3D57
  5
3D78
331
3F60
  5
3F7C
331
441C
  5
441D
331
5597
  5
5598
331
5798
  5
6238
331
559F
  5
55A0
331
3E36
  5
3E37
331
5727
  5
5728
331
559B
  5
559C
331
3E32
  5
3E33
331
44FE
  5
4516
331
3E3A
  5
3E3B
331
3A85
  5
3A86
331
3A81
  5
3A82
331
39DD
  5
39DD
331
3A89
  5
3AC3
331
3A46
  5
3A46
331
39E5
  5
39E5
331
4427
  5
4428
331
3F22
  5
3F49
331
4423
  5
4424
331
55A6
  5
55A7
331
55A2
  5
55A3
331
55AE
  5
55AF
331
55AA
  5
55AB
331
3E71
  5
3E72
331
39E9
  5
39E9
331
3A52
  5
3A52
331
3CBF
  5
3D57
331
41EE
  5
41EF
331
56CB
  5
56CC
331
55B2
  5
55B3
331
3E81
  5
3E82
331
3A65
  5
3A65
331
3B66
  5
3B95
331
3A6D
  5
3A6E
331
3A69
  5
3A6A
331
39FE
  5
39FE
331
3A02
  5
3A02
331
3C67
  5
3CAD
331
3D9F
  5
3DA0
331
3D9B
  5
3D9E
331
3DA7
  5
3DA8
331
3DA3
  5
3DA4
331
41F7
  5
41F8
331
41F3
  5
41F4
331
41FF
  5
4232
331
41FB
  5
41FC
331
5773
  5
5794
331
5797
  5
579A
331
3E8E
  5
3E8F
331
3E1D
  5
3E1E
331
3E8A
  5
3E8B
331
454A
  5
457C
331
3E96
  5
3E97
331
3E92
  5
3E93
331
3A79
  5
3A7A
331
3A36
  5
3A36
331
39D1
  5
39D1
331
3A3A
  5
3A3A
331
3DAB
  5
3DAC
331
416E
  5
4170
331
4172
  5
418D
331
441F
  5
4420
331
441B
  5
441C
331
436A
  5
4391
331
5596
  5
5597
331
559E
  5
559F
331
3E35
  5
3E36
331
559A
  5
559B
331
5726
  5
5727
331
3E9A
  5
3EBC
331
3E39
  5
3E3A
331
3A84
  5
3A85
331
3A80
  5
3A81
331
3A45
  5
3A45
331
39E4
  5
39E4
331
39E0
  5
39E0
331
418D
  5
41EC
331
4426
  5
4427
331
4422
  5
4423
331
55A5
  5
55A6
331
55A1
  5
55A2
331
5739
  5
575D
331
55AD
  5
55AE
331
55A9
  5
55AA
331
3E70
  5
3E71
331
49C1
  5
49C2
331
3AC4
  5
3AD0
331
39EC
  5
39EC
331
3A51
  5
3A51
331
3AD0
  5
3B66
331
39F0
  5
39F0
331
41ED
  5
41EE
331
4391
  5
4419
331
55B5
  5
5669
331
575D
  5
5772
331
55B1
  5
55B2
331
56CA
  5
56CB
331
3E7C
  5
3E81
331
5669
  5
567E
331
3A64
  5
3A64
331
39FD
  5
39FD
331
3A6C
  5
3A6D
331
3A68
  5
3A68
331
3A05
  5
3A05
331
3D9E
  5
3D9F
331
3DA6
  5
3DA7
331
4271
  5
42C4
331
3DA2
  5
3DA3
331
41F6
  5
41F7
331
41F2
  5
41F3
331
41FE
  5
41FF
331
41FA
  5
41FB
331
557D
  5
5595
331
56F9
  5
5710
331
5772
  5
5773
331
567E
  5
5691
331
3E8D
  5
3E8E
331
5796
  5
5799
331
3E89
  5
3E8A
331
3E95
  5
3E96
331
3E91
  5
3E92
331
3B95
  5
3BB3
331
3A70
  5
3A77
331
3A35
  5
3A35
331
3A78
  5
3A79
331
3A3D
  5
3A3D
331
39D4
  5
39D4
331
3A39
  5
3A39
331
39D0
  5
39D0
331
3DAA
  5
3DAB
331
4232
  5
4259
331
4171
  5
4172
331
441E
  5
441F
331
441A
  5
441B
331
5595
  5
5596
331
559D
  5
559E
331
579A
  5
623C
331
5599
  5
559A
331
3E34
  5
3E35
331
3E99
  5
3E9A
331
3E30
  5
3E32
331
3E3C
  5
3E6E
331
3E38
  5
3E39
331
3A83
  5
3A84
331
3A44
  5
3A44
331
39DF
  5
39DF
331
3A40
  5
3A40
331
39E7
  5
39E7
331
3A48
  5
3A48
331
39E3
  5
39E3
331
3CAD
  5
3CBF
331
42C4
  5
42DC
331
4425
  5
4426
331
4421
  5
4422
331
4429
  5
443C
331
55A4
  5
55A5
331
55A0
  5
55A1
331
55AC
  5
55AD
331
3E6F
  5
3E70
331
55A8
  5
55A9
331
485C
  5
48A7
331
3E77
  5
3E7A
331
3E73
  5
3E76
331
3AC3
  5
3AC4
331
39EF
  5
39EF
331
3E05
  5
3E1D
331
3D78
  5
3D9B
331
4259
  5
4271
331
41EC
  5
41ED
331
443D
  5
44E6
331
55B4
  5
55B5
331
56C9
  5
56CA
331
55B0
  5
55B1
331
3ED8
  5
3EF0
331
3E7B
  5
3E7C
331
3E87
  5
3E88
331
39FC
  5
39FC
331
3A6B
  5
3A6C
331
3A04
  5
3A04
331
3A00
  5
3A00
331
3DA5
  5
3DA6
331
41F5
  5
41F6
331
41F1
  5
41F2
331
3F49
  5
3F60
331
41FD
  5
41FE
331
41F9
  5
41FA
331
623C
  5
5796
331
6238
  5
5795
331
5795
  5
5798
331
3E88
  5
3E89
331
3E94
  5
3E95
331
3E90
  5
3E91
331
3A77
  5
3A78
331
3A7F
  5
3A80
331
3A34
  5
3A34
331
3A7B
  5
3A7E
331
3A3C
  5
3A3C
331
3A38
  5
3A38
331
39D3
  5
39D3
331
3DAD
  5
3E05
331
3DA9
  5
3DAA
331
3EF0
  5
3F22
331
4170
  5
4171
331
441D
  5
441E
331
4419
  5
441A
331
5710
  5
5726
331
5799
  5
623B
331
559C
  5
559D
331
5691
  5
56C8
331
5598
  5
5599
331
3E37
  5
3E38
331
3E98
  5
3E99
331
3E33
  5
3E34
331
3EBC
  5
3ED8
331
3E3B
  5
3E3C
331
3A86
  5
3A89
331
3BB3
  5
3BCB
331
3A82
  5
3A83
331
3C4F
  5
3C67
331
431C
  5
4343
331
3F7C
  5
3FE4
331
4424
  5
4425
331
4420
  5
4421
331
4428
  5
4429
331
55A7
  5
55A8
331
55A3
  5
55A4
331
55AF
  5
55B0
331
3E6E
  5
3E6F
331
55AB
  5
55AC
331
4516
  5
452E
331
485B
  5
485C
331
3E76
  5
3E77
331
3E72
  5
3E73
331
3BCB
  5
3BE3
331
443C
  5
443D
331
41EF
  5
41F0
331
56CC
  5
56F9
331
55B3
  5
55B4
331
56C8
  5
56C9
331
452E
  5
454A
331
3E7A
  5
3E7B
331
524B
  5
557D
331
3E86
  5
3E87
331
3E82
  5
3E86
331
3A66
  5
3A66
331
3A6E
  5
3A70
331
39FF
  5
39FF
331
3A6A
  5
3A6B
331
42DC
  5
431C
331
3BE3
  5
3C13
331
3DA4
  5
3DA5
331
41F4
  5
41F5
331
3DA0
  5
3DA2
331
41F0
  5
41F1
331
41FC
  5
41FD
331
41F8
  5
41F9
331
4343
  5
436A
331
623B
  5
3A69
331
3E8F
  5
3E90
331
5794
  5
5797
331
3E8B
  5
3E8D
331
44E6
  5
44FE
331
3E97
  5
3E98
331
3E1E
  5
3E30
331
3E93
  5
3E94
  0
DIMASSOC
  5
3C66
102
{ACAD_REACTORS
330
3C5C
102
}
330
3C5C
100
AcDbDimAssoc
330
3C4F
 90
        3
 70
     0
 71
     0
  1
AcDbOsnapPointRef
 72
     1
331
39E5
 73
     2
 91
        0
 40
1.0
 10
0.0
 20
0.0
 30
2.000000000000000E+50
 75
     0
  1
AcDbOsnapPointRef
 72
     1
331
39E9
 73
     2
 91
        0
 40
1.0
 10
0.0
 20
0.0
 30
2.000000000000000E+50
 75
     0
  0
DIMASSOC
  5
3C7E
102
{ACAD_REACTORS
330
3C74
102
}
330
3C74
100
AcDbDimAssoc
330
3C67
 90
        3
 70
     0
 71
     0
  1
AcDbOsnapPointRef
 72
    13
331
39E4
 73
     2
 91
        0
 40
0.0
 10
0.0
 20
0.0
 30
2.000000000000000E+50
 75
     0
  1
AcDbOsnapPointRef
 72
     1
331
39DF
 73
     2
 91
        0
 40
1.0
 10
0.0
 20
0.0
 30
2.000000000000000E+50
 75
     0
  0
DIMASSOC
  5
3CD4
102
{ACAD_REACTORS
330
3CCB
102
}
330
3CCB
100
AcDbDimAssoc
330
3CBF
 90
        2
 70
     0
 71
     0
  1
AcDbOsnapPointRef
 72
     3
331
3A00
 73
     2
 91
        0
 40
0.0
 10
0.0
 20
0.0
 30
0.0
 75
     0
  0
DIMASSOC
  5
3DD0
102
{ACAD_REACTORS
330
3DC0
102
}
330
3DC0
100
AcDbDimAssoc
330
3DAD
 90
       15
 70
     0
 71
     0
  1
AcDbOsnapPointRef
 72
    13
331
3A44
 73
     2
 91
        0
 40
0.0
 10
0.0
 20
0.0
 30
2.000000000000000E+50
 75
     0
  1
AcDbOsnapPointRef
 72
     1
331
3A44
 73
     2
 91
        0
 40
1.0
 10
0.0
 20
0.0
 30
2.000000000000000E+50
 75
     0
  1
AcDbOsnapPointRef
 72
    13
331
3D9F
 73
     2
 91
        0
 40
0.0
 10
0.0
 20
0.0
 30
2.000000000000000E+50
 75
     0
  1
AcDbOsnapPointRef
 72
     1
331
3D9F
 73
     2
 91
        0
 40
1.0
 10
0.0
 20
0.0
 30
2.000000000000000E+50
 75
     0
  0
DIMASSOC
  5
3E1C
102
{ACAD_REACTORS
330
3E12
102
}
330
3E12
100
AcDbDimAssoc
330
3E05
 90
        1
 70
     0
 71
     0
  1
AcDbOsnapPointRef
 72
     1
331
3A35
 73
     2
 91
        0
 40
1.0
 10
0.0
 20
0.0
 30
2.000000000000000E+50
 75
     0
  0
DIMASSOC
  5
3E79
102
{ACAD_REACTORS
330
3E78
102
}
330
3E78
100
AcDbDimAssoc
330
3E76
 90
        1
 70
     0
 71
     0
  1
AcDbOsnapPointRef
 72
     5
331
3E73
 73
     2
 91
        0
 40
3.141592653589793
 10
0.0
 20
0.0
 30
0.0
 75
     0
  0
DIMASSOC
  5
3ED7
102
{ACAD_REACTORS
330
3ECB
102
}
330
3ECB
100
AcDbDimAssoc
330
3EBC
 90
        3
 70
     0
 71
     0
  1
AcDbOsnapPointRef
 72
     1
331
3E9A
 73
     2
 91
        0
 40
1.0
 10
0.0
 20
0.0
 30
2.000000000000000E+50
 75
     0
  1
AcDbOsnapPointRef
 72
    13
331
3E9A
 73
     2
 91
        0
 40
0.0
 10
0.0
 20
0.0
 30
2.000000000000000E+50
 75
     0
  0
DIMASSOC
  5
3EEF
102
{ACAD_REACTORS
330
3EE5
102
}
330
3EE5
100
AcDbDimAssoc
330
3ED8
 90
        2
 70
     0
 71
     0
  1
AcDbOsnapPointRef
 72
    13
331
3E98
 73
     2
 91
        0
 40
0.0
 10
0.0
 20
0.0
 30
2.000000000000000E+50
 75
     0
  0
DIMASSOC
  5
3F0B
102
{ACAD_REACTORS
330
3EFF
102
}
330
3EFF
100
AcDbDimAssoc
330
3EF0
 90
        1
 70
     0
 71
     0
  1
AcDbOsnapPointRef
 72
     1
331
3E98
 73
     2
 91
        0
 40
0.9999999999999998
 10
0.0
 20
0.0
 30
2.000000000000000E+50
 75
     0
  0
DIMASSOC
  5
3F3D
102
{ACAD_REACTORS
330
3F31
102
}
330
3F31
100
AcDbDimAssoc
330
3F22
 90
        3
 70
     0
 71
     0
  1
AcDbOsnapPointRef
 72
     1
331
3E99
 73
     2
 91
        0
 40
1.0
 10
0.0
 20
0.0
 30
2.000000000000000E+50
 75
     0
  1
AcDbOsnapPointRef
 72
     1
331
3E92
 73
     2
 91
        0
 40
1.0
 10
0.0
 20
0.0
 30
2.000000000000000E+50
 75
     0
  0
DIMASSOC
  5
3F7B
102
{ACAD_REACTORS
330
3F6F
102
}
330
3F6F
100
AcDbDimAssoc
330
3F60
 90
        1
 70
     0
 71
     0
  1
AcDbOsnapPointRef
 72
    13
331
3E99
 73
     2
 91
        0
 40
0.0
 10
0.0
 20
0.0
 30
2.000000000000000E+50
 75
     0
  0
DIMASSOC
  5
3F93
102
{ACAD_REACTORS
330
3F89
102
}
330
3F89
100
AcDbDimAssoc
330
3F7C
 90
        1
 70
     0
 71
     0
  1
AcDbOsnapPointRef
 72
     1
331
3E8D
 73
     2
 91
       17
 40
6.283185307180192
 10
0.0
 20
0.0
 30
2.000000000000000E+50
 75
     0
  0
DIMASSOC
  5
424D
102
{ACAD_REACTORS
330
4241
102
}
330
4241
100
AcDbDimAssoc
330
4232
 90
        2
 70
     0
 71
     0
  1
AcDbOsnapPointRef
 72
     1
331
41F8
 73
     2
 91
        0
 40
1.0
 10
0.0
 20
0.0
 30
2.000000000000000E+50
 75
     0
  0
DIMASSOC
  5
4270
102
{ACAD_REACTORS
330
4266
102
}
330
4266
100
AcDbDimAssoc
330
4259
 90
        2
 70
     0
 71
     0
  1
AcDbOsnapPointRef
 72
    13
331
41F7
 73
     2
 91
        0
 40
0.0
 10
0.0
 20
0.0
 30
2.000000000000000E+50
 75
     0
  0
DIMASSOC
  5
428C
102
{ACAD_REACTORS
330
4280
102
}
330
4280
100
AcDbDimAssoc
330
4271
 90
        2
 70
     0
 71
     0
  1
AcDbOsnapPointRef
 72
     1
331
41F7
 73
     2
 91
        0
 40
1.0
 10
0.0
 20
0.0
 30
2.000000000000000E+50
 75
     0
  0
DIMASSOC
  5
42DB
102
{ACAD_REACTORS
330
42D1
102
}
330
42D1
100
AcDbDimAssoc
330
42C4
 90
        3
 70
     0
 71
     0
  1
AcDbOsnapPointRef
 72
     1
331
41FE
 73
     2
 91
        0
 40
1.0
 10
0.0
 20
0.0
 30
2.000000000000000E+50
 75
     0
  1
AcDbOsnapPointRef
 72
     8
331
41FF
 73
     2
 91
        0
 40
-0.0000000000000505
 10
0.0
 20
0.0
 30
0.0
 75
     1
  1
AcDbOsnapPointRef
 72
     1
331
41FE
 73
     2
 91
        0
 40
1.0
 10
0.0
 20
0.0
 30
2.000000000000000E+50
 75
     0
  0
DIMASSOC
  5
42F3
102
{ACAD_REACTORS
330
42E9
102
}
330
42E9
100
AcDbDimAssoc
330
42DC
 90
        2
 70
     0
 71
     0
  1
AcDbOsnapPointRef
 72
    13
331
41F1
 73
     2
 91
        0
 40
0.0
 10
0.0
 20
0.0
 30
2.000000000000000E+50
 75
     0
  0
DIMASSOC
  5
4337
102
{ACAD_REACTORS
330
432B
102
}
330
432B
100
AcDbDimAssoc
330
431C
 90
        2
 70
     0
 71
     0
  1
AcDbOsnapPointRef
 72
     1
331
41EE
 73
     2
 91
        0
 40
1.0
 10
0.0
 20
0.0
 30
2.000000000000000E+50
 75
     0
  0
DIMASSOC
  5
435E
102
{ACAD_REACTORS
330
4352
102
}
330
4352
100
AcDbDimAssoc
330
4343
 90
        1
 70
     0
 71
     0
  1
AcDbOsnapPointRef
 72
     1
331
41F1
 73
     2
 91
        0
 40
1.0
 10
0.0
 20
0.0
 30
2.000000000000000E+50
 75
     0
  0
DIMASSOC
  5
4385
102
{ACAD_REACTORS
330
4379
102
}
330
4379
100
AcDbDimAssoc
330
436A
 90
        2
 70
     0
 71
     0
  1
AcDbOsnapPointRef
 72
    13
331
41EE
 73
     2
 91
        0
 40
0.0
 10
0.0
 20
0.0
 30
2.000000000000000E+50
 75
     0
  0
DIMASSOC
  5
43AC
102
{ACAD_REACTORS
330
43A0
102
}
330
43A0
100
AcDbDimAssoc
330
4391
 90
        1
 70
     0
 71
     0
  1
AcDbOsnapPointRef
 72
     1
331
41F2
 73
     2
 91
        0
 40
1.0
 10
0.0
 20
0.0
 30
2.000000000000000E+50
 75
     0
  0
DIMASSOC
  5
44FD
102
{ACAD_REACTORS
330
44F3
102
}
330
44F3
100
AcDbDimAssoc
330
44E6
 90
        3
 70
     0
 71
     0
  1
AcDbOsnapPointRef
 72
     1
331
4422
 73
     2
 91
        0
 40
1.0
 10
0.0
 20
0.0
 30
2.000000000000000E+50
 75
     0
  1
AcDbOsnapPointRef
 72
    13
331
4422
 73
     2
 91
        0
 40
0.0
 10
0.0
 20
0.0
 30
2.000000000000000E+50
 75
     0
  0
DIMASSOC
  5
4515
102
{ACAD_REACTORS
330
450B
102
}
330
450B
100
AcDbDimAssoc
330
44FE
 90
        3
 70
     0
 71
     0
  1
AcDbOsnapPointRef
 72
    13
331
4420
 73
     2
 91
        0
 40
0.0
 10
0.0
 20
0.0
 30
2.000000000000000E+50
 75
     0
  1
AcDbOsnapPointRef
 72
    13
331
441A
 73
     2
 91
        0
 40
0.0
 10
0.0
 20
0.0
 30
2.000000000000000E+50
 75
     0
  0
DIMASSOC
  5
452D
102
{ACAD_REACTORS
330
4523
102
}
330
4523
100
AcDbDimAssoc
330
4516
 90
        3
 70
     0
 71
     0
  1
AcDbOsnapPointRef
 72
     1
331
4429
 73
     2
 91
        0
 40
1.0
 10
0.0
 20
0.0
 30
2.000000000000000E+50
 75
     0
  1
AcDbOsnapPointRef
 72
     6
331
4429
 73
     2
 91
        0
 40
0.0000000000000408
 10
0.0
 20
0.0
 30
0.0
332
4424
 74
     2
 92
        0
 75
     0
  0
DIMASSOC
  5
4549
102
{ACAD_REACTORS
330
453D
102
}
330
453D
100
AcDbDimAssoc
330
452E
 90
        3
 70
     0
 71
     0
  1
AcDbOsnapPointRef
 72
    13
331
4423
 73
     2
 91
        0
 40
0.0
 10
0.0
 20
0.0
 30
2.000000000000000E+50
 75
     0
  1
AcDbOsnapPointRef
 72
     1
331
4424
 73
     2
 91
        0
 40
1.0
 10
0.0
 20
0.0
 30
2.000000000000000E+50
 75
     0
  0
DIMASSOC
  5
4565
102
{ACAD_REACTORS
330
4559
102
}
330
4559
100
AcDbDimAssoc
330
454A
 90
        3
 70
     0
 71
     0
  1
AcDbOsnapPointRef
 72
    13
331
4422
 73
     2
 91
        0
 40
0.0
 10
0.0
 20
0.0
 30
2.000000000000000E+50
 75
     0
  1
AcDbOsnapPointRef
 72
    13
331
4429
 73
     2
 91
        0
 40
0.0
 10
0.0
 20
0.0
 30
2.000000000000000E+50
 75
     0
  0
DIMASSOC
  5
49C4
102
{ACAD_REACTORS
330
49C3
102
}
330
49C3
100
AcDbDimAssoc
330
49C1
 90
        1
 70
     0
 71
     0
  1
AcDbOsnapPointRef
 72
     1
331
3E8D
 73
     2
 91
        2
 40
1.0
 10
0.0
 20
0.0
 30
2.000000000000000E+50
 75
     0
  0
DIMASSOC
  5
5594
102
{ACAD_REACTORS
330
558A
102
}
330
558A
100
AcDbDimAssoc
330
557D
 90
        3
 70
     0
 71
     0
  1
AcDbOsnapPointRef
 72
    13
331
5710
 73
     2
 91
        9
 40
0.0
 10
0.0
 20
0.0
 30
2.000000000000000E+50
 75
     0
  1
AcDbOsnapPointRef
 72
     1
331
5710
 73
     2
 91
       15
 40
1.0
 10
0.0
 20
0.0
 30
2.000000000000000E+50
 75
     0
  0
DIMASSOC
  5
5678
102
{ACAD_REACTORS
330
5672
102
}
330
5672
100
AcDbDimAssoc
330
5669
 90
        2
 70
     0
 71
     0
  1
AcDbOsnapPointRef
 72
     3
331
39E4
 73
     2
 91
        0
 40
0.0
 10
0.0
 20
0.0
 30
0.0
 75
     0
  0
DIMASSOC
  5
56A0
102
{ACAD_REACTORS
330
569A
102
}
330
569A
100
AcDbDimAssoc
330
5691
 90
        2
 70
     0
 71
     0
  1
AcDbOsnapPointRef
 72
     3
331
5710
 73
     2
 91
       10
 40
0.0
 10
0.0
 20
0.0
 30
0.0
 75
     0
  0
DIMASSOC
  5
575C
102
{ACAD_REACTORS
330
574C
102
}
330
574C
100
AcDbDimAssoc
330
5739
 90
       15
 70
     0
 71
     0
  1
AcDbOsnapPointRef
 72
    13
331
5726
 73
     2
 91
        0
 40
0.0
 10
0.0
 20
0.0
 30
2.000000000000000E+50
 75
     0
  1
AcDbOsnapPointRef
 72
     1
331
5726
 73
     2
 91
        0
 40
0.9999999999999998
 10
0.0
 20
0.0
 30
2.000000000000000E+50
 75
     0
  1
AcDbOsnapPointRef
 72
    13
331
3A48
 73
     2
 91
        0
 40
0.0
 10
0.0
 20
0.0
 30
2.000000000000000E+50
 75
     0
  1
AcDbOsnapPointRef
 72
     1
331
3A48
 73
     2
 91
        0
 40
1.0
 10
0.0
 20
0.0
 30
2.000000000000000E+50
 75
     0
  0
ACDBDETAILVIEWSTYLE
  5
6291
102
{ACAD_REACTORS
330
6290
102
}
330
6290
100
AcDbModelDocViewStyle
 70
     0
  3
Metric50
290
     1
300
Metric50
 90
        0
100
AcDbDetailViewStyle
 70
     0
 71
     0
 90
        3
 71
     1
340
11
 62
   256
 40
5.0
340
0
 62
   256
 40
5.0
300

 40
0.0
280
     1
 71
     2
340
16
 90
       25
 62
   256
 71
     3
340
11
 62
   256
 40
5.0
 90
        0
 40
15.0
 90
        1
300
%<\AcVar ViewDetailId>% (%<\AcVar ViewScale \f "%sn">%)
 71
     4
340
16
 90
       25
 62
   256
340
16
 90
       25
 62
   256
280
     0
  0
LAYOUT
  5
51
102
{ACAD_REACTORS
330
1A
102
}
330
1A
100
AcDbPlotSettings
  1

  2
None
  4

  6

 40
0.0
 41
0.0
 42
0.0
 43
0.0
 44
0.0
 45
0.0
 46
0.0
 47
0.0
 48
0.0
 49
0.0
140
0.0
141
0.0
142
1.0
143
1.0
 70
   688
 72
     0
 73
     0
 74
     5
  7

 75
    16
147
1.0
 76
     0
 77
     2
 78
   300
148
0.0
149
0.0
100
AcDbLayout
  1
Layout1
 70
     1
 71
     1
 10
0.0
 20
0.0
 11
12.0
 21
9.0
 12
0.0
 22
0.0
 32
0.0
 14
0.0
 24
0.0
 34
0.0
 15
0.0
 25
0.0
 35
0.0
146
0.0
 13
0.0
 23
0.0
 33
0.0
 16
1.0
 26
0.0
 36
0.0
 17
0.0
 27
1.0
 37
0.0
 76
     0
330
50
  0
LAYOUT
  5
56
102
{ACAD_REACTORS
330
1A
102
}
330
1A
100
AcDbPlotSettings
  1

  2
None
  4

  6

 40
0.0
 41
0.0
 42
0.0
 43
0.0
 44
0.0
 45
0.0
 46
0.0
 47
0.0
 48
0.0
 49
0.0
140
0.0
141
0.0
142
1.0
143
1.0
 70
   688
 72
     0
 73
     0
 74
     5
  7

 75
    16
147
1.0
 76
     0
 77
     2
 78
   300
148
0.0
149
0.0
100
AcDbLayout
  1
Layout2
 70
     1
 71
     2
 10
0.0
 20
0.0
 11
12.0
 21
9.0
 12
0.0
 22
0.0
 32
0.0
 14
0.0
 24
0.0
 34
0.0
 15
0.0
 25
0.0
 35
0.0
146
0.0
 13
0.0
 23
0.0
 33
0.0
 16
1.0
 26
0.0
 36
0.0
 17
0.0
 27
1.0
 37
0.0
 76
     0
330
55
  0
LAYOUT
  5
22
102
{ACAD_REACTORS
330
1A
102
}
330
1A
100
AcDbPlotSettings
  1

  2
EPSON ME 1
  4
A4
  6

 40
3.757083177566528
 41
13.28207111358642
 42
3.757080078125
 43
3.757080078125
 44
209.9733276367187
 45
296.9683227539062
 46
0.0
 47
33.81
 48
-28137.80247600782
 49
1829.331848948106
140
-27020.82906289164
141
3000.672138357867
142
1.0
143
5.517030639393728
 70
 11956
 72
     1
 73
     0
 74
     4
  7

 75
     0
147
0.1812569233999924
 76
     0
 77
     2
 78
   180
148
28137.80247600782
149
-1829.331848948106
100
AcDbLayout
  1
Model
 70
     1
 71
     0
 10
0.0
 20
0.0
 11
12.0
 21
9.0
 12
0.0
 22
0.0
 32
0.0
 14
0.0
 24
0.0
 34
0.0
 15
0.0
 25
0.0
 35
0.0
146
0.0
 13
0.0
 23
0.0
 33
0.0
 16
1.0
 26
0.0
 36
0.0
 17
0.0
 27
1.0
 37
0.0
 76
     0
330
1F
331
61F1
  0
MATERIAL
  5
61F4
102
{ACAD_REACTORS
330
6A
102
}
330
6A
100
AcDbMaterial
  1
ByBlock
 73
     1
 78
     1
172
     1
176
     1
270
     1
274
     1
 94
       63
  0
MATERIAL
  5
61F3
102
{ACAD_REACTORS
330
6A
102
}
330
6A
100
AcDbMaterial
  1
ByLayer
 73
     1
 78
     1
172
     1
176
     1
270
     1
274
     1
 94
       63
  0
MATERIAL
  5
61F5
102
{ACAD_REACTORS
330
6A
102
}
330
6A
100
AcDbMaterial
  1
Global
 73
     1
 78
     1
172
     1
176
     1
270
     1
274
     1
 94
       63
  0
MLEADERSTYLE
  5
628D
102
{ACAD_REACTORS
330
628C
102
}
330
628C
100
AcDbMLeaderStyle
179
     2
170
     2
171
     1
172
     0
 90
        2
 40
0.0
 41
0.0
173
     1
 91
-1056964608
340
14
 92
       -2
290
     1
 42
2.0
291
     1
 43
0.36
  3
Standard
 44
4.0
300

342
11
174
     1
178
     6
175
     1
176
     0
 93
-1056964608
 45
4.0
292
     0
297
     0
 46
4.0
 94
-1056964608
 47
1.0
 49
1.0
140
1.0
293
     1
141
0.0
294
     1
177
     0
142
1.0
295
     1
296
     0
143
0.125
271
     0
272
     9
273
     9
298
     1
  0
MLINESTYLE
  5
18
102
{ACAD_REACTORS
330
17
102
}
330
17
100
AcDbMlineStyle
  2
STANDARD
 70
     0
  3

 62
   256
 51
90.0
 52
90.0
 71
     2
 49
0.5
 62
   256
  6
BYLAYER
 49
-0.5
 62
   256
  6
BYLAYER
  0
ACDBPLACEHOLDER
  5
F
102
{ACAD_REACTORS
330
E
102
}
330
E
  0
SCALE
  5
627B
102
{ACAD_REACTORS
330
627A
102
}
330
627A
100
AcDbScale
 70
     0
300
1:1
140
1.0
141
1.0
290
     1
  0
SCALE
  5
627C
102
{ACAD_REACTORS
330
627A
102
}
330
627A
100
AcDbScale
 70
     0
300
1:2
140
1.0
141
2.0
290
     0
  0
SCALE
  5
627D
102
{ACAD_REACTORS
330
627A
102
}
330
627A
100
AcDbScale
 70
     0
300
1:4
140
1.0
141
4.0
290
     0
  0
SCALE
  5
627E
102
{ACAD_REACTORS
330
627A
102
}
330
627A
100
AcDbScale
 70
     0
300
1:5
140
1.0
141
5.0
290
     0
  0
SCALE
  5
627F
102
{ACAD_REACTORS
330
627A
102
}
330
627A
100
AcDbScale
 70
     0
300
1:8
140
1.0
141
8.0
290
     0
  0
SCALE
  5
6280
102
{ACAD_REACTORS
330
627A
102
}
330
627A
100
AcDbScale
 70
     0
300
1:10
140
1.0
141
10.0
290
     0
  0
SCALE
  5
6281
102
{ACAD_REACTORS
330
627A
102
}
330
627A
100
AcDbScale
 70
     0
300
1:16
140
1.0
141
16.0
290
     0
  0
SCALE
  5
6282
102
{ACAD_REACTORS
330
627A
102
}
330
627A
100
AcDbScale
 70
     0
300
1:20
140
1.0
141
20.0
290
     0
  0
SCALE
  5
6283
102
{ACAD_REACTORS
330
627A
102
}
330
627A
100
AcDbScale
 70
     0
300
1:30
140
1.0
141
30.0
290
     0
  0
SCALE
  5
6284
102
{ACAD_REACTORS
330
627A
102
}
330
627A
100
AcDbScale
 70
     0
300
1:40
140
1.0
141
40.0
290
     0
  0
SCALE
  5
6285
102
{ACAD_REACTORS
330
627A
102
}
330
627A
100
AcDbScale
 70
     0
300
1:50
140
1.0
141
50.0
290
     0
  0
SCALE
  5
6286
102
{ACAD_REACTORS
330
627A
102
}
330
627A
100
AcDbScale
 70
     0
300
1:100
140
1.0
141
100.0
290
     0
  0
SCALE
  5
6287
102
{ACAD_REACTORS
330
627A
102
}
330
627A
100
AcDbScale
 70
     0
300
2:1
140
2.0
141
1.0
290
     0
  0
SCALE
  5
6288
102
{ACAD_REACTORS
330
627A
102
}
330
627A
100
AcDbScale
 70
     0
300
4:1
140
4.0
141
1.0
290
     0
  0
SCALE
  5
6289
102
{ACAD_REACTORS
330
627A
102
}
330
627A
100
AcDbScale
 70
     0
300
8:1
140
8.0
141
1.0
290
     0
  0
SCALE
  5
628A
102
{ACAD_REACTORS
330
627A
102
}
330
627A
100
AcDbScale
 70
     0
300
10:1
140
10.0
141
1.0
290
     0
  0
SCALE
  5
628B
102
{ACAD_REACTORS
330
627A
102
}
330
627A
100
AcDbScale
 70
     0
300
100:1
140
100.0
141
1.0
290
     0
  0
ACDBSECTIONVIEWSTYLE
  5
628F
102
{ACAD_REACTORS
330
628E
102
}
330
628E
100
AcDbModelDocViewStyle
 70
     0
  3
Metric50
290
     1
300
Metric50
 90
        0
100
AcDbSectionViewStyle
 70
     0
 71
     0
 90
      102
 71
     1
340
11
 62
   256
 40
5.0
340
0
340
0
 62
   256
 40
5.0
300
I, O, Q, S, X, Z
 40
10.0
 90
        0
 40
2.5
 90
        0
 71
     2
340
16
 90
       25
 62
   256
340
16
 90
       50
 62
   256
 40
5.0
 40
2.5
 40
5.0
 71
     3
340
11
 62
   256
 40
5.0
 90
        0
 40
15.0
 90
        1
300
%<\AcVar ViewSectionStartId>%-%<\AcVar ViewSectionEndId>% (%<\AcVar ViewScale \f "%sn">%)
 71
     4
 62
   256
 62
   257
300
ANSI31
 40
1.0
 90
        0
290
     0
290
     0
 90
        6
 40
0.0
 40
1.570796326794896
 40
0.2617993877991494
 40
1.308996938995747
 40
-0.2617993877991494
 40
1.832595714594046
  0
TABLESTYLE
  5
6208
102
{ACAD_XDICTIONARY
360
68E6
102
}
102
{ACAD_REACTORS
330
6207
102
}
330
6207
100
AcDbTableStyle
280
     0
  3
Standard
 70
     0
 71
     0
 40
1.5
 41
1.5
280
     0
281
     0
  7
Standard
140
4.5
170
     2
 62
     0
 63
     7
283
     0
 90
      512
 91
        0
  1

274
    -2
284
     1
 64
     0
275
    -2
285
     1
 65
     0
276
    -2
286
     1
 66
     0
277
    -2
287
     1
 67
     0
278
    -2
288
     1
 68
     0
279
    -2
289
     1
 69
     0
  7
Standard
140
6.0
170
     5
 62
     0
 63
     7
283
     0
 90
      512
 91
        0
  1

274
    -2
284
     1
 64
     0
275
    -2
285
     1
 65
     0
276
    -2
286
     1
 66
     0
277
    -2
287
     1
 67
     0
278
    -2
288
     1
 68
     0
279
    -2
289
     1
 69
     0
  7
Standard
140
4.5
170
     5
 62
     0
 63
     7
283
     0
 90
      512
 91
        0
  1

274
    -2
284
     1
 64
     0
275
    -2
285
     1
 65
     0
276
    -2
286
     1
 66
     0
277
    -2
287
     1
 67
     0
278
    -2
288
     1
 68
     0
279
    -2
289
     1
 69
     0
  0
VISUALSTYLE
  5
61FC
102
{ACAD_REACTORS
330
61F6
102
}
330
61F6
100
AcDbVisualStyle
  2
2dWireframe
 70
     4
177
     3
291
     0
 70
    58
 90
        0
176
     1
 90
        2
176
     1
 90
        0
176
     1
 90
        0
176
     1
 40
0.6
176
     1
 40
30.0
176
     1
 62
     7
420
 16777215
176
     1
 90
        1
176
     1
 90
        4
176
     1
 62
     7
176
     1
 62
   257
176
     1
 90
        1
176
     1
 90
        1
176
     1
 40
1.0
176
     1
 90
        0
176
     1
 62
   257
176
     1
 40
1.0
176
     1
 90
        1
176
     1
 90
        6
176
     1
 90
        2
176
     1
 62
     7
176
     1
 90
        5
176
     1
 90
        0
176
     1
 90
        0
176
     1
290
     0
176
     1
 90
        1
176
     1
 40
0.0
176
     1
 90
        0
176
     1
290
     1
176
     1
290
     1
176
     1
290
     0
176
     1
290
     0
176
     1
290
     0
176
     1
290
     0
176
     1
290
     0
176
     1
290
     0
176
     1
290
     0
176
     1
 90
       50
176
     1
 40
0.0
176
     1
 40
1.0
176
     1
 90
        0
176
     1
 62
    18
420
        0
176
     1
 90
       50
176
     1
 90
        3
176
     1
 62
     5
420
      255
176
     1
290
     0
176
     1
 90
       50
176
     1
 90
       50
176
     1
 90
       50
176
     1
290
     0
176
     1
 90
       50
176
     1
 62
   256
176
     0
 40
1.0
176
     0
 90
        2
176
     1
  1
strokes_ogs.tif
176
     1
290
     0
176
     1
 40
1.0
176
     1
 40
1.0
176
     1
  0
VISUALSTYLE
  5
61FE
102
{ACAD_REACTORS
330
61F6
102
}
330
61F6
100
AcDbVisualStyle
  2
3D Hidden
 70
     6
177
     3
291
     0
 70
    58
 90
        1
176
     1
 90
        2
176
     1
 90
        2
176
     1
 90
        0
176
     1
 40
0.6
176
     1
 40
30.0
176
     1
 62
     7
420
 16777215
176
     1
 90
        2
176
     1
 90
        2
176
     1
 62
     7
176
     1
 62
   257
176
     1
 90
        2
176
     1
 90
        1
176
     1
 40
40.0
176
     1
 90
        0
176
     1
 62
   257
176
     1
 40
1.0
176
     1
 90
        1
176
     1
 90
        6
176
     1
 90
        2
176
     1
 62
     7
176
     1
 90
        3
176
     1
 90
        0
176
     1
 90
        0
176
     1
290
     0
176
     1
 90
        1
176
     1
 40
0.0
176
     1
 90
        0
176
     1
290
     0
176
     1
290
     1
176
     1
290
     1
176
     1
290
     0
176
     1
290
     0
176
     1
290
     0
176
     1
290
     0
176
     1
290
     0
176
     1
290
     0
176
     1
 90
       50
176
     1
 40
0.0
176
     1
 40
1.0
176
     1
 90
        0
176
     1
 62
    18
420
        0
176
     1
 90
       50
176
     1
 90
        3
176
     1
 62
     5
420
      255
176
     1
290
     0
176
     1
 90
       50
176
     1
 90
       50
176
     1
 90
       50
176
     1
290
     0
176
     1
 90
       50
176
     1
 62
   256
176
     0
 40
1.0
176
     0
 90
        2
176
     1
  1
strokes_ogs.tif
176
     1
290
     0
176
     1
 40
1.0
176
     1
 40
1.0
176
     1
  0
VISUALSTYLE
  5
61FD
102
{ACAD_REACTORS
330
61F6
102
}
330
61F6
100
AcDbVisualStyle
  2
3dWireframe
 70
     5
177
     3
291
     0
 70
    58
 90
        0
176
     1
 90
        2
176
     1
 90
        0
176
     1
 90
        0
176
     1
 40
0.6
176
     1
 40
30.0
176
     1
 62
     7
420
 16777215
176
     1
 90
        1
176
     1
 90
        4
176
     1
 62
     7
176
     1
 62
   257
176
     1
 90
        1
176
     1
 90
        1
176
     1
 40
1.0
176
     1
 90
        0
176
     1
 62
   257
176
     1
 40
1.0
176
     1
 90
        1
176
     1
 90
        6
176
     1
 90
        2
176
     1
 62
     7
176
     1
 90
        5
176
     1
 90
        0
176
     1
 90
        0
176
     1
290
     0
176
     1
 90
        1
176
     1
 40
0.0
176
     1
 90
        0
176
     1
290
     0
176
     1
290
     1
176
     1
290
     1
176
     1
290
     0
176
     1
290
     0
176
     1
290
     0
176
     1
290
     0
176
     1
290
     0
176
     1
290
     0
176
     1
 90
       50
176
     1
 40
0.0
176
     1
 40
1.0
176
     1
 90
        0
176
     1
 62
    18
420
        0
176
     1
 90
       50
176
     1
 90
        3
176
     1
 62
     5
420
      255
176
     1
290
     0
176
     1
 90
       50
176
     1
 90
       50
176
     1
 90
       50
176
     1
290
     0
176
     1
 90
       50
176
     1
 62
   256
176
     0
 40
1.0
176
     0
 90
        2
176
     1
  1
strokes_ogs.tif
176
     1
290
     0
176
     1
 40
1.0
176
     1
 40
1.0
176
     1
  0
VISUALSTYLE
  5
61FB
102
{ACAD_REACTORS
330
61F6
102
}
330
61F6
100
AcDbVisualStyle
  2
Basic
 70
     7
177
     3
291
     1
 70
    58
 90
        1
176
     1
 90
        0
176
     1
 90
        1
176
     1
 90
        0
176
     1
 40
0.6
176
     1
 40
30.0
176
     1
 62
     7
420
 16777215
176
     1
 90
        0
176
     1
 90
        4
176
     1
 62
     7
176
     1
 62
   257
176
     1
 90
        1
176
     1
 90
        1
176
     1
 40
1.0
176
     1
 90
        8
176
     1
 62
     7
176
     1
 40
1.0
176
     1
 90
        1
176
     1
 90
        6
176
     1
 90
        2
176
     1
 62
     7
176
     1
 90
        5
176
     1
 90
        0
176
     1
 90
        0
176
     1
290
     0
176
     1
 90
        1
176
     1
 40
0.0
176
     1
 90
        0
176
     1
290
     0
176
     1
290
     1
176
     1
290
     1
176
     1
290
     0
176
     1
290
     0
176
     1
290
     0
176
     1
290
     0
176
     1
290
     0
176
     1
290
     0
176
     1
 90
       50
176
     1
 40
0.0
176
     1
 40
1.0
176
     1
 90
        0
176
     1
 62
    18
420
        0
176
     1
 90
       50
176
     1
 90
        3
176
     1
 62
     5
420
      255
176
     1
290
     0
176
     1
 90
       50
176
     1
 90
       50
176
     1
 90
       50
176
     1
290
     0
176
     1
 90
       50
176
     1
 62
   256
176
     0
 40
1.0
176
     0
 90
        2
176
     1
  1
strokes_ogs.tif
176
     1
290
     0
176
     1
 40
1.0
176
     1
 40
1.0
176
     1
  0
VISUALSTYLE
  5
6202
102
{ACAD_REACTORS
330
61F6
102
}
330
61F6
100
AcDbVisualStyle
  2
Brighten
 70
    12
177
     3
291
     1
 70
    58
 90
        2
176
     1
 90
        2
176
     1
 90
        0
176
     1
 90
        0
176
     1
 40
0.6
176
     1
 40
30.0
176
     1
 62
     7
420
 16777215
176
     1
 90
        1
176
     1
 90
        4
176
     1
 62
     7
176
     1
 62
   257
176
     1
 90
        1
176
     1
 90
        1
176
     1
 40
1.0
176
     1
 90
        8
176
     1
 62
     7
176
     1
 40
1.0
176
     1
 90
        1
176
     1
 90
        6
176
     1
 90
        2
176
     1
 62
     7
176
     1
 90
        5
176
     1
 90
        0
176
     1
 90
        0
176
     1
290
     0
176
     1
 90
        1
176
     1
 40
50.0
176
     1
 90
        0
176
     1
290
     0
176
     1
290
     1
176
     1
290
     1
176
     1
290
     0
176
     1
290
     0
176
     1
290
     0
176
     1
290
     0
176
     1
290
     0
176
     1
290
     0
176
     1
 90
       50
176
     1
 40
0.0
176
     1
 40
1.0
176
     1
 90
        0
176
     1
 62
    18
420
        0
176
     1
 90
       50
176
     1
 90
        3
176
     1
 62
     5
420
      255
176
     1
290
     0
176
     1
 90
       50
176
     1
 90
       50
176
     1
 90
       50
176
     1
290
     0
176
     1
 90
       50
176
     1
 62
   256
176
     0
 40
1.0
176
     0
 90
        2
176
     1
  1
strokes_ogs.tif
176
     1
290
     0
176
     1
 40
1.0
176
     1
 40
1.0
176
     1
  0
VISUALSTYLE
  5
6206
102
{ACAD_REACTORS
330
61F6
102
}
330
61F6
100
AcDbVisualStyle
  2
ColorChange
 70
    16
177
     3
291
     1
 70
    58
 90
        2
176
     1
 90
        2
176
     1
 90
        3
176
     1
 90
        0
176
     1
 40
0.6
176
     1
 40
30.0
176
     1
 62
     8
420
  8421504
176
     1
 90
        1
176
     1
 90
        4
176
     1
 62
     7
176
     1
 62
   257
176
     1
 90
        1
176
     1
 90
        1
176
     1
 40
1.0
176
     1
 90
        8
176
     1
 62
     8
420
  8421504
176
     1
 40
1.0
176
     1
 90
        1
176
     1
 90
        6
176
     1
 90
        2
176
     1
 62
     7
176
     1
 90
        5
176
     1
 90
        0
176
     1
 90
        0
176
     1
290
     0
176
     1
 90
        1
176
     1
 40
0.0
176
     1
 90
        0
176
     1
290
     0
176
     1
290
     1
176
     1
290
     1
176
     1
290
     0
176
     1
290
     0
176
     1
290
     0
176
     1
290
     0
176
     1
290
     0
176
     1
290
     0
176
     1
 90
       50
176
     1
 40
0.0
176
     1
 40
1.0
176
     1
 90
        0
176
     1
 62
    18
420
        0
176
     1
 90
       50
176
     1
 90
        3
176
     1
 62
     5
420
      255
176
     1
290
     0
176
     1
 90
       50
176
     1
 90
       50
176
     1
 90
       50
176
     1
290
     0
176
     1
 90
       50
176
     1
 62
   256
176
     0
 40
1.0
176
     0
 90
        2
176
     1
  1
strokes_ogs.tif
176
     1
290
     0
176
     1
 40
1.0
176
     1
 40
1.0
176
     1
  0
VISUALSTYLE
  5
61FF
102
{ACAD_REACTORS
330
61F6
102
}
330
61F6
100
AcDbVisualStyle
  2
Conceptual
 70
     9
177
     3
291
     0
 70
    58
 90
        3
176
     1
 90
        2
176
     1
 90
        0
176
     1
 90
        0
176
     1
 40
0.6
176
     1
 40
30.0
176
     1
 62
     7
420
 16777215
176
     1
 90
        2
176
     1
 90
        2
176
     1
 62
     7
176
     1
 62
   257
176
     1
 90
        1
176
     1
 90
        1
176
     1
 40
40.0
176
     1
 90
        8
176
     1
 62
     7
176
     1
 40
1.0
176
     1
 90
        1
176
     1
 90
        6
176
     1
 90
        2
176
     1
 62
     7
176
     1
 90
        3
176
     1
 90
        0
176
     1
 90
        0
176
     1
290
     0
176
     1
 90
        1
176
     1
 40
0.0
176
     1
 90
        0
176
     1
290
     0
176
     1
290
     1
176
     1
290
     1
176
     1
290
     0
176
     1
290
     0
176
     1
290
     0
176
     1
290
     0
176
     1
290
     0
176
     1
290
     0
176
     1
 90
       50
176
     1
 40
0.0
176
     1
 40
1.0
176
     1
 90
        0
176
     1
 62
    18
420
        0
176
     1
 90
       50
176
     1
 90
        3
176
     1
 62
     5
420
      255
176
     1
290
     0
176
     1
 90
       50
176
     1
 90
       50
176
     1
 90
       50
176
     1
290
     0
176
     1
 90
       50
176
     1
 62
   256
176
     0
 40
1.0
176
     0
 90
        2
176
     1
  1
strokes_ogs.tif
176
     1
290
     0
176
     1
 40
1.0
176
     1
 40
1.0
176
     1
  0
VISUALSTYLE
  5
6201
102
{ACAD_REACTORS
330
61F6
102
}
330
61F6
100
AcDbVisualStyle
  2
Dim
 70
    11
177
     3
291
     1
 70
    58
 90
        2
176
     1
 90
        2
176
     1
 90
        0
176
     1
 90
        0
176
     1
 40
0.6
176
     1
 40
30.0
176
     1
 62
     7
420
 16777215
176
     1
 90
        1
176
     1
 90
        4
176
     1
 62
     7
176
     1
 62
   257
176
     1
 90
        1
176
     1
 90
        1
176
     1
 40
1.0
176
     1
 90
        8
176
     1
 62
     7
176
     1
 40
1.0
176
     1
 90
        1
176
     1
 90
        6
176
     1
 90
        2
176
     1
 62
     7
176
     1
 90
        5
176
     1
 90
        0
176
     1
 90
        0
176
     1
290
     0
176
     1
 90
        1
176
     1
 40
-50.0
176
     1
 90
        0
176
     1
290
     0
176
     1
290
     1
176
     1
290
     1
176
     1
290
     0
176
     1
290
     0
176
     1
290
     0
176
     1
290
     0
176
     1
290
     0
176
     1
290
     0
176
     1
 90
       50
176
     1
 40
0.0
176
     1
 40
1.0
176
     1
 90
        0
176
     1
 62
    18
420
        0
176
     1
 90
       50
176
     1
 90
        3
176
     1
 62
     5
420
      255
176
     1
290
     0
176
     1
 90
       50
176
     1
 90
       50
176
     1
 90
       50
176
     1
290
     0
176
     1
 90
       50
176
     1
 62
   256
176
     0
 40
1.0
176
     0
 90
        2
176
     1
  1
strokes_ogs.tif
176
     1
290
     0
176
     1
 40
1.0
176
     1
 40
1.0
176
     1
  0
VISUALSTYLE
  5
6279
102
{ACAD_REACTORS
330
61F6
102
}
330
61F6
100
AcDbVisualStyle
  2
EdgeColorOff
 70
    22
177
     3
291
     1
 70
    58
 90
        2
176
     0
 90
        2
176
     0
 90
        0
176
     0
 90
        0
176
     0
 40
0.6
176
     0
 40
30.0
176
     0
 62
     7
420
 16777215
176
     0
 90
        1
176
     0
 90
        4
176
     0
 62
     7
176
     0
 62
   257
176
     0
 90
        1
176
     0
 90
        1
176
     0
 40
1.0
176
     0
 90
        8
176
     2
 62
     7
176
     0
 40
1.0
176
     0
 90
        1
176
     0
 90
        6
176
     0
 90
        2
176
     0
 62
     7
176
     0
 90
        5
176
     0
 90
        0
176
     0
 90
        0
176
     0
290
     0
176
     0
 90
        1
176
     0
 40
0.0
176
     0
 90
        0
176
     0
290
     0
176
     0
290
     1
176
     0
290
     1
176
     0
290
     0
176
     0
290
     0
176
     0
290
     0
176
     0
290
     0
176
     0
290
     0
176
     0
290
     0
176
     0
 90
       50
176
     0
 40
0.0
176
     0
 40
1.0
176
     0
 90
        0
176
     0
 62
    18
420
        0
176
     0
 90
       50
176
     0
 90
        3
176
     0
 62
     5
420
      255
176
     0
290
     0
176
     0
 90
       50
176
     0
 90
       50
176
     0
 90
       50
176
     0
290
     0
176
     0
 90
       50
176
     0
 62
   256
176
     0
 40
1.0
176
     0
 90
        2
176
     0
  1
strokes_ogs.tif
176
     0
290
     0
176
     0
 40
1.0
176
     0
 40
1.0
176
     0
  0
VISUALSTYLE
  5
6205
102
{ACAD_REACTORS
330
61F6
102
}
330
61F6
100
AcDbVisualStyle
  2
Facepattern
 70
    15
177
     3
291
     1
 70
    58
 90
        2
176
     1
 90
        2
176
     1
 90
        0
176
     1
 90
        0
176
     1
 40
0.6
176
     1
 40
30.0
176
     1
 62
     7
420
 16777215
176
     1
 90
        1
176
     1
 90
        4
176
     1
 62
     7
176
     1
 62
   257
176
     1
 90
        1
176
     1
 90
        1
176
     1
 40
1.0
176
     1
 90
        8
176
     1
 62
     7
176
     1
 40
1.0
176
     1
 90
        1
176
     1
 90
        6
176
     1
 90
        2
176
     1
 62
     7
176
     1
 90
        5
176
     1
 90
        0
176
     1
 90
        0
176
     1
290
     0
176
     1
 90
        1
176
     1
 40
0.0
176
     1
 90
        0
176
     1
290
     0
176
     1
290
     1
176
     1
290
     1
176
     1
290
     0
176
     1
290
     0
176
     1
290
     0
176
     1
290
     0
176
     1
290
     0
176
     1
290
     0
176
     1
 90
       50
176
     1
 40
0.0
176
     1
 40
1.0
176
     1
 90
        0
176
     1
 62
    18
420
        0
176
     1
 90
       50
176
     1
 90
        3
176
     1
 62
     5
420
      255
176
     1
290
     0
176
     1
 90
       50
176
     1
 90
       50
176
     1
 90
       50
176
     1
290
     0
176
     1
 90
       50
176
     1
 62
   256
176
     0
 40
1.0
176
     0
 90
        2
176
     1
  1
strokes_ogs.tif
176
     1
290
     0
176
     1
 40
1.0
176
     1
 40
1.0
176
     1
  0
VISUALSTYLE
  5
61F7
102
{ACAD_REACTORS
330
61F6
102
}
330
61F6
100
AcDbVisualStyle
  2
Flat
 70
     0
177
     3
291
     1
 70
    58
 90
        2
176
     1
 90
        1
176
     1
 90
        1
176
     1
 90
        2
176
     1
 40
0.6
176
     1
 40
30.0
176
     1
 62
     7
420
 16777215
176
     1
 90
        0
176
     1
 90
        4
176
     1
 62
     7
176
     1
 62
   257
176
     1
 90
        1
176
     1
 90
        1
176
     1
 40
1.0
176
     1
 90
        8
176
     1
 62
     7
176
     1
 40
1.0
176
     1
 90
        1
176
     1
 90
        6
176
     1
 90
        2
176
     1
 62
     7
176
     1
 90
        5
176
     1
 90
        0
176
     1
 90
        0
176
     1
290
     0
176
     1
 90
       13
176
     1
 40
0.0
176
     1
 90
        0
176
     1
290
     0
176
     1
290
     1
176
     1
290
     1
176
     1
290
     0
176
     1
290
     0
176
     1
290
     0
176
     1
290
     0
176
     1
290
     0
176
     1
290
     0
176
     1
 90
       50
176
     1
 40
0.0
176
     1
 40
1.0
176
     1
 90
        0
176
     1
 62
    18
420
        0
176
     1
 90
       50
176
     1
 90
        3
176
     1
 62
     5
420
      255
176
     1
290
     0
176
     1
 90
       50
176
     1
 90
       50
176
     1
 90
       50
176
     1
290
     0
176
     1
 90
       50
176
     1
 62
   256
176
     0
 40
1.0
176
     0
 90
        2
176
     1
  1
strokes_ogs.tif
176
     1
290
     0
176
     1
 40
1.0
176
     1
 40
1.0
176
     1
  0
VISUALSTYLE
  5
61F8
102
{ACAD_REACTORS
330
61F6
102
}
330
61F6
100
AcDbVisualStyle
  2
FlatWithEdges
 70
     1
177
     3
291
     1
 70
    58
 90
        2
176
     1
 90
        1
176
     1
 90
        1
176
     1
 90
        2
176
     1
 40
0.6
176
     1
 40
30.0
176
     1
 62
     7
420
 16777215
176
     1
 90
        1
176
     1
 90
        4
176
     1
 62
     7
176
     1
 62
   257
176
     1
 90
        1
176
     1
 90
        1
176
     1
 40
1.0
176
     1
 90
        0
176
     1
 62
   257
176
     1
 40
1.0
176
     1
 90
        1
176
     1
 90
        6
176
     1
 90
        2
176
     1
 62
     7
176
     1
 90
        5
176
     1
 90
        0
176
     1
 90
        0
176
     1
290
     0
176
     1
 90
       13
176
     1
 40
0.0
176
     1
 90
        0
176
     1
290
     0
176
     1
290
     1
176
     1
290
     1
176
     1
290
     0
176
     1
290
     0
176
     1
290
     0
176
     1
290
     0
176
     1
290
     0
176
     1
290
     0
176
     1
 90
       50
176
     1
 40
0.0
176
     1
 40
1.0
176
     1
 90
        0
176
     1
 62
    18
420
        0
176
     1
 90
       50
176
     1
 90
        3
176
     1
 62
     5
420
      255
176
     1
290
     0
176
     1
 90
       50
176
     1
 90
       50
176
     1
 90
       50
176
     1
290
     0
176
     1
 90
       50
176
     1
 62
   256
176
     0
 40
1.0
176
     0
 90
        2
176
     1
  1
strokes_ogs.tif
176
     1
290
     0
176
     1
 40
1.0
176
     1
 40
1.0
176
     1
  0
VISUALSTYLE
  5
61F9
102
{ACAD_REACTORS
330
61F6
102
}
330
61F6
100
AcDbVisualStyle
  2
Gouraud
 70
     2
177
     3
291
     1
 70
    58
 90
        2
176
     1
 90
        2
176
     1
 90
        1
176
     1
 90
        2
176
     1
 40
0.6
176
     1
 40
30.0
176
     1
 62
     7
420
 16777215
176
     1
 90
        0
176
     1
 90
        4
176
     1
 62
     7
176
     1
 62
   257
176
     1
 90
        1
176
     1
 90
        1
176
     1
 40
1.0
176
     1
 90
        0
176
     1
 62
     7
176
     1
 40
1.0
176
     1
 90
        1
176
     1
 90
        6
176
     1
 90
        2
176
     1
 62
     7
176
     1
 90
        5
176
     1
 90
        0
176
     1
 90
        0
176
     1
290
     0
176
     1
 90
       13
176
     1
 40
0.0
176
     1
 90
        0
176
     1
290
     0
176
     1
290
     1
176
     1
290
     1
176
     1
290
     0
176
     1
290
     0
176
     1
290
     0
176
     1
290
     0
176
     1
290
     0
176
     1
290
     0
176
     1
 90
       50
176
     1
 40
0.0
176
     1
 40
1.0
176
     1
 90
        0
176
     1
 62
    18
420
        0
176
     1
 90
       50
176
     1
 90
        3
176
     1
 62
     5
420
      255
176
     1
290
     0
176
     1
 90
       50
176
     1
 90
       50
176
     1
 90
       50
176
     1
290
     0
176
     1
 90
       50
176
     1
 62
   256
176
     0
 40
1.0
176
     0
 90
        2
176
     1
  1
strokes_ogs.tif
176
     1
290
     0
176
     1
 40
1.0
176
     1
 40
1.0
176
     1
  0
VISUALSTYLE
  5
61FA
102
{ACAD_REACTORS
330
61F6
102
}
330
61F6
100
AcDbVisualStyle
  2
GouraudWithEdges
 70
     3
177
     3
291
     1
 70
    58
 90
        2
176
     1
 90
        2
176
     1
 90
        1
176
     1
 90
        2
176
     1
 40
0.6
176
     1
 40
30.0
176
     1
 62
     7
420
 16777215
176
     1
 90
        1
176
     1
 90
        4
176
     1
 62
     7
176
     1
 62
   257
176
     1
 90
        1
176
     1
 90
        1
176
     1
 40
1.0
176
     1
 90
        0
176
     1
 62
   257
176
     1
 40
1.0
176
     1
 90
        1
176
     1
 90
        6
176
     1
 90
        2
176
     1
 62
     7
176
     1
 90
        5
176
     1
 90
        0
176
     1
 90
        0
176
     1
290
     0
176
     1
 90
       13
176
     1
 40
0.0
176
     1
 90
        0
176
     1
290
     0
176
     1
290
     1
176
     1
290
     1
176
     1
290
     0
176
     1
290
     0
176
     1
290
     0
176
     1
290
     0
176
     1
290
     0
176
     1
290
     0
176
     1
 90
       50
176
     1
 40
0.0
176
     1
 40
1.0
176
     1
 90
        0
176
     1
 62
    18
420
        0
176
     1
 90
       50
176
     1
 90
        3
176
     1
 62
     5
420
      255
176
     1
290
     0
176
     1
 90
       50
176
     1
 90
       50
176
     1
 90
       50
176
     1
290
     0
176
     1
 90
       50
176
     1
 62
   256
176
     0
 40
1.0
176
     0
 90
        2
176
     1
  1
strokes_ogs.tif
176
     1
290
     0
176
     1
 40
1.0
176
     1
 40
1.0
176
     1
  0
VISUALSTYLE
  5
6271
102
{ACAD_REACTORS
330
61F6
102
}
330
61F6
100
AcDbVisualStyle
  2
Hidden
 70
     6
177
     3
291
     0
 70
    58
 90
        1
176
     1
 90
        2
176
     1
 90
        2
176
     1
 90
        0
176
     1
 40
0.6
176
     1
 40
30.0
176
     1
 62
     7
420
 16777215
176
     1
 90
        2
176
     1
 90
        2
176
     1
 62
     7
176
     1
 62
   257
176
     1
 90
        2
176
     1
 90
        1
176
     1
 40
40.0
176
     1
 90
        0
176
     1
 62
   257
176
     1
 40
1.0
176
     1
 90
        1
176
     1
 90
        6
176
     1
 90
        2
176
     1
 62
     7
176
     1
 90
        3
176
     1
 90
        0
176
     1
 90
        0
176
     1
290
     0
176
     1
 90
        1
176
     1
 40
0.0
176
     1
 90
        0
176
     1
290
     0
176
     1
290
     1
176
     1
290
     1
176
     1
290
     0
176
     1
290
     0
176
     1
290
     0
176
     1
290
     0
176
     1
290
     0
176
     1
290
     0
176
     1
 90
       50
176
     1
 40
0.0
176
     1
 40
1.0
176
     1
 90
        0
176
     1
 62
    18
420
        0
176
     1
 90
       50
176
     1
 90
        3
176
     1
 62
     5
420
      255
176
     1
290
     0
176
     1
 90
       50
176
     1
 90
       50
176
     1
 90
       50
176
     1
290
     0
176
     1
 90
       50
176
     1
 62
   256
176
     0
 40
1.0
176
     0
 90
        2
176
     1
  1
strokes_ogs.tif
176
     1
290
     0
176
     1
 40
1.0
176
     1
 40
1.0
176
     1
  0
VISUALSTYLE
  5
6277
102
{ACAD_REACTORS
330
61F6
102
}
330
61F6
100
AcDbVisualStyle
  2
JitterOff
 70
    20
177
     3
291
     1
 70
    58
 90
        2
176
     0
 90
        2
176
     0
 90
        0
176
     0
 90
        0
176
     0
 40
0.6
176
     0
 40
30.0
176
     0
 62
     7
420
 16777215
176
     0
 90
        1
176
     0
 90
        4
176
     0
 62
     7
176
     0
 62
   257
176
     0
 90
        1
176
     0
 90
        1
176
     0
 40
1.0
176
     0
 90
       10
176
     2
 62
     7
176
     0
 40
1.0
176
     0
 90
        1
176
     0
 90
        6
176
     0
 90
        2
176
     0
 62
     7
176
     0
 90
        5
176
     0
 90
        0
176
     0
 90
        0
176
     0
290
     0
176
     0
 90
        1
176
     0
 40
0.0
176
     0
 90
        0
176
     0
290
     0
176
     0
290
     1
176
     0
290
     1
176
     0
290
     0
176
     0
290
     0
176
     0
290
     0
176
     0
290
     0
176
     0
290
     0
176
     0
290
     0
176
     0
 90
       50
176
     0
 40
0.0
176
     0
 40
1.0
176
     0
 90
        0
176
     0
 62
    18
420
        0
176
     0
 90
       50
176
     0
 90
        3
176
     0
 62
     5
420
      255
176
     0
290
     0
176
     0
 90
       50
176
     0
 90
       50
176
     0
 90
       50
176
     0
290
     0
176
     0
 90
       50
176
     0
 62
   256
176
     0
 40
1.0
176
     0
 90
        2
176
     0
  1
strokes_ogs.tif
176
     0
290
     0
176
     0
 40
1.0
176
     0
 40
1.0
176
     0
  0
VISUALSTYLE
  5
6204
102
{ACAD_REACTORS
330
61F6
102
}
330
61F6
100
AcDbVisualStyle
  2
Linepattern
 70
    14
177
     3
291
     1
 70
    58
 90
        2
176
     1
 90
        2
176
     1
 90
        0
176
     1
 90
        0
176
     1
 40
0.6
176
     1
 40
30.0
176
     1
 62
     7
420
 16777215
176
     1
 90
        1
176
     1
 90
        4
176
     1
 62
     7
176
     1
 62
   257
176
     1
 90
        7
176
     1
 90
        7
176
     1
 40
1.0
176
     1
 90
        8
176
     1
 62
     7
176
     1
 40
1.0
176
     1
 90
        1
176
     1
 90
        6
176
     1
 90
        2
176
     1
 62
     7
176
     1
 90
        5
176
     1
 90
        0
176
     1
 90
        0
176
     1
290
     0
176
     1
 90
        1
176
     1
 40
0.0
176
     1
 90
        0
176
     1
290
     0
176
     1
290
     1
176
     1
290
     1
176
     1
290
     0
176
     1
290
     0
176
     1
290
     0
176
     1
290
     0
176
     1
290
     0
176
     1
290
     0
176
     1
 90
       50
176
     1
 40
0.0
176
     1
 40
1.0
176
     1
 90
        0
176
     1
 62
    18
420
        0
176
     1
 90
       50
176
     1
 90
        3
176
     1
 62
     5
420
      255
176
     1
290
     0
176
     1
 90
       50
176
     1
 90
       50
176
     1
 90
       50
176
     1
290
     0
176
     1
 90
       50
176
     1
 62
   256
176
     0
 40
1.0
176
     0
 90
        2
176
     1
  1
strokes_ogs.tif
176
     1
290
     0
176
     1
 40
1.0
176
     1
 40
1.0
176
     1
  0
VISUALSTYLE
  5
6278
102
{ACAD_REACTORS
330
61F6
102
}
330
61F6
100
AcDbVisualStyle
  2
OverhangOff
 70
    21
177
     3
291
     1
 70
    58
 90
        2
176
     0
 90
        2
176
     0
 90
        0
176
     0
 90
        0
176
     0
 40
0.6
176
     0
 40
30.0
176
     0
 62
     7
420
 16777215
176
     0
 90
        1
176
     0
 90
        4
176
     0
 62
     7
176
     0
 62
   257
176
     0
 90
        1
176
     0
 90
        1
176
     0
 40
1.0
176
     0
 90
        9
176
     2
 62
     7
176
     0
 40
1.0
176
     0
 90
        1
176
     0
 90
        6
176
     0
 90
        2
176
     0
 62
     7
176
     0
 90
        5
176
     0
 90
        0
176
     0
 90
        0
176
     0
290
     0
176
     0
 90
        1
176
     0
 40
0.0
176
     0
 90
        0
176
     0
290
     0
176
     0
290
     1
176
     0
290
     1
176
     0
290
     0
176
     0
290
     0
176
     0
290
     0
176
     0
290
     0
176
     0
290
     0
176
     0
290
     0
176
     0
 90
       50
176
     0
 40
0.0
176
     0
 40
1.0
176
     0
 90
        0
176
     0
 62
    18
420
        0
176
     0
 90
       50
176
     0
 90
        3
176
     0
 62
     5
420
      255
176
     0
290
     0
176
     0
 90
       50
176
     0
 90
       50
176
     0
 90
       50
176
     0
290
     0
176
     0
 90
       50
176
     0
 62
   256
176
     0
 40
1.0
176
     0
 90
        2
176
     0
  1
strokes_ogs.tif
176
     0
290
     0
176
     0
 40
1.0
176
     0
 40
1.0
176
     0
  0
VISUALSTYLE
  5
6200
102
{ACAD_REACTORS
330
61F6
102
}
330
61F6
100
AcDbVisualStyle
  2
Realistic
 70
     8
177
     3
291
     0
 70
    58
 90
        2
176
     1
 90
        2
176
     1
 90
        0
176
     1
 90
        0
176
     1
 40
0.6
176
     1
 40
30.0
176
     1
 62
     7
420
 16777215
176
     1
 90
        1
176
     1
 90
        0
176
     1
 62
     7
176
     1
 62
   257
176
     1
 90
        1
176
     1
 90
        1
176
     1
 40
1.0
176
     1
 90
        8
176
     1
 62
     8
420
  7895160
176
     1
 40
1.0
176
     1
 90
        1
176
     1
 90
        6
176
     1
 90
        2
176
     1
 62
     7
176
     1
 90
        5
176
     1
 90
        0
176
     1
 90
        0
176
     1
290
     0
176
     1
 90
       13
176
     1
 40
0.0
176
     1
 90
        0
176
     1
290
     0
176
     1
290
     1
176
     1
290
     1
176
     1
290
     0
176
     1
290
     0
176
     1
290
     0
176
     1
290
     0
176
     1
290
     0
176
     1
290
     0
176
     1
 90
       50
176
     1
 40
0.0
176
     1
 40
1.0
176
     1
 90
        0
176
     1
 62
    18
420
        0
176
     1
 90
       50
176
     1
 90
        3
176
     1
 62
     5
420
      255
176
     1
290
     0
176
     1
 90
       50
176
     1
 90
       50
176
     1
 90
       50
176
     1
290
     0
176
     1
 90
       50
176
     1
 62
   256
176
     0
 40
1.0
176
     0
 90
        2
176
     1
  1
strokes_ogs.tif
176
     1
290
     0
176
     1
 40
1.0
176
     1
 40
1.0
176
     1
  0
VISUALSTYLE
  5
6276
102
{ACAD_REACTORS
330
61F6
102
}
330
61F6
100
AcDbVisualStyle
  2
Shaded
 70
    27
177
     3
291
     0
 70
    58
 90
        2
176
     1
 90
        2
176
     1
 90
        1
176
     1
 90
        2
176
     1
 40
0.6
176
     1
 40
30.0
176
     1
 62
     7
420
 16777215
176
     1
 90
        0
176
     1
 90
        4
176
     1
 62
     7
176
     1
 62
   257
176
     1
 90
        1
176
     1
 90
        1
176
     1
 40
1.0
176
     1
 90
        8
176
     1
 62
   257
176
     1
 40
1.0
176
     1
 90
        1
176
     1
 90
        6
176
     1
 90
        2
176
     1
 62
     8
420
  7895160
176
     1
 90
        3
176
     1
 90
        0
176
     1
 90
        0
176
     1
290
     0
176
     1
 90
        5
176
     1
 40
0.0
176
     1
 90
        0
176
     1
290
     0
176
     1
290
     1
176
     1
290
     1
176
     1
290
     0
176
     1
290
     0
176
     1
290
     0
176
     1
290
     0
176
     1
290
     0
176
     1
290
     0
176
     1
 90
       50
176
     1
 40
0.0
176
     1
 40
1.0
176
     1
 90
        0
176
     1
 62
    18
420
        0
176
     1
 90
       50
176
     1
 90
        3
176
     1
 62
     5
420
      255
176
     1
290
     0
176
     1
 90
       50
176
     1
 90
       50
176
     1
 90
       50
176
     1
290
     0
176
     1
 90
       50
176
     1
 62
   256
176
     0
 40
1.0
176
     0
 90
        2
176
     1
  1
strokes_ogs.tif
176
     1
290
     0
176
     1
 40
1.0
176
     1
 40
1.0
176
     1
  0
VISUALSTYLE
  5
6275
102
{ACAD_REACTORS
330
61F6
102
}
330
61F6
100
AcDbVisualStyle
  2
Shaded with edges
 70
    26
177
     3
291
     0
 70
    58
 90
        2
176
     1
 90
        2
176
     1
 90
        1
176
     1
 90
        2
176
     1
 40
0.6
176
     1
 40
30.0
176
     1
 62
     7
420
 16777215
176
     1
 90
        1
176
     1
 90
        2
176
     1
 62
     7
176
     1
 62
   257
176
     1
 90
        2
176
     1
 90
        1
176
     1
 40
1.0
176
     1
 90
        8
176
     1
 62
   257
176
     1
 40
1.0
176
     1
 90
        1
176
     1
 90
        6
176
     1
 90
        2
176
     1
 62
     7
176
     1
 90
        3
176
     1
 90
        0
176
     1
 90
        0
176
     1
290
     0
176
     1
 90
        5
176
     1
 40
0.0
176
     1
 90
        0
176
     1
290
     0
176
     1
290
     1
176
     1
290
     1
176
     1
290
     0
176
     1
290
     0
176
     1
290
     0
176
     1
290
     0
176
     1
290
     0
176
     1
290
     0
176
     1
 90
       50
176
     1
 40
0.0
176
     1
 40
1.0
176
     1
 90
        0
176
     1
 62
    18
420
        0
176
     1
 90
       50
176
     1
 90
        3
176
     1
 62
     5
420
      255
176
     1
290
     0
176
     1
 90
       50
176
     1
 90
       50
176
     1
 90
       50
176
     1
290
     0
176
     1
 90
       50
176
     1
 62
   256
176
     0
 40
1.0
176
     0
 90
        2
176
     1
  1
strokes_ogs.tif
176
     1
290
     0
176
     1
 40
1.0
176
     1
 40
1.0
176
     1
  0
VISUALSTYLE
  5
6272
102
{ACAD_REACTORS
330
61F6
102
}
330
61F6
100
AcDbVisualStyle
  2
Shades of Gray
 70
    23
177
     3
291
     0
 70
    58
 90
        2
176
     1
 90
        2
176
     1
 90
        3
176
     1
 90
        0
176
     1
 40
0.6
176
     1
 40
30.0
176
     1
 62
     7
420
 16777215
176
     1
 90
        2
176
     1
 90
        2
176
     1
 62
     7
176
     1
 62
     7
176
     1
 90
        1
176
     1
 90
        1
176
     1
 40
40.0
176
     1
 90
        8
176
     1
 62
     7
176
     1
 40
1.0
176
     1
 90
        1
176
     1
 90
        6
176
     1
 90
        2
176
     1
 62
     7
176
     1
 90
        3
176
     1
 90
        0
176
     1
 90
        0
176
     1
290
     0
176
     1
 90
        1
176
     1
 40
0.0
176
     1
 90
        0
176
     1
290
     0
176
     1
290
     1
176
     1
290
     1
176
     1
290
     0
176
     1
290
     0
176
     1
290
     0
176
     1
290
     0
176
     1
290
     0
176
     1
290
     0
176
     1
 90
       50
176
     1
 40
0.0
176
     1
 40
1.0
176
     1
 90
        0
176
     1
 62
    18
420
        0
176
     1
 90
       50
176
     1
 90
        3
176
     1
 62
     5
420
      255
176
     1
290
     0
176
     1
 90
       50
176
     1
 90
       50
176
     1
 90
       50
176
     1
290
     0
176
     1
 90
       50
176
     1
 62
   256
176
     0
 40
1.0
176
     0
 90
        2
176
     1
  1
strokes_ogs.tif
176
     1
290
     0
176
     1
 40
1.0
176
     1
 40
1.0
176
     1
  0
VISUALSTYLE
  5
6273
102
{ACAD_REACTORS
330
61F6
102
}
330
61F6
100
AcDbVisualStyle
  2
Sketchy
 70
    24
177
     3
291
     0
 70
    58
 90
        1
176
     1
 90
        2
176
     1
 90
        2
176
     1
 90
        0
176
     1
 40
0.6
176
     1
 40
30.0
176
     1
 62
     7
420
 16777215
176
     1
 90
        2
176
     1
 90
        2
176
     1
 62
     7
176
     1
 62
     7
176
     1
 90
        1
176
     1
 90
        1
176
     1
 40
40.0
176
     1
 90
       11
176
     1
 62
     7
176
     1
 40
1.0
176
     1
 90
        1
176
     1
 90
        6
176
     1
 90
        2
176
     1
 62
     7
176
     1
 90
        6
176
     1
 90
        0
176
     1
 90
        0
176
     1
290
     0
176
     1
 90
        1
176
     1
 40
0.0
176
     1
 90
        0
176
     1
290
     0
176
     1
290
     1
176
     1
290
     1
176
     1
290
     0
176
     1
290
     0
176
     1
290
     0
176
     1
290
     0
176
     1
290
     0
176
     1
290
     0
176
     1
 90
       50
176
     1
 40
0.0
176
     1
 40
1.0
176
     1
 90
        0
176
     1
 62
    18
420
        0
176
     1
 90
       50
176
     1
 90
        3
176
     1
 62
     5
420
      255
176
     1
290
     0
176
     1
 90
       50
176
     1
 90
       50
176
     1
 90
       50
176
     1
290
     0
176
     1
 90
       50
176
     1
 62
   256
176
     0
 40
1.0
176
     0
 90
        2
176
     1
  1
strokes_ogs.tif
176
     1
290
     0
176
     1
 40
1.0
176
     1
 40
1.0
176
     1
  0
VISUALSTYLE
  5
6203
102
{ACAD_REACTORS
330
61F6
102
}
330
61F6
100
AcDbVisualStyle
  2
Thicken
 70
    13
177
     3
291
     1
 70
    58
 90
        2
176
     1
 90
        2
176
     1
 90
        0
176
     1
 90
        0
176
     1
 40
0.6
176
     1
 40
30.0
176
     1
 62
     7
420
 16777215
176
     1
 90
        1
176
     1
 90
        4
176
     1
 62
     7
176
     1
 62
   257
176
     1
 90
        1
176
     1
 90
        1
176
     1
 40
1.0
176
     1
 90
       12
176
     1
 62
     7
176
     1
 40
1.0
176
     1
 90
        1
176
     1
 90
        6
176
     1
 90
        2
176
     1
 62
     7
176
     1
 90
        5
176
     1
 90
        0
176
     1
 90
        0
176
     1
290
     0
176
     1
 90
        1
176
     1
 40
0.0
176
     1
 90
        0
176
     1
290
     0
176
     1
290
     1
176
     1
290
     1
176
     1
290
     0
176
     1
290
     0
176
     1
290
     0
176
     1
290
     0
176
     1
290
     0
176
     1
290
     0
176
     1
 90
       50
176
     1
 40
0.0
176
     1
 40
1.0
176
     1
 90
        0
176
     1
 62
    18
420
        0
176
     1
 90
       50
176
     1
 90
        3
176
     1
 62
     5
420
      255
176
     1
290
     0
176
     1
 90
       50
176
     1
 90
       50
176
     1
 90
       50
176
     1
290
     0
176
     1
 90
       50
176
     1
 62
   256
176
     0
 40
1.0
176
     0
 90
        2
176
     1
  1
strokes_ogs.tif
176
     1
290
     0
176
     1
 40
1.0
176
     1
 40
1.0
176
     1
  0
VISUALSTYLE
  5
6270
102
{ACAD_REACTORS
330
61F6
102
}
330
61F6
100
AcDbVisualStyle
  2
Wireframe
 70
     5
177
     3
291
     0
 70
    58
 90
        0
176
     1
 90
        2
176
     1
 90
        0
176
     1
 90
        0
176
     1
 40
0.6
176
     1
 40
30.0
176
     1
 62
     7
420
 16777215
176
     1
 90
        1
176
     1
 90
        4
176
     1
 62
     7
176
     1
 62
   257
176
     1
 90
        1
176
     1
 90
        1
176
     1
 40
1.0
176
     1
 90
        0
176
     1
 62
   257
176
     1
 40
1.0
176
     1
 90
        1
176
     1
 90
        6
176
     1
 90
        2
176
     1
 62
     7
176
     1
 90
        3
176
     1
 90
        0
176
     1
 90
        0
176
     1
290
     0
176
     1
 90
        1
176
     1
 40
0.0
176
     1
 90
        0
176
     1
290
     0
176
     1
290
     1
176
     1
290
     1
176
     1
290
     0
176
     1
290
     0
176
     1
290
     0
176
     1
290
     0
176
     1
290
     0
176
     1
290
     0
176
     1
 90
       50
176
     1
 40
0.0
176
     1
 40
1.0
176
     1
 90
        0
176
     1
 62
    18
420
        0
176
     1
 90
       50
176
     1
 90
        3
176
     1
 62
     5
420
      255
176
     1
290
     0
176
     1
 90
       50
176
     1
 90
       50
176
     1
 90
       50
176
     1
290
     0
176
     1
 90
       50
176
     1
 62
   256
176
     0
 40
1.0
176
     0
 90
        2
176
     1
  1
strokes_ogs.tif
176
     1
290
     0
176
     1
 40
1.0
176
     1
 40
1.0
176
     1
  0
VISUALSTYLE
  5
6274
102
{ACAD_REACTORS
330
61F6
102
}
330
61F6
100
AcDbVisualStyle
  2
X-Ray
 70
    25
177
     3
291
     0
 70
    58
 90
        2
176
     1
 90
        2
176
     1
 90
        1
176
     1
 90
        1
176
     1
 40
0.5
176
     1
 40
30.0
176
     1
 62
     7
420
 16777215
176
     1
 90
        1
176
     1
 90
        0
176
     1
 62
     7
176
     1
 62
   257
176
     1
 90
        1
176
     1
 90
        1
176
     1
 40
1.0
176
     1
 90
        8
176
     1
 62
     7
176
     1
 40
1.0
176
     1
 90
        1
176
     1
 90
        6
176
     1
 90
        2
176
     1
 62
     7
176
     1
 90
        3
176
     1
 90
        0
176
     1
 90
        0
176
     1
290
     0
176
     1
 90
       13
176
     1
 40
0.0
176
     1
 90
        0
176
     1
290
     0
176
     1
290
     1
176
     1
290
     1
176
     1
290
     0
176
     1
290
     0
176
     1
290
     0
176
     1
290
     0
176
     1
290
     0
176
     1
290
     0
176
     1
 90
       50
176
     1
 40
0.0
176
     1
 40
1.0
176
     1
 90
        0
176
     1
 62
    18
420
        0
176
     1
 90
       50
176
     1
 90
        3
176
     1
 62
     5
420
      255
176
     1
290
     0
176
     1
 90
       50
176
     1
 90
       50
176
     1
 90
       50
176
     1
290
     0
176
     1
 90
       50
176
     1
 62
   256
176
     0
 40
1.0
176
     0
 90
        2
176
     1
  1
strokes_ogs.tif
176
     1
290
     0
176
     1
 40
1.0
176
     1
 40
1.0
176
     1
  0
DICTIONARYVAR
  5
6844
102
{ACAD_REACTORS
330
5E
102
}
330
5E
100
DictionaryVariables
280
     0
  1
1:1
  0
DICTIONARYVAR
  5
6840
102
{ACAD_REACTORS
330
5E
102
}
330
5E
100
DictionaryVariables
280
     0
  1
STANDARD
  0
DICTIONARYVAR
  5
6214
102
{ACAD_REACTORS
330
5E
102
}
330
5E
100
DictionaryVariables
280
     0
  1
STANDARD
  0
DICTIONARYVAR
  5
6841
102
{ACAD_REACTORS
330
5E
102
}
330
5E
100
DictionaryVariables
280
     0
  1
Metric50
  0
DICTIONARYVAR
  5
6842
102
{ACAD_REACTORS
330
5E
102
}
330
5E
100
DictionaryVariables
280
     0
  1
Metric50
  0
DICTIONARYVAR
  5
5F
102
{ACAD_REACTORS
330
5E
102
}
330
5E
100
DictionaryVariables
280
     0
  1
2
  0
DICTIONARYVAR
  5
63
102
{ACAD_REACTORS
330
5E
102
}
330
5E
100
DictionaryVariables
280
     0
  1
1
  0
DICTIONARYVAR
  5
6846
102
{ACAD_REACTORS
330
5E
102
}
330
5E
100
DictionaryVariables
280
     0
  1
1
  0
DICTIONARYVAR
  5
6847
102
{ACAD_REACTORS
330
5E
102
}
330
5E
100
DictionaryVariables
280
     0
  1
15
  0
DICTIONARYVAR
  5
6845
102
{ACAD_REACTORS
330
5E
102
}
330
5E
100
DictionaryVariables
280
     0
  1
0
  0
DICTIONARYVAR
  5
6843
102
{ACAD_REACTORS
330
5E
102
}
330
5E
100
DictionaryVariables
280
     0
  1
0
  0
DICTIONARYVAR
  5
1CF
102
{ACAD_REACTORS
330
5E
102
}
330
5E
100
DictionaryVariables
280
     0
  1

  0
ACAD_PROXY_OBJECT
  5
6213
102
{ACAD_REACTORS
330
6212
102
}
330
6212
100
AcDbProxyObject
 90
      499
 91
      508
 71
    27
 97
        1
 70
     0
162
                 0
161
               224
310
00013FFFD0C4040800000000000004402826564C4F2D52202E20302900
 94
        0
  0
DICTIONARY
  5
68E6
330
6208
100
AcDbDictionary
280
     1
281
     1
  3
ACAD_ROUNDTRIP_2008_TABLESTYLE_CELLSTYLEMAP
360
68E7
  0
CELLSTYLEMAP
  5
68E7
102
{ACAD_REACTORS
330
68E6
102
}
330
68E6
100
AcDbCellStyleMap
 90
        3
300
CELLSTYLE
  1
TABLEFORMAT_BEGIN
 90
        5
170
     1
 91
        0
 92
    32768
 62
   257
 93
        1
300
CONTENTFORMAT
  1
CONTENTFORMAT_BEGIN
 90
        0
 91
        0
 92
      512
 93
        0
300

 40
0.0
140
1.0
 94
        5
 62
     0
340
11
144
6.0
309
CONTENTFORMAT_END
171
     1
301
MARGIN
  1
CELLMARGIN_BEGIN
 40
1.5
 40
1.5
 40
1.5
 40
1.5
 40
0.18
 40
0.18
309
CELLMARGIN_END
 94
        6
 95
        1
302
GRIDFORMAT
  1
GRIDFORMAT_BEGIN
 90
        0
 91
        1
 62
     0
 92
       -2
340
0
 93
        0
 40
0.045
309
GRIDFORMAT_END
 95
        2
302
GRIDFORMAT
  1
GRIDFORMAT_BEGIN
 90
        0
 91
        1
 62
     0
 92
       -2
340
0
 93
        0
 40
0.045
309
GRIDFORMAT_END
 95
        4
302
GRIDFORMAT
  1
GRIDFORMAT_BEGIN
 90
        0
 91
        1
 62
     0
 92
       -2
340
0
 93
        0
 40
0.045
309
GRIDFORMAT_END
 95
        8
302
GRIDFORMAT
  1
GRIDFORMAT_BEGIN
 90
        0
 91
        1
 62
     0
 92
       -2
340
0
 93
        0
 40
0.045
309
GRIDFORMAT_END
 95
       16
302
GRIDFORMAT
  1
GRIDFORMAT_BEGIN
 90
        0
 91
        1
 62
     0
 92
       -2
340
0
 93
        0
 40
0.045
309
GRIDFORMAT_END
 95
       32
302
GRIDFORMAT
  1
GRIDFORMAT_BEGIN
 90
        0
 91
        1
 62
     0
 92
       -2
340
0
 93
        0
 40
0.045
309
GRIDFORMAT_END
309
TABLEFORMAT_END
  1
CELLSTYLE_BEGIN
 90
        1
 91
        1
300
_TITLE
309
CELLSTYLE_END
300
CELLSTYLE
  1
TABLEFORMAT_BEGIN
 90
        5
170
     1
 91
        0
 92
        0
 62
   257
 93
        1
300
CONTENTFORMAT
  1
CONTENTFORMAT_BEGIN
 90
        0
 91
        0
 92
      512
 93
        0
300

 40
0.0
140
1.0
 94
        5
 62
     0
340
11
144
4.5
309
CONTENTFORMAT_END
171
     1
301
MARGIN
  1
CELLMARGIN_BEGIN
 40
1.5
 40
1.5
 40
1.5
 40
1.5
 40
0.18
 40
0.18
309
CELLMARGIN_END
 94
        6
 95
        1
302
GRIDFORMAT
  1
GRIDFORMAT_BEGIN
 90
        0
 91
        1
 62
     0
 92
       -2
340
0
 93
        0
 40
0.045
309
GRIDFORMAT_END
 95
        2
302
GRIDFORMAT
  1
GRIDFORMAT_BEGIN
 90
        0
 91
        1
 62
     0
 92
       -2
340
0
 93
        0
 40
0.045
309
GRIDFORMAT_END
 95
        4
302
GRIDFORMAT
  1
GRIDFORMAT_BEGIN
 90
        0
 91
        1
 62
     0
 92
       -2
340
0
 93
        0
 40
0.045
309
GRIDFORMAT_END
 95
        8
302
GRIDFORMAT
  1
GRIDFORMAT_BEGIN
 90
        0
 91
        1
 62
     0
 92
       -2
340
0
 93
        0
 40
0.045
309
GRIDFORMAT_END
 95
       16
302
GRIDFORMAT
  1
GRIDFORMAT_BEGIN
 90
        0
 91
        1
 62
     0
 92
       -2
340
0
 93
        0
 40
0.045
309
GRIDFORMAT_END
 95
       32
302
GRIDFORMAT
  1
GRIDFORMAT_BEGIN
 90
        0
 91
        1
 62
     0
 92
       -2
340
0
 93
        0
 40
0.045
309
GRIDFORMAT_END
309
TABLEFORMAT_END
  1
CELLSTYLE_BEGIN
 90
        2
 91
        1
300
_HEADER
309
CELLSTYLE_END
300
CELLSTYLE
  1
TABLEFORMAT_BEGIN
 90
        5
170
     1
 91
        0
 92
        0
 62
   257
 93
        1
300
CONTENTFORMAT
  1
CONTENTFORMAT_BEGIN
 90
        0
 91
        0
 92
      512
 93
        0
300

 40
0.0
140
1.0
 94
        2
 62
     0
340
11
144
4.5
309
CONTENTFORMAT_END
171
     1
301
MARGIN
  1
CELLMARGIN_BEGIN
 40
1.5
 40
1.5
 40
1.5
 40
1.5
 40
0.18
 40
0.18
309
CELLMARGIN_END
 94
        6
 95
        1
302
GRIDFORMAT
  1
GRIDFORMAT_BEGIN
 90
        0
 91
        1
 62
     0
 92
       -2
340
0
 93
        0
 40
0.045
309
GRIDFORMAT_END
 95
        2
302
GRIDFORMAT
  1
GRIDFORMAT_BEGIN
 90
        0
 91
        1
 62
     0
 92
       -2
340
0
 93
        0
 40
0.045
309
GRIDFORMAT_END
 95
        4
302
GRIDFORMAT
  1
GRIDFORMAT_BEGIN
 90
        0
 91
        1
 62
     0
 92
       -2
340
0
 93
        0
 40
0.045
309
GRIDFORMAT_END
 95
        8
302
GRIDFORMAT
  1
GRIDFORMAT_BEGIN
 90
        0
 91
        1
 62
     0
 92
       -2
340
0
 93
        0
 40
0.045
309
GRIDFORMAT_END
 95
       16
302
GRIDFORMAT
  1
GRIDFORMAT_BEGIN
 90
        0
 91
        1
 62
     0
 92
       -2
340
0
 93
        0
 40
0.045
309
GRIDFORMAT_END
 95
       32
302
GRIDFORMAT
  1
GRIDFORMAT_BEGIN
 90
        0
 91
        1
 62
     0
 92
       -2
340
0
 93
        0
 40
0.045
309
GRIDFORMAT_END
309
TABLEFORMAT_END
  1
CELLSTYLE_BEGIN
 90
        3
 91
        2
300
_DATA
309
CELLSTYLE_END
  0
ENDSEC
  0
SECTION
  2
ACDSDATA
 70
     2
 71
     8
  0
ACDSSCHEMA
 90
        0
  1
AcDb_Thumbnail_Schema
  2
AcDbDs::ID
280
    10
 91
        8
  2
Thumbnail_Data
280
    15
 91
        0
101
ACDSRECORD
 95
        0
 90
        1
  2
AcDbDs::TreatedAsObjectData
280
     1
291
     1
101
ACDSRECORD
 95
        0
 90
        2
  2
AcDbDs::Legacy
280
     1
291
     1
101
ACDSRECORD
  1
AcDbDs::ID
 90
        3
  2
AcDs:Indexable
280
     1
291
     1
101
ACDSRECORD
  1
AcDbDs::ID
 90
        4
  2
AcDbDs::HandleAttribute
280
     7
282
     1
  0
ACDSSCHEMA
 90
        1
  1
AcDbDs::TreatedAsObjectDataSchema
  2
AcDbDs::TreatedAsObjectData
280
     1
 91
        0
  0
ACDSSCHEMA
 90
        2
  1
AcDbDs::LegacySchema
  2
AcDbDs::Legacy
280
     1
 91
        0
  0
ACDSSCHEMA
 90
        3
  1
AcDbDs::IndexedPropertySchema
  2
AcDs:Indexable
280
     1
 91
        0
  0
ACDSSCHEMA
 90
        4
  1
AcDbDs::HandleAttributeSchema
  2
AcDbDs::HandleAttribute
280
     7
 91
        1
284
     1
  0
ACDSRECORD
 90
        0
  2
AcDbDs::ID
280
    10
320
22
  2
Thumbnail_Data
280
    15
 94
     1838
310
89504E470D0A1A0A0000000D494844520000010000000085080300000083A6D68B00000300504C5445212830FFFFFF2128300000000000000000000000000000000000000000000000000000330000660000990000CC0000FF0033000033330033660033990033CC0033FF0066000066330066660066990066CC0066FF0099
310
000099330099660099990099CC0099FF00CC0000CC3300CC6600CC9900CCCC00CCFF00FF0000FF3300FF6600FF9900FFCC00FFFF3300003300333300663300993300CC3300FF3333003333333333663333993333CC3333FF3366003366333366663366993366CC3366FF3399003399333399663399993399CC3399FF33CC00
310
33CC3333CC6633CC9933CCCC33CCFF33FF0033FF3333FF6633FF9933FFCC33FFFF6600006600336600666600996600CC6600FF6633006633336633666633996633CC6633FF6666006666336666666666996666CC6666FF6699006699336699666699996699CC6699FF66CC0066CC3366CC6666CC9966CCCC66CCFF66FF0066
310
FF3366FF6666FF9966FFCC66FFFF9900009900339900669900999900CC9900FF9933009933339933669933999933CC9933FF9966009966339966669966999966CC9966FF9999009999339999669999999999CC9999FF99CC0099CC3399CC6699CC9999CCCC99CCFF99FF0099FF3399FF6699FF9999FFCC99FFFFCC0000CC00
310
33CC0066CC0099CC00CCCC00FFCC3300CC3333CC3366CC3399CC33CCCC33FFCC6600CC6633CC6666CC6699CC66CCCC66FFCC9900CC9933CC9966CC9999CC99CCCC99FFCCCC00CCCC33CCCC66CCCC99CCCCCCCCCCFFCCFF00CCFF33CCFF66CCFF99CCFFCCCCFFFFFF0000FF0033FF0066FF0099FF00CCFF00FFFF3300FF3333
310
FF3366FF3399FF33CCFF33FFFF6600FF6633FF6666FF6699FF66CCFF66FFFF9900FF9933FF9966FF9999FF99CCFF99FFFFCC00FFCC33FFCC66FFCC99FFCCCCFFCCFFFFFF00FFFF33FFFF66FFFF99FFFFCCFFFFFF0000000D0D0D1A1A1A2828283535354343435050505D5D5D6B6B6B787878868686939393A1A1A1AEAEAEBB
310
BBBBC9C9C9D6D6D6E4E4E4F1F1F1FFFFFF0000000000000000000000000000000000000000000000000000000000002E4550F1000003E94944415478DAED9DD196EB200845F9FFFF3DEF73D76D9B8A029A989920C29A87699AA4658B80442DD19CE09FB0176047EAB37B377BDF453C11AF3F108EF3FEBFA047A50240A6FAD6
310
9B5F3E1A8042671477F30640FD42385AB0631F2A00BC6FF1BA150E43207A9A01D311867A768BD9003EDA177DAD39BE0400DDBCC902C02EFDE8DFF3397FD70B4A87247F1F9009805FA4A904E60AE871E36F9BAE1605C0D77C21470E90744F02D3DF8BE037C402F0F6B68E007CDB0D768C2B1A7F8EAE27FD4B7B1D00704FD872
310
A5FF288097DF7A274BF0A5C23D2EA0EB97C142DD8600241481F47714999FC5909292929292929292929292B2D76828018C0C16A30E191380A2D550ED3B3400FD61296D02403004FEDEEBFDBD012032002800503D00DCD90922B20518F3218EEE4158BF139CB10006C0ED13CFBF024031F4BF0300E2FA009441B106103E0A50
310
33E1A5F58FD1A340CF02880284809BE6042D0AA04DEDF706B09D0954001ACDD07475B498C200A827D01B00583E8CF501CCF8BF080078A3A36C66CD02A24C1B6B0080CFE61701D4935F6359805CF8AAFF0705C905A52ED08F89D45EB5A3131C06E0396AA21ADEAA193E0B7C75EED0FB0CFF006A55A0B4A2D455425840A50AE4
310
13C113A65E22B4440E2D0250D63ED600A89308A13364F60AC07C4CC253E6CF32481B805A52F700420240EACAA9C6EFCD0378BA2BB40000EA7658949D65CE073CBA8A1655EA57ACECBD0740E7D34B4A7E0040C98D0400C7F53D00CA53355F008E35AD660A501D3D8646B00080D606A0A486E3003881250108DFF138DB046038
310
C08500E0B368F002003DFAB87382201D80F018BC04A02F2B8F02E05D04C130000C02C00A0020AE1D3E0F00DE01F0AD1D86AB22D2F7072D08801A0B60431ED302282400561FB67D80DC6B4600506F7F96E700F0471F7614383F1072511C3101F01298361E50019C61F0644D40055097035A3F6702385D6EF60840EDC0E30086
310
0EB9B48026B89B83A1B17A9F9262B9030071F003C5CDCD0178BE302A0390067F6ACD43CD03AE1F745113A41900E451D761007201681E002D0480C60020248032E7B54336AEECB0B50400D008806B5B8CAD630143D96B1400280180EA593024BC02450130354978750060DBE9E2FC2EA7E100E03400440240989A2E150000ED
310
06809AC076417B07DB84DF87E16C738228C2CAA97272D41500CB2F9D1227409E0480F5BB800CC0767768AA2AE17CC01880F5D381C97C38C842FAC911550240440003399FB4E86C470014201FC21500717614995F3FBDFDF6D4B9417712C82DDA53525252525252525252525252525252361334BBEB6C5623FB4C1E0EFE9B0C
310
86FED17F8D619003891B12E90F5E124058007B6C4DDBB100A86D1DD63D1400F8BE7B1A804B207E0049B8F009421391890000000049454E44AE426082
  0
ENDSEC
  0
EOF
