  0
SECTION
  2
HEADER
  9
$ACADVER
  1
AC1032
  9
$ACADMAINTVER
 90
        4
  9
$DWGCODEPAGE
  3
ANSI_1252
  9
$LASTSAVEDBY
  1
Siqi
  9
$REQUIREDVERSIONS
160
                 0
  9
$INSBASE
 10
0.0
 20
0.0
 30
0.0
  9
$EXTMIN
 10
34046.28361398958
 20
2318.231195314151
 30
0.0
  9
$EXTMAX
 10
35558.81610829255
 20
4668.131995316048
 30
0.0
  9
$LIMMIN
 10
0.0
 20
0.0
  9
$LIMMAX
 10
420.0
 20
297.0
  9
$ORTHOMODE
 70
     0
  9
$REGENMODE
 70
     1
  9
$FILLMODE
 70
     1
  9
$QTEXTMODE
 70
     0
  9
$MIRRTEXT
 70
     0
  9
$LTSCALE
 40
1.0
  9
$ATTMODE
 70
     1
  9
$TEXTSIZE
 40
2.5
  9
$TRACEWID
 40
1.0
  9
$TEXTSTYLE
  7
Standard
  9
$CLAYER
  8
DIM
  9
$CELTYPE
  6
ByLayer
  9
$CECOLOR
 62
   256
  9
$CELTSCALE
 40
1.0
  9
$DISPSILH
 70
     0
  9
$DIMSCALE
 40
1.0
  9
$DIMASZ
 40
8.0
  9
$DIMEXO
 40
1.0
  9
$DIMDLI
 40
3.75
  9
$DIMRND
 40
0.0
  9
$DIMDLE
 40
0.0
  9
$DIMEXE
 40
1.25
  9
$DIMTP
 40
0.0
  9
$DIMTM
 40
0.0
  9
$DIMTXT
 40
18.0
  9
$DIMCEN
 40
0.5
  9
$DIMTSZ
 40
0.0
  9
$DIMTOL
 70
     0
  9
$DIMLIM
 70
     0
  9
$DIMTIH
 70
     0
  9
$DIMTOH
 70
     0
  9
$DIMSE1
 70
     0
  9
$DIMSE2
 70
     0
  9
$DIMTAD
 70
     1
  9
$DIMZIN
 70
     8
  9
$DIMBLK
  1

  9
$DIMASO
 70
     1
  9
$DIMSHO
 70
     1
  9
$DIMPOST
  1

  9
$DIMAPOST
  1

  9
$DIMALT
 70
     0
  9
$DIMALTD
 70
     2
  9
$DIMALTF
 40
0.03937007874
  9
$DIMLFAC
 40
1.0
  9
$DIMTOFL
 70
     1
  9
$DIMTVP
 40
0.0
  9
$DIMTIX
 70
     0
  9
$DIMSOXD
 70
     0
  9
$DIMSAH
 70
     0
  9
$DIMBLK1
  1

  9
$DIMBLK2
  1

  9
$DIMSTYLE
  2
ISO-25
  9
$DIMCLRD
 70
     0
  9
$DIMCLRE
 70
     0
  9
$DIMCLRT
 70
     0
  9
$DIMTFAC
 40
1.0
  9
$DIMGAP
 40
3.0
  9
$DIMJUST
 70
     0
  9
$DIMSD1
 70
     0
  9
$DIMSD2
 70
     0
  9
$DIMTOLJ
 70
     0
  9
$DIMTZIN
 70
     8
  9
$DIMALTZ
 70
     0
  9
$DIMALTTZ
 70
     0
  9
$DIMUPT
 70
     0
  9
$DIMDEC
 70
     2
  9
$DIMTDEC
 70
     2
  9
$DIMALTU
 70
     2
  9
$DIMALTTD
 70
     2
  9
$DIMTXSTY
  7
Standard
  9
$DIMAUNIT
 70
     0
  9
$DIMADEC
 70
     2
  9
$DIMALTRND
 40
0.0
  9
$DIMAZIN
 70
     0
  9
$DIMDSEP
 70
    44
  9
$DIMATFIT
 70
     3
  9
$DIMFRAC
 70
     0
  9
$DIMLDRBLK
  1

  9
$DIMLUNIT
 70
     2
  9
$DIMLWD
 70
    -2
  9
$DIMLWE
 70
    -2
  9
$DIMTMOVE
 70
     0
  9
$DIMFXL
 40
1.0
  9
$DIMFXLON
 70
     0
  9
$DIMJOGANG
 40
0.7853981633974483
  9
$DIMTFILL
 70
     0
  9
$DIMTFILLCLR
 70
     0
  9
$DIMARCSYM
 70
     0
  9
$DIMLTYPE
  6

  9
$DIMLTEX1
  6

  9
$DIMLTEX2
  6

  9
$DIMTXTDIRECTION
 70
     0
  9
$LUNITS
 70
     2
  9
$LUPREC
 70
     4
  9
$SKETCHINC
 40
1.0
  9
$FILLETRAD
 40
0.0
  9
$AUNITS
 70
     0
  9
$AUPREC
 70
     0
  9
$MENU
  1
.
  9
$ELEVATION
 40
0.0
  9
$PELEVATION
 40
0.0
  9
$THICKNESS
 40
0.0
  9
$LIMCHECK
 70
     0
  9
$CHAMFERA
 40
0.0
  9
$CHAMFERB
 40
0.0
  9
$CHAMFERC
 40
0.0
  9
$CHAMFERD
 40
0.0
  9
$SKPOLY
 70
     0
  9
$TDCREATE
 40
2453649.060439815
  9
$TDUCREATE
 40
2453649.352115521
  9
$TDUPDATE
 40
2457974.445509259
  9
$TDUUPDATE
 40
2457974.737175926
  9
$TDINDWG
 40
0.7677901042
  9
$TDUSRTIMER
 40
0.7677854051
  9
$USRTIMER
 70
     1
  9
$ANGBASE
 50
0.0
  9
$ANGDIR
 70
     0
  9
$PDMODE
 70
     0
  9
$PDSIZE
 40
0.0
  9
$PLINEWID
 40
0.0
  9
$SPLFRAME
 70
     0
  9
$SPLINETYPE
 70
     6
  9
$SPLINESEGS
 70
     8
  9
$HANDSEED
  5
521E
  9
$SURFTAB1
 70
     6
  9
$SURFTAB2
 70
     6
  9
$SURFTYPE
 70
     6
  9
$SURFU
 70
     6
  9
$SURFV
 70
     6
  9
$UCSBASE
  2

  9
$UCSNAME
  2

  9
$UCSORG
 10
20135.92273348905
 20
3420.432723209263
 30
0.0
  9
$UCSXDIR
 10
1.0
 20
0.0
 30
0.0
  9
$UCSYDIR
 10
0.0
 20
1.0
 30
0.0
  9
$UCSORTHOREF
  2

  9
$UCSORTHOVIEW
 70
     0
  9
$UCSORGTOP
 10
0.0
 20
0.0
 30
0.0
  9
$UCSORGBOTTOM
 10
0.0
 20
0.0
 30
0.0
  9
$UCSORGLEFT
 10
0.0
 20
0.0
 30
0.0
  9
$UCSORGRIGHT
 10
0.0
 20
0.0
 30
0.0
  9
$UCSORGFRONT
 10
0.0
 20
0.0
 30
0.0
  9
$UCSORGBACK
 10
0.0
 20
0.0
 30
0.0
  9
$PUCSBASE
  2

  9
$PUCSNAME
  2

  9
$PUCSORG
 10
0.0
 20
0.0
 30
0.0
  9
$PUCSXDIR
 10
1.0
 20
0.0
 30
0.0
  9
$PUCSYDIR
 10
0.0
 20
1.0
 30
0.0
  9
$PUCSORTHOREF
  2

  9
$PUCSORTHOVIEW
 70
     0
  9
$PUCSORGTOP
 10
0.0
 20
0.0
 30
0.0
  9
$PUCSORGBOTTOM
 10
0.0
 20
0.0
 30
0.0
  9
$PUCSORGLEFT
 10
0.0
 20
0.0
 30
0.0
  9
$PUCSORGRIGHT
 10
0.0
 20
0.0
 30
0.0
  9
$PUCSORGFRONT
 10
0.0
 20
0.0
 30
0.0
  9
$PUCSORGBACK
 10
0.0
 20
0.0
 30
0.0
  9
$USERI1
 70
     0
  9
$USERI2
 70
     0
  9
$USERI3
 70
     0
  9
$USERI4
 70
     0
  9
$USERI5
 70
     0
  9
$USERR1
 40
0.0
  9
$USERR2
 40
0.0
  9
$USERR3
 40
0.0
  9
$USERR4
 40
0.0
  9
$USERR5
 40
2.5
  9
$WORLDVIEW
 70
     1
  9
$SHADEDGE
 70
     3
  9
$SHADEDIF
 70
    70
  9
$TILEMODE
 70
     1
  9
$MAXACTVP
 70
    64
  9
$PINSBASE
 10
0.0
 20
0.0
 30
0.0
  9
$PLIMCHECK
 70
     0
  9
$PEXTMIN
 10
0.0
 20
0.0
 30
0.0
  9
$PEXTMAX
 10
0.0
 20
0.0
 30
0.0
  9
$PLIMMIN
 10
0.0
 20
0.0
  9
$PLIMMAX
 10
12.0
 20
9.0
  9
$UNITMODE
 70
     0
  9
$VISRETAIN
 70
     1
  9
$PLINEGEN
 70
     0
  9
$PSLTSCALE
 70
     1
  9
$TREEDEPTH
 70
  3020
  9
$CMLSTYLE
  2
Standard
  9
$CMLJUST
 70
     0
  9
$CMLSCALE
 40
20.0
  9
$PROXYGRAPHICS
 70
     1
  9
$MEASUREMENT
 70
     1
  9
$CELWEIGHT
370
    -1
  9
$ENDCAPS
280
     0
  9
$JOINSTYLE
280
     0
  9
$LWDISPLAY
290
     0
  9
$INSUNITS
 70
     4
  9
$HYPERLINKBASE
  1

  9
$STYLESHEET
  1

  9
$XEDIT
290
     1
  9
$CEPSNTYPE
380
     0
  9
$PSTYLEMODE
290
     1
  9
$FINGERPRINTGUID
  2
{FDEAD578-A652-11D2-9A35-0060089B3A3F}
  9
$VERSIONGUID
  2
{29CF4606-FEB9-3E49-AC06-EDC9A962FDEB}
  9
$EXTNAMES
290
     1
  9
$PSVPSCALE
 40
0.0
  9
$OLESTARTUP
290
     0
  9
$SORTENTS
280
   127
  9
$INDEXCTL
280
     0
  9
$HIDETEXT
280
     1
  9
$XCLIPFRAME
280
     0
  9
$HALOGAP
280
     0
  9
$OBSCOLOR
 70
   257
  9
$OBSLTYPE
280
     0
  9
$INTERSECTIONDISPLAY
280
     0
  9
$INTERSECTIONCOLOR
 70
   257
  9
$DIMASSOC
280
     2
  9
$PROJECTNAME
  1

  9
$CAMERADISPLAY
290
     0
  9
$LENSLENGTH
 40
50.0
  9
$CAMERAHEIGHT
 40
0.0
  9
$STEPSPERSEC
 40
2.0
  9
$STEPSIZE
 40
6.0
  9
$3DDWFPREC
 40
2.0
  9
$PSOLWIDTH
 40
0.25
  9
$PSOLHEIGHT
 40
4.0
  9
$LOFTANG1
 40
1.570796326794896
  9
$LOFTANG2
 40
1.570796326794896
  9
$LOFTMAG1
 40
0.0
  9
$LOFTMAG2
 40
0.0
  9
$LOFTPARAM
 70
     7
  9
$LOFTNORMALS
280
     1
  9
$LATITUDE
 40
37.795
  9
$LONGITUDE
 40
-122.394
  9
$NORTHDIRECTION
 40
0.0
  9
$TIMEZONE
 70
 -8000
  9
$LIGHTGLYPHDISPLAY
280
     1
  9
$TILEMODELIGHTSYNCH
280
     1
  9
$CMATERIAL
347
51B5
  9
$SOLIDHIST
280
     1
  9
$SHOWHIST
280
     1
  9
$DWFFRAME
280
     2
  9
$DGNFRAME
280
     0
  9
$REALWORLDSCALE
290
     1
  9
$INTERFERECOLOR
 62
     1
  9
$INTERFEREOBJVS
345
51C2
  9
$INTERFEREVPVS
346
51D6
  9
$CSHADOW
280
     0
  9
$SHADOWPLANELOCATION
 40
0.0
  0
ENDSEC
  0
SECTION
  2
CLASSES
  0
CLASS
  1
ACDBDICTIONARYWDFLT
  2
AcDbDictionaryWithDefault
  3
ObjectDBX Classes
 90
        0
 91
        1
280
     0
281
     0
  0
CLASS
  1
ACDBPLACEHOLDER
  2
AcDbPlaceHolder
  3
ObjectDBX Classes
 90
        0
 91
        1
280
     0
281
     0
  0
CLASS
  1
LAYOUT
  2
AcDbLayout
  3
ObjectDBX Classes
 90
        0
 91
        3
280
     0
281
     0
  0
CLASS
  1
DICTIONARYVAR
  2
AcDbDictionaryVar
  3
ObjectDBX Classes
 90
        0
 91
       20
280
     0
281
     0
  0
CLASS
  1
DIMASSOC
  2
AcDbDimAssoc
  3
"AcDbDimAssoc|Product Desc:     AcDim ARX App For Dimension|Company:          Autodesk, Inc.|WEB Address:      www.autodesk.com"
 90
        0
 91
       11
280
     0
281
     0
  0
CLASS
  1
MATERIAL
  2
AcDbMaterial
  3
ObjectDBX Classes
 90
     1153
 91
        3
280
     0
281
     0
  0
CLASS
  1
VISUALSTYLE
  2
AcDbVisualStyle
  3
ObjectDBX Classes
 90
     4095
 91
       26
280
     0
281
     0
  0
CLASS
  1
TABLESTYLE
  2
AcDbTableStyle
  3
ObjectDBX Classes
 90
     4095
 91
        1
280
     0
281
     0
  0
CLASS
  1
VLO-VL
  2
vlo_VL
  3
VL|AutoLISP based application
 90
      129
 91
        2
280
     0
281
     0
  0
CLASS
  1
SCALE
  2
AcDbScale
  3
ObjectDBX Classes
 90
     1153
 91
       17
280
     0
281
     0
  0
CLASS
  1
MLEADERSTYLE
  2
AcDbMLeaderStyle
  3
ACDB_MLEADERSTYLE_CLASS
 90
     4095
 91
        1
280
     0
281
     0
  0
CLASS
  1
ACDBSECTIONVIEWSTYLE
  2
AcDbSectionViewStyle
  3
ObjectDBX Classes
 90
     1025
 91
        1
280
     0
281
     0
  0
CLASS
  1
ACDBDETAILVIEWSTYLE
  2
AcDbDetailViewStyle
  3
ObjectDBX Classes
 90
     1025
 91
        1
280
     0
281
     0
  0
CLASS
  1
CELLSTYLEMAP
  2
AcDbCellStyleMap
  3
ObjectDBX Classes
 90
     1152
 91
        1
280
     0
281
     0
  0
ENDSEC
  0
SECTION
  2
TABLES
  0
TABLE
  2
VPORT
  5
8
330
0
100
AcDbSymbolTable
 70
     1
  0
VPORT
  5
51B3
330
8
100
AcDbSymbolTableRecord
100
AcDbViewportTableRecord
  2
*Active
 70
     0
 10
0.0
 20
0.0
 11
1.0
 21
1.0
 12
35242.09062979516
 22
3266.80867013359
 13
0.0
 23
0.0
 14
10.0
 24
10.0
 15
10.0
 25
10.0
 16
0.0
 26
0.0
 36
1.0
 17
0.0
 27
0.0
 37
0.0
 40
2390.923206807261
 41
1.913595933926302
 42
50.0
 43
0.0
 44
0.0
 50
0.0
 51
0.0
 71
     0
 72
  1000
 73
     1
 74
     3
 75
     0
 76
     0
 77
     0
 78
     0
281
     0
 65
     1
110
20135.92273348905
120
3420.432723209263
130
0.0
111
1.0
121
0.0
131
0.0
112
0.0
122
1.0
132
0.0
 79
     0
146
0.0
348
51BE
 60
     3
 61
     5
292
     1
282
     1
141
0.0
142
0.0
 63
   250
421
  3355443
1001
ACAD_NAV_VCDISPLAY
1070
     3
  0
ENDTAB
  0
TABLE
  2
LTYPE
  5
5
330
0
100
AcDbSymbolTable
 70
     3
  0
LTYPE
  5
14
330
5
100
AcDbSymbolTableRecord
100
AcDbLinetypeTableRecord
  2
ByBlock
 70
     0
  3

 72
    65
 73
     0
 40
0.0
  0
LTYPE
  5
15
330
5
100
AcDbSymbolTableRecord
100
AcDbLinetypeTableRecord
  2
ByLayer
 70
     0
  3

 72
    65
 73
     0
 40
0.0
  0
LTYPE
  5
16
330
5
100
AcDbSymbolTableRecord
100
AcDbLinetypeTableRecord
  2
Continuous
 70
     0
  3
Solid line
 72
    65
 73
     0
 40
0.0
  0
LTYPE
  5
2E41
330
5
100
AcDbSymbolTableRecord
100
AcDbLinetypeTableRecord
  2
CENTER
 70
     0
  3
Center ____ _ ____ _ ____ _ ____ _ ____ _ ____
 72
    65
 73
     4
 40
50.8
 49
31.75
 74
     0
 49
-6.349999999999999
 74
     0
 49
6.349999999999999
 74
     0
 49
-6.349999999999999
 74
     0
  0
ENDTAB
  0
TABLE
  2
LAYER
  5
2
330
0
100
AcDbSymbolTable
 70
     4
  0
LAYER
  5
10
102
{ACAD_XDICTIONARY
360
5204
102
}
330
2
100
AcDbSymbolTableRecord
100
AcDbLayerTableRecord
  2
0
 70
     0
 62
     7
  6
Continuous
370
    25
390
F
347
51B7
348
0
  0
LAYER
  5
84
102
{ACAD_XDICTIONARY
360
5206
102
}
330
2
100
AcDbSymbolTableRecord
100
AcDbLayerTableRecord
  2
base
 70
     0
 62
     4
  6
Continuous
370
    40
390
F
347
51B7
348
0
  0
LAYER
  5
1DA
330
2
100
AcDbSymbolTableRecord
100
AcDbLayerTableRecord
  2
Defpoints
 70
     0
 62
     7
  6
Continuous
290
     0
370
    -3
390
F
347
51B7
348
0
  0
LAYER
  5
2D93
102
{ACAD_XDICTIONARY
360
5208
102
}
330
2
100
AcDbSymbolTableRecord
100
AcDbLayerTableRecord
  2
DIM
 70
     0
 62
     7
  6
Continuous
370
     9
390
F
347
51B7
348
0
  0
ENDTAB
  0
TABLE
  2
STYLE
  5
3
330
0
100
AcDbSymbolTable
 70
     1
  0
STYLE
  5
11
330
3
100
AcDbSymbolTableRecord
100
AcDbTextStyleTableRecord
  2
Standard
 70
     0
 40
0.0
 41
1.0
 50
0.0
 71
     0
 42
2.5
  3
txt
  4

  0
ENDTAB
  0
TABLE
  2
VIEW
  5
6
330
0
100
AcDbSymbolTable
 70
     0
  0
ENDTAB
  0
TABLE
  2
UCS
  5
7
330
0
100
AcDbSymbolTable
 70
     0
  0
ENDTAB
  0
TABLE
  2
APPID
  5
9
330
0
100
AcDbSymbolTable
 70
     2
  0
APPID
  5
12
330
9
100
AcDbSymbolTableRecord
100
AcDbRegAppTableRecord
  2
ACAD
 70
     0
  0
APPID
  5
520A
330
9
100
AcDbSymbolTableRecord
100
AcDbRegAppTableRecord
  2
ACAD_NAV_VCDISPLAY
 70
     0
  0
ENDTAB
  0
TABLE
  2
DIMSTYLE
  5
A
330
0
100
AcDbSymbolTable
 70
     2
100
AcDbDimStyleTable
 71
     1
340
27
  0
DIMSTYLE
105
27
102
{ACAD_REACTORS
330
373E
330
35E9
330
3601
330
35D1
330
47D8
330
4800
330
4824
330
483C
330
4854
330
486C
330
490E
330
4983
102
}
330
A
100
AcDbSymbolTableRecord
100
AcDbDimStyleTableRecord
  2
ISO-25
 70
     0
 41
2.0
 42
1.0
 43
3.75
 44
1.25
 73
     0
 74
     0
 77
     1
 78
     8
140
3.0
141
2.5
143
0.03937007874016
147
5.0
171
     3
172
     1
271
     2
272
     2
274
     3
278
    44
283
     0
284
     8
340
11
  0
ENDTAB
  0
TABLE
  2
BLOCK_RECORD
  5
1
330
0
100
AcDbSymbolTable
 70
    14
  0
BLOCK_RECORD
  5
1F
330
1
100
AcDbSymbolTableRecord
100
AcDbBlockTableRecord
  2
*Model_Space
340
22
 70
     0
280
     1
281
     0
  0
BLOCK_RECORD
  5
50
330
1
100
AcDbSymbolTableRecord
100
AcDbBlockTableRecord
  2
*Paper_Space
340
51
 70
     0
280
     1
281
     0
  0
BLOCK_RECORD
  5
55
330
1
100
AcDbSymbolTableRecord
100
AcDbBlockTableRecord
  2
*Paper_Space0
340
56
 70
     0
280
     1
281
     0
  0
BLOCK_RECORD
  5
35D2
330
1
100
AcDbSymbolTableRecord
100
AcDbBlockTableRecord
  2
*D1
340
0
 70
     0
280
     1
281
     0
  0
BLOCK_RECORD
  5
35EA
330
1
100
AcDbSymbolTableRecord
100
AcDbBlockTableRecord
  2
*D2
340
0
 70
     0
280
     1
281
     0
  0
BLOCK_RECORD
  5
3602
330
1
100
AcDbSymbolTableRecord
100
AcDbBlockTableRecord
  2
*D3
340
0
 70
     0
280
     1
281
     0
  0
BLOCK_RECORD
  5
373F
330
1
100
AcDbSymbolTableRecord
100
AcDbBlockTableRecord
  2
*D4
340
0
 70
     0
280
     1
281
     0
  0
BLOCK_RECORD
  5
47D9
330
1
100
AcDbSymbolTableRecord
100
AcDbBlockTableRecord
  2
*D5
340
0
 70
     0
280
     1
281
     0
  0
BLOCK_RECORD
  5
4801
330
1
100
AcDbSymbolTableRecord
100
AcDbBlockTableRecord
  2
*D6
340
0
 70
     0
280
     1
281
     0
  0
BLOCK_RECORD
  5
4825
330
1
100
AcDbSymbolTableRecord
100
AcDbBlockTableRecord
  2
*D7
340
0
 70
     0
280
     1
281
     0
  0
BLOCK_RECORD
  5
483D
330
1
100
AcDbSymbolTableRecord
100
AcDbBlockTableRecord
  2
*D8
340
0
 70
     0
280
     1
281
     0
  0
BLOCK_RECORD
  5
4855
330
1
100
AcDbSymbolTableRecord
100
AcDbBlockTableRecord
  2
*D9
340
0
 70
     0
280
     1
281
     0
  0
BLOCK_RECORD
  5
486D
330
1
100
AcDbSymbolTableRecord
100
AcDbBlockTableRecord
  2
*D10
340
0
 70
     0
280
     1
281
     0
  0
BLOCK_RECORD
  5
490F
330
1
100
AcDbSymbolTableRecord
100
AcDbBlockTableRecord
  2
*D11
340
0
 70
     0
280
     1
281
     0
  0
BLOCK_RECORD
  5
4984
330
1
100
AcDbSymbolTableRecord
100
AcDbBlockTableRecord
  2
*D12
340
0
 70
     0
280
     1
281
     0
  0
ENDTAB
  0
ENDSEC
  0
SECTION
  2
BLOCKS
  0
BLOCK
  5
20
330
1F
100
AcDbEntity
  8
0
100
AcDbBlockBegin
  2
*Model_Space
 70
     0
 10
0.0
 20
0.0
 30
0.0
  3
*Model_Space
  1

  0
ENDBLK
  5
21
330
1F
100
AcDbEntity
  8
0
100
AcDbBlockEnd
  0
BLOCK
  5
52
330
50
100
AcDbEntity
 67
     1
  8
0
100
AcDbBlockBegin
  2
*Paper_Space
 70
     0
 10
0.0
 20
0.0
 30
0.0
  3
*Paper_Space
  1

  0
ENDBLK
  5
53
330
50
100
AcDbEntity
 67
     1
  8
0
100
AcDbBlockEnd
  0
BLOCK
  5
57
330
55
100
AcDbEntity
 67
     1
  8
0
100
AcDbBlockBegin
  2
*Paper_Space0
 70
     0
 10
0.0
 20
0.0
 30
0.0
  3
*Paper_Space0
  1

  0
ENDBLK
  5
58
330
55
100
AcDbEntity
 67
     1
  8
0
100
AcDbBlockEnd
  0
BLOCK
  5
35DC
330
35D2
100
AcDbEntity
  8
0
100
AcDbBlockBegin
  2
*D1
 70
     1
 10
0.0
 20
0.0
 30
0.0
  3
*D1
  1

  0
LINE
  5
41A5
330
35D2
100
AcDbEntity
  8
DIM
 62
     0
440
 16777216
370
    -2
100
AcDbLine
 10
34748.97405862224
 20
2940.099895380172
 30
0.0
 11
34748.97405862224
 21
2887.219869377674
 31
0.0
  0
LINE
  5
41A6
330
35D2
100
AcDbEntity
  8
DIM
 62
     0
440
 16777216
370
    -2
100
AcDbLine
 10
34924.97405862224
 20
2940.69989538017
 30
0.0
 11
34924.97405862224
 21
2887.219869377674
 31
0.0
  0
LINE
  5
41A7
330
35D2
100
AcDbEntity
  8
DIM
 62
     0
440
 16777216
370
    -2
100
AcDbLine
 10
34756.97405862224
 20
2888.469869377674
 30
0.0
 11
34916.97405862224
 21
2888.469869377674
 31
0.0
  0
SOLID
  5
41A8
330
35D2
100
AcDbEntity
  8
DIM
 62
     0
440
 16777216
100
AcDbTrace
 10
34756.97405862224
 20
2889.803202711008
 30
0.0
 11
34756.97405862224
 21
2887.13653604434
 31
0.0
 12
34748.97405862224
 22
2888.469869377674
 32
0.0
 13
34748.97405862224
 23
2888.469869377674
 33
0.0
  0
SOLID
  5
41A9
330
35D2
100
AcDbEntity
  8
DIM
 62
     0
440
 16777216
100
AcDbTrace
 10
34916.97405862224
 20
2889.803202711008
 30
0.0
 11
34916.97405862224
 21
2887.13653604434
 31
0.0
 12
34924.97405862224
 22
2888.469869377674
 32
0.0
 13
34924.97405862224
 23
2888.469869377674
 33
0.0
  0
MTEXT
  5
41AA
330
35D2
100
AcDbEntity
  8
DIM
 62
     0
440
 16777216
100
AcDbMText
 10
34836.97405862224
 20
2900.469869377674
 30
0.0
 40
18.0
 41
0.0
 46
0.0
 71
     5
 72
     1
  1
%%C88[3.46]
 73
     1
 44
1.0
  0
POINT
  5
41AB
330
35D2
100
AcDbEntity
  8
Defpoints
 62
     0
440
 16777216
100
AcDbPoint
 10
34748.97405862224
 20
2941.099895380171
 30
0.0
  0
POINT
  5
41AC
330
35D2
100
AcDbEntity
  8
Defpoints
 62
     0
440
 16777216
100
AcDbPoint
 10
34924.97405862224
 20
2941.69989538017
 30
0.0
  0
POINT
  5
41AD
330
35D2
100
AcDbEntity
  8
Defpoints
 62
     0
440
 16777216
100
AcDbPoint
 10
34924.97405862224
 20
2888.469869377674
 30
0.0
  0
ENDBLK
  5
35DD
330
35D2
100
AcDbEntity
  8
0
100
AcDbBlockEnd
  0
BLOCK
  5
35F4
330
35EA
100
AcDbEntity
  8
0
100
AcDbBlockBegin
  2
*D2
 70
     1
 10
0.0
 20
0.0
 30
0.0
  3
*D2
  1

  0
LINE
  5
4181
330
35EA
100
AcDbEntity
  8
DIM
 62
     0
440
 16777216
370
    -2
100
AcDbLine
 10
34723.08249206419
 20
2945.072235082489
 30
0.0
 11
34723.08249206419
 21
2983.768853451599
 31
0.0
  0
LINE
  5
4182
330
35EA
100
AcDbEntity
  8
DIM
 62
     0
440
 16777216
370
    -2
100
AcDbLine
 10
34950.884707664
 20
2945.099895380172
 30
0.0
 11
34950.884707664
 21
2983.768853451599
 31
0.0
  0
LINE
  5
4183
330
35EA
100
AcDbEntity
  8
DIM
 62
     0
440
 16777216
370
    -2
100
AcDbLine
 10
34731.08249206418
 20
2982.518853451598
 30
0.0
 11
34942.884707664
 21
2982.518853451598
 31
0.0
  0
SOLID
  5
4184
330
35EA
100
AcDbEntity
  8
DIM
 62
     0
440
 16777216
100
AcDbTrace
 10
34731.08249206418
 20
2983.852186784932
 30
0.0
 11
34731.08249206418
 21
2981.185520118265
 31
0.0
 12
34723.08249206419
 22
2982.518853451598
 32
0.0
 13
34723.08249206419
 23
2982.518853451598
 33
0.0
  0
SOLID
  5
4185
330
35EA
100
AcDbEntity
  8
DIM
 62
     0
440
 16777216
100
AcDbTrace
 10
34942.884707664
 20
2983.852186784932
 30
0.0
 11
34942.884707664
 21
2981.185520118265
 31
0.0
 12
34950.884707664
 22
2982.518853451598
 32
0.0
 13
34950.884707664
 23
2982.518853451598
 33
0.0
  0
MTEXT
  5
4186
330
35EA
100
AcDbEntity
  8
DIM
 62
     0
440
 16777216
100
AcDbMText
 10
34836.98359986409
 20
2994.518853451598
 30
0.0
 40
18.0
 41
0.0
 46
0.0
 71
     5
 72
     1
  1
%%C114[4.49]
 73
     1
 44
1.0
  0
POINT
  5
4187
330
35EA
100
AcDbEntity
  8
Defpoints
 62
     0
440
 16777216
100
AcDbPoint
 10
34723.08249206419
 20
2944.072235082489
 30
0.0
  0
POINT
  5
4188
330
35EA
100
AcDbEntity
  8
Defpoints
 62
     0
440
 16777216
100
AcDbPoint
 10
34950.884707664
 20
2944.099895380171
 30
0.0
  0
POINT
  5
4189
330
35EA
100
AcDbEntity
  8
Defpoints
 62
     0
440
 16777216
100
AcDbPoint
 10
34950.884707664
 20
2982.518853451598
 30
0.0
  0
ENDBLK
  5
35F5
330
35EA
100
AcDbEntity
  8
0
100
AcDbBlockEnd
  0
BLOCK
  5
360C
330
3602
100
AcDbEntity
  8
0
100
AcDbBlockBegin
  2
*D3
 70
     1
 10
0.0
 20
0.0
 30
0.0
  3
*D3
  1

  0
LINE
  5
419C
330
3602
100
AcDbEntity
  8
DIM
 62
     0
440
 16777216
370
    -2
100
AcDbLine
 10
34716.97405862224
 20
2947.698432473855
 30
0.0
 11
34716.97405862224
 21
2842.553109456261
 31
0.0
  0
LINE
  5
419D
330
3602
100
AcDbEntity
  8
DIM
 62
     0
440
 16777216
370
    -2
100
AcDbLine
 10
34956.97405862224
 20
2947.698432473855
 30
0.0
 11
34956.97405862224
 21
2842.553109456261
 31
0.0
  0
LINE
  5
419E
330
3602
100
AcDbEntity
  8
DIM
 62
     0
440
 16777216
370
    -2
100
AcDbLine
 10
34724.97405862224
 20
2843.803109456261
 30
0.0
 11
34948.97405862224
 21
2843.803109456261
 31
0.0
  0
SOLID
  5
419F
330
3602
100
AcDbEntity
  8
DIM
 62
     0
440
 16777216
100
AcDbTrace
 10
34724.97405862224
 20
2845.136442789595
 30
0.0
 11
34724.97405862224
 21
2842.469776122928
 31
0.0
 12
34716.97405862224
 22
2843.803109456261
 32
0.0
 13
34716.97405862224
 23
2843.803109456261
 33
0.0
  0
SOLID
  5
41A0
330
3602
100
AcDbEntity
  8
DIM
 62
     0
440
 16777216
100
AcDbTrace
 10
34948.97405862224
 20
2845.136442789595
 30
0.0
 11
34948.97405862224
 21
2842.469776122928
 31
0.0
 12
34956.97405862224
 22
2843.803109456261
 32
0.0
 13
34956.97405862224
 23
2843.803109456261
 33
0.0
  0
MTEXT
  5
41A1
330
3602
100
AcDbEntity
  8
DIM
 62
     0
440
 16777216
100
AcDbMText
 10
34836.97405862224
 20
2855.803109456261
 30
0.0
 40
18.0
 41
0.0
 46
0.0
 71
     5
 72
     1
  1
%%C120[4.72]
 73
     1
 44
1.0
  0
POINT
  5
41A2
330
3602
100
AcDbEntity
  8
Defpoints
 62
     0
440
 16777216
100
AcDbPoint
 10
34716.97405862224
 20
2948.698432473855
 30
0.0
  0
POINT
  5
41A3
330
3602
100
AcDbEntity
  8
Defpoints
 62
     0
440
 16777216
100
AcDbPoint
 10
34956.97405862224
 20
2948.698432473855
 30
0.0
  0
POINT
  5
41A4
330
3602
100
AcDbEntity
  8
Defpoints
 62
     0
440
 16777216
100
AcDbPoint
 10
34956.97405862224
 20
2843.803109456261
 30
0.0
  0
ENDBLK
  5
360D
330
3602
100
AcDbEntity
  8
0
100
AcDbBlockEnd
  0
BLOCK
  5
374B
330
373F
100
AcDbEntity
  8
0
100
AcDbBlockBegin
  2
*D4
 70
     1
 10
0.0
 20
0.0
 30
0.0
  3
*D4
  1

  0
LINE
  5
4176
330
373F
100
AcDbEntity
  8
DIM
 62
     0
440
 16777216
370
    -2
100
AcDbLine
 10
34925.97405862228
 20
2941.099895380171
 30
0.0
 11
35054.92098750075
 21
2941.099895380171
 31
0.0
  0
LINE
  5
4177
330
373F
100
AcDbEntity
  8
DIM
 62
     0
440
 16777216
370
    -2
100
AcDbLine
 10
34956.68280967275
 20
2951.05480397325
 30
0.0
 11
35054.92098750075
 21
2951.05480397325
 31
0.0
  0
LINE
  5
4178
330
373F
100
AcDbEntity
  8
DIM
 62
     0
440
 16777216
370
    -2
100
AcDbLine
 10
35053.67098750074
 20
2933.099895380172
 30
0.0
 11
35053.67098750074
 21
2925.099895380171
 31
0.0
  0
LINE
  5
4179
330
373F
100
AcDbEntity
  8
DIM
 62
     0
440
 16777216
370
    -2
100
AcDbLine
 10
35053.67098750074
 20
2959.05480397325
 30
0.0
 11
35053.67098750074
 21
3048.05480397325
 31
0.0
  0
LINE
  5
417A
330
373F
100
AcDbEntity
  8
DIM
 62
     0
440
 16777216
370
    -2
100
AcDbLine
 10
35053.67098750074
 20
2941.099895380171
 30
0.0
 11
35053.67098750074
 21
2951.05480397325
 31
0.0
  0
SOLID
  5
417B
330
373F
100
AcDbEntity
  8
DIM
 62
     0
440
 16777216
100
AcDbTrace
 10
35052.33765416741
 20
2933.099895380172
 30
0.0
 11
35055.00432083408
 21
2933.099895380172
 31
0.0
 12
35053.67098750074
 22
2941.099895380171
 32
0.0
 13
35053.67098750074
 23
2941.099895380171
 33
0.0
  0
SOLID
  5
417C
330
373F
100
AcDbEntity
  8
DIM
 62
     0
440
 16777216
100
AcDbTrace
 10
35052.33765416741
 20
2959.05480397325
 30
0.0
 11
35055.00432083408
 21
2959.05480397325
 31
0.0
 12
35053.67098750074
 22
2951.05480397325
 32
0.0
 13
35053.67098750074
 23
2951.05480397325
 33
0.0
  0
MTEXT
  5
417D
330
373F
100
AcDbEntity
  8
DIM
 62
     0
440
 16777216
100
AcDbMText
 10
35041.67098750075
 20
3007.554803973255
 30
0.0
 40
18.0
 41
0.0
 46
0.0
 71
     5
 72
     1
  1
5[0.2]
 11
0.0000000000000001
 21
1.0
 31
0.0
 73
     1
 44
1.0
  0
POINT
  5
417E
330
373F
100
AcDbEntity
  8
Defpoints
 62
     0
440
 16777216
100
AcDbPoint
 10
34924.97405862228
 20
2941.099895380171
 30
0.0
  0
POINT
  5
417F
330
373F
100
AcDbEntity
  8
Defpoints
 62
     0
440
 16777216
100
AcDbPoint
 10
34955.68280967276
 20
2951.05480397325
 30
0.0
  0
POINT
  5
4180
330
373F
100
AcDbEntity
  8
Defpoints
 62
     0
440
 16777216
100
AcDbPoint
 10
35053.67098750074
 20
2951.05480397325
 30
0.0
  0
ENDBLK
  5
374C
330
373F
100
AcDbEntity
  8
0
100
AcDbBlockEnd
  0
BLOCK
  5
47E3
330
47D9
100
AcDbEntity
  8
0
100
AcDbBlockBegin
  2
*D5
 70
     1
 10
0.0
 20
0.0
 30
0.0
  3
*D5
  1

  0
LINE
  5
493B
330
47D9
100
AcDbEntity
  8
DIM
 62
     0
440
 16777216
370
    -2
100
AcDbLine
 10
35006.88557112857
 20
4361.034381404825
 30
0.0
 11
35080.63337223105
 21
4361.034381404825
 31
0.0
  0
LINE
  5
493C
330
47D9
100
AcDbEntity
  8
DIM
 62
     0
440
 16777216
370
    -2
100
AcDbLine
 10
34869.88557112857
 20
4181.034381404824
 30
0.0
 11
35080.63337223105
 21
4181.034381404824
 31
0.0
  0
LINE
  5
493D
330
47D9
100
AcDbEntity
  8
DIM
 62
     0
440
 16777216
370
    -2
100
AcDbLine
 10
35079.38337223105
 20
4353.034381404824
 30
0.0
 11
35079.38337223105
 21
4189.034381404825
 31
0.0
  0
SOLID
  5
493E
330
47D9
100
AcDbEntity
  8
DIM
 62
     0
440
 16777216
100
AcDbTrace
 10
35078.05003889772
 20
4353.034381404824
 30
0.0
 11
35080.71670556439
 21
4353.034381404824
 31
0.0
 12
35079.38337223105
 22
4361.034381404825
 32
0.0
 13
35079.38337223105
 23
4361.034381404825
 33
0.0
  0
SOLID
  5
493F
330
47D9
100
AcDbEntity
  8
DIM
 62
     0
440
 16777216
100
AcDbTrace
 10
35078.05003889772
 20
4189.034381404825
 30
0.0
 11
35080.71670556439
 21
4189.034381404825
 31
0.0
 12
35079.38337223105
 22
4181.034381404824
 32
0.0
 13
35079.38337223105
 23
4181.034381404824
 33
0.0
  0
MTEXT
  5
4940
330
47D9
100
AcDbEntity
  8
DIM
 62
     0
440
 16777216
100
AcDbMText
 10
35065.88337223105
 20
4271.03438140483
 30
0.0
 40
18.0
 41
0.0
 46
0.0
 71
     5
 72
     1
  1
180 [7,09]
 11
0.0000000000000001
 21
1.0
 31
0.0
 73
     1
 44
1.0
  0
POINT
  5
4941
330
47D9
100
AcDbEntity
  8
Defpoints
 62
     0
440
 16777216
100
AcDbPoint
 10
35005.88557112857
 20
4361.034381404825
 30
0.0
  0
POINT
  5
4942
330
47D9
100
AcDbEntity
  8
Defpoints
 62
     0
440
 16777216
100
AcDbPoint
 10
34868.88557112858
 20
4181.034381404824
 30
0.0
  0
POINT
  5
4943
330
47D9
100
AcDbEntity
  8
Defpoints
 62
     0
440
 16777216
100
AcDbPoint
 10
35079.38337223105
 20
4181.034381404824
 30
0.0
  0
ENDBLK
  5
47E4
330
47D9
100
AcDbEntity
  8
0
100
AcDbBlockEnd
  0
BLOCK
  5
4811
330
4801
100
AcDbEntity
  8
0
100
AcDbBlockBegin
  2
*D6
 70
     1
 10
0.0
 20
0.0
 30
0.0
  3
*D6
  1

  0
LINE
  5
492C
330
4801
100
AcDbEntity
  8
DIM
 62
     0
440
 16777216
370
    -2
100
AcDbLine
 10
34869.88557112858
 20
4181.034381404826
 30
0.0
 11
35044.85688303729
 21
4181.034381404826
 31
0.0
  0
LINE
  5
492D
330
4801
100
AcDbEntity
  8
DIM
 62
     0
440
 16777216
370
    -2
100
AcDbLine
 10
34933.62993679073
 20
4183.295304474003
 30
0.0
 11
35044.74968606866
 21
4187.175691624517
 31
0.0
  0
ARC
  5
492E
330
4801
100
AcDbEntity
  8
DIM
 62
     0
440
 16777216
370
    -2
100
AcDbCircle
 10
34868.88557112854
 20
4181.034381404826
 30
0.0
 40
174.7213119087453
100
AcDbArc
 50
354.7513381083642
 51
0.0000000000000254
  0
LINE
  5
492F
330
4801
100
AcDbEntity
  8
DIM
 62
     0
440
 16777216
370
    -2
100
AcDbLine
 10
35042.87428780548
 20
4165.051161947334
 30
0.0
 11
35036.01341063935
 21
4090.365632127219
 31
0.0
  0
ARC
  5
4930
330
4801
100
AcDbEntity
  8
DIM
 62
     0
440
 16777216
370
    -2
100
AcDbCircle
 10
34868.88557112854
 20
4181.034381404826
 30
0.0
 40
174.7213119087453
100
AcDbArc
 50
354.7527147074384
 51
357.3763573537192
  0
ARC
  5
4931
330
4801
100
AcDbEntity
  8
DIM
 62
     0
440
 16777216
370
    -2
100
AcDbCircle
 10
34868.88557112854
 20
4181.034381404826
 30
0.0
 40
174.7213119087453
100
AcDbArc
 50
4.623642646280369
 51
7.247285292561168
  0
ARC
  5
4932
330
4801
100
AcDbEntity
  8
DIM
 62
     0
440
 16777216
370
    -2
100
AcDbCircle
 10
34868.88557112854
 20
4181.034381404826
 30
0.0
 40
174.7213119087453
100
AcDbArc
 50
0.0000000000000254
 51
1.999999999999557
  0
SOLID
  5
4933
330
4801
100
AcDbEntity
  8
DIM
 62
     0
440
 16777216
100
AcDbTrace
 10
35042.09075035311
 20
4173.067002948787
 30
0.0
 11
35044.75671810557
 21
4173.005953346136
 31
0.0
 12
35043.60688303729
 22
4181.034381404826
 32
0.0
 13
35043.60688303729
 23
4181.034381404826
 33
0.0
  0
SOLID
  5
4934
330
4801
100
AcDbEntity
  8
DIM
 62
     0
440
 16777216
100
AcDbTrace
 10
35044.36939405615
 20
4195.19573327605
 30
0.0
 11
35041.70718093962
 21
4195.041679930382
 31
0.0
 12
35043.50044753489
 22
4187.13206725364
 32
0.0
 13
35043.50044753489
 23
4187.13206725364
 33
0.0
  0
MTEXT
  5
4935
330
4801
100
AcDbEntity
  8
DIM
 62
     0
440
 16777216
100
AcDbMText
 10
35052.88724459004
 20
4126.473439147376
 30
0.0
 40
18.0
 41
0.0
 46
0.0
 71
     5
 72
     1
  1
2,00°
 11
-0.0914783622151272
 21
-0.9958070642681933
 31
0.0
 73
     1
 44
1.0
  0
POINT
  5
4936
330
4801
100
AcDbEntity
  8
Defpoints
 62
     0
440
 16777216
100
AcDbPoint
 10
35043.55957570096
 20
4185.099963989247
 30
0.0
  0
POINT
  5
4937
330
4801
100
AcDbEntity
  8
Defpoints
 62
     0
440
 16777216
100
AcDbPoint
 10
34748.88557112857
 20
4181.034381404826
 30
0.0
  0
POINT
  5
4938
330
4801
100
AcDbEntity
  8
Defpoints
 62
     0
440
 16777216
100
AcDbPoint
 10
34868.88557112854
 20
4181.034381404826
 30
0.0
  0
POINT
  5
4939
330
4801
100
AcDbEntity
  8
Defpoints
 62
     0
440
 16777216
100
AcDbPoint
 10
34932.63054596372
 20
4183.260404977301
 30
0.0
  0
POINT
  5
493A
330
4801
100
AcDbEntity
  8
Defpoints
 62
     0
440
 16777216
100
AcDbPoint
 10
34868.88557112858
 20
4181.034381404826
 30
0.0
  0
ENDBLK
  5
4812
330
4801
100
AcDbEntity
  8
0
100
AcDbBlockEnd
  0
BLOCK
  5
482F
330
4825
100
AcDbEntity
  8
0
100
AcDbBlockBegin
  2
*D7
 70
     1
 10
0.0
 20
0.0
 30
0.0
  3
*D7
  1

  0
LINE
  5
4832
330
4825
100
AcDbEntity
  8
DIM
 62
     0
440
 16777216
370
    -2
100
AcDbLine
 10
34611.88557112857
 20
3642.299851845434
 30
0.0
 11
34611.88557112857
 21
3875.868601004633
 31
0.0
  0
LINE
  5
4833
330
4825
100
AcDbEntity
  8
DIM
 62
     0
440
 16777216
370
    -2
100
AcDbLine
 10
35005.88557112857
 20
3642.299851845434
 30
0.0
 11
35005.88557112857
 21
3875.868601004633
 31
0.0
  0
LINE
  5
4834
330
4825
100
AcDbEntity
  8
DIM
 62
     0
440
 16777216
370
    -2
100
AcDbLine
 10
34619.88557112857
 20
3874.618601004633
 30
0.0
 11
34997.88557112857
 21
3874.618601004633
 31
0.0
  0
SOLID
  5
4835
330
4825
100
AcDbEntity
  8
DIM
 62
     0
440
 16777216
100
AcDbTrace
 10
34619.88557112857
 20
3875.951934337967
 30
0.0
 11
34619.88557112857
 21
3873.285267671299
 31
0.0
 12
34611.88557112857
 22
3874.618601004633
 32
0.0
 13
34611.88557112857
 23
3874.618601004633
 33
0.0
  0
SOLID
  5
4836
330
4825
100
AcDbEntity
  8
DIM
 62
     0
440
 16777216
100
AcDbTrace
 10
34997.88557112857
 20
3875.951934337967
 30
0.0
 11
34997.88557112857
 21
3873.285267671299
 31
0.0
 12
35005.88557112857
 22
3874.618601004633
 32
0.0
 13
35005.88557112857
 23
3874.618601004633
 33
0.0
  0
MTEXT
  5
4837
330
4825
100
AcDbEntity
  8
DIM
 62
     0
440
 16777216
100
AcDbMText
 10
34808.88557112857
 20
3888.118601004634
 30
0.0
 40
18.0
 41
0.0
 46
0.0
 71
     5
 72
     1
  1
394 [15,51]
 73
     1
 44
1.0
  0
POINT
  5
4838
330
4825
100
AcDbEntity
  8
Defpoints
 62
     0
440
 16777216
100
AcDbPoint
 10
34611.88557112857
 20
3641.299851845434
 30
0.0
  0
POINT
  5
4839
330
4825
100
AcDbEntity
  8
Defpoints
 62
     0
440
 16777216
100
AcDbPoint
 10
35005.88557112857
 20
3641.299851845434
 30
0.0
  0
POINT
  5
483A
330
4825
100
AcDbEntity
  8
Defpoints
 62
     0
440
 16777216
100
AcDbPoint
 10
35005.88557112857
 20
3874.618601004633
 30
0.0
  0
ENDBLK
  5
4830
330
4825
100
AcDbEntity
  8
0
100
AcDbBlockEnd
  0
BLOCK
  5
4847
330
483D
100
AcDbEntity
  8
0
100
AcDbBlockBegin
  2
*D8
 70
     1
 10
0.0
 20
0.0
 30
0.0
  3
*D8
  1

  0
LINE
  5
484A
330
483D
100
AcDbEntity
  8
DIM
 62
     0
440
 16777216
370
    -2
100
AcDbLine
 10
34636.88557112857
 20
3523.299851845433
 30
0.0
 11
34636.88557112857
 21
3815.948143381397
 31
0.0
  0
LINE
  5
484B
330
483D
100
AcDbEntity
  8
DIM
 62
     0
440
 16777216
370
    -2
100
AcDbLine
 10
34980.88557112857
 20
3523.299851845433
 30
0.0
 11
34980.88557112857
 21
3815.948143381397
 31
0.0
  0
LINE
  5
484C
330
483D
100
AcDbEntity
  8
DIM
 62
     0
440
 16777216
370
    -2
100
AcDbLine
 10
34644.88557112857
 20
3814.698143381396
 30
0.0
 11
34972.88557112857
 21
3814.698143381396
 31
0.0
  0
SOLID
  5
484D
330
483D
100
AcDbEntity
  8
DIM
 62
     0
440
 16777216
100
AcDbTrace
 10
34644.88557112857
 20
3816.03147671473
 30
0.0
 11
34644.88557112857
 21
3813.364810048063
 31
0.0
 12
34636.88557112857
 22
3814.698143381396
 32
0.0
 13
34636.88557112857
 23
3814.698143381396
 33
0.0
  0
SOLID
  5
484E
330
483D
100
AcDbEntity
  8
DIM
 62
     0
440
 16777216
100
AcDbTrace
 10
34972.88557112857
 20
3816.03147671473
 30
0.0
 11
34972.88557112857
 21
3813.364810048063
 31
0.0
 12
34980.88557112857
 22
3814.698143381396
 32
0.0
 13
34980.88557112857
 23
3814.698143381396
 33
0.0
  0
MTEXT
  5
484F
330
483D
100
AcDbEntity
  8
DIM
 62
     0
440
 16777216
100
AcDbMText
 10
34808.88557112857
 20
3828.198143381396
 30
0.0
 40
18.0
 41
0.0
 46
0.0
 71
     5
 72
     1
  1
344 [13,54]
 73
     1
 44
1.0
  0
POINT
  5
4850
330
483D
100
AcDbEntity
  8
Defpoints
 62
     0
440
 16777216
100
AcDbPoint
 10
34636.88557112857
 20
3522.299851845434
 30
0.0
  0
POINT
  5
4851
330
483D
100
AcDbEntity
  8
Defpoints
 62
     0
440
 16777216
100
AcDbPoint
 10
34980.88557112857
 20
3522.299851845434
 30
0.0
  0
POINT
  5
4852
330
483D
100
AcDbEntity
  8
Defpoints
 62
     0
440
 16777216
100
AcDbPoint
 10
34980.88557112857
 20
3814.698143381396
 30
0.0
  0
ENDBLK
  5
4848
330
483D
100
AcDbEntity
  8
0
100
AcDbBlockEnd
  0
BLOCK
  5
485F
330
4855
100
AcDbEntity
  8
0
100
AcDbBlockBegin
  2
*D9
 70
     1
 10
0.0
 20
0.0
 30
0.0
  3
*D9
  1

  0
LINE
  5
4862
330
4855
100
AcDbEntity
  8
DIM
 62
     0
440
 16777216
370
    -2
100
AcDbLine
 10
34900.88557112857
 20
3747.299851845433
 30
0.0
 11
35185.28446939547
 21
3747.299851845433
 31
0.0
  0
LINE
  5
4863
330
4855
100
AcDbEntity
  8
DIM
 62
     0
440
 16777216
370
    -2
100
AcDbLine
 10
34900.88557112857
 20
3297.299851845425
 30
0.0
 11
35185.28446939547
 21
3297.299851845425
 31
0.0
  0
LINE
  5
4864
330
4855
100
AcDbEntity
  8
DIM
 62
     0
440
 16777216
370
    -2
100
AcDbLine
 10
35184.03446939547
 20
3739.299851845434
 30
0.0
 11
35184.03446939547
 21
3305.299851845425
 31
0.0
  0
SOLID
  5
4865
330
4855
100
AcDbEntity
  8
DIM
 62
     0
440
 16777216
100
AcDbTrace
 10
35182.70113606214
 20
3739.299851845434
 30
0.0
 11
35185.36780272881
 21
3739.299851845434
 31
0.0
 12
35184.03446939547
 22
3747.299851845433
 32
0.0
 13
35184.03446939547
 23
3747.299851845433
 33
0.0
  0
SOLID
  5
4866
330
4855
100
AcDbEntity
  8
DIM
 62
     0
440
 16777216
100
AcDbTrace
 10
35182.70113606214
 20
3305.299851845425
 30
0.0
 11
35185.36780272881
 21
3305.299851845425
 31
0.0
 12
35184.03446939547
 22
3297.299851845425
 32
0.0
 13
35184.03446939547
 23
3297.299851845425
 33
0.0
  0
MTEXT
  5
4867
330
4855
100
AcDbEntity
  8
DIM
 62
     0
440
 16777216
100
AcDbMText
 10
35170.53446939547
 20
3522.299851845435
 30
0.0
 40
18.0
 41
0.0
 46
0.0
 71
     5
 72
     1
  1
450 [17,72]
 11
0.0000000000000001
 21
1.0
 31
0.0
 73
     1
 44
1.0
  0
POINT
  5
4868
330
4855
100
AcDbEntity
  8
Defpoints
 62
     0
440
 16777216
100
AcDbPoint
 10
34899.88557112857
 20
3747.299851845433
 30
0.0
  0
POINT
  5
4869
330
4855
100
AcDbEntity
  8
Defpoints
 62
     0
440
 16777216
100
AcDbPoint
 10
34899.88557112857
 20
3297.299851845425
 30
0.0
  0
POINT
  5
486A
330
4855
100
AcDbEntity
  8
Defpoints
 62
     0
440
 16777216
100
AcDbPoint
 10
35184.03446939547
 20
3297.299851845425
 30
0.0
  0
ENDBLK
  5
4860
330
4855
100
AcDbEntity
  8
0
100
AcDbBlockEnd
  0
BLOCK
  5
4877
330
486D
100
AcDbEntity
  8
0
100
AcDbBlockBegin
  2
*D10
 70
     1
 10
0.0
 20
0.0
 30
0.0
  3
*D10
  1

  0
LINE
  5
487A
330
486D
100
AcDbEntity
  8
DIM
 62
     0
440
 16777216
370
    -2
100
AcDbLine
 10
34809.88557112858
 20
3722.299851845433
 30
0.0
 11
35126.94361995561
 21
3722.299851845433
 31
0.0
  0
LINE
  5
487B
330
486D
100
AcDbEntity
  8
DIM
 62
     0
440
 16777216
370
    -2
100
AcDbLine
 10
34809.88557112858
 20
3322.299851845433
 30
0.0
 11
35126.94361995561
 21
3322.299851845433
 31
0.0
  0
LINE
  5
487C
330
486D
100
AcDbEntity
  8
DIM
 62
     0
440
 16777216
370
    -2
100
AcDbLine
 10
35125.69361995561
 20
3714.299851845434
 30
0.0
 11
35125.69361995561
 21
3330.299851845433
 31
0.0
  0
SOLID
  5
487D
330
486D
100
AcDbEntity
  8
DIM
 62
     0
440
 16777216
100
AcDbTrace
 10
35124.36028662227
 20
3714.299851845434
 30
0.0
 11
35127.02695328894
 21
3714.299851845434
 31
0.0
 12
35125.69361995561
 22
3722.299851845433
 32
0.0
 13
35125.69361995561
 23
3722.299851845433
 33
0.0
  0
SOLID
  5
487E
330
486D
100
AcDbEntity
  8
DIM
 62
     0
440
 16777216
100
AcDbTrace
 10
35124.36028662227
 20
3330.299851845433
 30
0.0
 11
35127.02695328894
 21
3330.299851845433
 31
0.0
 12
35125.69361995561
 22
3322.299851845433
 32
0.0
 13
35125.69361995561
 23
3322.299851845433
 33
0.0
  0
MTEXT
  5
487F
330
486D
100
AcDbEntity
  8
DIM
 62
     0
440
 16777216
100
AcDbMText
 10
35112.19361995561
 20
3522.299851845439
 30
0.0
 40
18.0
 41
0.0
 46
0.0
 71
     5
 72
     1
  1
400 [15,75]
 11
0.0000000000000001
 21
1.0
 31
0.0
 73
     1
 44
1.0
  0
POINT
  5
4880
330
486D
100
AcDbEntity
  8
Defpoints
 62
     0
440
 16777216
100
AcDbPoint
 10
34808.88557112857
 20
3722.299851845433
 30
0.0
  0
POINT
  5
4881
330
486D
100
AcDbEntity
  8
Defpoints
 62
     0
440
 16777216
100
AcDbPoint
 10
34808.88557112857
 20
3322.299851845433
 30
0.0
  0
POINT
  5
4882
330
486D
100
AcDbEntity
  8
Defpoints
 62
     0
440
 16777216
100
AcDbPoint
 10
35125.69361995561
 20
3322.299851845433
 30
0.0
  0
ENDBLK
  5
4878
330
486D
100
AcDbEntity
  8
0
100
AcDbBlockEnd
  0
BLOCK
  5
4916
330
490F
100
AcDbEntity
  8
0
100
AcDbBlockBegin
  2
*D11
 70
     1
 10
0.0
 20
0.0
 30
0.0
  3
*D11
  1

  0
LINE
  5
4926
330
490F
100
AcDbEntity
  8
DIM
 62
     0
440
 16777216
370
    -2
100
AcDbLine
 10
34498.39261712554
 20
3146.265139903583
 30
0.0
 11
34643.85540321039
 21
3316.60767089462
 31
0.0
  0
MTEXT
  5
4927
330
490F
100
AcDbEntity
  8
DIM
 62
     0
440
 16777216
100
AcDbMText
 10
34558.26028109333
 20
3237.161304899906
 30
0.0
 40
18.0
 41
0.0
 46
0.0
 71
     5
 72
     1
  1
4-R106 [R4,17]
 11
0.6493874378788149
 21
0.7604577276385509
 31
0.0
 73
     1
 44
1.0
  0
LINE
  5
4928
330
490F
100
AcDbEntity
  8
DIM
 62
     0
440
 16777216
370
    -2
100
AcDbLine
 10
34717.88557112859
 20
3403.299851845428
 30
0.0
 11
34649.05050271342
 21
3322.691332715727
 31
0.0
  0
SOLID
  5
4929
330
490F
100
AcDbEntity
  8
DIM
 62
     0
440
 16777216
100
AcDbTrace
 10
34642.84145957354
 20
3317.473520811791
 30
0.0
 11
34644.86934684724
 21
3315.74182097745
 31
0.0
 12
34649.05050271342
 22
3322.691332715727
 32
0.0
 13
34649.05050271342
 23
3322.691332715727
 33
0.0
  0
POINT
  5
492A
330
490F
100
AcDbEntity
  8
Defpoints
 62
     0
440
 16777216
100
AcDbPoint
 10
34649.05050271342
 20
3322.691332715727
 30
0.0
  0
POINT
  5
492B
330
490F
100
AcDbEntity
  8
Defpoints
 62
     0
440
 16777216
100
AcDbPoint
 10
34717.88557112859
 20
3403.299851845428
 30
0.0
  0
ENDBLK
  5
4917
330
490F
100
AcDbEntity
  8
0
100
AcDbBlockEnd
  0
BLOCK
  5
498A
330
4984
100
AcDbEntity
  8
0
100
AcDbBlockBegin
  2
*D12
 70
     1
 10
0.0
 20
0.0
 30
0.0
  3
*D12
  1

  0
LINE
  5
498D
330
4984
100
AcDbEntity
  8
DIM
 62
     0
440
 16777216
370
    -2
100
AcDbLine
 10
34779.84125423752
 20
4329.7454423781
 30
0.0
 11
34657.75020776607
 21
4202.978820700688
 31
0.0
  0
MTEXT
  5
498E
330
4984
100
AcDbEntity
  8
DIM
 62
     0
440
 16777216
100
AcDbMText
 10
34711.84695141794
 20
4278.608129346638
 30
0.0
 40
18.0
 41
0.0
 46
0.0
 71
     5
 72
     1
  1
R50 [R1,97]
 11
0.6936991276787337
 21
0.7202648958943953
 31
0.0
 73
     1
 44
1.0
  0
SOLID
  5
498F
330
4984
100
AcDbEntity
  8
DIM
 62
     0
440
 16777216
100
AcDbTrace
 10
34656.78985457155
 20
4203.903752870925
 30
0.0
 11
34658.71056096059
 21
4202.05388853045
 31
0.0
 12
34652.20061474464
 22
4197.216701533534
 32
0.0
 13
34652.20061474464
 23
4197.216701533534
 33
0.0
  0
POINT
  5
4990
330
4984
100
AcDbEntity
  8
Defpoints
 62
     0
440
 16777216
100
AcDbPoint
 10
34652.20061474464
 20
4197.216701533534
 30
0.0
  0
POINT
  5
4991
330
4984
100
AcDbEntity
  8
Defpoints
 62
     0
440
 16777216
100
AcDbPoint
 10
34686.88557112857
 20
4233.229946328252
 30
0.0
  0
ENDBLK
  5
498B
330
4984
100
AcDbEntity
  8
0
100
AcDbBlockEnd
  0
ENDSEC
  0
SECTION
  2
ENTITIES
  0
LINE
  5
35C2
330
1F
100
AcDbEntity
  8
base
370
     9
100
AcDbLine
 10
34956.97405862224
 20
2951.099895380171
 30
0.0
 11
34716.97405862224
 21
2951.099895380171
 31
0.0
  0
LINE
  5
35C3
330
1F
100
AcDbEntity
  8
base
100
AcDbLine
 10
34955.68280967276
 20
2951.05480397325
 30
0.0
 11
35027.02331474255
 21
2953.546069306217
 31
0.0
  0
LINE
  5
35C4
102
{ACAD_REACTORS
330
3618
102
}
330
1F
100
AcDbEntity
  8
base
100
AcDbLine
 10
34956.97405862224
 20
2948.698432473855
 30
0.0
 11
35027.02331474256
 21
2951.144606399901
 31
0.0
  0
LINE
  5
35CB
102
{ACAD_REACTORS
330
3600
102
}
330
1F
100
AcDbEntity
  8
base
100
AcDbLine
 10
34718.23419958991
 20
2951.099895380171
 30
0.0
 11
34723.08249206419
 21
2944.072235082489
 31
0.0
  0
LINE
  5
35CC
330
1F
100
AcDbEntity
  8
base
100
AcDbLine
 10
34716.97524380175
 20
2948.698391086472
 30
0.0
 11
34721.80341599941
 21
2941.699895380171
 31
0.0
  0
LINE
  5
35CD
102
{ACAD_REACTORS
330
3618
102
}
330
1F
100
AcDbEntity
  8
base
100
AcDbLine
 10
34716.97405862224
 20
2948.698432473855
 30
0.0
 11
34646.92480250193
 21
2951.1446063999
 31
0.0
  0
LINE
  5
35CE
330
1F
100
AcDbEntity
  8
base
100
AcDbLine
 10
34716.97405862224
 20
2951.099895380171
 30
0.0
 11
34646.92480250193
 21
2953.546069306217
 31
0.0
  0
LINE
  5
35CF
330
1F
100
AcDbEntity
  8
base
100
AcDbLine
 10
34646.92480250193
 20
2953.546069306217
 30
0.0
 11
34646.92480250193
 21
2951.1446063999
 31
0.0
  0
LINE
  5
35D0
330
1F
100
AcDbEntity
  8
base
100
AcDbLine
 10
35027.02331474255
 20
2953.546069306217
 30
0.0
 11
35027.02331474255
 21
2951.1446063999
 31
0.0
  0
DIMENSION
  5
35D1
330
1F
100
AcDbEntity
  8
DIM
100
AcDbDimension
280
     0
  2
*D1
 10
34924.97405862224
 20
2888.469869377674
 30
0.0
 11
34836.97405862224
 21
2900.469869377674
 31
0.0
 70
    32
  1
%%C88[3.46]
 71
     5
 42
176.0
 73
     0
 74
     0
 75
     0
  3
ISO-25
100
AcDbAlignedDimension
 13
34748.97405862224
 23
2941.099895380171
 33
0.0
 14
34924.97405862224
 24
2941.69989538017
 34
0.0
100
AcDbRotatedDimension
1001
ACAD
1000
DSTYLE
1002
{
1070
    41
1040
8.0
1070
   140
1040
18.0
1070
   141
1040
0.5
1070
   143
1040
0.03937007874
1070
   147
1040
3.0
1070
   170
1070
     1
1070
   171
1070
     2
1070
   179
1070
     2
1070
   274
1070
     2
1002
}
  0
DIMENSION
  5
35E9
102
{ACAD_XDICTIONARY
360
35F6
102
}
102
{ACAD_REACTORS
330
3600
102
}
330
1F
100
AcDbEntity
  8
DIM
100
AcDbDimension
280
     0
  2
*D2
 10
34950.884707664
 20
2982.518853451598
 30
0.0
 11
34836.98359986409
 21
2994.518853451598
 31
0.0
 70
    32
  1
%%C114[4.49]
 71
     5
 42
227.8022155998187
 73
     0
 74
     0
 75
     0
  3
ISO-25
100
AcDbAlignedDimension
 13
34723.08249206419
 23
2944.072235082489
 33
0.0
 14
34950.884707664
 24
2944.099895380171
 34
0.0
100
AcDbRotatedDimension
1001
ACAD
1000
DSTYLE
1002
{
1070
    41
1040
8.0
1070
   140
1040
18.0
1070
   141
1040
0.5
1070
   143
1040
0.03937007874
1070
   147
1040
3.0
1070
   170
1070
     1
1070
   171
1070
     2
1070
   179
1070
     2
1070
   274
1070
     2
1002
}
  0
DIMENSION
  5
3601
102
{ACAD_XDICTIONARY
360
360E
102
}
102
{ACAD_REACTORS
330
3618
102
}
330
1F
100
AcDbEntity
  8
DIM
100
AcDbDimension
280
     0
  2
*D3
 10
34956.97405862224
 20
2843.803109456261
 30
0.0
 11
34836.97405862224
 21
2855.803109456261
 31
0.0
 70
    32
  1
%%C120[4.72]
 71
     5
 42
240.0
 73
     0
 74
     0
 75
     0
  3
ISO-25
100
AcDbAlignedDimension
 13
34716.97405862224
 23
2948.698432473855
 33
0.0
 14
34956.97405862224
 24
2948.698432473855
 34
0.0
100
AcDbRotatedDimension
1001
ACAD
1000
DSTYLE
1002
{
1070
    41
1040
8.0
1070
   140
1040
18.0
1070
   141
1040
0.5
1070
   143
1040
0.03937007874
1070
   147
1040
3.0
1070
   170
1070
     1
1070
   171
1070
     2
1070
   179
1070
     2
1070
   274
1070
     2
1002
}
  0
POINT
  5
36A0
330
1F
100
AcDbEntity
  8
0
 48
3.0
370
     5
100
AcDbPoint
 10
35554.20041399084
 20
4668.13199531414
 30
0.0
  0
LINE
  5
3715
102
{ACAD_REACTORS
330
3759
102
}
330
1F
100
AcDbEntity
  8
base
370
     9
100
AcDbLine
 10
34924.97405862228
 20
2941.099895380171
 30
0.0
 11
34748.97405862222
 21
2941.099895380172
 31
0.0
  0
LINE
  5
371F
330
1F
100
AcDbEntity
  8
base
100
AcDbLine
 10
34748.97405862224
 20
2941.099895380171
 30
0.0
 11
34721.80341599941
 21
2941.699895380171
 31
0.0
  0
LINE
  5
3720
330
1F
100
AcDbEntity
  8
base
100
AcDbLine
 10
34749.02704408323
 20
2943.499310421577
 30
0.0
 11
34723.08249206419
 21
2944.072235082489
 31
0.0
  0
LINE
  5
372A
330
1F
100
AcDbEntity
  8
base
100
AcDbLine
 10
34748.97405862224
 20
2941.099895380171
 30
0.0
 11
34749.02704408322
 21
2943.499310421577
 31
0.0
  0
LINE
  5
3739
330
1F
100
AcDbEntity
  8
base
100
AcDbLine
 10
34924.97405862225
 20
2941.099895380171
 30
0.0
 11
34924.92107316127
 21
2943.499310421577
 31
0.0
  0
LINE
  5
373A
330
1F
100
AcDbEntity
  8
base
100
AcDbLine
 10
34924.92107316126
 20
2943.499310421577
 30
0.0
 11
34950.8656251803
 21
2944.072235082489
 31
0.0
  0
LINE
  5
373B
330
1F
100
AcDbEntity
  8
base
100
AcDbLine
 10
34924.97405862228
 20
2941.099895380171
 30
0.0
 11
34952.14470124508
 21
2941.699895380171
 31
0.0
  0
LINE
  5
373C
330
1F
100
AcDbEntity
  8
base
100
AcDbLine
 10
34956.97287344273
 20
2948.698391086472
 30
0.0
 11
34952.14470124508
 21
2941.699895380171
 31
0.0
  0
LINE
  5
373D
102
{ACAD_REACTORS
330
3759
102
}
330
1F
100
AcDbEntity
  8
base
100
AcDbLine
 10
34955.68280967276
 20
2951.05480397325
 30
0.0
 11
34950.8656251803
 21
2944.072235082489
 31
0.0
  0
DIMENSION
  5
373E
102
{ACAD_XDICTIONARY
360
374D
102
}
102
{ACAD_REACTORS
330
3759
102
}
330
1F
100
AcDbEntity
  8
DIM
100
AcDbDimension
280
     0
  2
*D4
 10
35053.67098750074
 20
2951.05480397325
 30
0.0
 11
35041.67098750075
 21
3007.554803973255
 31
0.0
 70
    32
  1
5[0.2]
 71
     5
 42
9.954908593078471
 73
     0
 74
     0
 75
     0
  3
ISO-25
100
AcDbAlignedDimension
 13
34924.97405862228
 23
2941.099895380171
 33
0.0
 14
34955.68280967276
 24
2951.05480397325
 34
0.0
 50
90.0
100
AcDbRotatedDimension
1001
ACAD
1000
DSTYLE
1002
{
1070
    41
1040
8.0
1070
   140
1040
18.0
1070
   141
1040
0.5
1070
   143
1040
0.03937007874
1070
   147
1040
3.0
1070
   170
1070
     1
1070
   171
1070
     2
1070
   179
1070
     2
1070
   274
1070
     2
1002
}
  0
LINE
  5
379B
330
1F
100
AcDbEntity
  8
DIM
  6
CENTER
100
AcDbLine
 10
34836.97405862224
 20
2968.165642489963
 30
0.0
 11
34836.97405862224
 21
2926.925239996428
 31
0.0
  0
LINE
  5
37C6
330
1F
100
AcDbEntity
  8
base
100
AcDbLine
 10
34749.02704408322
 20
2943.499310421577
 30
0.0
 11
34924.92107316127
 21
2943.499310421577
 31
0.0
  0
LINE
  5
4790
330
1F
100
AcDbEntity
  8
base
100
AcDbLine
 10
34611.88557112857
 20
3641.299851845434
 30
0.0
 11
34611.88557112857
 21
3403.299851845434
 31
0.0
  0
LINE
  5
4791
102
{ACAD_REACTORS
330
486B
102
}
330
1F
100
AcDbEntity
  8
base
100
AcDbLine
 10
34717.88557112857
 20
3747.299851845433
 30
0.0
 11
34899.88557112857
 21
3747.299851845433
 31
0.0
  0
LINE
  5
4792
102
{ACAD_REACTORS
330
483B
102
}
330
1F
100
AcDbEntity
  8
base
100
AcDbLine
 10
35005.88557112857
 20
3403.299851845434
 30
0.0
 11
35005.88557112857
 21
3641.299851845434
 31
0.0
  0
LINE
  5
4793
330
1F
100
AcDbEntity
  8
base
100
AcDbLine
 10
34717.88557112857
 20
3297.299851845433
 30
0.0
 11
34899.88557112857
 21
3297.299851845433
 31
0.0
  0
ARC
  5
4794
102
{ACAD_REACTORS
330
483B
102
}
330
1F
100
AcDbEntity
  8
base
100
AcDbCircle
 10
34717.88557112857
 20
3641.299851845437
 30
0.0
 40
106.0
100
AcDbArc
 50
89.99999999999607
 51
180.0000000000017
  0
ARC
  5
4795
102
{ACAD_REACTORS
330
491F
102
}
330
1F
100
AcDbEntity
  8
base
100
AcDbCircle
 10
34717.88557112857
 20
3403.299851845432
 30
0.0
 40
106.0
100
AcDbArc
 50
179.9999999999988
 51
270.0000000000039
  0
ARC
  5
4796
102
{ACAD_REACTORS
330
486B
102
}
330
1F
100
AcDbEntity
  8
base
100
AcDbCircle
 10
34899.88557112858
 20
3403.299851845425
 30
0.0
 40
106.0
100
AcDbArc
 50
269.9999999999961
 51
0.0000000000046703
  0
ARC
  5
4797
330
1F
100
AcDbEntity
  8
base
100
AcDbCircle
 10
34899.88557112858
 20
3641.299851845442
 30
0.0
 40
106.0
100
AcDbArc
 50
359.9999999999956
 51
90.00000000000394
  0
LINE
  5
479C
102
{ACAD_REACTORS
330
4853
102
}
330
1F
100
AcDbEntity
  8
DIM
  6
CENTER
100
AcDbLine
 10
35005.88557112857
 20
3522.299851845434
 30
0.0
 11
34611.88557112857
 21
3522.299851845434
 31
0.0
  0
LINE
  5
479D
330
1F
100
AcDbEntity
  8
DIM
  6
CENTER
100
AcDbLine
 10
34808.88557112857
 20
3747.299851845433
 30
0.0
 11
34808.88557112857
 21
3297.299851845433
 31
0.0
  0
ARC
  5
479F
102
{ACAD_REACTORS
330
4853
102
}
330
1F
100
AcDbEntity
  8
base
100
AcDbCircle
 10
37736.88557112857
 20
3522.299851845434
 30
0.0
 40
3100.0
100
AcDbArc
 50
177.7480274501415
 51
182.2519725498584
  0
ARC
  5
47A0
102
{ACAD_REACTORS
330
4853
102
}
330
1F
100
AcDbEntity
  8
base
100
AcDbCircle
 10
31880.88557112857
 20
3522.299851845434
 30
0.0
 40
3100.0
100
AcDbArc
 50
357.7480274501415
 51
2.251972549858429
  0
ARC
  5
47A3
102
{ACAD_REACTORS
330
4883
102
}
330
1F
100
AcDbEntity
  8
base
100
AcDbCircle
 10
34808.88557112857
 20
6422.299851845433
 30
0.0
 40
3100.0
100
AcDbArc
 50
268.2985660510655
 51
271.7014339489345
  0
ARC
  5
47A4
102
{ACAD_REACTORS
330
4883
102
}
330
1F
100
AcDbEntity
  8
base
100
AcDbCircle
 10
34808.88557112857
 20
622.2998518454333
 30
0.0
 40
3100.0
100
AcDbArc
 50
88.29856605106542
 51
91.70143394893457
  0
ARC
  5
47A5
330
1F
100
AcDbEntity
  8
base
100
AcDbCircle
 10
34719.21796535298
 20
3640.96838622851
 30
0.0
 40
80.0
100
AcDbArc
 50
91.70143394893562
 51
177.7480274501411
  0
ARC
  5
47A6
330
1F
100
AcDbEntity
  8
base
100
AcDbCircle
 10
34898.55317690417
 20
3640.96838622851
 30
0.0
 40
80.0
100
AcDbArc
 50
2.251972549858212
 51
88.29856605106437
  0
ARC
  5
47A7
330
1F
100
AcDbEntity
  8
base
100
AcDbCircle
 10
34898.55317690417
 20
3403.631317462356
 30
0.0
 40
80.0
100
AcDbArc
 50
271.7014339489356
 51
357.7480274501411
  0
ARC
  5
47A8
330
1F
100
AcDbEntity
  8
base
100
AcDbCircle
 10
34719.21796535298
 20
3403.631317462357
 30
0.0
 40
80.0
100
AcDbArc
 50
182.2519725498582
 51
268.2985660510644
  0
CIRCLE
  5
47A9
330
1F
100
AcDbEntity
  8
base
100
AcDbCircle
 10
34808.88557112857
 20
3602.299851845432
 30
0.0
 40
44.0
  0
CIRCLE
  5
47AA
330
1F
100
AcDbEntity
  8
base
100
AcDbCircle
 10
34808.88557112857
 20
3602.299851845432
 30
0.0
 40
57.0
  0
CIRCLE
  5
47AB
330
1F
100
AcDbEntity
  8
base
100
AcDbCircle
 10
34808.88557112857
 20
3602.299851845432
 30
0.0
 40
60.0
  0
LINE
  5
47AD
330
1F
100
AcDbEntity
  8
DIM
  6
CENTER
100
AcDbLine
 10
34885.41934147443
 20
3602.299851845432
 30
0.0
 11
34732.35180078273
 21
3602.299851845432
 31
0.0
  0
LINE
  5
47B0
330
1F
100
AcDbEntity
  8
base
100
AcDbLine
 10
34611.88557112857
 20
4361.034381404825
 30
0.0
 11
34611.88557112857
 21
4359.834381404825
 31
0.0
  0
LINE
  5
47B1
330
1F
100
AcDbEntity
  8
base
100
AcDbLine
 10
35005.88557112857
 20
4361.034381404825
 30
0.0
 11
35005.88557112857
 21
4359.834381404825
 31
0.0
  0
LINE
  5
47B2
330
1F
100
AcDbEntity
  8
base
100
AcDbLine
 10
34636.88557112857
 20
4233.229946328256
 30
0.0
 11
34636.88557112857
 21
4355.834381404824
 31
0.0
  0
LINE
  5
47B3
330
1F
100
AcDbEntity
  8
base
100
AcDbLine
 10
34980.88557112857
 20
4233.229946328254
 30
0.0
 11
34980.88557112857
 21
4355.834381404824
 31
0.0
  0
LINE
  5
47B4
102
{ACAD_REACTORS
330
47EF
102
}
330
1F
100
AcDbEntity
  8
base
100
AcDbLine
 10
34611.88557112857
 20
4361.034381404825
 30
0.0
 11
35005.88557112857
 21
4361.034381404825
 31
0.0
  0
LINE
  5
47B8
330
1F
100
AcDbEntity
  8
base
100
AcDbLine
 10
34748.88557112858
 20
4181.034381404824
 30
0.0
 11
34685.14059629344
 21
4183.2604049773
 31
0.0
  0
LINE
  5
47B9
330
1F
100
AcDbEntity
  8
base
100
AcDbLine
 10
34749.51564161241
 20
4181.034381404824
 30
0.0
 11
34751.93978784954
 21
4177.520551255984
 31
0.0
  0
LINE
  5
47BA
330
1F
100
AcDbEntity
  8
base
100
AcDbLine
 10
34764.88557112856
 20
4176.034381404825
 30
0.0
 11
34764.88557112857
 21
4177.234673955427
 31
0.0
  0
LINE
  5
47BC
330
1F
100
AcDbEntity
  8
base
100
AcDbLine
 10
34764.88557112857
 20
4177.234673955427
 30
0.0
 11
34751.93978784954
 21
4177.520551255984
 31
0.0
  0
LINE
  5
47BD
330
1F
100
AcDbEntity
  8
base
100
AcDbLine
 10
34852.88557112855
 20
4177.234673955427
 30
0.0
 11
34764.88557112857
 21
4177.234673955427
 31
0.0
  0
LINE
  5
47BE
102
{ACAD_REACTORS
330
47EF
330
4823
102
}
330
1F
100
AcDbEntity
  8
base
100
AcDbLine
 10
34748.88557112858
 20
4181.034381404824
 30
0.0
 11
34868.88557112858
 21
4181.034381404824
 31
0.0
  0
LINE
  5
47C4
330
1F
100
AcDbEntity
  8
base
100
AcDbLine
 10
34852.88557112857
 20
4177.234673955427
 30
0.0
 11
34865.83135440761
 21
4177.520551255984
 31
0.0
  0
LINE
  5
47C5
330
1F
100
AcDbEntity
  8
base
100
AcDbLine
 10
34852.88557112856
 20
4176.034673955427
 30
0.0
 11
34852.88557112857
 21
4177.234673955427
 31
0.0
  0
LINE
  5
47C6
330
1F
100
AcDbEntity
  8
base
100
AcDbLine
 10
34868.25550064474
 20
4181.034381404824
 30
0.0
 11
34865.83135440761
 21
4177.520551255984
 31
0.0
  0
LINE
  5
47C8
102
{ACAD_REACTORS
330
4823
102
}
330
1F
100
AcDbEntity
  8
base
100
AcDbLine
 10
34868.88557112854
 20
4181.034381404824
 30
0.0
 11
34932.63054596371
 21
4183.260404977301
 31
0.0
  0
ARC
  5
47CB
102
{ACAD_REACTORS
330
4992
102
}
330
1F
100
AcDbEntity
  8
base
100
AcDbCircle
 10
34686.88557112857
 20
4233.229946328256
 30
0.0
 40
50.0
100
AcDbArc
 50
180.000000000001
 51
267.9999999999964
  0
ARC
  5
47CE
330
1F
100
AcDbEntity
  8
base
100
AcDbCircle
 10
34930.88557112857
 20
4233.229946328254
 30
0.0
 40
50.0
100
AcDbArc
 50
272.0000000000037
 51
0.0000000000015633
  0
LINE
  5
47D7
330
1F
100
AcDbEntity
  8
DIM
  6
CENTER
100
AcDbLine
 10
34808.88557112857
 20
4407.129917183283
 30
0.0
 11
34808.88557112857
 21
4105.491823875211
 31
0.0
  0
DIMENSION
  5
47D8
102
{ACAD_XDICTIONARY
360
47E5
102
}
102
{ACAD_REACTORS
330
47EF
102
}
330
1F
100
AcDbEntity
  8
DIM
100
AcDbDimension
280
     0
  2
*D5
 10
35079.38337223105
 20
4181.034381404824
 30
0.0
 11
35065.88337223105
 21
4271.03438140483
 31
0.0
 70
    32
 71
     5
 42
180.0
 73
     0
 74
     0
 75
     0
  3
ISO-25
100
AcDbAlignedDimension
 13
35005.88557112857
 23
4361.034381404825
 33
0.0
 14
34868.88557112858
 24
4181.034381404824
 34
0.0
 50
90.0
100
AcDbRotatedDimension
1001
ACAD
1000
DSTYLE
1002
{
1070
    41
1040
8.0
1070
   140
1040
18.0
1070
   141
1040
0.5
1070
   143
1040
0.03937007874
1070
   147
1040
3.0
1070
   170
1070
     1
1070
   171
1070
     2
1070
   179
1070
     2
1070
   274
1070
     2
1002
}
  0
DIMENSION
  5
4800
102
{ACAD_XDICTIONARY
360
4813
102
}
102
{ACAD_REACTORS
330
4823
102
}
330
1F
100
AcDbEntity
  8
DIM
100
AcDbDimension
280
     0
  2
*D6
 10
34868.88557112858
 20
4181.034381404824
 30
0.0
 11
35052.88724459005
 21
4126.473439147373
 31
0.0
 70
    34
 71
     5
 42
0.0349065850398784
 73
     0
 74
     0
 75
     0
  3
ISO-25
100
AcDb2LineAngularDimension
 13
34868.88557112854
 23
4181.034381404824
 33
0.0
 14
34932.63054596371
 24
4183.260404977301
 34
0.0
 15
34748.88557112858
 25
4181.034381404824
 35
0.0
 16
35043.55957570096
 26
4185.099963989247
 36
0.0
1001
ACAD
1000
DSTYLE
1002
{
1070
    41
1040
8.0
1070
   140
1040
18.0
1070
   141
1040
0.5
1070
   143
1040
0.03937007874
1070
   147
1040
3.0
1070
   170
1070
     1
1070
   171
1070
     2
1070
   179
1070
     2
1070
   274
1070
     2
1002
}
  0
DIMENSION
  5
4824
102
{ACAD_XDICTIONARY
360
4831
102
}
102
{ACAD_REACTORS
330
483B
102
}
330
1F
100
AcDbEntity
  8
DIM
100
AcDbDimension
280
     0
  2
*D7
 10
35005.88557112857
 20
3874.618601004633
 30
0.0
 11
34808.88557112857
 21
3888.118601004634
 31
0.0
 70
    32
 71
     5
 42
394.0000000000073
 73
     0
 74
     0
 75
     0
  3
ISO-25
100
AcDbAlignedDimension
 13
34611.88557112857
 23
3641.299851845434
 33
0.0
 14
35005.88557112857
 24
3641.299851845434
 34
0.0
100
AcDbRotatedDimension
1001
ACAD
1000
DSTYLE
1002
{
1070
    41
1040
8.0
1070
   140
1040
18.0
1070
   141
1040
0.5
1070
   143
1040
0.03937007874
1070
   147
1040
3.0
1070
   170
1070
     1
1070
   171
1070
     2
1070
   179
1070
     2
1070
   274
1070
     2
1002
}
  0
DIMENSION
  5
483C
102
{ACAD_XDICTIONARY
360
4849
102
}
102
{ACAD_REACTORS
330
4853
102
}
330
1F
100
AcDbEntity
  8
DIM
100
AcDbDimension
280
     0
  2
*D8
 10
34980.88557112857
 20
3814.698143381396
 30
0.0
 11
34808.88557112857
 21
3828.198143381396
 31
0.0
 70
    32
 71
     5
 42
344.0
 73
     0
 74
     0
 75
     0
  3
ISO-25
100
AcDbAlignedDimension
 13
34636.88557112857
 23
3522.299851845434
 33
0.0
 14
34980.88557112857
 24
3522.299851845434
 34
0.0
100
AcDbRotatedDimension
1001
ACAD
1000
DSTYLE
1002
{
1070
    41
1040
8.0
1070
   140
1040
18.0
1070
   141
1040
0.5
1070
   143
1040
0.03937007874
1070
   147
1040
3.0
1070
   170
1070
     1
1070
   171
1070
     2
1070
   179
1070
     2
1070
   274
1070
     2
1002
}
  0
DIMENSION
  5
4854
102
{ACAD_XDICTIONARY
360
4861
102
}
102
{ACAD_REACTORS
330
486B
102
}
330
1F
100
AcDbEntity
  8
DIM
100
AcDbDimension
280
     0
  2
*D9
 10
35184.03446939547
 20
3297.299851845425
 30
0.0
 11
35170.53446939547
 21
3522.299851845435
 31
0.0
 70
    32
 71
     5
 42
450.0000000000086
 73
     0
 74
     0
 75
     0
  3
ISO-25
100
AcDbAlignedDimension
 13
34899.88557112857
 23
3747.299851845433
 33
0.0
 14
34899.88557112857
 24
3297.299851845425
 34
0.0
 50
90.0
100
AcDbRotatedDimension
1001
ACAD
1000
DSTYLE
1002
{
1070
    41
1040
8.0
1070
   140
1040
18.0
1070
   141
1040
0.5
1070
   143
1040
0.03937007874
1070
   147
1040
3.0
1070
   170
1070
     1
1070
   171
1070
     2
1070
   179
1070
     2
1070
   274
1070
     2
1002
}
  0
DIMENSION
  5
486C
102
{ACAD_XDICTIONARY
360
4879
102
}
102
{ACAD_REACTORS
330
4883
102
}
330
1F
100
AcDbEntity
  8
DIM
100
AcDbDimension
280
     0
  2
*D10
 10
35125.69361995561
 20
3322.299851845433
 30
0.0
 11
35112.19361995561
 21
3522.299851845439
 31
0.0
 70
    32
 71
     5
 42
400.0
 73
     0
 74
     0
 75
     0
  3
ISO-25
100
AcDbAlignedDimension
 13
34808.88557112857
 23
3722.299851845433
 33
0.0
 14
34808.88557112857
 24
3322.299851845433
 34
0.0
 50
90.0
100
AcDbRotatedDimension
1001
ACAD
1000
DSTYLE
1002
{
1070
    41
1040
8.0
1070
   140
1040
18.0
1070
   141
1040
0.5
1070
   143
1040
0.03937007874
1070
   147
1040
3.0
1070
   170
1070
     1
1070
   171
1070
     2
1070
   179
1070
     2
1070
   274
1070
     2
1002
}
  0
LINE
  5
4894
330
1F
100
AcDbEntity
  8
DIM
100
AcDbLine
 10
34877.99201660607
 20
3509.515814922441
 30
0.0
 11
34646.10523885625
 21
3465.646437165192
 31
0.0
  0
MTEXT
  5
4895
330
1F
100
AcDbEntity
  8
DIM
100
AcDbMText
 10
34724.41451830071
 20
3491.470643250906
 30
0.0
 40
11.0
 41
0.0
 46
0.0
 71
     5
 72
     1
  1
2-R3100 [R122,05]
 11
0.9825710921602283
 21
0.1858871938866585
 31
0.0
 73
     1
 44
1.0
  0
SOLID
  5
4896
330
1F
100
AcDbEntity
  8
DIM
100
AcDbTrace
 10
34645.8573892644
 20
3466.956531954737
 30
0.0
 11
34646.3530884481
 21
3464.336342375644
 31
0.0
 12
34638.24467011898
 22
3464.159339614099
 32
0.0
 13
34638.24467011898
 23
3464.159339614099
 33
0.0
  0
LINE
  5
4897
330
1F
100
AcDbEntity
  8
DIM
100
AcDbLine
 10
34877.99201660607
 20
3509.515814922441
 30
0.0
 11
34866.58283063558
 21
3495.764284321188
 31
0.0
  0
LINE
  5
4898
330
1F
100
AcDbEntity
  8
DIM
100
AcDbLine
 10
34866.58283063558
 20
3495.764284321188
 30
0.0
 11
34982.65215998267
 21
3522.299851845434
 31
0.0
  0
LINE
  5
48C7
330
1F
100
AcDbEntity
  8
DIM
100
AcDbLine
 10
34819.6950790338
 20
3565.957366364723
 30
0.0
 11
34833.99145441752
 21
3330.390786284084
 31
0.0
  0
MTEXT
  5
48C8
330
1F
100
AcDbEntity
  8
DIM
100
AcDbMText
 10
34841.30426068803
 20
3411.25695378312
 30
0.0
 40
11.0
 41
0.0
 46
0.0
 71
     5
 72
     1
  1
2-R3100 [R122,05]
 11
0.0605778617954565
 21
-0.9981634749179567
 31
0.0
 73
     1
 44
1.0
  0
SOLID
  5
48C9
330
1F
100
AcDbEntity
  8
DIM
100
AcDbTrace
 10
34835.32233905074
 20
3330.471556766479
 30
0.0
 11
34832.66056978429
 21
3330.31001580169
 31
0.0
 12
34834.47607731188
 22
3322.405478484741
 32
0.0
 13
34834.47607731188
 23
3322.405478484741
 33
0.0
  0
LINE
  5
48CA
330
1F
100
AcDbEntity
  8
DIM
100
AcDbLine
 10
34819.6950790338
 20
3565.957366364723
 30
0.0
 11
34815.64408502643
 21
3560.958344923019
 31
0.0
  0
LINE
  5
48CB
330
1F
100
AcDbEntity
  8
DIM
100
AcDbLine
 10
34815.64408502643
 20
3560.958344923019
 30
0.0
 11
34808.88557112857
 21
3709.105458139819
 31
0.0
  0
LINE
  5
48DC
330
1F
100
AcDbEntity
  8
DIM
100
AcDbLine
 10
34805.17940961956
 20
3462.168742240058
 30
0.0
 11
34659.70619624539
 21
3363.105408000829
 31
0.0
  0
MTEXT
  5
48DD
330
1F
100
AcDbEntity
  8
DIM
100
AcDbMText
 10
34728.15040430331
 20
3426.046971242648
 30
0.0
 40
15.0
 41
0.0
 46
0.0
 71
     5
 72
     1
  1
4-R80 [R3,15]
 11
0.8265523487168897
 21
0.5628598536319615
 31
0.0
 73
     1
 44
1.0
  0
SOLID
  5
48DE
330
1F
100
AcDbEntity
  8
DIM
100
AcDbTrace
 10
34658.95571644054
 20
3364.207477799117
 30
0.0
 11
34660.45667605023
 21
3362.00333820254
 31
0.0
 12
34653.09377745565
 22
3358.602529171775
 32
0.0
 13
34653.09377745565
 23
3358.602529171775
 33
0.0
  0
DIMENSION
  5
490E
102
{ACAD_XDICTIONARY
360
4918
102
}
102
{ACAD_REACTORS
330
491F
102
}
330
1F
100
AcDbEntity
  8
DIM
100
AcDbDimension
280
     0
  2
*D11
 10
34717.88557112859
 20
3403.299851845428
 30
0.0
 11
34558.26028109333
 21
3237.161304899906
 31
0.0
 70
    36
  1
4-<>
 71
     5
 42
106.0000000000182
 73
     0
 74
     0
 75
     0
  3
ISO-25
100
AcDbRadialDimension
 15
34649.05050271342
 25
3322.691332715727
 35
0.0
 40
0.0
1001
ACAD
1000
DSTYLE
1002
{
1070
    41
1040
8.0
1070
   140
1040
18.0
1070
   141
1040
0.5
1070
   143
1040
0.03937007874
1070
   147
1040
3.0
1070
   170
1070
     1
1070
   171
1070
     2
1070
   179
1070
     2
1070
   274
1070
     2
1070
   288
1070
     1
1002
}
  0
LINE
  5
4944
330
1F
100
AcDbEntity
  8
base
100
AcDbLine
 10
34852.88557112856
 20
4176.034673955427
 30
0.0
 11
34764.88557112857
 21
4176.034673955427
 31
0.0
  0
LINE
  5
4945
330
1F
100
AcDbEntity
  8
base
100
AcDbLine
 10
34852.91206385907
 20
4176.034966434723
 30
0.0
 11
34866.47089243998
 21
4176.334381404824
 31
0.0
  0
LINE
  5
4946
330
1F
100
AcDbEntity
  8
base
100
AcDbLine
 10
34868.88497853881
 20
4179.833629257976
 30
0.0
 11
34866.47089243998
 21
4176.334381404824
 31
0.0
  0
LINE
  5
4947
102
{ACAD_REACTORS
330
4823
102
}
330
1F
100
AcDbEntity
  8
base
100
AcDbLine
 10
34868.88497853881
 20
4179.833629257976
 30
0.0
 11
34932.67242535975
 21
4182.061135984878
 31
0.0
  0
ARC
  5
4948
330
1F
100
AcDbEntity
  8
base
100
AcDbCircle
 10
34930.88557112857
 20
4233.229946328254
 30
0.0
 40
51.2
100
AcDbArc
 50
272.0000000000037
 51
0.0000000000015633
  0
LINE
  5
4949
330
1F
100
AcDbEntity
  8
base
100
AcDbLine
 10
34982.08557112857
 20
4233.229946328254
 30
0.0
 11
34982.08557112857
 21
4355.834381404824
 31
0.0
  0
LINE
  5
494A
102
{ACAD_REACTORS
330
47EF
102
}
330
1F
100
AcDbEntity
  8
base
100
AcDbLine
 10
34986.08557112857
 20
4359.834381404825
 30
0.0
 11
35005.88557112857
 21
4359.834381404825
 31
0.0
  0
ARC
  5
494B
330
1F
100
AcDbEntity
  8
base
100
AcDbCircle
 10
34986.08557112857
 20
4355.834381404824
 30
0.0
 40
4.0
100
AcDbArc
 50
90.0
 51
180.0
  0
ARC
  5
494C
330
1F
100
AcDbEntity
  8
base
100
AcDbCircle
 10
34986.08557112857
 20
4355.834381404824
 30
0.0
 40
5.2
100
AcDbArc
 50
90.0
 51
180.0
  0
LINE
  5
494D
102
{ACAD_REACTORS
330
47EF
102
}
330
1F
100
AcDbEntity
  8
base
100
AcDbLine
 10
34611.88557112857
 20
4359.834381404825
 30
0.0
 11
34631.68557112858
 21
4359.834381404825
 31
0.0
  0
LINE
  5
494E
330
1F
100
AcDbEntity
  8
base
100
AcDbLine
 10
34635.68557112858
 20
4233.229946328256
 30
0.0
 11
34635.68557112858
 21
4355.834381404824
 31
0.0
  0
ARC
  5
494F
330
1F
100
AcDbEntity
  8
base
100
AcDbCircle
 10
34631.68557112858
 20
4355.834381404824
 30
0.0
 40
4.0
100
AcDbArc
 50
0.0
 51
90.0
  0
ARC
  5
4950
330
1F
100
AcDbEntity
  8
base
100
AcDbCircle
 10
34631.68557112858
 20
4355.834381404824
 30
0.0
 40
5.2
100
AcDbArc
 50
0.0
 51
90.0
  0
ARC
  5
4951
330
1F
100
AcDbEntity
  8
base
100
AcDbCircle
 10
34686.88557112857
 20
4233.229946328256
 30
0.0
 40
51.2
100
AcDbArc
 50
180.000000000001
 51
267.9999999999964
  0
LINE
  5
4952
330
1F
100
AcDbEntity
  8
base
100
AcDbLine
 10
34748.88616371832
 20
4179.833629257975
 30
0.0
 11
34685.0987168974
 21
4182.061135984877
 31
0.0
  0
LINE
  5
4953
330
1F
100
AcDbEntity
  8
base
100
AcDbLine
 10
34748.88616371832
 20
4179.833629257975
 30
0.0
 11
34751.30024981717
 21
4176.334381404824
 31
0.0
  0
LINE
  5
4954
330
1F
100
AcDbEntity
  8
base
100
AcDbLine
 10
34764.88557112856
 20
4176.034381404825
 30
0.0
 11
34751.30024981717
 21
4176.334381404824
 31
0.0
  0
CIRCLE
  5
4955
330
1F
100
AcDbEntity
  8
DIM
100
AcDbCircle
 10
34808.88557112857
 20
4181.034381404824
 30
0.0
 40
67.06102828897929
  0
LEADER
  5
4956
330
1F
100
AcDbEntity
  8
DIM
100
AcDbLeader
  3
ISO-25
 73
     0
 75
     1
 40
18.0
 41
6.0
 76
     3
 10
34771.9967894872
 20
4156.539103323586
 30
0.0
 10
34730.57073195632
 20
4133.649998534285
 30
0.0
 10
34722.57073195633
 20
4133.649998534285
 30
0.0
340
4957
213
0.0
223
9.0
233
0.0
1001
ACAD
1000
DSTYLE
1002
{
1070
    77
1070
     0
1070
    41
1040
8.0
1070
   140
1040
18.0
1070
   141
1040
0.5
1070
   143
1040
0.03937007874
1070
   147
1040
3.0
1070
   170
1070
     1
1070
   171
1070
     2
1070
   179
1070
     2
1070
   274
1070
     2
1002
}
  0
MTEXT
  5
4957
102
{ACAD_REACTORS
330
4956
102
}
330
1F
100
AcDbEntity
  8
DIM
100
AcDbMText
 10
34719.57073195632
 20
4124.649998534285
 30
0.0
 40
18.0
 41
0.0
 46
0.0
 71
     9
 72
     1
  1
I
 73
     1
 44
1.0
  0
DIMENSION
  5
4983
102
{ACAD_XDICTIONARY
360
498C
102
}
102
{ACAD_REACTORS
330
4992
102
}
330
1F
100
AcDbEntity
  8
DIM
100
AcDbDimension
280
     0
  2
*D12
 10
34686.88557112857
 20
4233.229946328252
 30
0.0
 11
34721.57052751251
 21
4269.243191122973
 31
0.0
 70
   164
 71
     5
 42
50.0
 73
     0
 74
     0
 75
     0
  3
ISO-25
100
AcDbRadialDimension
 15
34652.20061474464
 25
4197.216701533534
 35
0.0
 40
0.0
1001
ACAD
1000
DSTYLE
1002
{
1070
    41
1040
8.0
1070
   140
1040
18.0
1070
   141
1040
0.5
1070
   143
1040
0.03937007874
1070
   147
1040
3.0
1070
   170
1070
     1
1070
   171
1070
     2
1070
   179
1070
     2
1070
   274
1070
     2
1070
   288
1070
     1
1002
}
  0
ENDSEC
  0
SECTION
  2
OBJECTS
  0
DICTIONARY
  5
C
330
0
100
AcDbDictionary
281
     1
  3
ACAD_CIP_PREVIOUS_PRODUCT_INFO
350
51FD
  3
ACAD_COLOR
350
6B
  3
ACAD_DETAILVIEWSTYLE
350
51F6
  3
ACAD_GROUP
350
D
  3
ACAD_LAYOUT
350
1A
  3
ACAD_MATERIAL
350
6A
  3
ACAD_MLEADERSTYLE
350
51F2
  3
ACAD_MLINESTYLE
350
17
  3
ACAD_PLOTSETTINGS
350
19
  3
ACAD_PLOTSTYLENAME
350
E
  3
ACAD_SCALELIST
350
51E0
  3
ACAD_SECTIONVIEWSTYLE
350
51F4
  3
ACAD_TABLESTYLE
350
51C9
  3
ACAD_VISUALSTYLE
350
51B8
  3
AcadDim
350
449D
  3
ACDB_RECOMPOSE_DATA
350
521D
  3
AcDbVariableDictionary
350
5E
  3
lxx_dict
350
51D1
  0
DICTIONARY
  5
5204
330
10
100
AcDbDictionary
280
     1
281
     1
  3
ADSK_XREC_LAYER_RECONCILED
360
5205
  0
DICTIONARY
  5
5206
330
84
100
AcDbDictionary
280
     1
281
     1
  3
ADSK_XREC_LAYER_RECONCILED
360
5207
  0
DICTIONARY
  5
5208
330
2D93
100
AcDbDictionary
280
     1
281
     1
  3
ADSK_XREC_LAYER_RECONCILED
360
5209
  0
DICTIONARY
  5
35F6
330
35E9
100
AcDbDictionary
280
     1
281
     1
  3
ACAD_DIMASSOC
360
3600
  0
DICTIONARY
  5
360E
330
3601
100
AcDbDictionary
280
     1
281
     1
  3
ACAD_DIMASSOC
360
3618
  0
DICTIONARY
  5
374D
330
373E
100
AcDbDictionary
280
     1
281
     1
  3
ACAD_DIMASSOC
360
3759
  0
DICTIONARY
  5
47E5
330
47D8
100
AcDbDictionary
280
     1
281
     1
  3
ACAD_DIMASSOC
360
47EF
  0
DICTIONARY
  5
4813
330
4800
100
AcDbDictionary
280
     1
281
     1
  3
ACAD_DIMASSOC
360
4823
  0
DICTIONARY
  5
4831
330
4824
100
AcDbDictionary
280
     1
281
     1
  3
ACAD_DIMASSOC
360
483B
  0
DICTIONARY
  5
4849
330
483C
100
AcDbDictionary
280
     1
281
     1
  3
ACAD_DIMASSOC
360
4853
  0
DICTIONARY
  5
4861
330
4854
100
AcDbDictionary
280
     1
281
     1
  3
ACAD_DIMASSOC
360
486B
  0
DICTIONARY
  5
4879
330
486C
100
AcDbDictionary
280
     1
281
     1
  3
ACAD_DIMASSOC
360
4883
  0
DICTIONARY
  5
4918
330
490E
100
AcDbDictionary
280
     1
281
     1
  3
ACAD_DIMASSOC
360
491F
  0
DICTIONARY
  5
498C
330
4983
100
AcDbDictionary
280
     1
281
     1
  3
ACAD_DIMASSOC
360
4992
  0
XRECORD
  5
51FD
102
{ACAD_REACTORS
330
C
102
}
330
C
100
AcDbXrecord
280
     1
300
ACDLT
300
2018
300

  0
DICTIONARY
  5
6B
102
{ACAD_REACTORS
330
C
102
}
330
C
100
AcDbDictionary
281
     1
  0
DICTIONARY
  5
51F6
102
{ACAD_REACTORS
330
C
102
}
330
C
100
AcDbDictionary
281
     1
  3
Metric50
350
51F7
  0
DICTIONARY
  5
D
102
{ACAD_REACTORS
330
C
102
}
330
C
100
AcDbDictionary
281
     1
  0
DICTIONARY
  5
1A
102
{ACAD_REACTORS
330
C
102
}
330
C
100
AcDbDictionary
281
     1
  3
Layout1
350
51
  3
Layout2
350
56
  3
Model
350
22
  0
DICTIONARY
  5
6A
102
{ACAD_REACTORS
330
C
102
}
330
C
100
AcDbDictionary
281
     1
  3
ByBlock
350
51B6
  3
ByLayer
350
51B5
  3
Global
350
51B7
  0
DICTIONARY
  5
51F2
102
{ACAD_REACTORS
330
C
102
}
330
C
100
AcDbDictionary
281
     1
  3
Standard
350
51F3
  0
DICTIONARY
  5
17
102
{ACAD_REACTORS
330
C
102
}
330
C
100
AcDbDictionary
281
     1
  3
Standard
350
18
  0
DICTIONARY
  5
19
102
{ACAD_REACTORS
330
C
102
}
330
C
100
AcDbDictionary
281
     1
  0
ACDBDICTIONARYWDFLT
  5
E
102
{ACAD_REACTORS
330
C
102
}
330
C
100
AcDbDictionary
281
     1
  3
Normal
350
F
100
AcDbDictionaryWithDefault
340
F
  0
DICTIONARY
  5
51E0
102
{ACAD_REACTORS
330
C
102
}
330
C
100
AcDbDictionary
281
     1
  3
A0
350
51E1
  3
A1
350
51E2
  3
A2
350
51E3
  3
A3
350
51E4
  3
A4
350
51E5
  3
A5
350
51E6
  3
A6
350
51E7
  3
A7
350
51E8
  3
A8
350
51E9
  3
A9
350
51EA
  3
B0
350
51EB
  3
B1
350
51EC
  3
B2
350
51ED
  3
B3
350
51EE
  3
B4
350
51EF
  3
B5
350
51F0
  3
B6
350
51F1
  0
DICTIONARY
  5
51F4
102
{ACAD_REACTORS
330
C
102
}
330
C
100
AcDbDictionary
281
     1
  3
Metric50
350
51F5
  0
DICTIONARY
  5
51C9
102
{ACAD_REACTORS
330
C
102
}
330
C
100
AcDbDictionary
281
     1
  3
Standard
350
51CA
  0
DICTIONARY
  5
51B8
102
{ACAD_REACTORS
330
C
102
}
330
C
100
AcDbDictionary
281
     1
  3
2dWireframe
350
51BE
  3
3D Hidden
350
51C0
  3
3dWireframe
350
51BF
  3
Basic
350
51BD
  3
Brighten
350
51C4
  3
ColorChange
350
51C8
  3
Conceptual
350
51C1
  3
Dim
350
51C3
  3
EdgeColorOff
350
51DF
  3
Facepattern
350
51C7
  3
Flat
350
51B9
  3
FlatWithEdges
350
51BA
  3
Gouraud
350
51BB
  3
GouraudWithEdges
350
51BC
  3
Hidden
350
51D7
  3
JitterOff
350
51DD
  3
Linepattern
350
51C6
  3
OverhangOff
350
51DE
  3
Realistic
350
51C2
  3
Shaded
350
51DC
  3
Shaded with edges
350
51DB
  3
Shades of Gray
350
51D8
  3
Sketchy
350
51D9
  3
Thicken
350
51C5
  3
Wireframe
350
51D6
  3
X-Ray
350
51DA
  0
XRECORD
  5
449D
102
{ACAD_REACTORS
330
C
102
}
330
C
100
AcDbXrecord
280
     1
 90
   990106
  3

 60
     0
 61
     0
 62
     1
 63
     3
 64
     0
 65
     0
 66
     0
 67
     3
 68
     1
 69
     0
 70
     0
 71
     0
 72
     0
 40
0.0
170
     0
340
4957
  0
XRECORD
  5
521D
102
{ACAD_REACTORS
330
C
102
}
330
C
100
AcDbXrecord
280
     1
 90
        1
330
51CA
  0
DICTIONARY
  5
5E
102
{ACAD_REACTORS
330
C
102
}
330
C
100
AcDbDictionary
281
     1
  3
CANNOSCALE
350
5217
  3
CMLEADERSTYLE
350
5213
  3
CTABLESTYLE
350
51D4
  3
CVIEWDETAILSTYLE
350
5214
  3
CVIEWSECTIONSTYLE
350
5215
  3
DIMASSOC
350
5F
  3
HIDETEXT
350
63
  3
LAYEREVAL
350
5219
  3
LAYERNOTIFY
350
521A
  3
LIGHTINGUNITS
350
5218
  3
MSLTSCALE
350
5216
  3
PROJECTNAME
350
1CF
  0
DICTIONARY
  5
51D1
102
{ACAD_REACTORS
330
C
102
}
330
C
100
AcDbDictionary
281
     1
  3
lxx_dimth
350
51D2
  0
XRECORD
  5
5205
102
{ACAD_REACTORS
330
5204
102
}
330
5204
100
AcDbXrecord
280
     1
290
     1
  0
XRECORD
  5
5207
102
{ACAD_REACTORS
330
5206
102
}
330
5206
100
AcDbXrecord
280
     1
290
     1
  0
XRECORD
  5
5209
102
{ACAD_REACTORS
330
5208
102
}
330
5208
100
AcDbXrecord
280
     1
290
     1
  0
DIMASSOC
  5
3600
102
{ACAD_REACTORS
330
35F6
102
}
330
35F6
100
AcDbDimAssoc
330
35E9
 90
        1
 70
     0
 71
     0
  1
AcDbOsnapPointRef
 72
     1
331
35CB
 73
     2
 91
        0
 40
0.9999999999999998
 10
0.0
 20
0.0
 30
2.000000000000000E+50
 75
     0
  0
DIMASSOC
  5
3618
102
{ACAD_REACTORS
330
360E
102
}
330
360E
100
AcDbDimAssoc
330
3601
 90
        3
 70
     0
 71
     0
  1
AcDbOsnapPointRef
 72
    13
331
35CD
 73
     2
 91
        0
 40
0.0
 10
0.0
 20
0.0
 30
2.000000000000000E+50
 75
     0
  1
AcDbOsnapPointRef
 72
    13
331
35C4
 73
     2
 91
        0
 40
0.0
 10
0.0
 20
0.0
 30
2.000000000000000E+50
 75
     0
  0
DIMASSOC
  5
3759
102
{ACAD_REACTORS
330
374D
102
}
330
374D
100
AcDbDimAssoc
330
373E
 90
        3
 70
     0
 71
     0
  1
AcDbOsnapPointRef
 72
    13
331
3715
 73
     2
 91
        0
 40
0.0
 10
0.0
 20
0.0
 30
2.000000000000000E+50
 75
     0
  1
AcDbOsnapPointRef
 72
    13
331
373D
 73
     2
 91
        0
 40
0.0
 10
0.0
 20
0.0
 30
2.000000000000000E+50
 75
     0
  0
DIMASSOC
  5
47EF
102
{ACAD_REACTORS
330
47E5
102
}
330
47E5
100
AcDbDimAssoc
330
47D8
 90
        3
 70
     0
 71
     0
  1
AcDbOsnapPointRef
 72
     1
331
47B4
 73
     2
 91
        0
 40
0.9999999999999998
 10
0.0
 20
0.0
 30
2.000000000000000E+50
 75
     0
  1
AcDbOsnapPointRef
 72
     1
331
47BE
 73
     2
 91
        0
 40
1.0
 10
0.0
 20
0.0
 30
2.000000000000000E+50
 75
     0
  0
DIMASSOC
  5
4823
102
{ACAD_REACTORS
330
4813
102
}
330
4813
100
AcDbDimAssoc
330
4800
 90
       15
 70
     0
 71
     0
  1
AcDbOsnapPointRef
 72
    13
331
47C8
 73
     2
 91
        0
 40
0.0
 10
0.0
 20
0.0
 30
2.000000000000000E+50
 75
     0
  1
AcDbOsnapPointRef
 72
     1
331
47C8
 73
     2
 91
        0
 40
1.0
 10
0.0
 20
0.0
 30
2.000000000000000E+50
 75
     0
  1
AcDbOsnapPointRef
 72
    13
331
47BE
 73
     2
 91
        0
 40
0.0
 10
0.0
 20
0.0
 30
2.000000000000000E+50
 75
     0
  1
AcDbOsnapPointRef
 72
     1
331
47BE
 73
     2
 91
        0
 40
1.0
 10
0.0
 20
0.0
 30
2.000000000000000E+50
 75
     0
  0
DIMASSOC
  5
483B
102
{ACAD_REACTORS
330
4831
102
}
330
4831
100
AcDbDimAssoc
330
4824
 90
        3
 70
     0
 71
     0
  1
AcDbOsnapPointRef
 72
     1
331
4794
 73
     2
 91
        0
 40
3.141592653589822
 10
0.0
 20
0.0
 30
2.000000000000000E+50
 75
     0
  1
AcDbOsnapPointRef
 72
     1
331
4792
 73
     2
 91
        0
 40
1.0
 10
0.0
 20
0.0
 30
2.000000000000000E+50
 75
     0
  0
DIMASSOC
  5
4853
102
{ACAD_REACTORS
330
4849
102
}
330
4849
100
AcDbDimAssoc
330
483C
 90
        3
 70
     0
 71
     0
  1
AcDbOsnapPointRef
 72
     6
331
479C
 73
     2
 91
        0
 40
0.9365482233502536
 10
0.0
 20
0.0
 30
0.0
332
479F
 74
     2
 92
        0
 75
     0
  1
AcDbOsnapPointRef
 72
     2
331
47A0
 73
     2
 91
        0
 40
6.283185307179586
 10
0.0
 20
0.0
 30
0.0
 75
     0
  0
DIMASSOC
  5
486B
102
{ACAD_REACTORS
330
4861
102
}
330
4861
100
AcDbDimAssoc
330
4854
 90
        3
 70
     0
 71
     0
  1
AcDbOsnapPointRef
 72
     1
331
4791
 73
     2
 91
        0
 40
1.0
 10
0.0
 20
0.0
 30
2.000000000000000E+50
 75
     0
  1
AcDbOsnapPointRef
 72
    13
331
4796
 73
     2
 91
        0
 40
4.712388980384621
 10
0.0
 20
0.0
 30
2.000000000000000E+50
 75
     0
  0
DIMASSOC
  5
4883
102
{ACAD_REACTORS
330
4879
102
}
330
4879
100
AcDbDimAssoc
330
486C
 90
        3
 70
     0
 71
     0
  1
AcDbOsnapPointRef
 72
     2
331
47A4
 73
     2
 91
        0
 40
1.570796326794896
 10
0.0
 20
0.0
 30
0.0
 75
     0
  1
AcDbOsnapPointRef
 72
     2
331
47A3
 73
     2
 91
        0
 40
4.712388980384689
 10
0.0
 20
0.0
 30
0.0
 75
     0
  0
DIMASSOC
  5
491F
102
{ACAD_REACTORS
330
4918
102
}
330
4918
100
AcDbDimAssoc
330
490E
 90
        2
 70
     0
 71
     0
  1
AcDbOsnapPointRef
 72
     3
331
4795
 73
     2
 91
        0
 40
0.0
 10
0.0
 20
0.0
 30
0.0
 75
     0
  0
DIMASSOC
  5
4992
102
{ACAD_REACTORS
330
498C
102
}
330
498C
100
AcDbDimAssoc
330
4983
 90
        2
 70
     0
 71
     0
  1
AcDbOsnapPointRef
 72
     3
331
47CB
 73
     2
 91
        0
 40
0.0
 10
0.0
 20
0.0
 30
0.0
 75
     0
  0
ACDBDETAILVIEWSTYLE
  5
51F7
102
{ACAD_REACTORS
330
51F6
102
}
330
51F6
100
AcDbModelDocViewStyle
 70
     0
  3
Metric50
290
     1
300
Metric50
 90
        0
100
AcDbDetailViewStyle
 70
     0
 71
     0
 90
        3
 71
     1
340
11
 62
   256
 40
5.0
340
0
 62
   256
 40
5.0
300

 40
0.0
280
     1
 71
     2
340
16
 90
       25
 62
   256
 71
     3
340
11
 62
   256
 40
5.0
 90
        0
 40
15.0
 90
        1
300
%<\AcVar ViewDetailId>% (%<\AcVar ViewScale \f "%sn">%)
 71
     4
340
16
 90
       25
 62
   256
340
16
 90
       25
 62
   256
280
     0
  0
LAYOUT
  5
51
102
{ACAD_REACTORS
330
1A
102
}
330
1A
100
AcDbPlotSettings
  1

  2
None
  4

  6

 40
0.0
 41
0.0
 42
0.0
 43
0.0
 44
0.0
 45
0.0
 46
0.0
 47
0.0
 48
0.0
 49
0.0
140
0.0
141
0.0
142
1.0
143
1.0
 70
   688
 72
     0
 73
     0
 74
     5
  7

 75
    16
147
1.0
 76
     0
 77
     2
 78
   300
148
0.0
149
0.0
100
AcDbLayout
  1
Layout1
 70
     1
 71
     1
 10
0.0
 20
0.0
 11
12.0
 21
9.0
 12
0.0
 22
0.0
 32
0.0
 14
0.0
 24
0.0
 34
0.0
 15
0.0
 25
0.0
 35
0.0
146
0.0
 13
0.0
 23
0.0
 33
0.0
 16
1.0
 26
0.0
 36
0.0
 17
0.0
 27
1.0
 37
0.0
 76
     0
330
50
  0
LAYOUT
  5
56
102
{ACAD_REACTORS
330
1A
102
}
330
1A
100
AcDbPlotSettings
  1

  2
None
  4

  6

 40
0.0
 41
0.0
 42
0.0
 43
0.0
 44
0.0
 45
0.0
 46
0.0
 47
0.0
 48
0.0
 49
0.0
140
0.0
141
0.0
142
1.0
143
1.0
 70
   688
 72
     0
 73
     0
 74
     5
  7

 75
    16
147
1.0
 76
     0
 77
     2
 78
   300
148
0.0
149
0.0
100
AcDbLayout
  1
Layout2
 70
     1
 71
     2
 10
0.0
 20
0.0
 11
12.0
 21
9.0
 12
0.0
 22
0.0
 32
0.0
 14
0.0
 24
0.0
 34
0.0
 15
0.0
 25
0.0
 35
0.0
146
0.0
 13
0.0
 23
0.0
 33
0.0
 16
1.0
 26
0.0
 36
0.0
 17
0.0
 27
1.0
 37
0.0
 76
     0
330
55
  0
LAYOUT
  5
22
102
{ACAD_REACTORS
330
1A
102
}
330
1A
100
AcDbPlotSettings
  1

  2
EPSON ME 1
  4
A4
  6

 40
3.757083177566528
 41
13.28207111358642
 42
3.757080078125
 43
3.757080078125
 44
209.9733276367187
 45
296.9683227539062
 46
11.42
 47
0.0
 48
34325.80143828007
 49
-7.529817411965723
140
35230.55151828082
141
1402.410662589172
142
1.0
143
5.036775810583488
 70
 11956
 72
     1
 73
     0
 74
     4
  7

 75
     0
147
0.1985397082591521
 76
     0
 77
     2
 78
   180
148
-34325.80143828007
149
7.529817411965723
100
AcDbLayout
  1
Model
 70
     1
 71
     0
 10
0.0
 20
0.0
 11
12.0
 21
9.0
 12
0.0
 22
0.0
 32
0.0
 14
0.0
 24
0.0
 34
0.0
 15
0.0
 25
0.0
 35
0.0
146
0.0
 13
0.0
 23
0.0
 33
0.0
 16
1.0
 26
0.0
 36
0.0
 17
0.0
 27
1.0
 37
0.0
 76
     0
330
1F
331
51B3
  0
MATERIAL
  5
51B6
102
{ACAD_REACTORS
330
6A
102
}
330
6A
100
AcDbMaterial
  1
ByBlock
 73
     1
 78
     1
172
     1
176
     1
270
     1
274
     1
 94
       63
  0
MATERIAL
  5
51B5
102
{ACAD_REACTORS
330
6A
102
}
330
6A
100
AcDbMaterial
  1
ByLayer
 73
     1
 78
     1
172
     1
176
     1
270
     1
274
     1
 94
       63
  0
MATERIAL
  5
51B7
102
{ACAD_REACTORS
330
6A
102
}
330
6A
100
AcDbMaterial
  1
Global
 73
     1
 78
     1
172
     1
176
     1
270
     1
274
     1
 94
       63
  0
MLEADERSTYLE
  5
51F3
102
{ACAD_REACTORS
330
51F2
102
}
330
51F2
100
AcDbMLeaderStyle
179
     2
170
     2
171
     1
172
     0
 90
        2
 40
0.0
 41
0.0
173
     1
 91
-1056964608
340
14
 92
       -2
290
     1
 42
2.0
291
     1
 43
0.36
  3
Standard
 44
4.0
300

342
11
174
     1
178
     6
175
     1
176
     0
 93
-1056964608
 45
4.0
292
     0
297
     0
 46
4.0
 94
-1056964608
 47
1.0
 49
1.0
140
1.0
293
     1
141
0.0
294
     1
177
     0
142
1.0
295
     1
296
     0
143
0.125
271
     0
272
     9
273
     9
298
     1
  0
MLINESTYLE
  5
18
102
{ACAD_REACTORS
330
17
102
}
330
17
100
AcDbMlineStyle
  2
STANDARD
 70
     0
  3

 62
   256
 51
90.0
 52
90.0
 71
     2
 49
0.5
 62
   256
  6
BYLAYER
 49
-0.5
 62
   256
  6
BYLAYER
  0
ACDBPLACEHOLDER
  5
F
102
{ACAD_REACTORS
330
E
102
}
330
E
  0
SCALE
  5
51E1
102
{ACAD_REACTORS
330
51E0
102
}
330
51E0
100
AcDbScale
 70
     0
300
1:1
140
1.0
141
1.0
290
     1
  0
SCALE
  5
51E2
102
{ACAD_REACTORS
330
51E0
102
}
330
51E0
100
AcDbScale
 70
     0
300
1:2
140
1.0
141
2.0
290
     0
  0
SCALE
  5
51E3
102
{ACAD_REACTORS
330
51E0
102
}
330
51E0
100
AcDbScale
 70
     0
300
1:4
140
1.0
141
4.0
290
     0
  0
SCALE
  5
51E4
102
{ACAD_REACTORS
330
51E0
102
}
330
51E0
100
AcDbScale
 70
     0
300
1:5
140
1.0
141
5.0
290
     0
  0
SCALE
  5
51E5
102
{ACAD_REACTORS
330
51E0
102
}
330
51E0
100
AcDbScale
 70
     0
300
1:8
140
1.0
141
8.0
290
     0
  0
SCALE
  5
51E6
102
{ACAD_REACTORS
330
51E0
102
}
330
51E0
100
AcDbScale
 70
     0
300
1:10
140
1.0
141
10.0
290
     0
  0
SCALE
  5
51E7
102
{ACAD_REACTORS
330
51E0
102
}
330
51E0
100
AcDbScale
 70
     0
300
1:16
140
1.0
141
16.0
290
     0
  0
SCALE
  5
51E8
102
{ACAD_REACTORS
330
51E0
102
}
330
51E0
100
AcDbScale
 70
     0
300
1:20
140
1.0
141
20.0
290
     0
  0
SCALE
  5
51E9
102
{ACAD_REACTORS
330
51E0
102
}
330
51E0
100
AcDbScale
 70
     0
300
1:30
140
1.0
141
30.0
290
     0
  0
SCALE
  5
51EA
102
{ACAD_REACTORS
330
51E0
102
}
330
51E0
100
AcDbScale
 70
     0
300
1:40
140
1.0
141
40.0
290
     0
  0
SCALE
  5
51EB
102
{ACAD_REACTORS
330
51E0
102
}
330
51E0
100
AcDbScale
 70
     0
300
1:50
140
1.0
141
50.0
290
     0
  0
SCALE
  5
51EC
102
{ACAD_REACTORS
330
51E0
102
}
330
51E0
100
AcDbScale
 70
     0
300
1:100
140
1.0
141
100.0
290
     0
  0
SCALE
  5
51ED
102
{ACAD_REACTORS
330
51E0
102
}
330
51E0
100
AcDbScale
 70
     0
300
2:1
140
2.0
141
1.0
290
     0
  0
SCALE
  5
51EE
102
{ACAD_REACTORS
330
51E0
102
}
330
51E0
100
AcDbScale
 70
     0
300
4:1
140
4.0
141
1.0
290
     0
  0
SCALE
  5
51EF
102
{ACAD_REACTORS
330
51E0
102
}
330
51E0
100
AcDbScale
 70
     0
300
8:1
140
8.0
141
1.0
290
     0
  0
SCALE
  5
51F0
102
{ACAD_REACTORS
330
51E0
102
}
330
51E0
100
AcDbScale
 70
     0
300
10:1
140
10.0
141
1.0
290
     0
  0
SCALE
  5
51F1
102
{ACAD_REACTORS
330
51E0
102
}
330
51E0
100
AcDbScale
 70
     0
300
100:1
140
100.0
141
1.0
290
     0
  0
ACDBSECTIONVIEWSTYLE
  5
51F5
102
{ACAD_REACTORS
330
51F4
102
}
330
51F4
100
AcDbModelDocViewStyle
 70
     0
  3
Metric50
290
     1
300
Metric50
 90
        0
100
AcDbSectionViewStyle
 70
     0
 71
     0
 90
      102
 71
     1
340
11
 62
   256
 40
5.0
340
0
340
0
 62
   256
 40
5.0
300
I, O, Q, S, X, Z
 40
10.0
 90
        0
 40
2.5
 90
        0
 71
     2
340
16
 90
       25
 62
   256
340
16
 90
       50
 62
   256
 40
5.0
 40
2.5
 40
5.0
 71
     3
340
11
 62
   256
 40
5.0
 90
        0
 40
15.0
 90
        1
300
%<\AcVar ViewSectionStartId>%-%<\AcVar ViewSectionEndId>% (%<\AcVar ViewScale \f "%sn">%)
 71
     4
 62
   256
 62
   257
300
ANSI31
 40
1.0
 90
        0
290
     0
290
     0
 90
        6
 40
0.0
 40
1.570796326794896
 40
0.2617993877991494
 40
1.308996938995747
 40
-0.2617993877991494
 40
1.832595714594046
  0
TABLESTYLE
  5
51CA
102
{ACAD_XDICTIONARY
360
521B
102
}
102
{ACAD_REACTORS
330
51C9
102
}
330
51C9
100
AcDbTableStyle
280
     0
  3
Standard
 70
     0
 71
     0
 40
1.5
 41
1.5
280
     0
281
     0
  7
Standard
140
4.5
170
     2
 62
     0
 63
     7
283
     0
 90
      512
 91
        0
  1

274
    -2
284
     1
 64
     0
275
    -2
285
     1
 65
     0
276
    -2
286
     1
 66
     0
277
    -2
287
     1
 67
     0
278
    -2
288
     1
 68
     0
279
    -2
289
     1
 69
     0
  7
Standard
140
6.0
170
     5
 62
     0
 63
     7
283
     0
 90
      512
 91
        0
  1

274
    -2
284
     1
 64
     0
275
    -2
285
     1
 65
     0
276
    -2
286
     1
 66
     0
277
    -2
287
     1
 67
     0
278
    -2
288
     1
 68
     0
279
    -2
289
     1
 69
     0
  7
Standard
140
4.5
170
     5
 62
     0
 63
     7
283
     0
 90
      512
 91
        0
  1

274
    -2
284
     1
 64
     0
275
    -2
285
     1
 65
     0
276
    -2
286
     1
 66
     0
277
    -2
287
     1
 67
     0
278
    -2
288
     1
 68
     0
279
    -2
289
     1
 69
     0
  0
VISUALSTYLE
  5
51BE
102
{ACAD_REACTORS
330
51B8
102
}
330
51B8
100
AcDbVisualStyle
  2
2dWireframe
 70
     4
177
     3
291
     0
 70
    58
 90
        0
176
     1
 90
        2
176
     1
 90
        0
176
     1
 90
        0
176
     1
 40
0.6
176
     1
 40
30.0
176
     1
 62
     7
420
 16777215
176
     1
 90
        1
176
     1
 90
        4
176
     1
 62
     7
176
     1
 62
   257
176
     1
 90
        1
176
     1
 90
        1
176
     1
 40
1.0
176
     1
 90
        0
176
     1
 62
   257
176
     1
 40
1.0
176
     1
 90
        1
176
     1
 90
        6
176
     1
 90
        2
176
     1
 62
     7
176
     1
 90
        5
176
     1
 90
        0
176
     1
 90
        0
176
     1
290
     0
176
     1
 90
        1
176
     1
 40
0.0
176
     1
 90
        0
176
     1
290
     1
176
     1
290
     1
176
     1
290
     0
176
     1
290
     0
176
     1
290
     0
176
     1
290
     0
176
     1
290
     0
176
     1
290
     0
176
     1
290
     0
176
     1
 90
       50
176
     1
 40
0.0
176
     1
 40
1.0
176
     1
 90
        0
176
     1
 62
    18
420
        0
176
     1
 90
       50
176
     1
 90
        3
176
     1
 62
     5
420
      255
176
     1
290
     0
176
     1
 90
       50
176
     1
 90
       50
176
     1
 90
       50
176
     1
290
     0
176
     1
 90
       50
176
     1
 62
   256
176
     0
 40
1.0
176
     0
 90
        2
176
     1
  1
strokes_ogs.tif
176
     1
290
     0
176
     1
 40
1.0
176
     1
 40
1.0
176
     1
  0
VISUALSTYLE
  5
51C0
102
{ACAD_REACTORS
330
51B8
102
}
330
51B8
100
AcDbVisualStyle
  2
3D Hidden
 70
     6
177
     3
291
     0
 70
    58
 90
        1
176
     1
 90
        2
176
     1
 90
        2
176
     1
 90
        0
176
     1
 40
0.6
176
     1
 40
30.0
176
     1
 62
     7
420
 16777215
176
     1
 90
        2
176
     1
 90
        2
176
     1
 62
     7
176
     1
 62
   257
176
     1
 90
        2
176
     1
 90
        1
176
     1
 40
40.0
176
     1
 90
        0
176
     1
 62
   257
176
     1
 40
1.0
176
     1
 90
        1
176
     1
 90
        6
176
     1
 90
        2
176
     1
 62
     7
176
     1
 90
        3
176
     1
 90
        0
176
     1
 90
        0
176
     1
290
     0
176
     1
 90
        1
176
     1
 40
0.0
176
     1
 90
        0
176
     1
290
     0
176
     1
290
     1
176
     1
290
     1
176
     1
290
     0
176
     1
290
     0
176
     1
290
     0
176
     1
290
     0
176
     1
290
     0
176
     1
290
     0
176
     1
 90
       50
176
     1
 40
0.0
176
     1
 40
1.0
176
     1
 90
        0
176
     1
 62
    18
420
        0
176
     1
 90
       50
176
     1
 90
        3
176
     1
 62
     5
420
      255
176
     1
290
     0
176
     1
 90
       50
176
     1
 90
       50
176
     1
 90
       50
176
     1
290
     0
176
     1
 90
       50
176
     1
 62
   256
176
     0
 40
1.0
176
     0
 90
        2
176
     1
  1
strokes_ogs.tif
176
     1
290
     0
176
     1
 40
1.0
176
     1
 40
1.0
176
     1
  0
VISUALSTYLE
  5
51BF
102
{ACAD_REACTORS
330
51B8
102
}
330
51B8
100
AcDbVisualStyle
  2
3dWireframe
 70
     5
177
     3
291
     0
 70
    58
 90
        0
176
     1
 90
        2
176
     1
 90
        0
176
     1
 90
        0
176
     1
 40
0.6
176
     1
 40
30.0
176
     1
 62
     7
420
 16777215
176
     1
 90
        1
176
     1
 90
        4
176
     1
 62
     7
176
     1
 62
   257
176
     1
 90
        1
176
     1
 90
        1
176
     1
 40
1.0
176
     1
 90
        0
176
     1
 62
   257
176
     1
 40
1.0
176
     1
 90
        1
176
     1
 90
        6
176
     1
 90
        2
176
     1
 62
     7
176
     1
 90
        5
176
     1
 90
        0
176
     1
 90
        0
176
     1
290
     0
176
     1
 90
        1
176
     1
 40
0.0
176
     1
 90
        0
176
     1
290
     0
176
     1
290
     1
176
     1
290
     1
176
     1
290
     0
176
     1
290
     0
176
     1
290
     0
176
     1
290
     0
176
     1
290
     0
176
     1
290
     0
176
     1
 90
       50
176
     1
 40
0.0
176
     1
 40
1.0
176
     1
 90
        0
176
     1
 62
    18
420
        0
176
     1
 90
       50
176
     1
 90
        3
176
     1
 62
     5
420
      255
176
     1
290
     0
176
     1
 90
       50
176
     1
 90
       50
176
     1
 90
       50
176
     1
290
     0
176
     1
 90
       50
176
     1
 62
   256
176
     0
 40
1.0
176
     0
 90
        2
176
     1
  1
strokes_ogs.tif
176
     1
290
     0
176
     1
 40
1.0
176
     1
 40
1.0
176
     1
  0
VISUALSTYLE
  5
51BD
102
{ACAD_REACTORS
330
51B8
102
}
330
51B8
100
AcDbVisualStyle
  2
Basic
 70
     7
177
     3
291
     1
 70
    58
 90
        1
176
     1
 90
        0
176
     1
 90
        1
176
     1
 90
        0
176
     1
 40
0.6
176
     1
 40
30.0
176
     1
 62
     7
420
 16777215
176
     1
 90
        0
176
     1
 90
        4
176
     1
 62
     7
176
     1
 62
   257
176
     1
 90
        1
176
     1
 90
        1
176
     1
 40
1.0
176
     1
 90
        8
176
     1
 62
     7
176
     1
 40
1.0
176
     1
 90
        1
176
     1
 90
        6
176
     1
 90
        2
176
     1
 62
     7
176
     1
 90
        5
176
     1
 90
        0
176
     1
 90
        0
176
     1
290
     0
176
     1
 90
        1
176
     1
 40
0.0
176
     1
 90
        0
176
     1
290
     0
176
     1
290
     1
176
     1
290
     1
176
     1
290
     0
176
     1
290
     0
176
     1
290
     0
176
     1
290
     0
176
     1
290
     0
176
     1
290
     0
176
     1
 90
       50
176
     1
 40
0.0
176
     1
 40
1.0
176
     1
 90
        0
176
     1
 62
    18
420
        0
176
     1
 90
       50
176
     1
 90
        3
176
     1
 62
     5
420
      255
176
     1
290
     0
176
     1
 90
       50
176
     1
 90
       50
176
     1
 90
       50
176
     1
290
     0
176
     1
 90
       50
176
     1
 62
   256
176
     0
 40
1.0
176
     0
 90
        2
176
     1
  1
strokes_ogs.tif
176
     1
290
     0
176
     1
 40
1.0
176
     1
 40
1.0
176
     1
  0
VISUALSTYLE
  5
51C4
102
{ACAD_REACTORS
330
51B8
102
}
330
51B8
100
AcDbVisualStyle
  2
Brighten
 70
    12
177
     3
291
     1
 70
    58
 90
        2
176
     1
 90
        2
176
     1
 90
        0
176
     1
 90
        0
176
     1
 40
0.6
176
     1
 40
30.0
176
     1
 62
     7
420
 16777215
176
     1
 90
        1
176
     1
 90
        4
176
     1
 62
     7
176
     1
 62
   257
176
     1
 90
        1
176
     1
 90
        1
176
     1
 40
1.0
176
     1
 90
        8
176
     1
 62
     7
176
     1
 40
1.0
176
     1
 90
        1
176
     1
 90
        6
176
     1
 90
        2
176
     1
 62
     7
176
     1
 90
        5
176
     1
 90
        0
176
     1
 90
        0
176
     1
290
     0
176
     1
 90
        1
176
     1
 40
50.0
176
     1
 90
        0
176
     1
290
     0
176
     1
290
     1
176
     1
290
     1
176
     1
290
     0
176
     1
290
     0
176
     1
290
     0
176
     1
290
     0
176
     1
290
     0
176
     1
290
     0
176
     1
 90
       50
176
     1
 40
0.0
176
     1
 40
1.0
176
     1
 90
        0
176
     1
 62
    18
420
        0
176
     1
 90
       50
176
     1
 90
        3
176
     1
 62
     5
420
      255
176
     1
290
     0
176
     1
 90
       50
176
     1
 90
       50
176
     1
 90
       50
176
     1
290
     0
176
     1
 90
       50
176
     1
 62
   256
176
     0
 40
1.0
176
     0
 90
        2
176
     1
  1
strokes_ogs.tif
176
     1
290
     0
176
     1
 40
1.0
176
     1
 40
1.0
176
     1
  0
VISUALSTYLE
  5
51C8
102
{ACAD_REACTORS
330
51B8
102
}
330
51B8
100
AcDbVisualStyle
  2
ColorChange
 70
    16
177
     3
291
     1
 70
    58
 90
        2
176
     1
 90
        2
176
     1
 90
        3
176
     1
 90
        0
176
     1
 40
0.6
176
     1
 40
30.0
176
     1
 62
     8
420
  8421504
176
     1
 90
        1
176
     1
 90
        4
176
     1
 62
     7
176
     1
 62
   257
176
     1
 90
        1
176
     1
 90
        1
176
     1
 40
1.0
176
     1
 90
        8
176
     1
 62
     8
420
  8421504
176
     1
 40
1.0
176
     1
 90
        1
176
     1
 90
        6
176
     1
 90
        2
176
     1
 62
     7
176
     1
 90
        5
176
     1
 90
        0
176
     1
 90
        0
176
     1
290
     0
176
     1
 90
        1
176
     1
 40
0.0
176
     1
 90
        0
176
     1
290
     0
176
     1
290
     1
176
     1
290
     1
176
     1
290
     0
176
     1
290
     0
176
     1
290
     0
176
     1
290
     0
176
     1
290
     0
176
     1
290
     0
176
     1
 90
       50
176
     1
 40
0.0
176
     1
 40
1.0
176
     1
 90
        0
176
     1
 62
    18
420
        0
176
     1
 90
       50
176
     1
 90
        3
176
     1
 62
     5
420
      255
176
     1
290
     0
176
     1
 90
       50
176
     1
 90
       50
176
     1
 90
       50
176
     1
290
     0
176
     1
 90
       50
176
     1
 62
   256
176
     0
 40
1.0
176
     0
 90
        2
176
     1
  1
strokes_ogs.tif
176
     1
290
     0
176
     1
 40
1.0
176
     1
 40
1.0
176
     1
  0
VISUALSTYLE
  5
51C1
102
{ACAD_REACTORS
330
51B8
102
}
330
51B8
100
AcDbVisualStyle
  2
Conceptual
 70
     9
177
     3
291
     0
 70
    58
 90
        3
176
     1
 90
        2
176
     1
 90
        0
176
     1
 90
        0
176
     1
 40
0.6
176
     1
 40
30.0
176
     1
 62
     7
420
 16777215
176
     1
 90
        2
176
     1
 90
        2
176
     1
 62
     7
176
     1
 62
   257
176
     1
 90
        1
176
     1
 90
        1
176
     1
 40
40.0
176
     1
 90
        8
176
     1
 62
     7
176
     1
 40
1.0
176
     1
 90
        1
176
     1
 90
        6
176
     1
 90
        2
176
     1
 62
     7
176
     1
 90
        3
176
     1
 90
        0
176
     1
 90
        0
176
     1
290
     0
176
     1
 90
        1
176
     1
 40
0.0
176
     1
 90
        0
176
     1
290
     0
176
     1
290
     1
176
     1
290
     1
176
     1
290
     0
176
     1
290
     0
176
     1
290
     0
176
     1
290
     0
176
     1
290
     0
176
     1
290
     0
176
     1
 90
       50
176
     1
 40
0.0
176
     1
 40
1.0
176
     1
 90
        0
176
     1
 62
    18
420
        0
176
     1
 90
       50
176
     1
 90
        3
176
     1
 62
     5
420
      255
176
     1
290
     0
176
     1
 90
       50
176
     1
 90
       50
176
     1
 90
       50
176
     1
290
     0
176
     1
 90
       50
176
     1
 62
   256
176
     0
 40
1.0
176
     0
 90
        2
176
     1
  1
strokes_ogs.tif
176
     1
290
     0
176
     1
 40
1.0
176
     1
 40
1.0
176
     1
  0
VISUALSTYLE
  5
51C3
102
{ACAD_REACTORS
330
51B8
102
}
330
51B8
100
AcDbVisualStyle
  2
Dim
 70
    11
177
     3
291
     1
 70
    58
 90
        2
176
     1
 90
        2
176
     1
 90
        0
176
     1
 90
        0
176
     1
 40
0.6
176
     1
 40
30.0
176
     1
 62
     7
420
 16777215
176
     1
 90
        1
176
     1
 90
        4
176
     1
 62
     7
176
     1
 62
   257
176
     1
 90
        1
176
     1
 90
        1
176
     1
 40
1.0
176
     1
 90
        8
176
     1
 62
     7
176
     1
 40
1.0
176
     1
 90
        1
176
     1
 90
        6
176
     1
 90
        2
176
     1
 62
     7
176
     1
 90
        5
176
     1
 90
        0
176
     1
 90
        0
176
     1
290
     0
176
     1
 90
        1
176
     1
 40
-50.0
176
     1
 90
        0
176
     1
290
     0
176
     1
290
     1
176
     1
290
     1
176
     1
290
     0
176
     1
290
     0
176
     1
290
     0
176
     1
290
     0
176
     1
290
     0
176
     1
290
     0
176
     1
 90
       50
176
     1
 40
0.0
176
     1
 40
1.0
176
     1
 90
        0
176
     1
 62
    18
420
        0
176
     1
 90
       50
176
     1
 90
        3
176
     1
 62
     5
420
      255
176
     1
290
     0
176
     1
 90
       50
176
     1
 90
       50
176
     1
 90
       50
176
     1
290
     0
176
     1
 90
       50
176
     1
 62
   256
176
     0
 40
1.0
176
     0
 90
        2
176
     1
  1
strokes_ogs.tif
176
     1
290
     0
176
     1
 40
1.0
176
     1
 40
1.0
176
     1
  0
VISUALSTYLE
  5
51DF
102
{ACAD_REACTORS
330
51B8
102
}
330
51B8
100
AcDbVisualStyle
  2
EdgeColorOff
 70
    22
177
     3
291
     1
 70
    58
 90
        2
176
     0
 90
        2
176
     0
 90
        0
176
     0
 90
        0
176
     0
 40
0.6
176
     0
 40
30.0
176
     0
 62
     7
420
 16777215
176
     0
 90
        1
176
     0
 90
        4
176
     0
 62
     7
176
     0
 62
   257
176
     0
 90
        1
176
     0
 90
        1
176
     0
 40
1.0
176
     0
 90
        8
176
     2
 62
     7
176
     0
 40
1.0
176
     0
 90
        1
176
     0
 90
        6
176
     0
 90
        2
176
     0
 62
     7
176
     0
 90
        5
176
     0
 90
        0
176
     0
 90
        0
176
     0
290
     0
176
     0
 90
        1
176
     0
 40
0.0
176
     0
 90
        0
176
     0
290
     0
176
     0
290
     1
176
     0
290
     1
176
     0
290
     0
176
     0
290
     0
176
     0
290
     0
176
     0
290
     0
176
     0
290
     0
176
     0
290
     0
176
     0
 90
       50
176
     0
 40
0.0
176
     0
 40
1.0
176
     0
 90
        0
176
     0
 62
    18
420
        0
176
     0
 90
       50
176
     0
 90
        3
176
     0
 62
     5
420
      255
176
     0
290
     0
176
     0
 90
       50
176
     0
 90
       50
176
     0
 90
       50
176
     0
290
     0
176
     0
 90
       50
176
     0
 62
   256
176
     0
 40
1.0
176
     0
 90
        2
176
     0
  1
strokes_ogs.tif
176
     0
290
     0
176
     0
 40
1.0
176
     0
 40
1.0
176
     0
  0
VISUALSTYLE
  5
51C7
102
{ACAD_REACTORS
330
51B8
102
}
330
51B8
100
AcDbVisualStyle
  2
Facepattern
 70
    15
177
     3
291
     1
 70
    58
 90
        2
176
     1
 90
        2
176
     1
 90
        0
176
     1
 90
        0
176
     1
 40
0.6
176
     1
 40
30.0
176
     1
 62
     7
420
 16777215
176
     1
 90
        1
176
     1
 90
        4
176
     1
 62
     7
176
     1
 62
   257
176
     1
 90
        1
176
     1
 90
        1
176
     1
 40
1.0
176
     1
 90
        8
176
     1
 62
     7
176
     1
 40
1.0
176
     1
 90
        1
176
     1
 90
        6
176
     1
 90
        2
176
     1
 62
     7
176
     1
 90
        5
176
     1
 90
        0
176
     1
 90
        0
176
     1
290
     0
176
     1
 90
        1
176
     1
 40
0.0
176
     1
 90
        0
176
     1
290
     0
176
     1
290
     1
176
     1
290
     1
176
     1
290
     0
176
     1
290
     0
176
     1
290
     0
176
     1
290
     0
176
     1
290
     0
176
     1
290
     0
176
     1
 90
       50
176
     1
 40
0.0
176
     1
 40
1.0
176
     1
 90
        0
176
     1
 62
    18
420
        0
176
     1
 90
       50
176
     1
 90
        3
176
     1
 62
     5
420
      255
176
     1
290
     0
176
     1
 90
       50
176
     1
 90
       50
176
     1
 90
       50
176
     1
290
     0
176
     1
 90
       50
176
     1
 62
   256
176
     0
 40
1.0
176
     0
 90
        2
176
     1
  1
strokes_ogs.tif
176
     1
290
     0
176
     1
 40
1.0
176
     1
 40
1.0
176
     1
  0
VISUALSTYLE
  5
51B9
102
{ACAD_REACTORS
330
51B8
102
}
330
51B8
100
AcDbVisualStyle
  2
Flat
 70
     0
177
     3
291
     1
 70
    58
 90
        2
176
     1
 90
        1
176
     1
 90
        1
176
     1
 90
        2
176
     1
 40
0.6
176
     1
 40
30.0
176
     1
 62
     7
420
 16777215
176
     1
 90
        0
176
     1
 90
        4
176
     1
 62
     7
176
     1
 62
   257
176
     1
 90
        1
176
     1
 90
        1
176
     1
 40
1.0
176
     1
 90
        8
176
     1
 62
     7
176
     1
 40
1.0
176
     1
 90
        1
176
     1
 90
        6
176
     1
 90
        2
176
     1
 62
     7
176
     1
 90
        5
176
     1
 90
        0
176
     1
 90
        0
176
     1
290
     0
176
     1
 90
       13
176
     1
 40
0.0
176
     1
 90
        0
176
     1
290
     0
176
     1
290
     1
176
     1
290
     1
176
     1
290
     0
176
     1
290
     0
176
     1
290
     0
176
     1
290
     0
176
     1
290
     0
176
     1
290
     0
176
     1
 90
       50
176
     1
 40
0.0
176
     1
 40
1.0
176
     1
 90
        0
176
     1
 62
    18
420
        0
176
     1
 90
       50
176
     1
 90
        3
176
     1
 62
     5
420
      255
176
     1
290
     0
176
     1
 90
       50
176
     1
 90
       50
176
     1
 90
       50
176
     1
290
     0
176
     1
 90
       50
176
     1
 62
   256
176
     0
 40
1.0
176
     0
 90
        2
176
     1
  1
strokes_ogs.tif
176
     1
290
     0
176
     1
 40
1.0
176
     1
 40
1.0
176
     1
  0
VISUALSTYLE
  5
51BA
102
{ACAD_REACTORS
330
51B8
102
}
330
51B8
100
AcDbVisualStyle
  2
FlatWithEdges
 70
     1
177
     3
291
     1
 70
    58
 90
        2
176
     1
 90
        1
176
     1
 90
        1
176
     1
 90
        2
176
     1
 40
0.6
176
     1
 40
30.0
176
     1
 62
     7
420
 16777215
176
     1
 90
        1
176
     1
 90
        4
176
     1
 62
     7
176
     1
 62
   257
176
     1
 90
        1
176
     1
 90
        1
176
     1
 40
1.0
176
     1
 90
        0
176
     1
 62
   257
176
     1
 40
1.0
176
     1
 90
        1
176
     1
 90
        6
176
     1
 90
        2
176
     1
 62
     7
176
     1
 90
        5
176
     1
 90
        0
176
     1
 90
        0
176
     1
290
     0
176
     1
 90
       13
176
     1
 40
0.0
176
     1
 90
        0
176
     1
290
     0
176
     1
290
     1
176
     1
290
     1
176
     1
290
     0
176
     1
290
     0
176
     1
290
     0
176
     1
290
     0
176
     1
290
     0
176
     1
290
     0
176
     1
 90
       50
176
     1
 40
0.0
176
     1
 40
1.0
176
     1
 90
        0
176
     1
 62
    18
420
        0
176
     1
 90
       50
176
     1
 90
        3
176
     1
 62
     5
420
      255
176
     1
290
     0
176
     1
 90
       50
176
     1
 90
       50
176
     1
 90
       50
176
     1
290
     0
176
     1
 90
       50
176
     1
 62
   256
176
     0
 40
1.0
176
     0
 90
        2
176
     1
  1
strokes_ogs.tif
176
     1
290
     0
176
     1
 40
1.0
176
     1
 40
1.0
176
     1
  0
VISUALSTYLE
  5
51BB
102
{ACAD_REACTORS
330
51B8
102
}
330
51B8
100
AcDbVisualStyle
  2
Gouraud
 70
     2
177
     3
291
     1
 70
    58
 90
        2
176
     1
 90
        2
176
     1
 90
        1
176
     1
 90
        2
176
     1
 40
0.6
176
     1
 40
30.0
176
     1
 62
     7
420
 16777215
176
     1
 90
        0
176
     1
 90
        4
176
     1
 62
     7
176
     1
 62
   257
176
     1
 90
        1
176
     1
 90
        1
176
     1
 40
1.0
176
     1
 90
        0
176
     1
 62
     7
176
     1
 40
1.0
176
     1
 90
        1
176
     1
 90
        6
176
     1
 90
        2
176
     1
 62
     7
176
     1
 90
        5
176
     1
 90
        0
176
     1
 90
        0
176
     1
290
     0
176
     1
 90
       13
176
     1
 40
0.0
176
     1
 90
        0
176
     1
290
     0
176
     1
290
     1
176
     1
290
     1
176
     1
290
     0
176
     1
290
     0
176
     1
290
     0
176
     1
290
     0
176
     1
290
     0
176
     1
290
     0
176
     1
 90
       50
176
     1
 40
0.0
176
     1
 40
1.0
176
     1
 90
        0
176
     1
 62
    18
420
        0
176
     1
 90
       50
176
     1
 90
        3
176
     1
 62
     5
420
      255
176
     1
290
     0
176
     1
 90
       50
176
     1
 90
       50
176
     1
 90
       50
176
     1
290
     0
176
     1
 90
       50
176
     1
 62
   256
176
     0
 40
1.0
176
     0
 90
        2
176
     1
  1
strokes_ogs.tif
176
     1
290
     0
176
     1
 40
1.0
176
     1
 40
1.0
176
     1
  0
VISUALSTYLE
  5
51BC
102
{ACAD_REACTORS
330
51B8
102
}
330
51B8
100
AcDbVisualStyle
  2
GouraudWithEdges
 70
     3
177
     3
291
     1
 70
    58
 90
        2
176
     1
 90
        2
176
     1
 90
        1
176
     1
 90
        2
176
     1
 40
0.6
176
     1
 40
30.0
176
     1
 62
     7
420
 16777215
176
     1
 90
        1
176
     1
 90
        4
176
     1
 62
     7
176
     1
 62
   257
176
     1
 90
        1
176
     1
 90
        1
176
     1
 40
1.0
176
     1
 90
        0
176
     1
 62
   257
176
     1
 40
1.0
176
     1
 90
        1
176
     1
 90
        6
176
     1
 90
        2
176
     1
 62
     7
176
     1
 90
        5
176
     1
 90
        0
176
     1
 90
        0
176
     1
290
     0
176
     1
 90
       13
176
     1
 40
0.0
176
     1
 90
        0
176
     1
290
     0
176
     1
290
     1
176
     1
290
     1
176
     1
290
     0
176
     1
290
     0
176
     1
290
     0
176
     1
290
     0
176
     1
290
     0
176
     1
290
     0
176
     1
 90
       50
176
     1
 40
0.0
176
     1
 40
1.0
176
     1
 90
        0
176
     1
 62
    18
420
        0
176
     1
 90
       50
176
     1
 90
        3
176
     1
 62
     5
420
      255
176
     1
290
     0
176
     1
 90
       50
176
     1
 90
       50
176
     1
 90
       50
176
     1
290
     0
176
     1
 90
       50
176
     1
 62
   256
176
     0
 40
1.0
176
     0
 90
        2
176
     1
  1
strokes_ogs.tif
176
     1
290
     0
176
     1
 40
1.0
176
     1
 40
1.0
176
     1
  0
VISUALSTYLE
  5
51D7
102
{ACAD_REACTORS
330
51B8
102
}
330
51B8
100
AcDbVisualStyle
  2
Hidden
 70
     6
177
     3
291
     0
 70
    58
 90
        1
176
     1
 90
        2
176
     1
 90
        2
176
     1
 90
        0
176
     1
 40
0.6
176
     1
 40
30.0
176
     1
 62
     7
420
 16777215
176
     1
 90
        2
176
     1
 90
        2
176
     1
 62
     7
176
     1
 62
   257
176
     1
 90
        2
176
     1
 90
        1
176
     1
 40
40.0
176
     1
 90
        0
176
     1
 62
   257
176
     1
 40
1.0
176
     1
 90
        1
176
     1
 90
        6
176
     1
 90
        2
176
     1
 62
     7
176
     1
 90
        3
176
     1
 90
        0
176
     1
 90
        0
176
     1
290
     0
176
     1
 90
        1
176
     1
 40
0.0
176
     1
 90
        0
176
     1
290
     0
176
     1
290
     1
176
     1
290
     1
176
     1
290
     0
176
     1
290
     0
176
     1
290
     0
176
     1
290
     0
176
     1
290
     0
176
     1
290
     0
176
     1
 90
       50
176
     1
 40
0.0
176
     1
 40
1.0
176
     1
 90
        0
176
     1
 62
    18
420
        0
176
     1
 90
       50
176
     1
 90
        3
176
     1
 62
     5
420
      255
176
     1
290
     0
176
     1
 90
       50
176
     1
 90
       50
176
     1
 90
       50
176
     1
290
     0
176
     1
 90
       50
176
     1
 62
   256
176
     0
 40
1.0
176
     0
 90
        2
176
     1
  1
strokes_ogs.tif
176
     1
290
     0
176
     1
 40
1.0
176
     1
 40
1.0
176
     1
  0
VISUALSTYLE
  5
51DD
102
{ACAD_REACTORS
330
51B8
102
}
330
51B8
100
AcDbVisualStyle
  2
JitterOff
 70
    20
177
     3
291
     1
 70
    58
 90
        2
176
     0
 90
        2
176
     0
 90
        0
176
     0
 90
        0
176
     0
 40
0.6
176
     0
 40
30.0
176
     0
 62
     7
420
 16777215
176
     0
 90
        1
176
     0
 90
        4
176
     0
 62
     7
176
     0
 62
   257
176
     0
 90
        1
176
     0
 90
        1
176
     0
 40
1.0
176
     0
 90
       10
176
     2
 62
     7
176
     0
 40
1.0
176
     0
 90
        1
176
     0
 90
        6
176
     0
 90
        2
176
     0
 62
     7
176
     0
 90
        5
176
     0
 90
        0
176
     0
 90
        0
176
     0
290
     0
176
     0
 90
        1
176
     0
 40
0.0
176
     0
 90
        0
176
     0
290
     0
176
     0
290
     1
176
     0
290
     1
176
     0
290
     0
176
     0
290
     0
176
     0
290
     0
176
     0
290
     0
176
     0
290
     0
176
     0
290
     0
176
     0
 90
       50
176
     0
 40
0.0
176
     0
 40
1.0
176
     0
 90
        0
176
     0
 62
    18
420
        0
176
     0
 90
       50
176
     0
 90
        3
176
     0
 62
     5
420
      255
176
     0
290
     0
176
     0
 90
       50
176
     0
 90
       50
176
     0
 90
       50
176
     0
290
     0
176
     0
 90
       50
176
     0
 62
   256
176
     0
 40
1.0
176
     0
 90
        2
176
     0
  1
strokes_ogs.tif
176
     0
290
     0
176
     0
 40
1.0
176
     0
 40
1.0
176
     0
  0
VISUALSTYLE
  5
51C6
102
{ACAD_REACTORS
330
51B8
102
}
330
51B8
100
AcDbVisualStyle
  2
Linepattern
 70
    14
177
     3
291
     1
 70
    58
 90
        2
176
     1
 90
        2
176
     1
 90
        0
176
     1
 90
        0
176
     1
 40
0.6
176
     1
 40
30.0
176
     1
 62
     7
420
 16777215
176
     1
 90
        1
176
     1
 90
        4
176
     1
 62
     7
176
     1
 62
   257
176
     1
 90
        7
176
     1
 90
        7
176
     1
 40
1.0
176
     1
 90
        8
176
     1
 62
     7
176
     1
 40
1.0
176
     1
 90
        1
176
     1
 90
        6
176
     1
 90
        2
176
     1
 62
     7
176
     1
 90
        5
176
     1
 90
        0
176
     1
 90
        0
176
     1
290
     0
176
     1
 90
        1
176
     1
 40
0.0
176
     1
 90
        0
176
     1
290
     0
176
     1
290
     1
176
     1
290
     1
176
     1
290
     0
176
     1
290
     0
176
     1
290
     0
176
     1
290
     0
176
     1
290
     0
176
     1
290
     0
176
     1
 90
       50
176
     1
 40
0.0
176
     1
 40
1.0
176
     1
 90
        0
176
     1
 62
    18
420
        0
176
     1
 90
       50
176
     1
 90
        3
176
     1
 62
     5
420
      255
176
     1
290
     0
176
     1
 90
       50
176
     1
 90
       50
176
     1
 90
       50
176
     1
290
     0
176
     1
 90
       50
176
     1
 62
   256
176
     0
 40
1.0
176
     0
 90
        2
176
     1
  1
strokes_ogs.tif
176
     1
290
     0
176
     1
 40
1.0
176
     1
 40
1.0
176
     1
  0
VISUALSTYLE
  5
51DE
102
{ACAD_REACTORS
330
51B8
102
}
330
51B8
100
AcDbVisualStyle
  2
OverhangOff
 70
    21
177
     3
291
     1
 70
    58
 90
        2
176
     0
 90
        2
176
     0
 90
        0
176
     0
 90
        0
176
     0
 40
0.6
176
     0
 40
30.0
176
     0
 62
     7
420
 16777215
176
     0
 90
        1
176
     0
 90
        4
176
     0
 62
     7
176
     0
 62
   257
176
     0
 90
        1
176
     0
 90
        1
176
     0
 40
1.0
176
     0
 90
        9
176
     2
 62
     7
176
     0
 40
1.0
176
     0
 90
        1
176
     0
 90
        6
176
     0
 90
        2
176
     0
 62
     7
176
     0
 90
        5
176
     0
 90
        0
176
     0
 90
        0
176
     0
290
     0
176
     0
 90
        1
176
     0
 40
0.0
176
     0
 90
        0
176
     0
290
     0
176
     0
290
     1
176
     0
290
     1
176
     0
290
     0
176
     0
290
     0
176
     0
290
     0
176
     0
290
     0
176
     0
290
     0
176
     0
290
     0
176
     0
 90
       50
176
     0
 40
0.0
176
     0
 40
1.0
176
     0
 90
        0
176
     0
 62
    18
420
        0
176
     0
 90
       50
176
     0
 90
        3
176
     0
 62
     5
420
      255
176
     0
290
     0
176
     0
 90
       50
176
     0
 90
       50
176
     0
 90
       50
176
     0
290
     0
176
     0
 90
       50
176
     0
 62
   256
176
     0
 40
1.0
176
     0
 90
        2
176
     0
  1
strokes_ogs.tif
176
     0
290
     0
176
     0
 40
1.0
176
     0
 40
1.0
176
     0
  0
VISUALSTYLE
  5
51C2
102
{ACAD_REACTORS
330
51B8
102
}
330
51B8
100
AcDbVisualStyle
  2
Realistic
 70
     8
177
     3
291
     0
 70
    58
 90
        2
176
     1
 90
        2
176
     1
 90
        0
176
     1
 90
        0
176
     1
 40
0.6
176
     1
 40
30.0
176
     1
 62
     7
420
 16777215
176
     1
 90
        1
176
     1
 90
        0
176
     1
 62
     7
176
     1
 62
   257
176
     1
 90
        1
176
     1
 90
        1
176
     1
 40
1.0
176
     1
 90
        8
176
     1
 62
     8
420
  7895160
176
     1
 40
1.0
176
     1
 90
        1
176
     1
 90
        6
176
     1
 90
        2
176
     1
 62
     7
176
     1
 90
        5
176
     1
 90
        0
176
     1
 90
        0
176
     1
290
     0
176
     1
 90
       13
176
     1
 40
0.0
176
     1
 90
        0
176
     1
290
     0
176
     1
290
     1
176
     1
290
     1
176
     1
290
     0
176
     1
290
     0
176
     1
290
     0
176
     1
290
     0
176
     1
290
     0
176
     1
290
     0
176
     1
 90
       50
176
     1
 40
0.0
176
     1
 40
1.0
176
     1
 90
        0
176
     1
 62
    18
420
        0
176
     1
 90
       50
176
     1
 90
        3
176
     1
 62
     5
420
      255
176
     1
290
     0
176
     1
 90
       50
176
     1
 90
       50
176
     1
 90
       50
176
     1
290
     0
176
     1
 90
       50
176
     1
 62
   256
176
     0
 40
1.0
176
     0
 90
        2
176
     1
  1
strokes_ogs.tif
176
     1
290
     0
176
     1
 40
1.0
176
     1
 40
1.0
176
     1
  0
VISUALSTYLE
  5
51DC
102
{ACAD_REACTORS
330
51B8
102
}
330
51B8
100
AcDbVisualStyle
  2
Shaded
 70
    27
177
     3
291
     0
 70
    58
 90
        2
176
     1
 90
        2
176
     1
 90
        1
176
     1
 90
        2
176
     1
 40
0.6
176
     1
 40
30.0
176
     1
 62
     7
420
 16777215
176
     1
 90
        0
176
     1
 90
        4
176
     1
 62
     7
176
     1
 62
   257
176
     1
 90
        1
176
     1
 90
        1
176
     1
 40
1.0
176
     1
 90
        8
176
     1
 62
   257
176
     1
 40
1.0
176
     1
 90
        1
176
     1
 90
        6
176
     1
 90
        2
176
     1
 62
     8
420
  7895160
176
     1
 90
        3
176
     1
 90
        0
176
     1
 90
        0
176
     1
290
     0
176
     1
 90
        5
176
     1
 40
0.0
176
     1
 90
        0
176
     1
290
     0
176
     1
290
     1
176
     1
290
     1
176
     1
290
     0
176
     1
290
     0
176
     1
290
     0
176
     1
290
     0
176
     1
290
     0
176
     1
290
     0
176
     1
 90
       50
176
     1
 40
0.0
176
     1
 40
1.0
176
     1
 90
        0
176
     1
 62
    18
420
        0
176
     1
 90
       50
176
     1
 90
        3
176
     1
 62
     5
420
      255
176
     1
290
     0
176
     1
 90
       50
176
     1
 90
       50
176
     1
 90
       50
176
     1
290
     0
176
     1
 90
       50
176
     1
 62
   256
176
     0
 40
1.0
176
     0
 90
        2
176
     1
  1
strokes_ogs.tif
176
     1
290
     0
176
     1
 40
1.0
176
     1
 40
1.0
176
     1
  0
VISUALSTYLE
  5
51DB
102
{ACAD_REACTORS
330
51B8
102
}
330
51B8
100
AcDbVisualStyle
  2
Shaded with edges
 70
    26
177
     3
291
     0
 70
    58
 90
        2
176
     1
 90
        2
176
     1
 90
        1
176
     1
 90
        2
176
     1
 40
0.6
176
     1
 40
30.0
176
     1
 62
     7
420
 16777215
176
     1
 90
        1
176
     1
 90
        2
176
     1
 62
     7
176
     1
 62
   257
176
     1
 90
        2
176
     1
 90
        1
176
     1
 40
1.0
176
     1
 90
        8
176
     1
 62
   257
176
     1
 40
1.0
176
     1
 90
        1
176
     1
 90
        6
176
     1
 90
        2
176
     1
 62
     7
176
     1
 90
        3
176
     1
 90
        0
176
     1
 90
        0
176
     1
290
     0
176
     1
 90
        5
176
     1
 40
0.0
176
     1
 90
        0
176
     1
290
     0
176
     1
290
     1
176
     1
290
     1
176
     1
290
     0
176
     1
290
     0
176
     1
290
     0
176
     1
290
     0
176
     1
290
     0
176
     1
290
     0
176
     1
 90
       50
176
     1
 40
0.0
176
     1
 40
1.0
176
     1
 90
        0
176
     1
 62
    18
420
        0
176
     1
 90
       50
176
     1
 90
        3
176
     1
 62
     5
420
      255
176
     1
290
     0
176
     1
 90
       50
176
     1
 90
       50
176
     1
 90
       50
176
     1
290
     0
176
     1
 90
       50
176
     1
 62
   256
176
     0
 40
1.0
176
     0
 90
        2
176
     1
  1
strokes_ogs.tif
176
     1
290
     0
176
     1
 40
1.0
176
     1
 40
1.0
176
     1
  0
VISUALSTYLE
  5
51D8
102
{ACAD_REACTORS
330
51B8
102
}
330
51B8
100
AcDbVisualStyle
  2
Shades of Gray
 70
    23
177
     3
291
     0
 70
    58
 90
        2
176
     1
 90
        2
176
     1
 90
        3
176
     1
 90
        0
176
     1
 40
0.6
176
     1
 40
30.0
176
     1
 62
     7
420
 16777215
176
     1
 90
        2
176
     1
 90
        2
176
     1
 62
     7
176
     1
 62
     7
176
     1
 90
        1
176
     1
 90
        1
176
     1
 40
40.0
176
     1
 90
        8
176
     1
 62
     7
176
     1
 40
1.0
176
     1
 90
        1
176
     1
 90
        6
176
     1
 90
        2
176
     1
 62
     7
176
     1
 90
        3
176
     1
 90
        0
176
     1
 90
        0
176
     1
290
     0
176
     1
 90
        1
176
     1
 40
0.0
176
     1
 90
        0
176
     1
290
     0
176
     1
290
     1
176
     1
290
     1
176
     1
290
     0
176
     1
290
     0
176
     1
290
     0
176
     1
290
     0
176
     1
290
     0
176
     1
290
     0
176
     1
 90
       50
176
     1
 40
0.0
176
     1
 40
1.0
176
     1
 90
        0
176
     1
 62
    18
420
        0
176
     1
 90
       50
176
     1
 90
        3
176
     1
 62
     5
420
      255
176
     1
290
     0
176
     1
 90
       50
176
     1
 90
       50
176
     1
 90
       50
176
     1
290
     0
176
     1
 90
       50
176
     1
 62
   256
176
     0
 40
1.0
176
     0
 90
        2
176
     1
  1
strokes_ogs.tif
176
     1
290
     0
176
     1
 40
1.0
176
     1
 40
1.0
176
     1
  0
VISUALSTYLE
  5
51D9
102
{ACAD_REACTORS
330
51B8
102
}
330
51B8
100
AcDbVisualStyle
  2
Sketchy
 70
    24
177
     3
291
     0
 70
    58
 90
        1
176
     1
 90
        2
176
     1
 90
        2
176
     1
 90
        0
176
     1
 40
0.6
176
     1
 40
30.0
176
     1
 62
     7
420
 16777215
176
     1
 90
        2
176
     1
 90
        2
176
     1
 62
     7
176
     1
 62
     7
176
     1
 90
        1
176
     1
 90
        1
176
     1
 40
40.0
176
     1
 90
       11
176
     1
 62
     7
176
     1
 40
1.0
176
     1
 90
        1
176
     1
 90
        6
176
     1
 90
        2
176
     1
 62
     7
176
     1
 90
        6
176
     1
 90
        0
176
     1
 90
        0
176
     1
290
     0
176
     1
 90
        1
176
     1
 40
0.0
176
     1
 90
        0
176
     1
290
     0
176
     1
290
     1
176
     1
290
     1
176
     1
290
     0
176
     1
290
     0
176
     1
290
     0
176
     1
290
     0
176
     1
290
     0
176
     1
290
     0
176
     1
 90
       50
176
     1
 40
0.0
176
     1
 40
1.0
176
     1
 90
        0
176
     1
 62
    18
420
        0
176
     1
 90
       50
176
     1
 90
        3
176
     1
 62
     5
420
      255
176
     1
290
     0
176
     1
 90
       50
176
     1
 90
       50
176
     1
 90
       50
176
     1
290
     0
176
     1
 90
       50
176
     1
 62
   256
176
     0
 40
1.0
176
     0
 90
        2
176
     1
  1
strokes_ogs.tif
176
     1
290
     0
176
     1
 40
1.0
176
     1
 40
1.0
176
     1
  0
VISUALSTYLE
  5
51C5
102
{ACAD_REACTORS
330
51B8
102
}
330
51B8
100
AcDbVisualStyle
  2
Thicken
 70
    13
177
     3
291
     1
 70
    58
 90
        2
176
     1
 90
        2
176
     1
 90
        0
176
     1
 90
        0
176
     1
 40
0.6
176
     1
 40
30.0
176
     1
 62
     7
420
 16777215
176
     1
 90
        1
176
     1
 90
        4
176
     1
 62
     7
176
     1
 62
   257
176
     1
 90
        1
176
     1
 90
        1
176
     1
 40
1.0
176
     1
 90
       12
176
     1
 62
     7
176
     1
 40
1.0
176
     1
 90
        1
176
     1
 90
        6
176
     1
 90
        2
176
     1
 62
     7
176
     1
 90
        5
176
     1
 90
        0
176
     1
 90
        0
176
     1
290
     0
176
     1
 90
        1
176
     1
 40
0.0
176
     1
 90
        0
176
     1
290
     0
176
     1
290
     1
176
     1
290
     1
176
     1
290
     0
176
     1
290
     0
176
     1
290
     0
176
     1
290
     0
176
     1
290
     0
176
     1
290
     0
176
     1
 90
       50
176
     1
 40
0.0
176
     1
 40
1.0
176
     1
 90
        0
176
     1
 62
    18
420
        0
176
     1
 90
       50
176
     1
 90
        3
176
     1
 62
     5
420
      255
176
     1
290
     0
176
     1
 90
       50
176
     1
 90
       50
176
     1
 90
       50
176
     1
290
     0
176
     1
 90
       50
176
     1
 62
   256
176
     0
 40
1.0
176
     0
 90
        2
176
     1
  1
strokes_ogs.tif
176
     1
290
     0
176
     1
 40
1.0
176
     1
 40
1.0
176
     1
  0
VISUALSTYLE
  5
51D6
102
{ACAD_REACTORS
330
51B8
102
}
330
51B8
100
AcDbVisualStyle
  2
Wireframe
 70
     5
177
     3
291
     0
 70
    58
 90
        0
176
     1
 90
        2
176
     1
 90
        0
176
     1
 90
        0
176
     1
 40
0.6
176
     1
 40
30.0
176
     1
 62
     7
420
 16777215
176
     1
 90
        1
176
     1
 90
        4
176
     1
 62
     7
176
     1
 62
   257
176
     1
 90
        1
176
     1
 90
        1
176
     1
 40
1.0
176
     1
 90
        0
176
     1
 62
   257
176
     1
 40
1.0
176
     1
 90
        1
176
     1
 90
        6
176
     1
 90
        2
176
     1
 62
     7
176
     1
 90
        3
176
     1
 90
        0
176
     1
 90
        0
176
     1
290
     0
176
     1
 90
        1
176
     1
 40
0.0
176
     1
 90
        0
176
     1
290
     0
176
     1
290
     1
176
     1
290
     1
176
     1
290
     0
176
     1
290
     0
176
     1
290
     0
176
     1
290
     0
176
     1
290
     0
176
     1
290
     0
176
     1
 90
       50
176
     1
 40
0.0
176
     1
 40
1.0
176
     1
 90
        0
176
     1
 62
    18
420
        0
176
     1
 90
       50
176
     1
 90
        3
176
     1
 62
     5
420
      255
176
     1
290
     0
176
     1
 90
       50
176
     1
 90
       50
176
     1
 90
       50
176
     1
290
     0
176
     1
 90
       50
176
     1
 62
   256
176
     0
 40
1.0
176
     0
 90
        2
176
     1
  1
strokes_ogs.tif
176
     1
290
     0
176
     1
 40
1.0
176
     1
 40
1.0
176
     1
  0
VISUALSTYLE
  5
51DA
102
{ACAD_REACTORS
330
51B8
102
}
330
51B8
100
AcDbVisualStyle
  2
X-Ray
 70
    25
177
     3
291
     0
 70
    58
 90
        2
176
     1
 90
        2
176
     1
 90
        1
176
     1
 90
        1
176
     1
 40
0.5
176
     1
 40
30.0
176
     1
 62
     7
420
 16777215
176
     1
 90
        1
176
     1
 90
        0
176
     1
 62
     7
176
     1
 62
   257
176
     1
 90
        1
176
     1
 90
        1
176
     1
 40
1.0
176
     1
 90
        8
176
     1
 62
     7
176
     1
 40
1.0
176
     1
 90
        1
176
     1
 90
        6
176
     1
 90
        2
176
     1
 62
     7
176
     1
 90
        3
176
     1
 90
        0
176
     1
 90
        0
176
     1
290
     0
176
     1
 90
       13
176
     1
 40
0.0
176
     1
 90
        0
176
     1
290
     0
176
     1
290
     1
176
     1
290
     1
176
     1
290
     0
176
     1
290
     0
176
     1
290
     0
176
     1
290
     0
176
     1
290
     0
176
     1
290
     0
176
     1
 90
       50
176
     1
 40
0.0
176
     1
 40
1.0
176
     1
 90
        0
176
     1
 62
    18
420
        0
176
     1
 90
       50
176
     1
 90
        3
176
     1
 62
     5
420
      255
176
     1
290
     0
176
     1
 90
       50
176
     1
 90
       50
176
     1
 90
       50
176
     1
290
     0
176
     1
 90
       50
176
     1
 62
   256
176
     0
 40
1.0
176
     0
 90
        2
176
     1
  1
strokes_ogs.tif
176
     1
290
     0
176
     1
 40
1.0
176
     1
 40
1.0
176
     1
  0
DICTIONARYVAR
  5
5217
102
{ACAD_REACTORS
330
5E
102
}
330
5E
100
DictionaryVariables
280
     0
  1
1:1
  0
DICTIONARYVAR
  5
5213
102
{ACAD_REACTORS
330
5E
102
}
330
5E
100
DictionaryVariables
280
     0
  1
STANDARD
  0
DICTIONARYVAR
  5
51D4
102
{ACAD_REACTORS
330
5E
102
}
330
5E
100
DictionaryVariables
280
     0
  1
STANDARD
  0
DICTIONARYVAR
  5
5214
102
{ACAD_REACTORS
330
5E
102
}
330
5E
100
DictionaryVariables
280
     0
  1
Metric50
  0
DICTIONARYVAR
  5
5215
102
{ACAD_REACTORS
330
5E
102
}
330
5E
100
DictionaryVariables
280
     0
  1
Metric50
  0
DICTIONARYVAR
  5
5F
102
{ACAD_REACTORS
330
5E
102
}
330
5E
100
DictionaryVariables
280
     0
  1
2
  0
DICTIONARYVAR
  5
63
102
{ACAD_REACTORS
330
5E
102
}
330
5E
100
DictionaryVariables
280
     0
  1
1
  0
DICTIONARYVAR
  5
5219
102
{ACAD_REACTORS
330
5E
102
}
330
5E
100
DictionaryVariables
280
     0
  1
1
  0
DICTIONARYVAR
  5
521A
102
{ACAD_REACTORS
330
5E
102
}
330
5E
100
DictionaryVariables
280
     0
  1
15
  0
DICTIONARYVAR
  5
5218
102
{ACAD_REACTORS
330
5E
102
}
330
5E
100
DictionaryVariables
280
     0
  1
0
  0
DICTIONARYVAR
  5
5216
102
{ACAD_REACTORS
330
5E
102
}
330
5E
100
DictionaryVariables
280
     0
  1
0
  0
DICTIONARYVAR
  5
1CF
102
{ACAD_REACTORS
330
5E
102
}
330
5E
100
DictionaryVariables
280
     0
  1

  0
ACAD_PROXY_OBJECT
  5
51D2
102
{ACAD_REACTORS
330
51D1
102
}
330
51D1
100
AcDbProxyObject
 90
      499
 91
      508
 71
    27
 97
        1
 70
     0
162
                 0
161
               224
310
00013FFFD0C4040800000000000004402826564C4F2D52202E20302900
 94
        0
  0
DICTIONARY
  5
521B
330
51CA
100
AcDbDictionary
280
     1
281
     1
  3
ACAD_ROUNDTRIP_2008_TABLESTYLE_CELLSTYLEMAP
360
521C
  0
CELLSTYLEMAP
  5
521C
102
{ACAD_REACTORS
330
521B
102
}
330
521B
100
AcDbCellStyleMap
 90
        3
300
CELLSTYLE
  1
TABLEFORMAT_BEGIN
 90
        5
170
     1
 91
        0
 92
    32768
 62
   257
 93
        1
300
CONTENTFORMAT
  1
CONTENTFORMAT_BEGIN
 90
        0
 91
        0
 92
      512
 93
        0
300

 40
0.0
140
1.0
 94
        5
 62
     0
340
11
144
6.0
309
CONTENTFORMAT_END
171
     1
301
MARGIN
  1
CELLMARGIN_BEGIN
 40
1.5
 40
1.5
 40
1.5
 40
1.5
 40
0.18
 40
0.18
309
CELLMARGIN_END
 94
        6
 95
        1
302
GRIDFORMAT
  1
GRIDFORMAT_BEGIN
 90
        0
 91
        1
 62
     0
 92
       -2
340
0
 93
        0
 40
0.045
309
GRIDFORMAT_END
 95
        2
302
GRIDFORMAT
  1
GRIDFORMAT_BEGIN
 90
        0
 91
        1
 62
     0
 92
       -2
340
0
 93
        0
 40
0.045
309
GRIDFORMAT_END
 95
        4
302
GRIDFORMAT
  1
GRIDFORMAT_BEGIN
 90
        0
 91
        1
 62
     0
 92
       -2
340
0
 93
        0
 40
0.045
309
GRIDFORMAT_END
 95
        8
302
GRIDFORMAT
  1
GRIDFORMAT_BEGIN
 90
        0
 91
        1
 62
     0
 92
       -2
340
0
 93
        0
 40
0.045
309
GRIDFORMAT_END
 95
       16
302
GRIDFORMAT
  1
GRIDFORMAT_BEGIN
 90
        0
 91
        1
 62
     0
 92
       -2
340
0
 93
        0
 40
0.045
309
GRIDFORMAT_END
 95
       32
302
GRIDFORMAT
  1
GRIDFORMAT_BEGIN
 90
        0
 91
        1
 62
     0
 92
       -2
340
0
 93
        0
 40
0.045
309
GRIDFORMAT_END
309
TABLEFORMAT_END
  1
CELLSTYLE_BEGIN
 90
        1
 91
        1
300
_TITLE
309
CELLSTYLE_END
300
CELLSTYLE
  1
TABLEFORMAT_BEGIN
 90
        5
170
     1
 91
        0
 92
        0
 62
   257
 93
        1
300
CONTENTFORMAT
  1
CONTENTFORMAT_BEGIN
 90
        0
 91
        0
 92
      512
 93
        0
300

 40
0.0
140
1.0
 94
        5
 62
     0
340
11
144
4.5
309
CONTENTFORMAT_END
171
     1
301
MARGIN
  1
CELLMARGIN_BEGIN
 40
1.5
 40
1.5
 40
1.5
 40
1.5
 40
0.18
 40
0.18
309
CELLMARGIN_END
 94
        6
 95
        1
302
GRIDFORMAT
  1
GRIDFORMAT_BEGIN
 90
        0
 91
        1
 62
     0
 92
       -2
340
0
 93
        0
 40
0.045
309
GRIDFORMAT_END
 95
        2
302
GRIDFORMAT
  1
GRIDFORMAT_BEGIN
 90
        0
 91
        1
 62
     0
 92
       -2
340
0
 93
        0
 40
0.045
309
GRIDFORMAT_END
 95
        4
302
GRIDFORMAT
  1
GRIDFORMAT_BEGIN
 90
        0
 91
        1
 62
     0
 92
       -2
340
0
 93
        0
 40
0.045
309
GRIDFORMAT_END
 95
        8
302
GRIDFORMAT
  1
GRIDFORMAT_BEGIN
 90
        0
 91
        1
 62
     0
 92
       -2
340
0
 93
        0
 40
0.045
309
GRIDFORMAT_END
 95
       16
302
GRIDFORMAT
  1
GRIDFORMAT_BEGIN
 90
        0
 91
        1
 62
     0
 92
       -2
340
0
 93
        0
 40
0.045
309
GRIDFORMAT_END
 95
       32
302
GRIDFORMAT
  1
GRIDFORMAT_BEGIN
 90
        0
 91
        1
 62
     0
 92
       -2
340
0
 93
        0
 40
0.045
309
GRIDFORMAT_END
309
TABLEFORMAT_END
  1
CELLSTYLE_BEGIN
 90
        2
 91
        1
300
_HEADER
309
CELLSTYLE_END
300
CELLSTYLE
  1
TABLEFORMAT_BEGIN
 90
        5
170
     1
 91
        0
 92
        0
 62
   257
 93
        1
300
CONTENTFORMAT
  1
CONTENTFORMAT_BEGIN
 90
        0
 91
        0
 92
      512
 93
        0
300

 40
0.0
140
1.0
 94
        2
 62
     0
340
11
144
4.5
309
CONTENTFORMAT_END
171
     1
301
MARGIN
  1
CELLMARGIN_BEGIN
 40
1.5
 40
1.5
 40
1.5
 40
1.5
 40
0.18
 40
0.18
309
CELLMARGIN_END
 94
        6
 95
        1
302
GRIDFORMAT
  1
GRIDFORMAT_BEGIN
 90
        0
 91
        1
 62
     0
 92
       -2
340
0
 93
        0
 40
0.045
309
GRIDFORMAT_END
 95
        2
302
GRIDFORMAT
  1
GRIDFORMAT_BEGIN
 90
        0
 91
        1
 62
     0
 92
       -2
340
0
 93
        0
 40
0.045
309
GRIDFORMAT_END
 95
        4
302
GRIDFORMAT
  1
GRIDFORMAT_BEGIN
 90
        0
 91
        1
 62
     0
 92
       -2
340
0
 93
        0
 40
0.045
309
GRIDFORMAT_END
 95
        8
302
GRIDFORMAT
  1
GRIDFORMAT_BEGIN
 90
        0
 91
        1
 62
     0
 92
       -2
340
0
 93
        0
 40
0.045
309
GRIDFORMAT_END
 95
       16
302
GRIDFORMAT
  1
GRIDFORMAT_BEGIN
 90
        0
 91
        1
 62
     0
 92
       -2
340
0
 93
        0
 40
0.045
309
GRIDFORMAT_END
 95
       32
302
GRIDFORMAT
  1
GRIDFORMAT_BEGIN
 90
        0
 91
        1
 62
     0
 92
       -2
340
0
 93
        0
 40
0.045
309
GRIDFORMAT_END
309
TABLEFORMAT_END
  1
CELLSTYLE_BEGIN
 90
        3
 91
        2
300
_DATA
309
CELLSTYLE_END
  0
ENDSEC
  0
EOF
