  0
SECTION
  2
HEADER
  9
$ACADVER
  1
AC1032
  9
$ACADMAINTVER
 90
        4
  9
$DWGCODEPAGE
  3
ANSI_1252
  9
$LASTSAVEDBY
  1
Siqi
  9
$REQUIREDVERSIONS
160
                 0
  9
$INSBASE
 10
0.0
 20
0.0
 30
0.0
  9
$EXTMIN
 10
-951.0054819976526
 20
213.2619662698976
 30
0.0
  9
$EXTMAX
 10
2060.780257447706
 20
3331.783017239219
 30
0.0
  9
$LIMMIN
 10
0.0
 20
0.0
  9
$LIMMAX
 10
420.0
 20
297.0
  9
$ORTHOMODE
 70
     0
  9
$REGENMODE
 70
     1
  9
$FILLMODE
 70
     1
  9
$QTEXTMODE
 70
     0
  9
$MIRRTEXT
 70
     1
  9
$LTSCALE
 40
1.0
  9
$ATTMODE
 70
     1
  9
$TEXTSIZE
 40
2.5
  9
$TRACEWID
 40
1.0
  9
$TEXTSTYLE
  7
样式 2
  9
$CLAYER
  8
图层3
  9
$CELTYPE
  6
ByLayer
  9
$CECOLOR
 62
   256
  9
$CELTSCALE
 40
1.0
  9
$DISPSILH
 70
     0
  9
$DIMSCALE
 40
1.0
  9
$DIMASZ
 40
17.0
  9
$DIMEXO
 40
0.0
  9
$DIMDLI
 40
3.75
  9
$DIMRND
 40
0.0
  9
$DIMDLE
 40
0.0
  9
$DIMEXE
 40
1.25
  9
$DIMTP
 40
0.0
  9
$DIMTM
 40
0.0
  9
$DIMTXT
 40
18.0
  9
$DIMCEN
 40
80.0
  9
$DIMTSZ
 40
0.0
  9
$DIMTOL
 70
     0
  9
$DIMLIM
 70
     0
  9
$DIMTIH
 70
     0
  9
$DIMTOH
 70
     1
  9
$DIMSE1
 70
     0
  9
$DIMSE2
 70
     0
  9
$DIMTAD
 70
     1
  9
$DIMZIN
 70
     8
  9
$DIMBLK
  1

  9
$DIMASO
 70
     1
  9
$DIMSHO
 70
     1
  9
$DIMPOST
  1

  9
$DIMAPOST
  1

  9
$DIMALT
 70
     0
  9
$DIMALTD
 70
     3
  9
$DIMALTF
 40
0.03937007874016
  9
$DIMLFAC
 40
1.0
  9
$DIMTOFL
 70
     1
  9
$DIMTVP
 40
0.0
  9
$DIMTIX
 70
     0
  9
$DIMSOXD
 70
     0
  9
$DIMSAH
 70
     0
  9
$DIMBLK1
  1

  9
$DIMBLK2
  1

  9
$DIMSTYLE
  2
ISO-25
  9
$DIMCLRD
 70
     0
  9
$DIMCLRE
 70
     0
  9
$DIMCLRT
 70
     0
  9
$DIMTFAC
 40
1.0
  9
$DIMGAP
 40
6.0
  9
$DIMJUST
 70
     0
  9
$DIMSD1
 70
     0
  9
$DIMSD2
 70
     0
  9
$DIMTOLJ
 70
     0
  9
$DIMTZIN
 70
     8
  9
$DIMALTZ
 70
     0
  9
$DIMALTTZ
 70
     0
  9
$DIMUPT
 70
     0
  9
$DIMDEC
 70
     2
  9
$DIMTDEC
 70
     2
  9
$DIMALTU
 70
     7
  9
$DIMALTTD
 70
     3
  9
$DIMTXSTY
  7
Standard
  9
$DIMAUNIT
 70
     0
  9
$DIMADEC
 70
     0
  9
$DIMALTRND
 40
0.0
  9
$DIMAZIN
 70
     0
  9
$DIMDSEP
 70
    46
  9
$DIMATFIT
 70
     3
  9
$DIMFRAC
 70
     0
  9
$DIMLDRBLK
  1

  9
$DIMLUNIT
 70
     2
  9
$DIMLWD
 70
    -2
  9
$DIMLWE
 70
    -2
  9
$DIMTMOVE
 70
     0
  9
$DIMFXL
 40
1.0
  9
$DIMFXLON
 70
     0
  9
$DIMJOGANG
 40
0.7853981633974483
  9
$DIMTFILL
 70
     0
  9
$DIMTFILLCLR
 70
     0
  9
$DIMARCSYM
 70
     0
  9
$DIMLTYPE
  6

  9
$DIMLTEX1
  6

  9
$DIMLTEX2
  6

  9
$DIMTXTDIRECTION
 70
     0
  9
$LUNITS
 70
     2
  9
$LUPREC
 70
     4
  9
$SKETCHINC
 40
1.0
  9
$FILLETRAD
 40
2.5
  9
$AUNITS
 70
     0
  9
$AUPREC
 70
     0
  9
$MENU
  1
.
  9
$ELEVATION
 40
0.0
  9
$PELEVATION
 40
0.0
  9
$THICKNESS
 40
0.0
  9
$LIMCHECK
 70
     0
  9
$CHAMFERA
 40
75.0
  9
$CHAMFERB
 40
75.0
  9
$CHAMFERC
 40
20.0
  9
$CHAMFERD
 40
0.0
  9
$SKPOLY
 70
     0
  9
$TDCREATE
 40
2453995.012893519
  9
$TDUCREATE
 40
2453995.304561054
  9
$TDUPDATE
 40
2457974.496608796
  9
$TDUUPDATE
 40
2457974.788275463
  9
$TDINDWG
 40
0.1780878241
  9
$TDUSRTIMER
 40
0.1780865394
  9
$USRTIMER
 70
     1
  9
$ANGBASE
 50
0.0
  9
$ANGDIR
 70
     0
  9
$PDMODE
 70
     0
  9
$PDSIZE
 40
0.0
  9
$PLINEWID
 40
0.0
  9
$SPLFRAME
 70
     0
  9
$SPLINETYPE
 70
     6
  9
$SPLINESEGS
 70
     8
  9
$HANDSEED
  5
1E1E
  9
$SURFTAB1
 70
     6
  9
$SURFTAB2
 70
     6
  9
$SURFTYPE
 70
     6
  9
$SURFU
 70
     6
  9
$SURFV
 70
     6
  9
$UCSBASE
  2

  9
$UCSNAME
  2

  9
$UCSORG
 10
0.0
 20
0.0
 30
0.0
  9
$UCSXDIR
 10
1.0
 20
0.0
 30
0.0
  9
$UCSYDIR
 10
0.0
 20
1.0
 30
0.0
  9
$UCSORTHOREF
  2

  9
$UCSORTHOVIEW
 70
     0
  9
$UCSORGTOP
 10
0.0
 20
0.0
 30
0.0
  9
$UCSORGBOTTOM
 10
0.0
 20
0.0
 30
0.0
  9
$UCSORGLEFT
 10
0.0
 20
0.0
 30
0.0
  9
$UCSORGRIGHT
 10
0.0
 20
0.0
 30
0.0
  9
$UCSORGFRONT
 10
0.0
 20
0.0
 30
0.0
  9
$UCSORGBACK
 10
0.0
 20
0.0
 30
0.0
  9
$PUCSBASE
  2

  9
$PUCSNAME
  2

  9
$PUCSORG
 10
0.0
 20
0.0
 30
0.0
  9
$PUCSXDIR
 10
1.0
 20
0.0
 30
0.0
  9
$PUCSYDIR
 10
0.0
 20
1.0
 30
0.0
  9
$PUCSORTHOREF
  2

  9
$PUCSORTHOVIEW
 70
     0
  9
$PUCSORGTOP
 10
0.0
 20
0.0
 30
0.0
  9
$PUCSORGBOTTOM
 10
0.0
 20
0.0
 30
0.0
  9
$PUCSORGLEFT
 10
0.0
 20
0.0
 30
0.0
  9
$PUCSORGRIGHT
 10
0.0
 20
0.0
 30
0.0
  9
$PUCSORGFRONT
 10
0.0
 20
0.0
 30
0.0
  9
$PUCSORGBACK
 10
0.0
 20
0.0
 30
0.0
  9
$USERI1
 70
     0
  9
$USERI2
 70
     0
  9
$USERI3
 70
     0
  9
$USERI4
 70
     0
  9
$USERI5
 70
     0
  9
$USERR1
 40
0.0
  9
$USERR2
 40
0.0
  9
$USERR3
 40
0.0
  9
$USERR4
 40
0.0
  9
$USERR5
 40
0.0
  9
$WORLDVIEW
 70
     1
  9
$SHADEDGE
 70
     3
  9
$SHADEDIF
 70
    70
  9
$TILEMODE
 70
     1
  9
$MAXACTVP
 70
    64
  9
$PINSBASE
 10
0.0
 20
0.0
 30
0.0
  9
$PLIMCHECK
 70
     0
  9
$PEXTMIN
 10
0.0
 20
0.0
 30
0.0
  9
$PEXTMAX
 10
0.0
 20
0.0
 30
0.0
  9
$PLIMMIN
 10
0.0
 20
0.0
  9
$PLIMMAX
 10
12.0
 20
9.0
  9
$UNITMODE
 70
     0
  9
$VISRETAIN
 70
     1
  9
$PLINEGEN
 70
     0
  9
$PSLTSCALE
 70
     1
  9
$TREEDEPTH
 70
  3020
  9
$CMLSTYLE
  2
Standard
  9
$CMLJUST
 70
     0
  9
$CMLSCALE
 40
20.0
  9
$PROXYGRAPHICS
 70
     1
  9
$MEASUREMENT
 70
     1
  9
$CELWEIGHT
370
    -1
  9
$ENDCAPS
280
     0
  9
$JOINSTYLE
280
     0
  9
$LWDISPLAY
290
     0
  9
$INSUNITS
 70
     4
  9
$HYPERLINKBASE
  1

  9
$STYLESHEET
  1

  9
$XEDIT
290
     1
  9
$CEPSNTYPE
380
     0
  9
$PSTYLEMODE
290
     1
  9
$FINGERPRINTGUID
  2
{FDEAD578-A652-11D2-9A35-0060089B3A3F}
  9
$VERSIONGUID
  2
{CC33585B-1962-2342-8EBF-8FB264D0714E}
  9
$EXTNAMES
290
     1
  9
$PSVPSCALE
 40
0.0
  9
$OLESTARTUP
290
     0
  9
$SORTENTS
280
   127
  9
$INDEXCTL
280
     0
  9
$HIDETEXT
280
     1
  9
$XCLIPFRAME
280
     0
  9
$HALOGAP
280
     0
  9
$OBSCOLOR
 70
   257
  9
$OBSLTYPE
280
     0
  9
$INTERSECTIONDISPLAY
280
     0
  9
$INTERSECTIONCOLOR
 70
   257
  9
$DIMASSOC
280
     2
  9
$PROJECTNAME
  1

  9
$CAMERADISPLAY
290
     0
  9
$LENSLENGTH
 40
50.0
  9
$CAMERAHEIGHT
 40
0.0
  9
$STEPSPERSEC
 40
2.0
  9
$STEPSIZE
 40
6.0
  9
$3DDWFPREC
 40
2.0
  9
$PSOLWIDTH
 40
0.25
  9
$PSOLHEIGHT
 40
4.0
  9
$LOFTANG1
 40
1.570796326794896
  9
$LOFTANG2
 40
1.570796326794896
  9
$LOFTMAG1
 40
0.0
  9
$LOFTMAG2
 40
0.0
  9
$LOFTPARAM
 70
     7
  9
$LOFTNORMALS
280
     1
  9
$LATITUDE
 40
37.795
  9
$LONGITUDE
 40
-122.394
  9
$NORTHDIRECTION
 40
0.0
  9
$TIMEZONE
 70
 -8000
  9
$LIGHTGLYPHDISPLAY
280
     1
  9
$TILEMODELIGHTSYNCH
280
     1
  9
$CMATERIAL
347
1AF2
  9
$SOLIDHIST
280
     0
  9
$SHOWHIST
280
     1
  9
$DWFFRAME
280
     2
  9
$DGNFRAME
280
     0
  9
$REALWORLDSCALE
290
     1
  9
$INTERFERECOLOR
 62
     1
  9
$INTERFEREOBJVS
345
1B14
  9
$INTERFEREVPVS
346
1B11
  9
$CSHADOW
280
     0
  9
$SHADOWPLANELOCATION
 40
0.0
  0
ENDSEC
  0
SECTION
  2
CLASSES
  0
CLASS
  1
ACDBDICTIONARYWDFLT
  2
AcDbDictionaryWithDefault
  3
ObjectDBX Classes
 90
        0
 91
        1
280
     0
281
     0
  0
CLASS
  1
DICTIONARYVAR
  2
AcDbDictionaryVar
  3
ObjectDBX Classes
 90
        0
 91
       35
280
     0
281
     0
  0
CLASS
  1
DIMASSOC
  2
AcDbDimAssoc
  3
"AcDbDimAssoc|Product Desc:     AcDim ARX App For Dimension|Company:          Autodesk, Inc.|WEB Address:      www.autodesk.com"
 90
        0
 91
       26
280
     0
281
     0
  0
CLASS
  1
TABLESTYLE
  2
AcDbTableStyle
  3
ObjectDBX Classes
 90
     4095
 91
        1
280
     0
281
     0
  0
CLASS
  1
SORTENTSTABLE
  2
AcDbSortentsTable
  3
ObjectDBX Classes
 90
        0
 91
        3
280
     0
281
     0
  0
CLASS
  1
MATERIAL
  2
AcDbMaterial
  3
ObjectDBX Classes
 90
     1153
 91
        3
280
     0
281
     0
  0
CLASS
  1
VISUALSTYLE
  2
AcDbVisualStyle
  3
ObjectDBX Classes
 90
     4095
 91
       24
280
     0
281
     0
  0
CLASS
  1
SCALE
  2
AcDbScale
  3
ObjectDBX Classes
 90
     1153
 91
       17
280
     0
281
     0
  0
CLASS
  1
MLEADERSTYLE
  2
AcDbMLeaderStyle
  3
ACDB_MLEADERSTYLE_CLASS
 90
     4095
 91
        1
280
     0
281
     0
  0
CLASS
  1
ACDBSECTIONVIEWSTYLE
  2
AcDbSectionViewStyle
  3
ObjectDBX Classes
 90
     1025
 91
        1
280
     0
281
     0
  0
CLASS
  1
ACDBDETAILVIEWSTYLE
  2
AcDbDetailViewStyle
  3
ObjectDBX Classes
 90
     1025
 91
        1
280
     0
281
     0
  0
CLASS
  1
CELLSTYLEMAP
  2
AcDbCellStyleMap
  3
ObjectDBX Classes
 90
     1152
 91
        3
280
     0
281
     0
  0
CLASS
  1
PLOTSETTINGS
  2
AcDbPlotSettings
  3
ObjectDBX Classes
 90
        0
 91
        1
280
     0
281
     0
  0
ENDSEC
  0
SECTION
  2
TABLES
  0
TABLE
  2
VPORT
  5
8
330
0
100
AcDbSymbolTable
 70
     1
  0
VPORT
  5
1AF0
330
8
100
AcDbSymbolTableRecord
100
AcDbViewportTableRecord
  2
*Active
 70
     0
 10
0.0
 20
0.0
 11
1.0
 21
1.0
 12
1102.543610209444
 22
1022.463796888908
 13
0.0
 23
0.0
 14
10.0
 24
10.0
 15
10.0
 25
10.0
 16
0.0
 26
0.0
 36
1.0
 17
0.0
 27
0.0
 37
0.0
 40
1439.698426037924
 41
1.800724637681159
 42
50.0
 43
0.0
 44
0.0
 50
0.0
 51
0.0
 71
     0
 72
 10000
 73
     1
 74
     3
 75
     0
 76
     0
 77
     0
 78
     0
281
     0
 65
     1
110
0.0
120
0.0
130
0.0
111
1.0
121
0.0
131
0.0
112
0.0
122
1.0
132
0.0
 79
     0
146
0.0
348
1B10
 60
     3
 61
     5
292
     1
282
     1
141
0.0
142
0.0
 63
   250
421
  3355443
1001
ACAD_NAV_VCDISPLAY
1070
     3
  0
ENDTAB
  0
TABLE
  2
LTYPE
  5
5
330
0
100
AcDbSymbolTable
 70
     5
  0
LTYPE
  5
14
330
5
100
AcDbSymbolTableRecord
100
AcDbLinetypeTableRecord
  2
ByBlock
 70
     0
  3

 72
    65
 73
     0
 40
0.0
  0
LTYPE
  5
15
330
5
100
AcDbSymbolTableRecord
100
AcDbLinetypeTableRecord
  2
ByLayer
 70
     0
  3

 72
    65
 73
     0
 40
0.0
  0
LTYPE
  5
16
330
5
100
AcDbSymbolTableRecord
100
AcDbLinetypeTableRecord
  2
Continuous
 70
     0
  3
Solid line
 72
    65
 73
     0
 40
0.0
  0
LTYPE
  5
5FA
330
5
100
AcDbSymbolTableRecord
100
AcDbLinetypeTableRecord
  2
CENTER2
 70
     0
  3
Center (.5x) ___ _ ___ _ ___ _ ___ _ ___ _ ___
 72
    65
 73
     4
 40
28.575
 49
19.05
 74
     0
 49
-3.174999999999999
 74
     0
 49
3.174999999999999
 74
     0
 49
-3.174999999999999
 74
     0
  0
LTYPE
  5
5FC
330
5
100
AcDbSymbolTableRecord
100
AcDbLinetypeTableRecord
  2
CENTER
 70
     0
  3
Center ____ _ ____ _ ____ _ ____ _ ____ _ ____
 72
    65
 73
     4
 40
50.8
 49
31.75
 74
     0
 49
-6.349999999999999
 74
     0
 49
6.349999999999999
 74
     0
 49
-6.349999999999999
 74
     0
  0
LTYPE
  5
1392
330
5
100
AcDbSymbolTableRecord
100
AcDbLinetypeTableRecord
  2
DASHED
 70
     0
  3
Dashed __ __ __ __ __ __ __ __ __ __ __ __ __ _
 72
    65
 73
     2
 40
19.05
 49
12.7
 74
     0
 49
-6.349999999999999
 74
     0
  0
ENDTAB
  0
TABLE
  2
LAYER
  5
2
102
{ACAD_XDICTIONARY
360
E27
102
}
330
0
100
AcDbSymbolTable
 70
     6
  0
LAYER
  5
10
102
{ACAD_XDICTIONARY
360
1C98
102
}
330
2
100
AcDbSymbolTableRecord
100
AcDbLayerTableRecord
  2
0
 70
     0
 62
     7
  6
Continuous
370
    -3
390
F
347
1B02
348
0
  0
LAYER
  5
70
102
{ACAD_XDICTIONARY
360
1C9A
102
}
330
2
100
AcDbSymbolTableRecord
100
AcDbLayerTableRecord
  2
图层1
 70
     0
 62
     7
  6
CENTER
370
    18
390
F
347
1B02
348
0
1001
AcadStringInfo
1000
MIFCodePage
1070
     5
  0
LAYER
  5
71
102
{ACAD_XDICTIONARY
360
1C9C
102
}
330
2
100
AcDbSymbolTableRecord
100
AcDbLayerTableRecord
  2
图层2
 70
     0
 62
     7
  6
Continuous
370
    30
390
F
347
1B02
348
0
1001
AcadStringInfo
1000
MIFCodePage
1070
     5
  0
LAYER
  5
72
102
{ACAD_XDICTIONARY
360
1C9E
102
}
330
2
100
AcDbSymbolTableRecord
100
AcDbLayerTableRecord
  2
图层3
 70
     0
 62
     7
  6
Continuous
370
    18
390
F
347
1B02
348
0
1001
AcadStringInfo
1000
MIFCodePage
1070
     5
  0
LAYER
  5
79
330
2
100
AcDbSymbolTableRecord
100
AcDbLayerTableRecord
  2
Defpoints
 70
     0
 62
     7
  6
Continuous
290
     0
370
    -3
390
F
347
1B02
348
0
  0
LAYER
  5
1390
102
{ACAD_XDICTIONARY
360
1CA0
102
}
330
2
100
AcDbSymbolTableRecord
100
AcDbLayerTableRecord
  2
图层4
 70
     0
 62
     7
  6
DASHED
370
    18
390
F
347
1B02
348
0
1001
AcAecLayerStandard
1000

1000

1001
AcadStringInfo
1000
MIFCodePage
1070
     5
  0
ENDTAB
  0
TABLE
  2
STYLE
  5
3
330
0
100
AcDbSymbolTable
 70
     4
  0
STYLE
  5
11
330
3
100
AcDbSymbolTableRecord
100
AcDbTextStyleTableRecord
  2
Standard
 70
     0
 40
0.0
 41
1.0
 50
0.0
 71
     0
 42
2.5
  3
txt
  4

  0
STYLE
  5
5F9
330
3
100
AcDbSymbolTableRecord
100
AcDbTextStyleTableRecord
  2

 70
     1
 40
0.0
 41
1.0
 50
0.0
 71
     0
 42
2.5
  3
ltypeshp.shx
  4

  0
STYLE
  5
164F
330
3
100
AcDbSymbolTableRecord
100
AcDbTextStyleTableRecord
  2
样式 1
 70
     0
 40
0.0
 41
1.1
 50
0.0
 71
     0
 42
2.5
  3
txt.shx
  4

1001
AcadStringInfo
1000
MIFCodePage
1070
     5
  0
STYLE
  5
1650
330
3
100
AcDbSymbolTableRecord
100
AcDbTextStyleTableRecord
  2
样式 2
 70
     0
 40
0.0
 41
0.35
 50
0.0
 71
     0
 42
2.5
  3
txt.shx
  4

1001
AcadStringInfo
1000
MIFCodePage
1070
     5
  0
ENDTAB
  0
TABLE
  2
VIEW
  5
6
330
0
100
AcDbSymbolTable
 70
     4
  0
ENDTAB
  0
TABLE
  2
UCS
  5
7
330
0
100
AcDbSymbolTable
 70
     0
  0
ENDTAB
  0
TABLE
  2
APPID
  5
9
330
0
100
AcDbSymbolTable
 70
     8
  0
APPID
  5
12
330
9
100
AcDbSymbolTableRecord
100
AcDbRegAppTableRecord
  2
ACAD
 70
     0
  0
APPID
  5
E30
330
9
100
AcDbSymbolTableRecord
100
AcDbRegAppTableRecord
  2
ACAD_DSTYLE_DIMTEXT_FILL
 70
     0
  0
APPID
  5
1391
330
9
100
AcDbSymbolTableRecord
100
AcDbRegAppTableRecord
  2
AcAecLayerStandard
 70
     0
  0
APPID
  5
16AD
330
9
100
AcDbSymbolTableRecord
100
AcDbRegAppTableRecord
  2
ACAD_PSEXT
 70
     0
  0
APPID
  5
1B23
330
9
100
AcDbSymbolTableRecord
100
AcDbRegAppTableRecord
  2
AcadStringInfo
 70
     0
  0
APPID
  5
1B48
330
9
100
AcDbSymbolTableRecord
100
AcDbRegAppTableRecord
  2
AcadAnnoMonitorAlertIconDisabled
 70
     0
  0
APPID
  5
1B49
330
9
100
AcDbSymbolTableRecord
100
AcDbRegAppTableRecord
  2
ACAD_EXEMPT_FROM_CAD_STANDARDS
 70
     0
  0
APPID
  5
1CA2
330
9
100
AcDbSymbolTableRecord
100
AcDbRegAppTableRecord
  2
ACAD_NAV_VCDISPLAY
 70
     0
  0
ENDTAB
  0
TABLE
  2
DIMSTYLE
  5
A
330
0
100
AcDbSymbolTable
 70
     1
100
AcDbDimStyleTable
 71
     1
340
27
  0
DIMSTYLE
105
27
102
{ACAD_REACTORS
330
1141
330
1493
330
14A5
330
1555
330
156D
330
1581
330
161F
330
1637
330
16CC
330
178D
330
17A5
330
17BE
330
17D6
330
17EE
330
1806
330
181E
330
1840
330
1858
330
1870
330
1888
330
18E5
330
18FA
330
1914
330
1924
330
1A92
330
1AB5
330
1ACD
102
}
330
A
100
AcDbSymbolTableRecord
100
AcDbDimStyleTableRecord
  2
ISO-25
 70
     0
 41
17.0
 42
0.0
 43
3.75
 44
1.25
 73
     0
 77
     1
 78
     8
140
18.0
141
80.0
143
0.03937007874016
147
6.0
171
     3
172
     1
271
     2
272
     2
273
     7
274
     3
283
     0
284
     8
340
11
  0
ENDTAB
  0
TABLE
  2
BLOCK_RECORD
  5
1
330
0
100
AcDbSymbolTable
 70
    34
  0
BLOCK_RECORD
  5
1F
102
{ACAD_XDICTIONARY
360
F25
102
}
330
1
100
AcDbSymbolTableRecord
100
AcDbBlockTableRecord
  2
*Model_Space
340
22
 70
     0
280
     1
281
     0
  0
BLOCK_RECORD
  5
50
330
1
100
AcDbSymbolTableRecord
100
AcDbBlockTableRecord
  2
*Paper_Space
340
51
 70
     0
280
     1
281
     0
  0
BLOCK_RECORD
  5
55
330
1
100
AcDbSymbolTableRecord
100
AcDbBlockTableRecord
  2
*Paper_Space0
340
56
 70
     0
280
     1
281
     0
  0
BLOCK_RECORD
  5
315
330
1
100
AcDbSymbolTableRecord
100
AcDbBlockTableRecord
  2
a
340
0
 70
     0
280
     1
281
     0
  0
BLOCK_RECORD
  5
1142
330
1
100
AcDbSymbolTableRecord
100
AcDbBlockTableRecord
  2
*D2
340
0
 70
     0
280
     1
281
     0
  0
BLOCK_RECORD
  5
1494
330
1
100
AcDbSymbolTableRecord
100
AcDbBlockTableRecord
  2
*D3
340
0
 70
     0
280
     1
281
     0
  0
BLOCK_RECORD
  5
14A6
330
1
100
AcDbSymbolTableRecord
100
AcDbBlockTableRecord
  2
*D4
340
0
 70
     0
280
     1
281
     0
  0
BLOCK_RECORD
  5
1556
330
1
100
AcDbSymbolTableRecord
100
AcDbBlockTableRecord
  2
*D5
340
0
 70
     0
280
     1
281
     0
  0
BLOCK_RECORD
  5
156E
330
1
100
AcDbSymbolTableRecord
100
AcDbBlockTableRecord
  2
*D6
340
0
 70
     0
280
     1
281
     0
  0
BLOCK_RECORD
  5
1582
330
1
100
AcDbSymbolTableRecord
100
AcDbBlockTableRecord
  2
*D7
340
0
 70
     0
280
     1
281
     0
  0
BLOCK_RECORD
  5
1620
330
1
100
AcDbSymbolTableRecord
100
AcDbBlockTableRecord
  2
*D8
340
0
 70
     0
280
     1
281
     0
  0
BLOCK_RECORD
  5
1638
330
1
100
AcDbSymbolTableRecord
100
AcDbBlockTableRecord
  2
*D9
340
0
 70
     0
280
     1
281
     0
  0
BLOCK_RECORD
  5
16AF
102
{ACAD_XDICTIONARY
360
16C3
102
}
330
1
100
AcDbSymbolTableRecord
100
AcDbBlockTableRecord
  2
c
340
0
102
{BLKREFS
331
16CB
102
}
 70
     4
280
     1
281
     0
  0
BLOCK_RECORD
  5
16CD
330
1
100
AcDbSymbolTableRecord
100
AcDbBlockTableRecord
  2
*D11
340
0
 70
     0
280
     1
281
     0
  0
BLOCK_RECORD
  5
178E
330
1
100
AcDbSymbolTableRecord
100
AcDbBlockTableRecord
  2
*D12
340
0
 70
     0
280
     1
281
     0
  0
BLOCK_RECORD
  5
17A6
330
1
100
AcDbSymbolTableRecord
100
AcDbBlockTableRecord
  2
*D13
340
0
 70
     0
280
     1
281
     0
  0
BLOCK_RECORD
  5
17BF
330
1
100
AcDbSymbolTableRecord
100
AcDbBlockTableRecord
  2
*D14
340
0
 70
     0
280
     1
281
     0
  0
BLOCK_RECORD
  5
17D7
330
1
100
AcDbSymbolTableRecord
100
AcDbBlockTableRecord
  2
*D15
340
0
 70
     0
280
     1
281
     0
  0
BLOCK_RECORD
  5
17EF
330
1
100
AcDbSymbolTableRecord
100
AcDbBlockTableRecord
  2
*D16
340
0
 70
     0
280
     1
281
     0
  0
BLOCK_RECORD
  5
1807
330
1
100
AcDbSymbolTableRecord
100
AcDbBlockTableRecord
  2
*D17
340
0
 70
     0
280
     1
281
     0
  0
BLOCK_RECORD
  5
181F
330
1
100
AcDbSymbolTableRecord
100
AcDbBlockTableRecord
  2
*D18
340
0
 70
     0
280
     1
281
     0
  0
BLOCK_RECORD
  5
1841
330
1
100
AcDbSymbolTableRecord
100
AcDbBlockTableRecord
  2
*D19
340
0
 70
     0
280
     1
281
     0
  0
BLOCK_RECORD
  5
1859
330
1
100
AcDbSymbolTableRecord
100
AcDbBlockTableRecord
  2
*D20
340
0
 70
     0
280
     1
281
     0
  0
BLOCK_RECORD
  5
1871
330
1
100
AcDbSymbolTableRecord
100
AcDbBlockTableRecord
  2
*D21
340
0
 70
     0
280
     1
281
     0
  0
BLOCK_RECORD
  5
1889
330
1
100
AcDbSymbolTableRecord
100
AcDbBlockTableRecord
  2
*D22
340
0
 70
     0
280
     1
281
     0
  0
BLOCK_RECORD
  5
18E6
330
1
100
AcDbSymbolTableRecord
100
AcDbBlockTableRecord
  2
*D25
340
0
 70
     0
280
     1
281
     0
  0
BLOCK_RECORD
  5
18FB
330
1
100
AcDbSymbolTableRecord
100
AcDbBlockTableRecord
  2
*D26
340
0
 70
     0
280
     1
281
     0
  0
BLOCK_RECORD
  5
1915
330
1
100
AcDbSymbolTableRecord
100
AcDbBlockTableRecord
  2
*D27
340
0
 70
     0
280
     1
281
     0
  0
BLOCK_RECORD
  5
1925
330
1
100
AcDbSymbolTableRecord
100
AcDbBlockTableRecord
  2
*D28
340
0
 70
     0
280
     1
281
     0
  0
BLOCK_RECORD
  5
1A2E
330
1
100
AcDbSymbolTableRecord
100
AcDbBlockTableRecord
  2
h
340
0
310
2800000020000000200000000100080000000000000400000000000000000000000000000000000000000000000080000080000000808000800000008000800080800000C0C0C000C0DCC000F0CAA6000020400000206000002080000020A0000020C0000020E00000400000004020000040400000406000004080000040A0
310
000040C0000040E00000600000006020000060400000606000006080000060A0000060C0000060E00000800000008020000080400000806000008080000080A0000080C0000080E00000A0000000A0200000A0400000A0600000A0800000A0A00000A0C00000A0E00000C0000000C0200000C0400000C0600000C0800000C0
310
A00000C0C00000C0E00000E0000000E0200000E0400000E0600000E0800000E0A00000E0C00000E0E00040000000400020004000400040006000400080004000A0004000C0004000E00040200000402020004020400040206000402080004020A0004020C0004020E000404000004040200040404000404060004040800040
310
40A0004040C0004040E00040600000406020004060400040606000406080004060A0004060C0004060E00040800000408020004080400040806000408080004080A0004080C0004080E00040A0000040A0200040A0400040A0600040A0800040A0A00040A0C00040A0E00040C0000040C0200040C0400040C0600040C08000
310
40C0A00040C0C00040C0E00040E0000040E0200040E0400040E0600040E0800040E0A00040E0C00040E0E00080000000800020008000400080006000800080008000A0008000C0008000E00080200000802020008020400080206000802080008020A0008020C0008020E00080400000804020008040400080406000804080
310
008040A0008040C0008040E00080600000806020008060400080606000806080008060A0008060C0008060E00080800000808020008080400080806000808080008080A0008080C0008080E00080A0000080A0200080A0400080A0600080A0800080A0A00080A0C00080A0E00080C0000080C0200080C0400080C0600080C0
310
800080C0A00080C0C00080C0E00080E0000080E0200080E0400080E0600080E0800080E0A00080E0C00080E0E000C0000000C0002000C0004000C0006000C0008000C000A000C000C000C000E000C0200000C0202000C0204000C0206000C0208000C020A000C020C000C020E000C0400000C0402000C0404000C0406000C0
310
408000C040A000C040C000C040E000C0600000C0602000C0604000C0606000C0608000C060A000C060C000C060E000C0800000C0802000C0804000C0806000C0808000C080A000C080C000C080E000C0A00000C0A02000C0A04000C0A06000C0A08000C0A0A000C0A0C000C0A0E000C0C00000C0C02000C0C04000C0C06000
310
C0C08000C0C0A000F0FBFF00A4A0A000808080000000FF0000FF000000FFFF00FF000000FF00FF00FFFF0000FFFFFF0000000000000000000000000000000000000000000000000000000000000000000000000000000000000000000000000000000000000000000000000000000000000000000000000000000000000000
310
00000000000000000000000000000000000000000000000000000000000000000000000000000000000000000000000000000000000000000000000000000000000000000000000000000000000000000000000000000000000000000000000000000000000000000000000000000000000000000000000000000000000000
310
00000000000000000000000000000000000000000000000000000000000000000000000000000000000000000000000000000000000000000000000000000000000000000000000000000000000000000000000000000000000000000000000000000000000000000000000000000000000000000000000000000000000000
310
00000000000000000000000000000000000000000000000000000000000000000000000000000000000000000000000000000000000000000000000000000000000000000000000000000000000000000000000000000000000000000000000000000000000000000000000000000000000000000000000000000000000000
310
000000000000000000000000000000000000000000FAFAFAFAFAFAFAFAFAFAFAFAFAFAFAFAFAFAFAFAFAFAFAFAFAFAFA000000000000FAFAFAFAFAFAFAFAFAFAFAFAFAFAFAFAFAFAFAFAFAFAFAFAFAFA0000000000000000000000000000000000000000000000000000000000000000000000000000000000000000000000
310
00000000000000000000000000000000000000000000000000000000000000000000000000000000000000000000000000000000000000000000000000000000000000000000000000000000000000000000000000000000000000000000000000000000000000000000000000000000000000000000000000000000000000
310
00000000000000000000000000000000000000000000000000000000000000000000000000000000000000000000000000000000000000000000000000000000000000000000000000000000000000000000000000000000000000000000000000000000000000000000000000000000000000000000000000000000000000
310
00000000000000000000000000000000000000000000000000000000000000000000000000000000000000000000000000000000000000000000000000000000000000000000000000000000000000000000000000000000000000000000000000000000000000000000000000000000000000000000000000000000000000
310
0000000000000000000000000000000000000000000000000000000000000000000000000000000000000000000000000000000000000000
 70
     4
280
     1
281
     0
  0
BLOCK_RECORD
  5
1A32
102
{ACAD_XDICTIONARY
360
1A52
102
}
330
1
100
AcDbSymbolTableRecord
100
AcDbBlockTableRecord
  2
D
340
0
 70
     4
280
     1
281
     0
  0
BLOCK_RECORD
  5
1A93
330
1
100
AcDbSymbolTableRecord
100
AcDbBlockTableRecord
  2
*D31
340
0
 70
     0
280
     1
281
     0
  0
BLOCK_RECORD
  5
1AB6
330
1
100
AcDbSymbolTableRecord
100
AcDbBlockTableRecord
  2
*D32
340
0
 70
     0
280
     1
281
     0
  0
BLOCK_RECORD
  5
1ACE
330
1
100
AcDbSymbolTableRecord
100
AcDbBlockTableRecord
  2
*D33
340
0
 70
     0
280
     1
281
     0
  0
ENDTAB
  0
ENDSEC
  0
SECTION
  2
BLOCKS
  0
BLOCK
  5
20
330
1F
100
AcDbEntity
  8
0
100
AcDbBlockBegin
  2
*Model_Space
 70
     0
 10
0.0
 20
0.0
 30
0.0
  3
*Model_Space
  1

  0
ENDBLK
  5
21
330
1F
100
AcDbEntity
  8
0
100
AcDbBlockEnd
  0
BLOCK
  5
52
330
50
100
AcDbEntity
 67
     1
  8
0
100
AcDbBlockBegin
  2
*Paper_Space
 70
     0
 10
0.0
 20
0.0
 30
0.0
  3
*Paper_Space
  1

  0
ENDBLK
  5
53
330
50
100
AcDbEntity
 67
     1
  8
0
100
AcDbBlockEnd
  0
BLOCK
  5
57
330
55
100
AcDbEntity
 67
     1
  8
0
100
AcDbBlockBegin
  2
*Paper_Space0
 70
     0
 10
0.0
 20
0.0
 30
0.0
  3
*Paper_Space0
  1

  0
ENDBLK
  5
58
330
55
100
AcDbEntity
 67
     1
  8
0
100
AcDbBlockEnd
  0
BLOCK
  5
328
330
315
100
AcDbEntity
  8
0
100
AcDbBlockBegin
  2
a
 70
     0
 10
0.0
 20
0.0
 30
0.0
  3
a
  1

  0
LINE
  5
316
330
315
100
AcDbEntity
  8
图层3
100
AcDbLine
 10
-51.58183479263425
 20
5.069342261306474
 30
0.0
 11
128.4181652073657
 21
5.069342261306474
 31
0.0
  0
LINE
  5
317
330
315
100
AcDbEntity
  8
图层3
100
AcDbLine
 10
-51.58183479263425
 20
-4.930657738693525
 30
0.0
 11
128.4181652073657
 21
-4.930657738693525
 31
0.0
  0
LINE
  5
318
330
315
100
AcDbEntity
  8
图层3
100
AcDbLine
 10
-51.58183479263425
 20
-14.93065773869352
 30
0.0
 11
128.4181652073657
 21
-14.93065773869352
 31
0.0
  0
LINE
  5
319
330
315
100
AcDbEntity
  8
图层3
100
AcDbLine
 10
-51.58183479263425
 20
-24.93065773869353
 30
0.0
 11
128.4181652073657
 21
-24.93065773869353
 31
0.0
  0
LINE
  5
31A
330
315
100
AcDbEntity
  8
图层3
100
AcDbLine
 10
-51.58183479263425
 20
-34.93065773869353
 30
0.0
 11
128.4181652073657
 21
-34.93065773869353
 31
0.0
  0
LINE
  5
31B
330
315
100
AcDbEntity
  8
图层3
100
AcDbLine
 10
-51.58183479263425
 20
5.069342261306474
 30
0.0
 11
-51.58183479263425
 21
-34.93065773869353
 31
0.0
  0
LINE
  5
31C
330
315
100
AcDbEntity
  8
图层3
100
AcDbLine
 10
128.4181652073657
 20
5.069342261306474
 30
0.0
 11
128.4181652073657
 21
-34.93065773869353
 31
0.0
  0
LINE
  5
31D
330
315
100
AcDbEntity
  8
图层3
100
AcDbLine
 10
-31.58183479263426
 20
-4.930657738693525
 30
0.0
 11
-31.58183479263426
 21
-34.93065773869353
 31
0.0
  0
LINE
  5
31E
330
315
100
AcDbEntity
  8
图层3
100
AcDbLine
 10
78.41816520736575
 20
-4.930657738693469
 30
0.0
 11
78.41816520736575
 21
-24.93065773869353
 31
0.0
  0
LINE
  5
31F
330
315
100
AcDbEntity
  8
图层3
100
AcDbLine
 10
58.41816520736575
 20
-4.930657738693525
 30
0.0
 11
58.41816520736575
 21
-34.93065773869353
 31
0.0
  0
LINE
  5
320
330
315
100
AcDbEntity
  8
图层3
100
AcDbLine
 10
38.41816520736586
 20
-24.93065773869364
 30
0.0
 11
38.41816520736575
 21
-34.93065773869364
 31
0.0
  0
MTEXT
  5
321
330
315
100
AcDbEntity
  8
图层3
100
AcDbMText
 10
-7.991267257440085
 20
3.638071533116089
 30
0.0
 40
5.0
 41
129.0054
 46
0.0
 71
     1
 72
     5
  1
{\f幼圆|b0|i0|c134|p49;江门市蓬江区荷塘合和五金厂}
 73
     1
 44
1.0
  0
MTEXT
  5
322
330
315
100
AcDbEntity
  8
图层3
100
AcDbMText
 10
-48.26895764370283
 20
-6.568323419867056
 30
0.0
 40
5.0
 41
16.6364
 46
0.0
 71
     1
 72
     5
  1
{\f幼圆|b0|i0|c134|p49;名称}
 73
     1
 44
1.0
  0
MTEXT
  5
323
330
315
100
AcDbEntity
  8
图层3
100
AcDbMText
 10
-47.9770915309241
 20
-16.19149345429582
 30
0.0
 40
5.0
 41
15.1771
 46
0.0
 71
     1
 72
     5
  1
{\f幼圆|b0|i0|c134|p49;材料}
 73
     1
 44
1.0
  0
MTEXT
  5
324
330
315
100
AcDbEntity
  8
图层3
100
AcDbMText
 10
-48.26895764370283
 20
-26.10627442497457
 30
0.0
 40
5.0
 41
16.3446
 46
0.0
 71
     1
 72
     5
  1
{\f幼圆|b0|i0|c134|p49;日期}
 73
     1
 44
1.0
  0
MTEXT
  5
325
330
315
100
AcDbEntity
  8
图层3
100
AcDbMText
 10
61.76502632027404
 20
-6.276710960589753
 30
0.0
 40
5.0
 41
16.3446
 46
0.0
 71
     1
 72
     5
  1
{\f幼圆|b0|i0|c134|p49;型号}
 73
     1
 44
1.0
  0
MTEXT
  5
326
330
315
100
AcDbEntity
  8
图层3
100
AcDbMText
 10
61.76502632027404
 20
-16.19149193126873
 30
0.0
 40
5.0
 41
16.0527
 46
0.0
 71
     1
 72
     5
  1
{\f幼圆|b0|i0|c134|p49;图号}
 73
     1
 44
1.0
  0
MTEXT
  5
327
330
315
100
AcDbEntity
  8
图层3
100
AcDbMText
 10
41.62617975974217
 20
-26.10627594800144
 30
0.0
 40
5.0
 41
16.9283
 46
0.0
 71
     1
 72
     5
  1
{\f幼圆|b0|i0|c134|p49;编号}
 73
     1
 44
1.0
  0
ENDBLK
  5
329
330
315
100
AcDbEntity
  8
0
100
AcDbBlockEnd
  0
BLOCK
  5
114C
330
1142
100
AcDbEntity
  8
0
100
AcDbBlockBegin
  2
*D2
 70
     1
 10
0.0
 20
0.0
 30
0.0
  3
*D2
  1

  0
LINE
  5
1B90
330
1142
100
AcDbEntity
  8
图层3
 62
     0
440
 16777216
370
    -2
100
AcDbLine
 10
1125.048998196104
 20
1331.783017239225
 30
0.0
 11
1127.663361315326
 21
1331.783017239225
 31
0.0
  0
LINE
  5
1B91
330
1142
100
AcDbEntity
  8
图层3
 62
     0
440
 16777216
370
    -2
100
AcDbLine
 10
1125.048998196104
 20
1559.783017239226
 30
0.0
 11
1127.663361315326
 21
1559.783017239226
 31
0.0
  0
LINE
  5
1B92
330
1142
100
AcDbEntity
  8
图层3
 62
     0
440
 16777216
370
    -2
100
AcDbLine
 10
1126.413361315326
 20
1348.783017239225
 30
0.0
 11
1126.413361315326
 21
1542.783017239226
 31
0.0
  0
SOLID
  5
1B93
330
1142
100
AcDbEntity
  8
图层3
 62
     0
440
 16777216
100
AcDbTrace
 10
1123.580027981993
 20
1348.783017239225
 30
0.0
 11
1129.246694648659
 21
1348.783017239225
 31
0.0
 12
1126.413361315326
 22
1331.783017239225
 32
0.0
 13
1126.413361315326
 23
1331.783017239225
 33
0.0
  0
SOLID
  5
1B94
330
1142
100
AcDbEntity
  8
图层3
 62
     0
440
 16777216
100
AcDbTrace
 10
1123.580027981993
 20
1542.783017239226
 30
0.0
 11
1129.246694648659
 21
1542.783017239226
 31
0.0
 12
1126.413361315326
 22
1559.783017239226
 32
0.0
 13
1126.413361315326
 23
1559.783017239226
 33
0.0
  0
MTEXT
  5
1B95
330
1142
100
AcDbEntity
  8
图层3
 62
     0
440
 16777216
100
AcDbMText
 10
1111.413361315326
 20
1445.579830714087
 30
0.0
 40
18.0
 41
0.0
 46
0.0
 71
     5
 72
     1
  1
228{\Ftxt|c134; [9"]}
 11
0.0000000000000001
 21
1.0
 31
0.0
 73
     1
 44
1.0
  0
POINT
  5
1B96
330
1142
100
AcDbEntity
  8
Defpoints
 62
     0
440
 16777216
100
AcDbPoint
 10
1125.048998196104
 20
1331.783017239225
 30
0.0
  0
POINT
  5
1B97
330
1142
100
AcDbEntity
  8
Defpoints
 62
     0
440
 16777216
100
AcDbPoint
 10
1125.048998196104
 20
1559.783017239226
 30
0.0
  0
POINT
  5
1B98
330
1142
100
AcDbEntity
  8
Defpoints
 62
     0
440
 16777216
100
AcDbPoint
 10
1126.413361315326
 20
1559.783017239226
 30
0.0
  0
ENDBLK
  5
114D
330
1142
100
AcDbEntity
  8
0
100
AcDbBlockEnd
  0
BLOCK
  5
149B
330
1494
100
AcDbEntity
  8
0
100
AcDbBlockBegin
  2
*D3
 70
     1
 10
0.0
 20
0.0
 30
0.0
  3
*D3
  1

  0
LINE
  5
177E
330
1494
100
AcDbEntity
  8
图层3
 62
     0
440
 16777216
370
    -2
100
AcDbLine
 10
449.4588330916444
 20
1525.344601185919
 30
0.0
 11
509.4588330916445
 21
1525.344601185919
 31
0.0
  0
LINE
  5
177F
330
1494
100
AcDbEntity
  8
图层3
 62
     0
440
 16777216
370
    -2
100
AcDbLine
 10
509.4588330916445
 20
1525.344601185919
 30
0.0
 11
525.8595121587693
 21
1545.940104401191
 31
0.0
  0
MTEXT
  5
1780
330
1494
100
AcDbEntity
  8
图层3
 62
     0
440
 16777216
100
AcDbMText
 10
476.4588330916446
 20
1540.344601185919
 30
0.0
 40
18.0
 41
0.0
 46
0.0
 71
     5
 72
     1
  1
R2.5
 73
     1
 44
1.0
  0
SOLID
  5
1781
330
1494
100
AcDbEntity
  8
图层3
 62
     0
440
 16777216
100
AcDbTrace
 10
523.6430809145558
 20
1547.705100241824
 30
0.0
 11
528.075943402983
 21
1544.175108560558
 31
0.0
 12
536.4494872025666
 22
1559.238691866473
 32
0.0
 13
536.4494872025666
 23
1559.238691866473
 33
0.0
  0
POINT
  5
1782
330
1494
100
AcDbEntity
  8
Defpoints
 62
     0
440
 16777216
100
AcDbPoint
 10
536.4494872025666
 20
1559.238691866473
 30
0.0
  0
POINT
  5
1783
330
1494
100
AcDbEntity
  8
Defpoints
 62
     0
440
 16777216
100
AcDbPoint
 10
534.8921379314218
 20
1557.283017239228
 30
0.0
  0
ENDBLK
  5
149C
330
1494
100
AcDbEntity
  8
0
100
AcDbBlockEnd
  0
BLOCK
  5
14B0
330
14A6
100
AcDbEntity
  8
0
100
AcDbBlockBegin
  2
*D4
 70
     1
 10
0.0
 20
0.0
 30
0.0
  3
*D4
  1

  0
ARC
  5
173B
330
14A6
100
AcDbEntity
  8
图层3
 62
     0
440
 16777216
370
    -2
100
AcDbCircle
 10
537.2645493482082
 20
1559.783017239225
 30
0.0
 40
93.93288116239601
100
AcDbArc
 50
283.3836107384123
 51
349.6163892615878
  0
SOLID
  5
173C
330
14A6
100
AcDbEntity
  8
图层3
 62
     0
440
 16777216
100
AcDbTrace
 10
559.4108732656263
 20
1465.596729379406
 30
0.0
 11
558.6034448288493
 21
1471.205576892986
 31
0.0
 12
542.1806165064972
 22
1465.978867825865
 32
0.0
 13
542.1806165064972
 23
1465.978867825865
 33
0.0
  0
SOLID
  5
173D
330
14A6
100
AcDbEntity
  8
图层3
 62
     0
440
 16777216
100
AcDbTrace
 10
626.8373888910717
 20
1543.109151015289
 30
0.0
 11
632.480807213404
 21
1542.596373529167
 31
0.0
 12
631.1974305106043
 22
1559.783017239225
 32
0.0
 13
631.1974305106043
 23
1559.783017239225
 33
0.0
  0
MTEXT
  5
173E
330
14A6
100
AcDbEntity
  8
图层3
 62
     0
440
 16777216
100
AcDbMText
 10
594.5204383735688
 20
1505.449207318398
 30
0.0
 40
18.0
 41
0.0
 46
0.0
 71
     5
 72
     1
  1
87°
 11
0.6883545756937546
 21
0.7253743710122871
 31
0.0
 73
     1
 44
1.0
  0
POINT
  5
173F
330
14A6
100
AcDbEntity
  8
Defpoints
 62
     0
440
 16777216
100
AcDbPoint
 10
587.0413926210903
 20
1480.123416202967
 30
0.0
  0
POINT
  5
1740
330
14A6
100
AcDbEntity
  8
Defpoints
 62
     0
440
 16777216
100
AcDbPoint
 10
537.3887117683076
 20
1557.413857129833
 30
0.0
  0
POINT
  5
1741
330
14A6
100
AcDbEntity
  8
Defpoints
 62
     0
440
 16777216
100
AcDbPoint
 10
912.4214096128923
 20
1559.783017239225
 30
0.0
  0
POINT
  5
1742
330
14A6
100
AcDbEntity
  8
Defpoints
 62
     0
440
 16777216
100
AcDbPoint
 10
534.892137931421
 20
1559.783017239225
 30
0.0
  0
POINT
  5
1743
330
14A6
100
AcDbEntity
  8
Defpoints
 62
     0
440
 16777216
100
AcDbPoint
 10
546.9766605088753
 20
1374.46489665613
 30
0.0
  0
ENDBLK
  5
14B1
330
14A6
100
AcDbEntity
  8
0
100
AcDbBlockEnd
  0
BLOCK
  5
1560
330
1556
100
AcDbEntity
  8
0
100
AcDbBlockBegin
  2
*D5
 70
     1
 10
0.0
 20
0.0
 30
0.0
  3
*D5
  1

  0
ARC
  5
1744
330
1556
100
AcDbEntity
  8
图层3
 62
     0
440
 16777216
370
    -2
100
AcDbCircle
 10
1310.048998196104
 20
1559.783017239225
 30
0.0
 40
82.53565843170376
100
AcDbArc
 50
191.8222633608637
 51
255.1777366391362
  0
SOLID
  5
1745
330
1556
100
AcDbEntity
  8
图层3
 62
     0
440
 16777216
100
AcDbTrace
 10
1226.445830186302
 20
1542.581616102154
 30
0.0
 11
1232.082366207952
 21
1543.165202246396
 31
0.0
 12
1227.5133397644
 22
1559.783017239225
 32
0.0
 13
1227.5133397644
 23
1559.783017239225
 33
0.0
  0
SOLID
  5
1746
330
1556
100
AcDbEntity
  8
图层3
 62
     0
440
 16777216
100
AcDbTrace
 10
1289.373499101035
 20
1482.792945048835
 30
0.0
 11
1288.495719238731
 21
1477.194676242816
 31
0.0
 12
1305.729415587939
 22
1477.36047105891
 32
0.0
 13
1305.729415587939
 23
1477.36047105891
 33
0.0
  0
MTEXT
  5
1747
330
1556
100
AcDbEntity
  8
图层3
 62
     0
440
 16777216
100
AcDbMText
 10
1261.060362440306
 20
1513.294537735272
 30
0.0
 40
18.0
 41
0.0
 46
0.0
 71
     5
 72
     1
  1
87°
 11
0.6883545756937533
 21
-0.7253743710122884
 31
0.0
 73
     1
 44
1.0
  0
POINT
  5
1748
330
1556
100
AcDbEntity
  8
Defpoints
 62
     0
440
 16777216
100
AcDbPoint
 10
1237.86168479001
 20
1519.76893601817
 30
0.0
  0
POINT
  5
1749
330
1556
100
AcDbEntity
  8
Defpoints
 62
     0
440
 16777216
100
AcDbPoint
 10
1312.421409612891
 20
1559.783017239225
 30
0.0
  0
POINT
  5
174A
330
1556
100
AcDbEntity
  8
Defpoints
 62
     0
440
 16777216
100
AcDbPoint
 10
1309.924835776004
 20
1557.413857129833
 30
0.0
  0
POINT
  5
174B
330
1556
100
AcDbEntity
  8
Defpoints
 62
     0
440
 16777216
100
AcDbPoint
 10
1300.331792099963
 20
1374.367679495948
 30
0.0
  0
POINT
  5
174C
330
1556
100
AcDbEntity
  8
Defpoints
 62
     0
440
 16777216
100
AcDbPoint
 10
937.6765867793187
 20
1559.783017239225
 30
0.0
  0
ENDBLK
  5
1561
330
1556
100
AcDbEntity
  8
0
100
AcDbBlockEnd
  0
BLOCK
  5
1575
330
156E
100
AcDbEntity
  8
0
100
AcDbBlockBegin
  2
*D6
 70
     1
 10
0.0
 20
0.0
 30
0.0
  3
*D6
  1

  0
LINE
  5
1DBB
330
156E
100
AcDbEntity
  8
图层3
 62
     0
440
 16777216
370
    -2
100
AcDbLine
 10
1157.374896686198
 20
1404.78555230877
 30
0.0
 11
1229.374896686198
 21
1404.78555230877
 31
0.0
  0
LINE
  5
1DBC
330
156E
100
AcDbEntity
  8
图层3
 62
     0
440
 16777216
370
    -2
100
AcDbLine
 10
1229.374896686198
 20
1404.78555230877
 30
0.0
 11
1277.369216008409
 21
1360.950117865872
 31
0.0
  0
MTEXT
  5
1DBD
330
156E
100
AcDbEntity
  8
图层3
 62
     0
440
 16777216
100
AcDbMText
 10
1190.374896686198
 20
1434.78555230877
 30
0.0
 40
18.0
 41
8.684542051796597
 46
0.0
 71
     5
 72
     1
  1
R40{\Ftxt|c134; [1.6"]}
 73
     1
 44
1.0
  0
SOLID
  5
1DBE
330
156E
100
AcDbEntity
  8
图层3
 62
     0
440
 16777216
100
AcDbTrace
 10
1279.27999135592
 20
1363.042177938891
 30
0.0
 11
1275.458440660898
 21
1358.858057792853
 31
0.0
 12
1289.921576446526
 22
1349.485465780806
 32
0.0
 13
1289.921576446526
 23
1349.485465780806
 33
0.0
  0
POINT
  5
1DBF
330
156E
100
AcDbEntity
  8
Defpoints
 62
     0
440
 16777216
100
AcDbPoint
 10
1289.921576446526
 20
1349.485465780806
 30
0.0
  0
POINT
  5
1DC0
330
156E
100
AcDbEntity
  8
Defpoints
 62
     0
440
 16777216
100
AcDbPoint
 10
1260.38661070978
 20
1376.461117745667
 30
0.0
  0
ENDBLK
  5
1576
330
156E
100
AcDbEntity
  8
0
100
AcDbBlockEnd
  0
BLOCK
  5
158F
330
1582
100
AcDbEntity
  8
0
100
AcDbBlockBegin
  2
*D7
 70
     1
 10
0.0
 20
0.0
 30
0.0
  3
*D7
  1

  0
LINE
  5
1B7B
330
1582
100
AcDbEntity
  8
图层3
 62
     0
440
 16777216
370
    -2
100
AcDbLine
 10
1449.704098425482
 20
1338.044247778543
 30
0.0
 11
1427.197636386949
 21
1338.044247778543
 31
0.0
  0
LINE
  5
1B7C
330
1582
100
AcDbEntity
  8
图层3
 62
     0
440
 16777216
370
    -2
100
AcDbLine
 10
1481.204098425482
 20
1327.444247893349
 30
0.0
 11
1427.197636386949
 21
1327.444247893349
 31
0.0
  0
LINE
  5
1B7D
330
1582
100
AcDbEntity
  8
图层3
 62
     0
440
 16777216
370
    -2
100
AcDbLine
 10
1428.447636386949
 20
1355.044247778543
 30
0.0
 11
1428.447636386949
 21
1372.044247778543
 31
0.0
  0
LINE
  5
1B7E
330
1582
100
AcDbEntity
  8
图层3
 62
     0
440
 16777216
370
    -2
100
AcDbLine
 10
1428.447636386949
 20
1310.444247893349
 30
0.0
 11
1428.447636386949
 21
1281.347194386939
 31
0.0
  0
LINE
  5
1B7F
330
1582
100
AcDbEntity
  8
图层3
 62
     0
440
 16777216
370
    -2
100
AcDbLine
 10
1428.447636386949
 20
1281.347194386939
 30
0.0
 11
1308.447636386949
 21
1281.347194386939
 31
0.0
  0
LINE
  5
1B80
330
1582
100
AcDbEntity
  8
图层3
 62
     0
440
 16777216
370
    -2
100
AcDbLine
 10
1428.447636386949
 20
1338.044247778543
 30
0.0
 11
1428.447636386949
 21
1327.444247893349
 31
0.0
  0
SOLID
  5
1B81
330
1582
100
AcDbEntity
  8
图层3
 62
     0
440
 16777216
100
AcDbTrace
 10
1425.614303053615
 20
1355.044247778543
 30
0.0
 11
1431.280969720282
 21
1355.044247778543
 31
0.0
 12
1428.447636386949
 22
1338.044247778543
 32
0.0
 13
1428.447636386949
 23
1338.044247778543
 33
0.0
  0
SOLID
  5
1B82
330
1582
100
AcDbEntity
  8
图层3
 62
     0
440
 16777216
100
AcDbTrace
 10
1425.614303053615
 20
1310.444247893349
 30
0.0
 11
1431.280969720282
 21
1310.444247893349
 31
0.0
 12
1428.447636386949
 22
1327.444247893349
 32
0.0
 13
1428.447636386949
 23
1327.444247893349
 33
0.0
  0
MTEXT
  5
1B83
330
1582
100
AcDbEntity
  8
图层3
 62
     0
440
 16777216
100
AcDbMText
 10
1365.447636386949
 20
1296.347194386939
 30
0.0
 40
18.0
 41
0.0
 46
0.0
 71
     5
 72
     1
  1
5.3{\Ftxt|c134; [.2"]}
 73
     1
 44
1.0
  0
POINT
  5
1B84
330
1582
100
AcDbEntity
  8
Defpoints
 62
     0
440
 16777216
100
AcDbPoint
 10
1449.704098425482
 20
1338.044247778543
 30
0.0
  0
POINT
  5
1B85
330
1582
100
AcDbEntity
  8
Defpoints
 62
     0
440
 16777216
100
AcDbPoint
 10
1481.204098425482
 20
1327.444247893349
 30
0.0
  0
POINT
  5
1B86
330
1582
100
AcDbEntity
  8
Defpoints
 62
     0
440
 16777216
100
AcDbPoint
 10
1428.447636386949
 20
1327.444247893349
 30
0.0
  0
ENDBLK
  5
1590
330
1582
100
AcDbEntity
  8
0
100
AcDbBlockEnd
  0
BLOCK
  5
162A
330
1620
100
AcDbEntity
  8
0
100
AcDbBlockBegin
  2
*D8
 70
     1
 10
0.0
 20
0.0
 30
0.0
  3
*D8
  1

  0
LINE
  5
1B66
330
1620
100
AcDbEntity
  8
图层3
 62
     0
440
 16777216
370
    -2
100
AcDbLine
 10
1462.704098425482
 20
1331.044247825923
 30
0.0
 11
1462.704098425482
 21
1508.035211457787
 31
0.0
  0
LINE
  5
1B67
330
1620
100
AcDbEntity
  8
图层3
 62
     0
440
 16777216
370
    -2
100
AcDbLine
 10
1684.70409842548
 20
1331.044248635036
 30
0.0
 11
1684.70409842548
 21
1508.035211457787
 31
0.0
  0
LINE
  5
1B68
330
1620
100
AcDbEntity
  8
图层3
 62
     0
440
 16777216
370
    -2
100
AcDbLine
 10
1479.704098425482
 20
1506.785211457787
 30
0.0
 11
1667.704098425479
 21
1506.785211457787
 31
0.0
  0
SOLID
  5
1B69
330
1620
100
AcDbEntity
  8
图层3
 62
     0
440
 16777216
100
AcDbTrace
 10
1479.704098425482
 20
1509.61854479112
 30
0.0
 11
1479.704098425482
 21
1503.951878124454
 31
0.0
 12
1462.704098425482
 22
1506.785211457787
 32
0.0
 13
1462.704098425482
 23
1506.785211457787
 33
0.0
  0
SOLID
  5
1B6A
330
1620
100
AcDbEntity
  8
图层3
 62
     0
440
 16777216
100
AcDbTrace
 10
1667.704098425479
 20
1509.61854479112
 30
0.0
 11
1667.704098425479
 21
1503.951878124454
 31
0.0
 12
1684.70409842548
 22
1506.785211457787
 32
0.0
 13
1684.70409842548
 23
1506.785211457787
 33
0.0
  0
MTEXT
  5
1B6B
330
1620
100
AcDbEntity
  8
图层3
 62
     0
440
 16777216
100
AcDbMText
 10
1575.049528493817
 20
1521.785211457787
 30
0.0
 40
18.0
 41
0.0
 46
0.0
 71
     5
 72
     1
  1
%%C111{\Ftxt|c134; [4.37"]}
 73
     1
 44
1.0
  0
POINT
  5
1B6C
330
1620
100
AcDbEntity
  8
Defpoints
 62
     0
440
 16777216
100
AcDbPoint
 10
1462.704098425482
 20
1331.044247825923
 30
0.0
  0
POINT
  5
1B6D
330
1620
100
AcDbEntity
  8
Defpoints
 62
     0
440
 16777216
100
AcDbPoint
 10
1684.70409842548
 20
1331.044248635036
 30
0.0
  0
POINT
  5
1B6E
330
1620
100
AcDbEntity
  8
Defpoints
 62
     0
440
 16777216
100
AcDbPoint
 10
1684.70409842548
 20
1506.785211457787
 30
0.0
  0
ENDBLK
  5
162B
330
1620
100
AcDbEntity
  8
0
100
AcDbBlockEnd
  0
BLOCK
  5
1642
330
1638
100
AcDbEntity
  8
0
100
AcDbBlockBegin
  2
*D9
 70
     1
 10
0.0
 20
0.0
 30
0.0
  3
*D9
  1

  0
LINE
  5
1B54
330
1638
100
AcDbEntity
  8
图层3
 62
     0
440
 16777216
370
    -2
100
AcDbLine
 10
1449.704098425482
 20
1338.044247778542
 30
0.0
 11
1449.704098425482
 21
1550.213940618493
 31
0.0
  0
LINE
  5
1B55
330
1638
100
AcDbEntity
  8
图层3
 62
     0
440
 16777216
370
    -2
100
AcDbLine
 10
1697.704098425487
 20
1338.044248682417
 30
0.0
 11
1697.704098425487
 21
1550.213940618493
 31
0.0
  0
LINE
  5
1B56
330
1638
100
AcDbEntity
  8
图层3
 62
     0
440
 16777216
370
    -2
100
AcDbLine
 10
1466.704098425482
 20
1548.963940618493
 30
0.0
 11
1680.704098425487
 21
1548.963940618493
 31
0.0
  0
SOLID
  5
1B57
330
1638
100
AcDbEntity
  8
图层3
 62
     0
440
 16777216
100
AcDbTrace
 10
1466.704098425482
 20
1551.797273951826
 30
0.0
 11
1466.704098425482
 21
1546.13060728516
 31
0.0
 12
1449.704098425482
 22
1548.963940618493
 32
0.0
 13
1449.704098425482
 23
1548.963940618493
 33
0.0
  0
SOLID
  5
1B58
330
1638
100
AcDbEntity
  8
图层3
 62
     0
440
 16777216
100
AcDbTrace
 10
1680.704098425487
 20
1551.797273951826
 30
0.0
 11
1680.704098425487
 21
1546.13060728516
 31
0.0
 12
1697.704098425487
 22
1548.963940618493
 32
0.0
 13
1697.704098425487
 23
1548.963940618493
 33
0.0
  0
MTEXT
  5
1B59
330
1638
100
AcDbEntity
  8
图层3
 62
     0
440
 16777216
100
AcDbMText
 10
1573.593958582711
 20
1563.963940618493
 30
0.0
 40
18.0
 41
0.0
 46
0.0
 71
     5
 72
     1
  1
%%C124{\Ftxt|c134; [4.88"]}
 73
     1
 44
1.0
  0
POINT
  5
1B5A
330
1638
100
AcDbEntity
  8
Defpoints
 62
     0
440
 16777216
100
AcDbPoint
 10
1449.704098425482
 20
1338.044247778542
 30
0.0
  0
POINT
  5
1B5B
330
1638
100
AcDbEntity
  8
Defpoints
 62
     0
440
 16777216
100
AcDbPoint
 10
1697.704098425487
 20
1338.044248682417
 30
0.0
  0
POINT
  5
1B5C
330
1638
100
AcDbEntity
  8
Defpoints
 62
     0
440
 16777216
100
AcDbPoint
 10
1697.704098425487
 20
1548.963940618493
 30
0.0
  0
ENDBLK
  5
1643
330
1638
100
AcDbEntity
  8
0
100
AcDbBlockEnd
  0
BLOCK
  5
16C5
330
16AF
100
AcDbEntity
  8
0
100
AcDbBlockBegin
  2
c
 70
     0
 10
0.0
 20
0.0
 30
0.0
  3
c
  1

  0
MTEXT
  5
16B0
330
16AF
100
AcDbEntity
  8
图层3
100
AcDbMText
 10
54.71600927374021
 20
226.3160909522091
 30
0.0
 40
3.7
 41
320.0
 46
0.0
 71
     1
 72
     5
  1
{\fMS Reference Sans Serif|b0|i0|c0|p34;M\H1.027x;odel no:5052A\P\PSU3041.2mm\P\PMfg. date:XXXXX\P\PComplies with ASME A112.19.3 and CSA B45}
 73
     1
 44
1.0
  0
LINE
  5
16B1
330
16AF
100
AcDbEntity
  8
图层3
100
AcDbLine
 10
133.5798802168802
 20
221.116722845646
 30
0.0
 11
152.5798802168802
 21
221.116722845646
 31
0.0
  0
LINE
  5
16B2
330
16AF
100
AcDbEntity
  8
图层3
100
AcDbLine
 10
133.5798802168802
 20
221.116722845646
 30
0.0
 11
133.5798802168802
 21
213.116722845646
 31
0.0
  0
LINE
  5
16B3
330
16AF
100
AcDbEntity
  8
图层3
100
AcDbLine
 10
152.5798802168802
 20
221.116722845646
 30
0.0
 11
152.5798802168802
 21
213.116722845646
 31
0.0
  0
ARC
  5
16B4
330
16AF
100
AcDbEntity
  8
图层3
100
AcDbCircle
 10
152.8175005163763
 20
218.5860889160803
 30
0.0
 40
20.0
100
AcDbArc
 50
195.8707558324607
 51
240.8642149372622
  0
ARC
  5
16B5
330
16AF
100
AcDbEntity
  8
图层3
100
AcDbCircle
 10
133.0798802168803
 20
218.7938061789792
 30
0.0
 40
20.3095857952251
100
AcDbArc
 50
299.4970227370384
 51
343.7680064932391
  0
LINE
  5
16B6
330
16AF
100
AcDbEntity
  8
图层3
100
AcDbLine
 10
133.5798802168802
 20
221.116722845646
 30
0.0
 11
152.5798802168802
 21
213.116722845646
 31
0.0
  0
LINE
  5
16B7
330
16AF
100
AcDbEntity
  8
图层3
100
AcDbLine
 10
133.5798802168802
 20
214.6065560683549
 30
0.0
 11
150.2515382165315
 21
207.5869105948175
 31
0.0
  0
MTEXT
  5
16B8
330
16AF
100
AcDbEntity
  8
图层3
100
AcDbMText
 10
138.1416580824129
 20
216.860014701051
 30
0.0
 40
2.5
 41
4.719320932013005
 46
0.0
 71
     1
 72
     5
  1
{\fMS Reference Sans Serif|b0|i0|c0|p34;U}
 73
     1
 44
1.0
  0
MTEXT
  5
16B9
330
16AF
100
AcDbEntity
  8
图层3
100
AcDbMText
 10
142.1117902545913
 20
215.3487572451774
 30
0.0
 40
2.5
 41
1.316350149343662
 46
0.0
 71
     1
 72
     5
  1
{\fMS Reference Sans Serif|b0|i0|c0|p34;P}
 73
     1
 44
1.0
  0
MTEXT
  5
16BA
330
16AF
100
AcDbEntity
  8
图层3
100
AcDbMText
 10
145.5147618524657
 20
213.4596856031385
 30
0.0
 40
2.5
 41
4.915402377500981
 46
0.0
 71
     1
 72
     5
  1
{\fMS Reference Sans Serif|b0|i0|c0|p34;C}
 73
     1
 44
1.0
  0
MTEXT
  5
16BB
330
16AF
100
AcDbEntity
  8
图层3
100
AcDbMText
 10
132.4700397036948
 20
203.2586964128373
 30
0.0
 40
3.5
 41
5.104456174004042
 46
0.0
 71
     1
 72
     5
  1
{\fMS Reference Sans Serif|b0|i0|c0|p34;C}
 73
     1
 44
1.0
  0
CIRCLE
  5
16BC
330
16AF
100
AcDbEntity
  8
图层3
100
AcDbCircle
 10
151.5644878241899
 20
201.7474389569638
 30
0.0
 40
1.946073200565057
  0
MTEXT
  5
16BD
330
16AF
100
AcDbEntity
  8
图层3
100
AcDbMText
 10
151.0444204230561
 20
202.8808819896013
 30
0.0
 40
2.0
 41
0.9452693901175734
 46
0.0
 71
     1
 72
     5
  1
{\fSimHei|b0|i0|c134|p2;R}
 73
     1
 44
1.0
  0
LINE
  5
16BE
330
16AF
100
AcDbEntity
  8
图层3
100
AcDbLine
 10
49.55519078950499
 20
169.0633290678566
 30
0.0
 11
177.555190789505
 21
169.0633290678566
 31
0.0
  0
LINE
  5
16BF
330
16AF
100
AcDbEntity
  8
图层3
100
AcDbLine
 10
177.555190789505
 20
169.0633290678566
 30
0.0
 11
177.555190789505
 21
232.0633290678566
 31
0.0
  0
LINE
  5
16C0
330
16AF
100
AcDbEntity
  8
图层3
100
AcDbLine
 10
177.555190789505
 20
232.0633290678566
 30
0.0
 11
49.55519078950499
 21
232.0633290678566
 31
0.0
  0
LINE
  5
16C1
330
16AF
100
AcDbEntity
  8
图层3
100
AcDbLine
 10
49.55519078950499
 20
232.0633290678566
 30
0.0
 11
49.55519078950499
 21
169.0633290678566
 31
0.0
  0
MTEXT
  5
16C2
330
16AF
100
AcDbEntity
  8
图层3
100
AcDbMText
 10
54.30222319700829
 20
178.23411561022
 30
0.0
 40
3.5
 41
123.2529675924967
 46
0.0
 71
     1
 72
     5
  1
{\fFranklin Gothic Medium|b0|i0|c0|p34;Jian\fMicrosoft Sans Serif|b0|i0|c0|p34;gmen XHHL Stainless Steel Manufacturing Co.Ltd.}
 73
     1
 44
1.0
  0
ENDBLK
  5
16C6
330
16AF
100
AcDbEntity
  8
0
100
AcDbBlockEnd
  0
BLOCK
  5
16D3
330
16CD
100
AcDbEntity
  8
0
100
AcDbBlockBegin
  2
*D11
 70
     1
 10
0.0
 20
0.0
 30
0.0
  3
*D11
  1

  0
LINE
  5
1B9E
330
16CD
100
AcDbEntity
  8
图层3
 62
     0
440
 16777216
370
    -2
100
AcDbLine
 10
812.5368134047558
 20
1544.992224069832
 30
0.0
 11
822.1750066348977
 21
1351.231791495845
 31
0.0
  0
MTEXT
  5
1B9F
330
16CD
100
AcDbEntity
  8
图层3
 62
     0
440
 16777216
100
AcDbMText
 10
831.9150947938142
 20
1457.346732397947
 30
0.0
 40
18.0
 41
0.0
 46
0.0
 71
     5
 72
     1
  1
R2000{\Ftxt|c134; [79"]}
 11
0.0496814084027943
 21
-0.998765116360756
 31
0.0
 73
     1
 44
1.0
  0
SOLID
  5
1BA0
330
16CD
100
AcDbEntity
  8
图层3
 62
     0
440
 16777216
100
AcDbTrace
 10
825.0048411312533
 20
1351.37255548632
 30
0.0
 11
819.3451721385423
 21
1351.091027505371
 31
0.0
 12
823.0195905777453
 22
1334.252784517713
 32
0.0
 13
823.0195905777453
 23
1334.252784517713
 33
0.0
  0
POINT
  5
1BA1
330
16CD
100
AcDbEntity
  8
Defpoints
 62
     0
440
 16777216
100
AcDbPoint
 10
823.0195905777453
 20
1334.252784517713
 30
0.0
  0
POINT
  5
1BA2
330
16CD
100
AcDbEntity
  8
Defpoints
 62
     0
440
 16777216
100
AcDbPoint
 10
723.6567737721579
 20
3331.783017239219
 30
0.0
  0
ENDBLK
  5
16D4
330
16CD
100
AcDbEntity
  8
0
100
AcDbBlockEnd
  0
BLOCK
  5
1798
330
178E
100
AcDbEntity
  8
0
100
AcDbBlockBegin
  2
*D12
 70
     1
 10
0.0
 20
0.0
 30
0.0
  3
*D12
  1

  0
LINE
  5
1BBE
330
178E
100
AcDbEntity
  8
图层3
 62
     0
440
 16777216
370
    -2
100
AcDbLine
 10
725.0490058880485
 20
1147.139430203523
 30
0.0
 11
413.356616853627
 21
1147.139430203522
 31
0.0
  0
LINE
  5
1BBF
330
178E
100
AcDbEntity
  8
图层3
 62
     0
440
 16777216
370
    -2
100
AcDbLine
 10
725.048990504166
 20
727.1394302035226
 30
0.0
 11
413.3566168536271
 21
727.1394302035226
 31
0.0
  0
LINE
  5
1BC0
330
178E
100
AcDbEntity
  8
图层3
 62
     0
440
 16777216
370
    -2
100
AcDbLine
 10
414.606616853627
 20
1130.139430203522
 30
0.0
 11
414.606616853627
 21
744.1394302035226
 31
0.0
  0
SOLID
  5
1BC1
330
178E
100
AcDbEntity
  8
图层3
 62
     0
440
 16777216
100
AcDbTrace
 10
411.7732835202937
 20
1130.139430203522
 30
0.0
 11
417.4399501869603
 21
1130.139430203522
 31
0.0
 12
414.606616853627
 22
1147.139430203522
 32
0.0
 13
414.606616853627
 23
1147.139430203522
 33
0.0
  0
SOLID
  5
1BC2
330
178E
100
AcDbEntity
  8
图层3
 62
     0
440
 16777216
100
AcDbTrace
 10
411.7732835202938
 20
744.1394302035226
 30
0.0
 11
417.4399501869603
 21
744.1394302035226
 31
0.0
 12
414.606616853627
 22
727.1394302035226
 32
0.0
 13
414.606616853627
 23
727.1394302035226
 33
0.0
  0
MTEXT
  5
1BC3
330
178E
100
AcDbEntity
  8
图层3
 62
     0
440
 16777216
100
AcDbMText
 10
399.6066168536272
 20
940.596083765342
 30
0.0
 40
18.0
 41
0.0
 46
0.0
 71
     5
 72
     1
  1
420{\Ftxt|c134; [16.54"]}
 11
0.0000000000000001
 21
1.0
 31
0.0
 73
     1
 44
1.0
  0
POINT
  5
1BC4
330
178E
100
AcDbEntity
  8
Defpoints
 62
     0
440
 16777216
100
AcDbPoint
 10
725.0490058880485
 20
1147.139430203523
 30
0.0
  0
POINT
  5
1BC5
330
178E
100
AcDbEntity
  8
Defpoints
 62
     0
440
 16777216
100
AcDbPoint
 10
725.048990504166
 20
727.1394302035226
 30
0.0
  0
POINT
  5
1BC6
330
178E
100
AcDbEntity
  8
Defpoints
 62
     0
440
 16777216
100
AcDbPoint
 10
414.606616853627
 20
727.1394302035226
 30
0.0
  0
ENDBLK
  5
1799
330
178E
100
AcDbEntity
  8
0
100
AcDbBlockEnd
  0
BLOCK
  5
17B0
330
17A6
100
AcDbEntity
  8
0
100
AcDbBlockBegin
  2
*D13
 70
     1
 10
0.0
 20
0.0
 30
0.0
  3
*D13
  1

  0
LINE
  5
1BAC
330
17A6
100
AcDbEntity
  8
图层3
 62
     0
440
 16777216
370
    -2
100
AcDbLine
 10
590.0489981961073
 20
1172.139430203523
 30
0.0
 11
363.2351496688459
 21
1172.139430203522
 31
0.0
  0
LINE
  5
1BAD
330
17A6
100
AcDbEntity
  8
图层3
 62
     0
440
 16777216
370
    -2
100
AcDbLine
 10
595.3907724691872
 20
702.1394302035226
 30
0.0
 11
363.235149668846
 21
702.1394302035226
 31
0.0
  0
LINE
  5
1BAE
330
17A6
100
AcDbEntity
  8
图层3
 62
     0
440
 16777216
370
    -2
100
AcDbLine
 10
364.4851496688458
 20
1155.139430203522
 30
0.0
 11
364.485149668846
 21
719.1394302035226
 31
0.0
  0
SOLID
  5
1BAF
330
17A6
100
AcDbEntity
  8
图层3
 62
     0
440
 16777216
100
AcDbTrace
 10
361.6518163355125
 20
1155.139430203522
 30
0.0
 11
367.3184830021792
 21
1155.139430203522
 31
0.0
 12
364.4851496688458
 22
1172.139430203522
 32
0.0
 13
364.4851496688458
 23
1172.139430203522
 33
0.0
  0
SOLID
  5
1BB0
330
17A6
100
AcDbEntity
  8
图层3
 62
     0
440
 16777216
100
AcDbTrace
 10
361.6518163355126
 20
719.1394302035226
 30
0.0
 11
367.3184830021793
 21
719.1394302035226
 31
0.0
 12
364.485149668846
 22
702.1394302035226
 32
0.0
 13
364.485149668846
 23
702.1394302035226
 33
0.0
  0
MTEXT
  5
1BB1
330
17A6
100
AcDbEntity
  8
图层3
 62
     0
440
 16777216
100
AcDbMText
 10
349.4851496688462
 20
939.3440199767683
 30
0.0
 40
18.0
 41
0.0
 46
0.0
 71
     5
 72
     1
  1
470{\Ftxt|c134; [18.5"]}
 11
0.0000000000000001
 21
1.0
 31
0.0
 73
     1
 44
1.0
  0
POINT
  5
1BB2
330
17A6
100
AcDbEntity
  8
Defpoints
 62
     0
440
 16777216
100
AcDbPoint
 10
590.0489981961073
 20
1172.139430203523
 30
0.0
  0
POINT
  5
1BB3
330
17A6
100
AcDbEntity
  8
Defpoints
 62
     0
440
 16777216
100
AcDbPoint
 10
595.3907724691872
 20
702.1394302035226
 30
0.0
  0
POINT
  5
1BB4
330
17A6
100
AcDbEntity
  8
Defpoints
 62
     0
440
 16777216
100
AcDbPoint
 10
364.485149668846
 20
702.1394302035226
 30
0.0
  0
ENDBLK
  5
17B1
330
17A6
100
AcDbEntity
  8
0
100
AcDbBlockEnd
  0
BLOCK
  5
17C9
330
17BF
100
AcDbEntity
  8
0
100
AcDbBlockBegin
  2
*D14
 70
     1
 10
0.0
 20
0.0
 30
0.0
  3
*D14
  1

  0
LINE
  5
1D48
330
17BF
100
AcDbEntity
  8
图层3
 62
     0
440
 16777216
370
    -2
100
AcDbLine
 10
1260.048998196104
 20
702.1394302035226
 30
0.0
 11
1388.151934953541
 21
702.1394302035226
 31
0.0
  0
LINE
  5
1D49
330
17BF
100
AcDbEntity
  8
图层3
 62
     0
440
 16777216
370
    -2
100
AcDbLine
 10
1335.048998196104
 20
777.1394302035227
 30
0.0
 11
1388.151934953541
 21
777.1394302035227
 31
0.0
  0
LINE
  5
1D4A
330
17BF
100
AcDbEntity
  8
图层3
 62
     0
440
 16777216
370
    -2
100
AcDbLine
 10
1386.901934953541
 20
719.1394302035226
 30
0.0
 11
1386.901934953541
 21
760.1394302035227
 31
0.0
  0
SOLID
  5
1D4B
330
17BF
100
AcDbEntity
  8
图层3
 62
     0
440
 16777216
100
AcDbTrace
 10
1384.068601620208
 20
719.1394302035226
 30
0.0
 11
1389.735268286874
 21
719.1394302035226
 31
0.0
 12
1386.901934953541
 22
702.1394302035226
 32
0.0
 13
1386.901934953541
 23
702.1394302035226
 33
0.0
  0
SOLID
  5
1D4C
330
17BF
100
AcDbEntity
  8
图层3
 62
     0
440
 16777216
100
AcDbTrace
 10
1384.068601620208
 20
760.1394302035227
 30
0.0
 11
1389.735268286874
 21
760.1394302035227
 31
0.0
 12
1386.901934953541
 22
777.1394302035227
 32
0.0
 13
1386.901934953541
 23
777.1394302035227
 33
0.0
  0
MTEXT
  5
1D4D
330
17BF
100
AcDbEntity
  8
图层3
 62
     0
440
 16777216
100
AcDbMText
 10
1356.901934953541
 20
739.6394302035221
 30
0.0
 40
18.0
 41
31.26434095549121
 46
0.0
 71
     5
 72
     1
  1
75{\Ftxt|c134; [3"]}
 11
0.0000000000000001
 21
1.0
 31
0.0
 73
     1
 44
1.0
  0
POINT
  5
1D4E
330
17BF
100
AcDbEntity
  8
Defpoints
 62
     0
440
 16777216
100
AcDbPoint
 10
1260.048998196104
 20
702.1394302035226
 30
0.0
  0
POINT
  5
1D4F
330
17BF
100
AcDbEntity
  8
Defpoints
 62
     0
440
 16777216
100
AcDbPoint
 10
1335.048998196104
 20
777.1394302035227
 30
0.0
  0
POINT
  5
1D50
330
17BF
100
AcDbEntity
  8
Defpoints
 62
     0
440
 16777216
100
AcDbPoint
 10
1386.901934953541
 20
777.1394302035227
 30
0.0
  0
ENDBLK
  5
17CA
330
17BF
100
AcDbEntity
  8
0
100
AcDbBlockEnd
  0
BLOCK
  5
17E1
330
17D7
100
AcDbEntity
  8
0
100
AcDbBlockBegin
  2
*D15
 70
     1
 10
0.0
 20
0.0
 30
0.0
  3
*D15
  1

  0
LINE
  5
1D5A
330
17D7
100
AcDbEntity
  8
图层3
 62
     0
440
 16777216
370
    -2
100
AcDbLine
 10
1335.048998196104
 20
777.1394302035227
 30
0.0
 11
1388.15193495354
 21
777.1394302035227
 31
0.0
  0
LINE
  5
1D5B
330
17D7
100
AcDbEntity
  8
图层3
 62
     0
440
 16777216
370
    -2
100
AcDbLine
 10
1335.048998196104
 20
1097.139430203522
 30
0.0
 11
1388.15193495354
 21
1097.139430203522
 31
0.0
  0
LINE
  5
1D5C
330
17D7
100
AcDbEntity
  8
图层3
 62
     0
440
 16777216
370
    -2
100
AcDbLine
 10
1386.90193495354
 20
794.1394302035228
 30
0.0
 11
1386.90193495354
 21
1080.139430203522
 31
0.0
  0
SOLID
  5
1D5D
330
17D7
100
AcDbEntity
  8
图层3
 62
     0
440
 16777216
100
AcDbTrace
 10
1384.068601620207
 20
794.1394302035228
 30
0.0
 11
1389.735268286873
 21
794.1394302035228
 31
0.0
 12
1386.90193495354
 22
777.1394302035227
 32
0.0
 13
1386.90193495354
 23
777.1394302035227
 33
0.0
  0
SOLID
  5
1D5E
330
17D7
100
AcDbEntity
  8
图层3
 62
     0
440
 16777216
100
AcDbTrace
 10
1384.068601620207
 20
1080.139430203522
 30
0.0
 11
1389.735268286873
 21
1080.139430203522
 31
0.0
 12
1386.90193495354
 22
1097.139430203522
 32
0.0
 13
1386.90193495354
 23
1097.139430203522
 33
0.0
  0
MTEXT
  5
1D5F
330
17D7
100
AcDbEntity
  8
图层3
 62
     0
440
 16777216
100
AcDbMText
 10
1371.90193495354
 20
937.139430203522
 30
0.0
 40
18.0
 41
0.0
 46
0.0
 71
     5
 72
     1
  1
320{\Ftxt|c134; [12.6"]}
 11
0.0000000000000001
 21
1.0
 31
0.0
 73
     1
 44
1.0
  0
POINT
  5
1D60
330
17D7
100
AcDbEntity
  8
Defpoints
 62
     0
440
 16777216
100
AcDbPoint
 10
1335.048998196104
 20
777.1394302035227
 30
0.0
  0
POINT
  5
1D61
330
17D7
100
AcDbEntity
  8
Defpoints
 62
     0
440
 16777216
100
AcDbPoint
 10
1335.048998196104
 20
1097.139430203522
 30
0.0
  0
POINT
  5
1D62
330
17D7
100
AcDbEntity
  8
Defpoints
 62
     0
440
 16777216
100
AcDbPoint
 10
1386.90193495354
 20
1097.139430203522
 30
0.0
  0
ENDBLK
  5
17E2
330
17D7
100
AcDbEntity
  8
0
100
AcDbBlockEnd
  0
BLOCK
  5
17F9
330
17EF
100
AcDbEntity
  8
0
100
AcDbBlockBegin
  2
*D16
 70
     1
 10
0.0
 20
0.0
 30
0.0
  3
*D16
  1

  0
LINE
  5
1D20
330
17EF
100
AcDbEntity
  8
图层3
 62
     0
440
 16777216
370
    -2
100
AcDbLine
 10
1335.048998196104
 20
1097.139430203522
 30
0.0
 11
1388.15193495354
 21
1097.139430203522
 31
0.0
  0
LINE
  5
1D21
330
17EF
100
AcDbEntity
  8
图层3
 62
     0
440
 16777216
370
    -2
100
AcDbLine
 10
1260.048998196104
 20
1172.139430203522
 30
0.0
 11
1388.15193495354
 21
1172.139430203522
 31
0.0
  0
LINE
  5
1D22
330
17EF
100
AcDbEntity
  8
图层3
 62
     0
440
 16777216
370
    -2
100
AcDbLine
 10
1386.90193495354
 20
1114.139430203522
 30
0.0
 11
1386.90193495354
 21
1155.139430203522
 31
0.0
  0
SOLID
  5
1D23
330
17EF
100
AcDbEntity
  8
图层3
 62
     0
440
 16777216
100
AcDbTrace
 10
1384.068601620207
 20
1114.139430203522
 30
0.0
 11
1389.735268286873
 21
1114.139430203522
 31
0.0
 12
1386.90193495354
 22
1097.139430203522
 32
0.0
 13
1386.90193495354
 23
1097.139430203522
 33
0.0
  0
SOLID
  5
1D24
330
17EF
100
AcDbEntity
  8
图层3
 62
     0
440
 16777216
100
AcDbTrace
 10
1384.068601620207
 20
1155.139430203522
 30
0.0
 11
1389.735268286873
 21
1155.139430203522
 31
0.0
 12
1386.90193495354
 22
1172.139430203522
 32
0.0
 13
1386.90193495354
 23
1172.139430203522
 33
0.0
  0
MTEXT
  5
1D25
330
17EF
100
AcDbEntity
  8
图层3
 62
     0
440
 16777216
100
AcDbMText
 10
1356.90193495354
 20
1134.639430203522
 30
0.0
 40
18.0
 41
5.210714800103232
 46
0.0
 71
     5
 72
     1
  1
75{\Ftxt|c134; [3"]}
 11
0.0000000000000001
 21
1.0
 31
0.0
 73
     1
 44
1.0
  0
POINT
  5
1D26
330
17EF
100
AcDbEntity
  8
Defpoints
 62
     0
440
 16777216
100
AcDbPoint
 10
1335.048998196104
 20
1097.139430203522
 30
0.0
  0
POINT
  5
1D27
330
17EF
100
AcDbEntity
  8
Defpoints
 62
     0
440
 16777216
100
AcDbPoint
 10
1260.048998196104
 20
1172.139430203522
 30
0.0
  0
POINT
  5
1D28
330
17EF
100
AcDbEntity
  8
Defpoints
 62
     0
440
 16777216
100
AcDbPoint
 10
1386.90193495354
 20
1172.139430203522
 30
0.0
  0
ENDBLK
  5
17FA
330
17EF
100
AcDbEntity
  8
0
100
AcDbBlockEnd
  0
BLOCK
  5
1811
330
1807
100
AcDbEntity
  8
0
100
AcDbBlockBegin
  2
*D17
 70
     1
 10
0.0
 20
0.0
 30
0.0
  3
*D17
  1

  0
LINE
  5
1D6C
330
1807
100
AcDbEntity
  8
图层3
 62
     0
440
 16777216
370
    -2
100
AcDbLine
 10
540.0489981961072
 20
937.1394302035218
 30
0.0
 11
540.0489981961072
 21
629.5433656893969
 31
0.0
  0
LINE
  5
1D6D
330
1807
100
AcDbEntity
  8
图层3
 62
     0
440
 16777216
370
    -2
100
AcDbLine
 10
910.0489981961054
 20
937.1394169289711
 30
0.0
 11
910.0489981961054
 21
629.5433656893969
 31
0.0
  0
LINE
  5
1D6E
330
1807
100
AcDbEntity
  8
图层3
 62
     0
440
 16777216
370
    -2
100
AcDbLine
 10
557.0489981961072
 20
630.7933656893969
 30
0.0
 11
893.0489981961054
 21
630.7933656893969
 31
0.0
  0
SOLID
  5
1D6F
330
1807
100
AcDbEntity
  8
图层3
 62
     0
440
 16777216
100
AcDbTrace
 10
557.0489981961072
 20
633.6266990227303
 30
0.0
 11
557.0489981961072
 21
627.9600323560636
 31
0.0
 12
540.0489981961072
 22
630.7933656893969
 32
0.0
 13
540.0489981961072
 23
630.7933656893969
 33
0.0
  0
SOLID
  5
1D70
330
1807
100
AcDbEntity
  8
图层3
 62
     0
440
 16777216
100
AcDbTrace
 10
893.0489981961054
 20
633.6266990227303
 30
0.0
 11
893.0489981961054
 21
627.9600323560636
 31
0.0
 12
910.0489981961054
 22
630.7933656893969
 32
0.0
 13
910.0489981961054
 23
630.7933656893969
 33
0.0
  0
MTEXT
  5
1D71
330
1807
100
AcDbEntity
  8
图层3
 62
     0
440
 16777216
100
AcDbMText
 10
725.0489981961063
 20
645.793365689397
 30
0.0
 40
18.0
 41
0.0
 46
0.0
 71
     5
 72
     1
  1
370{\Ftxt|c134; [14.57"]}
 73
     1
 44
1.0
  0
POINT
  5
1D72
330
1807
100
AcDbEntity
  8
Defpoints
 62
     0
440
 16777216
100
AcDbPoint
 10
540.0489981961072
 20
937.1394302035218
 30
0.0
  0
POINT
  5
1D73
330
1807
100
AcDbEntity
  8
Defpoints
 62
     0
440
 16777216
100
AcDbPoint
 10
910.0489981961054
 20
937.1394169289711
 30
0.0
  0
POINT
  5
1D74
330
1807
100
AcDbEntity
  8
Defpoints
 62
     0
440
 16777216
100
AcDbPoint
 10
910.0489981961054
 20
630.7933656893969
 30
0.0
  0
ENDBLK
  5
1812
330
1807
100
AcDbEntity
  8
0
100
AcDbBlockEnd
  0
BLOCK
  5
182E
330
181F
100
AcDbEntity
  8
0
100
AcDbBlockBegin
  2
*D18
 70
     1
 10
0.0
 20
0.0
 30
0.0
  3
*D18
  1

  0
LINE
  5
1D95
330
181F
100
AcDbEntity
  8
图层3
 62
     0
440
 16777216
370
    -2
100
AcDbLine
 10
910.0489981961054
 20
937.1394169289716
 30
0.0
 11
910.0489981961054
 21
629.5433656893975
 31
0.0
  0
LINE
  5
1D96
330
181F
100
AcDbEntity
  8
图层3
 62
     0
440
 16777216
370
    -2
100
AcDbLine
 10
940.0489981961055
 20
937.1394302035223
 30
0.0
 11
940.0489981961055
 21
629.5433656893975
 31
0.0
  0
LINE
  5
1D97
330
181F
100
AcDbEntity
  8
图层3
 62
     0
440
 16777216
370
    -2
100
AcDbLine
 10
893.0489981961054
 20
630.7933656893975
 30
0.0
 11
876.0489981961054
 21
630.7933656893975
 31
0.0
  0
LINE
  5
1D98
330
181F
100
AcDbEntity
  8
图层3
 62
     0
440
 16777216
370
    -2
100
AcDbLine
 10
957.0489981961054
 20
630.7933656893975
 30
0.0
 11
974.0489981961054
 21
630.7933656893975
 31
0.0
  0
LINE
  5
1D99
330
181F
100
AcDbEntity
  8
图层3
 62
     0
440
 16777216
370
    -2
100
AcDbLine
 10
925.0489981961054
 20
630.7933656893975
 30
0.0
 11
925.0489981961054
 21
590.5433656893975
 31
0.0
  0
LINE
  5
1D9A
330
181F
100
AcDbEntity
  8
图层3
 62
     0
440
 16777216
370
    -2
100
AcDbLine
 10
925.0489981961054
 20
590.5433656893975
 30
0.0
 11
1054.048998196105
 21
590.5433656893975
 31
0.0
  0
MTEXT
  5
1D9B
330
181F
100
AcDbEntity
  8
图层3
 62
     0
440
 16777216
100
AcDbMText
 10
989.5489981961054
 20
605.5433656893975
 30
0.0
 40
18.0
 41
0.0
 46
0.0
 71
     5
 72
     1
  1
30{\Ftxt|c134; [1.2"]}
 73
     1
 44
1.0
  0
LINE
  5
1D9C
330
181F
100
AcDbEntity
  8
图层3
 62
     0
440
 16777216
370
    -2
100
AcDbLine
 10
910.0489981961054
 20
630.7933656893975
 30
0.0
 11
940.0489981961055
 21
630.7933656893975
 31
0.0
  0
LINE
  5
1D9D
330
181F
100
AcDbEntity
  8
图层3
 62
     0
440
 16777216
370
    -2
100
AcDbLine
 10
910.0489981961054
 20
630.7933656893975
 30
0.0
 11
940.0489981961055
 21
630.7933656893975
 31
0.0
  0
SOLID
  5
1D9E
330
181F
100
AcDbEntity
  8
图层3
 62
     0
440
 16777216
100
AcDbTrace
 10
893.0489981961054
 20
633.6266990227309
 30
0.0
 11
893.0489981961054
 21
627.9600323560641
 31
0.0
 12
910.0489981961054
 22
630.7933656893975
 32
0.0
 13
910.0489981961054
 23
630.7933656893975
 33
0.0
  0
SOLID
  5
1D9F
330
181F
100
AcDbEntity
  8
图层3
 62
     0
440
 16777216
100
AcDbTrace
 10
957.0489981961054
 20
633.6266990227309
 30
0.0
 11
957.0489981961054
 21
627.9600323560641
 31
0.0
 12
940.0489981961055
 22
630.7933656893975
 32
0.0
 13
940.0489981961055
 23
630.7933656893975
 33
0.0
  0
POINT
  5
1DA0
330
181F
100
AcDbEntity
  8
Defpoints
 62
     0
440
 16777216
100
AcDbPoint
 10
910.0489981961054
 20
937.1394169289716
 30
0.0
  0
POINT
  5
1DA1
330
181F
100
AcDbEntity
  8
Defpoints
 62
     0
440
 16777216
100
AcDbPoint
 10
940.0489981961055
 20
937.1394302035223
 30
0.0
  0
POINT
  5
1DA2
330
181F
100
AcDbEntity
  8
Defpoints
 62
     0
440
 16777216
100
AcDbPoint
 10
940.0489981961055
 20
630.7933656893975
 30
0.0
  0
ENDBLK
  5
182F
330
181F
100
AcDbEntity
  8
0
100
AcDbBlockEnd
  0
BLOCK
  5
184B
330
1841
100
AcDbEntity
  8
0
100
AcDbBlockBegin
  2
*D19
 70
     1
 10
0.0
 20
0.0
 30
0.0
  3
*D19
  1

  0
LINE
  5
1D7E
330
1841
100
AcDbEntity
  8
图层3
 62
     0
440
 16777216
370
    -2
100
AcDbLine
 10
940.0489981961055
 20
937.1394302035218
 30
0.0
 11
940.0489981961055
 21
629.5433656893969
 31
0.0
  0
LINE
  5
1D7F
330
1841
100
AcDbEntity
  8
图层3
 62
     0
440
 16777216
370
    -2
100
AcDbLine
 10
1310.048998196103
 20
937.1394169289711
 30
0.0
 11
1310.048998196103
 21
629.5433656893969
 31
0.0
  0
LINE
  5
1D80
330
1841
100
AcDbEntity
  8
图层3
 62
     0
440
 16777216
370
    -2
100
AcDbLine
 10
957.0489981961054
 20
630.7933656893969
 30
0.0
 11
1293.048998196103
 21
630.7933656893969
 31
0.0
  0
SOLID
  5
1D81
330
1841
100
AcDbEntity
  8
图层3
 62
     0
440
 16777216
100
AcDbTrace
 10
957.0489981961054
 20
633.6266990227303
 30
0.0
 11
957.0489981961054
 21
627.9600323560636
 31
0.0
 12
940.0489981961055
 22
630.7933656893969
 32
0.0
 13
940.0489981961055
 23
630.7933656893969
 33
0.0
  0
SOLID
  5
1D82
330
1841
100
AcDbEntity
  8
图层3
 62
     0
440
 16777216
100
AcDbTrace
 10
1293.048998196103
 20
633.6266990227303
 30
0.0
 11
1293.048998196103
 21
627.9600323560636
 31
0.0
 12
1310.048998196103
 22
630.7933656893969
 32
0.0
 13
1310.048998196103
 23
630.7933656893969
 33
0.0
  0
MTEXT
  5
1D83
330
1841
100
AcDbEntity
  8
图层3
 62
     0
440
 16777216
100
AcDbMText
 10
1125.048998196104
 20
645.793365689397
 30
0.0
 40
18.0
 41
0.0
 46
0.0
 71
     5
 72
     1
  1
370{\Ftxt|c134; [14.57"]}
 73
     1
 44
1.0
  0
POINT
  5
1D84
330
1841
100
AcDbEntity
  8
Defpoints
 62
     0
440
 16777216
100
AcDbPoint
 10
940.0489981961055
 20
937.1394302035218
 30
0.0
  0
POINT
  5
1D85
330
1841
100
AcDbEntity
  8
Defpoints
 62
     0
440
 16777216
100
AcDbPoint
 10
1310.048998196103
 20
937.1394169289711
 30
0.0
  0
POINT
  5
1D86
330
1841
100
AcDbEntity
  8
Defpoints
 62
     0
440
 16777216
100
AcDbPoint
 10
1310.048998196103
 20
630.7933656893969
 30
0.0
  0
ENDBLK
  5
184C
330
1841
100
AcDbEntity
  8
0
100
AcDbBlockEnd
  0
BLOCK
  5
1863
330
1859
100
AcDbEntity
  8
0
100
AcDbBlockBegin
  2
*D20
 70
     1
 10
0.0
 20
0.0
 30
0.0
  3
*D20
  1

  0
LINE
  5
1CFC
330
1859
100
AcDbEntity
  8
图层3
 62
     0
440
 16777216
370
    -2
100
AcDbLine
 10
515.0489981961072
 20
777.1394302035223
 30
0.0
 11
515.0489981961072
 21
549.3572855830743
 31
0.0
  0
LINE
  5
1CFD
330
1859
100
AcDbEntity
  8
图层3
 62
     0
440
 16777216
370
    -2
100
AcDbLine
 10
590.0489981961072
 20
702.1394302035223
 30
0.0
 11
590.0489981961072
 21
549.3572855830743
 31
0.0
  0
LINE
  5
1CFE
330
1859
100
AcDbEntity
  8
图层3
 62
     0
440
 16777216
370
    -2
100
AcDbLine
 10
532.0489981961072
 20
550.6072855830743
 30
0.0
 11
573.0489981961072
 21
550.6072855830743
 31
0.0
  0
SOLID
  5
1CFF
330
1859
100
AcDbEntity
  8
图层3
 62
     0
440
 16777216
100
AcDbTrace
 10
532.0489981961072
 20
553.4406189164077
 30
0.0
 11
532.0489981961072
 21
547.773952249741
 31
0.0
 12
515.0489981961072
 22
550.6072855830743
 32
0.0
 13
515.0489981961072
 23
550.6072855830743
 33
0.0
  0
SOLID
  5
1D00
330
1859
100
AcDbEntity
  8
图层3
 62
     0
440
 16777216
100
AcDbTrace
 10
573.0489981961072
 20
553.4406189164077
 30
0.0
 11
573.0489981961072
 21
547.773952249741
 31
0.0
 12
590.0489981961072
 22
550.6072855830743
 32
0.0
 13
590.0489981961072
 23
550.6072855830743
 33
0.0
  0
MTEXT
  5
1D01
330
1859
100
AcDbEntity
  8
图层3
 62
     0
440
 16777216
100
AcDbMText
 10
552.5489981961072
 20
580.6072855830743
 30
0.0
 40
18.0
 41
8.684529013078645
 46
0.0
 71
     5
 72
     1
  1
75{\Ftxt|c134; [3"]}
 73
     1
 44
1.0
  0
POINT
  5
1D02
330
1859
100
AcDbEntity
  8
Defpoints
 62
     0
440
 16777216
100
AcDbPoint
 10
515.0489981961072
 20
777.1394302035223
 30
0.0
  0
POINT
  5
1D03
330
1859
100
AcDbEntity
  8
Defpoints
 62
     0
440
 16777216
100
AcDbPoint
 10
590.0489981961072
 20
702.1394302035223
 30
0.0
  0
POINT
  5
1D04
330
1859
100
AcDbEntity
  8
Defpoints
 62
     0
440
 16777216
100
AcDbPoint
 10
590.0489981961072
 20
550.6072855830743
 30
0.0
  0
ENDBLK
  5
1864
330
1859
100
AcDbEntity
  8
0
100
AcDbBlockEnd
  0
BLOCK
  5
187B
330
1871
100
AcDbEntity
  8
0
100
AcDbBlockBegin
  2
*D21
 70
     1
 10
0.0
 20
0.0
 30
0.0
  3
*D21
  1

  0
LINE
  5
1DAC
330
1871
100
AcDbEntity
  8
图层3
 62
     0
440
 16777216
370
    -2
100
AcDbLine
 10
590.0489981961071
 20
702.1394302035223
 30
0.0
 11
590.0489981961071
 21
549.3572855830743
 31
0.0
  0
LINE
  5
1DAD
330
1871
100
AcDbEntity
  8
图层3
 62
     0
440
 16777216
370
    -2
100
AcDbLine
 10
1260.048998196104
 20
702.1394302035223
 30
0.0
 11
1260.048998196104
 21
549.3572855830743
 31
0.0
  0
LINE
  5
1DAE
330
1871
100
AcDbEntity
  8
图层3
 62
     0
440
 16777216
370
    -2
100
AcDbLine
 10
607.0489981961071
 20
550.6072855830743
 30
0.0
 11
1243.048998196103
 21
550.6072855830743
 31
0.0
  0
SOLID
  5
1DAF
330
1871
100
AcDbEntity
  8
图层3
 62
     0
440
 16777216
100
AcDbTrace
 10
607.0489981961071
 20
553.4406189164077
 30
0.0
 11
607.0489981961071
 21
547.773952249741
 31
0.0
 12
590.0489981961071
 22
550.6072855830743
 32
0.0
 13
590.0489981961071
 23
550.6072855830743
 33
0.0
  0
SOLID
  5
1DB0
330
1871
100
AcDbEntity
  8
图层3
 62
     0
440
 16777216
100
AcDbTrace
 10
1243.048998196103
 20
553.4406189164077
 30
0.0
 11
1243.048998196103
 21
547.773952249741
 31
0.0
 12
1260.048998196104
 22
550.6072855830743
 32
0.0
 13
1260.048998196104
 23
550.6072855830743
 33
0.0
  0
MTEXT
  5
1DB1
330
1871
100
AcDbEntity
  8
图层3
 62
     0
440
 16777216
100
AcDbMText
 10
925.0489981961054
 20
565.6072855830744
 30
0.0
 40
18.0
 41
0.0
 46
0.0
 71
     5
 72
     1
  1
670{\Ftxt|c134; [26.38"]}
 73
     1
 44
1.0
  0
POINT
  5
1DB2
330
1871
100
AcDbEntity
  8
Defpoints
 62
     0
440
 16777216
100
AcDbPoint
 10
590.0489981961071
 20
702.1394302035223
 30
0.0
  0
POINT
  5
1DB3
330
1871
100
AcDbEntity
  8
Defpoints
 62
     0
440
 16777216
100
AcDbPoint
 10
1260.048998196104
 20
702.1394302035223
 30
0.0
  0
POINT
  5
1DB4
330
1871
100
AcDbEntity
  8
Defpoints
 62
     0
440
 16777216
100
AcDbPoint
 10
1260.048998196104
 20
550.6072855830743
 30
0.0
  0
ENDBLK
  5
187C
330
1871
100
AcDbEntity
  8
0
100
AcDbBlockEnd
  0
BLOCK
  5
1893
330
1889
100
AcDbEntity
  8
0
100
AcDbBlockBegin
  2
*D22
 70
     1
 10
0.0
 20
0.0
 30
0.0
  3
*D22
  1

  0
LINE
  5
1D0E
330
1889
100
AcDbEntity
  8
图层3
 62
     0
440
 16777216
370
    -2
100
AcDbLine
 10
1260.048998196104
 20
702.1394302035223
 30
0.0
 11
1260.048998196104
 21
549.3572855830743
 31
0.0
  0
LINE
  5
1D0F
330
1889
100
AcDbEntity
  8
图层3
 62
     0
440
 16777216
370
    -2
100
AcDbLine
 10
1335.048998196104
 20
777.1394302035223
 30
0.0
 11
1335.048998196104
 21
549.3572855830743
 31
0.0
  0
LINE
  5
1D10
330
1889
100
AcDbEntity
  8
图层3
 62
     0
440
 16777216
370
    -2
100
AcDbLine
 10
1277.048998196103
 20
550.6072855830743
 30
0.0
 11
1318.048998196103
 21
550.6072855830743
 31
0.0
  0
SOLID
  5
1D11
330
1889
100
AcDbEntity
  8
图层3
 62
     0
440
 16777216
100
AcDbTrace
 10
1277.048998196103
 20
553.4406189164077
 30
0.0
 11
1277.048998196103
 21
547.773952249741
 31
0.0
 12
1260.048998196104
 22
550.6072855830743
 32
0.0
 13
1260.048998196104
 23
550.6072855830743
 33
0.0
  0
SOLID
  5
1D12
330
1889
100
AcDbEntity
  8
图层3
 62
     0
440
 16777216
100
AcDbTrace
 10
1318.048998196103
 20
553.4406189164077
 30
0.0
 11
1318.048998196103
 21
547.773952249741
 31
0.0
 12
1335.048998196104
 22
550.6072855830743
 32
0.0
 13
1335.048998196104
 23
550.6072855830743
 33
0.0
  0
MTEXT
  5
1D13
330
1889
100
AcDbEntity
  8
图层3
 62
     0
440
 16777216
100
AcDbMText
 10
1297.548998196103
 20
580.6072855830743
 30
0.0
 40
18.0
 41
6.947628425949005
 46
0.0
 71
     5
 72
     1
  1
75{\Ftxt|c134; [3"]}
 73
     1
 44
1.0
  0
POINT
  5
1D14
330
1889
100
AcDbEntity
  8
Defpoints
 62
     0
440
 16777216
100
AcDbPoint
 10
1260.048998196104
 20
702.1394302035223
 30
0.0
  0
POINT
  5
1D15
330
1889
100
AcDbEntity
  8
Defpoints
 62
     0
440
 16777216
100
AcDbPoint
 10
1335.048998196104
 20
777.1394302035223
 30
0.0
  0
POINT
  5
1D16
330
1889
100
AcDbEntity
  8
Defpoints
 62
     0
440
 16777216
100
AcDbPoint
 10
1335.048998196104
 20
550.6072855830743
 30
0.0
  0
ENDBLK
  5
1894
330
1889
100
AcDbEntity
  8
0
100
AcDbBlockEnd
  0
BLOCK
  5
18EC
330
18E6
100
AcDbEntity
  8
0
100
AcDbBlockBegin
  2
*D25
 70
     1
 10
0.0
 20
0.0
 30
0.0
  3
*D25
  1

  0
LINE
  5
1DD5
330
18E6
100
AcDbEntity
  8
图层3
 62
     0
440
 16777216
370
    -2
100
AcDbLine
 10
756.8978828051534
 20
887.3561820052717
 30
0.0
 11
758.8442035312619
 21
744.3694279487119
 31
0.0
  0
MTEXT
  5
1DD6
330
18E6
100
AcDbEntity
  8
图层3
 62
     0
440
 16777216
100
AcDbMText
 10
787.7525739061439
 20
824.7703366641527
 30
0.0
 40
18.0
 41
12.15835626477201
 46
0.0
 71
     5
 72
     1
  1
4-R2500{\Ftxt|c134; [98.4"]}
 11
0.0136106344483105
 21
-0.9999073710248936
 31
0.0
 73
     1
 44
1.0
  0
SOLID
  5
1DD7
330
18E6
100
AcDbEntity
  8
图层3
 62
     0
440
 16777216
100
AcDbTrace
 10
761.6772744158323
 20
744.4079914129822
 30
0.0
 11
756.0111326466913
 21
744.3308644844417
 31
0.0
 12
759.0755843168832
 22
727.3710026412888
 32
0.0
 13
759.0755843168832
 23
727.3710026412888
 33
0.0
  0
POINT
  5
1DD8
330
18E6
100
AcDbEntity
  8
Defpoints
 62
     0
440
 16777216
100
AcDbPoint
 10
759.0755843168832
 20
727.3710026412888
 30
0.0
  0
POINT
  5
1DD9
330
18E6
100
AcDbEntity
  8
Defpoints
 62
     0
440
 16777216
100
AcDbPoint
 10
725.0489981961082
 20
3227.139430203524
 30
0.0
  0
ENDBLK
  5
18ED
330
18E6
100
AcDbEntity
  8
0
100
AcDbBlockEnd
  0
BLOCK
  5
1901
330
18FB
100
AcDbEntity
  8
0
100
AcDbBlockBegin
  2
*D26
 70
     1
 10
0.0
 20
0.0
 30
0.0
  3
*D26
  1

  0
LINE
  5
1CCA
330
18FB
100
AcDbEntity
  8
图层3
 62
     0
440
 16777216
370
    -2
100
AcDbLine
 10
664.0122308947049
 20
846.8329548613139
 30
0.0
 11
579.1409237210188
 21
772.2282551525832
 31
0.0
  0
MTEXT
  5
1CCB
330
18FB
100
AcDbEntity
  8
图层3
 62
     0
440
 16777216
100
AcDbMText
 10
608.1541447389629
 20
837.6746683939822
 30
0.0
 40
18.0
 41
39.28903012040709
 46
0.0
 71
     5
 72
     1
  1
4-R95{\Ftxt|c134; [3.7"]}
 11
0.7510735148113799
 21
0.6602185814931901
 31
0.0
 73
     1
 44
1.0
  0
SOLID
  5
1CCC
330
18FB
100
AcDbEntity
  8
图层3
 62
     0
440
 16777216
100
AcDbTrace
 10
577.270304406788
 20
774.3562967778822
 30
0.0
 11
581.0115430352494
 21
770.1002135272844
 31
0.0
 12
566.3726739692253
 22
761.0045392671991
 32
0.0
 13
566.3726739692253
 23
761.0045392671991
 33
0.0
  0
POINT
  5
1CCD
330
18FB
100
AcDbEntity
  8
Defpoints
 62
     0
440
 16777216
100
AcDbPoint
 10
566.3726739692253
 20
761.0045392671991
 30
0.0
  0
POINT
  5
1CCE
330
18FB
100
AcDbEntity
  8
Defpoints
 62
     0
440
 16777216
100
AcDbPoint
 10
637.7246578763065
 20
823.7253045090522
 30
0.0
  0
ENDBLK
  5
1902
330
18FB
100
AcDbEntity
  8
0
100
AcDbBlockEnd
  0
BLOCK
  5
191B
330
1915
100
AcDbEntity
  8
0
100
AcDbBlockBegin
  2
*D27
 70
     1
 10
0.0
 20
0.0
 30
0.0
  3
*D27
  1

  0
LINE
  5
1DE9
330
1915
100
AcDbEntity
  8
图层3
 62
     0
440
 16777216
370
    -2
100
AcDbLine
 10
1085.793515555484
 20
887.4687253643513
 30
0.0
 11
1083.394569394112
 21
744.4888489575126
 31
0.0
  0
MTEXT
  5
1DEA
330
1915
100
AcDbEntity
  8
图层3
 62
     0
440
 16777216
100
AcDbMText
 10
1054.740858909529
 20
824.9808664217662
 30
0.0
 40
18.0
 41
5.210727838821185
 46
0.0
 71
     5
 72
     1
  1
4-R2500{\Ftxt|c134; [98.43"]}
 11
0.0167758472823166
 21
0.9998592755722979
 31
0.0
 73
     1
 44
1.0
  0
SOLID
  5
1DEB
330
1915
100
AcDbEntity
  8
图层3
 62
     0
440
 16777216
100
AcDbTrace
 10
1080.561634779991
 20
744.5363805248125
 30
0.0
 11
1086.227504008234
 21
744.4413173902127
 31
0.0
 12
1083.109379990313
 22
727.4912412727835
 32
0.0
 13
1083.109379990313
 23
727.4912412727835
 33
0.0
  0
POINT
  5
1DEC
330
1915
100
AcDbEntity
  8
Defpoints
 62
     0
440
 16777216
100
AcDbPoint
 10
1083.109379990313
 20
727.4912412727835
 30
0.0
  0
POINT
  5
1DED
330
1915
100
AcDbEntity
  8
Defpoints
 62
     0
440
 16777216
100
AcDbPoint
 10
1125.048998196105
 20
3227.13943020352
 30
0.0
  0
ENDBLK
  5
191C
330
1915
100
AcDbEntity
  8
0
100
AcDbBlockEnd
  0
BLOCK
  5
192B
330
1925
100
AcDbEntity
  8
0
100
AcDbBlockBegin
  2
*D28
 70
     1
 10
0.0
 20
0.0
 30
0.0
  3
*D28
  1

  0
LINE
  5
1DDF
330
1925
100
AcDbEntity
  8
图层3
 62
     0
440
 16777216
370
    -2
100
AcDbLine
 10
1188.332938643931
 20
849.1626757912886
 30
0.0
 11
1265.949039052938
 21
767.0363039166046
 31
0.0
  0
MTEXT
  5
1DE0
330
1925
100
AcDbEntity
  8
图层3
 62
     0
440
 16777216
100
AcDbMText
 10
1243.10607117378
 20
834.8831816522213
 30
0.0
 40
18.0
 41
8.684542051796597
 46
0.0
 71
     5
 72
     1
  1
4-R95{\Ftxt|c134; [3.7"]}
 11
0.6868681452124549
 21
-0.7267820519883537
 31
0.0
 73
     1
 44
1.0
  0
SOLID
  5
1DE1
330
1925
100
AcDbEntity
  8
图层3
 62
     0
440
 16777216
100
AcDbTrace
 10
1268.008254866905
 20
768.9824303280398
 30
0.0
 11
1263.889823238971
 21
765.0901775051693
 31
0.0
 12
1277.62579752155
 22
754.6810090328026
 32
0.0
 13
1277.62579752155
 23
754.6810090328026
 33
0.0
  0
POINT
  5
1DE2
330
1925
100
AcDbEntity
  8
Defpoints
 62
     0
440
 16777216
100
AcDbPoint
 10
1277.62579752155
 20
754.6810090328026
 30
0.0
  0
POINT
  5
1DE3
330
1925
100
AcDbEntity
  8
Defpoints
 62
     0
440
 16777216
100
AcDbPoint
 10
1212.373323726366
 20
823.725303971697
 30
0.0
  0
ENDBLK
  5
192C
330
1925
100
AcDbEntity
  8
0
100
AcDbBlockEnd
  0
BLOCK
  5
1A2F
330
1A2E
100
AcDbEntity
  8
0
100
AcDbBlockBegin
  2
h
 70
     0
 10
0.0
 20
0.0
 30
0.0
  3
h
  1

  0
MTEXT
  5
1A30
330
1A2E
100
AcDbEntity
  8
图层3
100
AcDbMText
 10
140.7184734209531
 20
394.6528108057309
 30
0.0
 40
2.5
 41
49.1928157029788
 46
0.0
 71
     1
 72
     5
  1
{\fSimSun|b0|i0|c134|p2;Jiangmen XHHL Stainless Steel Manufacturing Co.Ltd.}
 73
     1
 44
1.0
  0
ENDBLK
  5
1A31
330
1A2E
100
AcDbEntity
  8
0
100
AcDbBlockEnd
  0
BLOCK
  5
1A54
330
1A32
100
AcDbEntity
  8
0
100
AcDbBlockBegin
  2
D
 70
     0
 10
0.0
 20
0.0
 30
0.0
  3
D
  1

  0
LINE
  5
1A33
330
1A32
100
AcDbEntity
  8
图层3
100
AcDbLine
 10
138.2786312043299
 20
409.9405853190591
 30
0.0
 11
250.27863120433
 21
409.9405853190591
 31
0.0
  0
LINE
  5
1A34
330
1A32
100
AcDbEntity
  8
图层3
100
AcDbLine
 10
250.27863120433
 20
409.9405853190591
 30
0.0
 11
250.27863120433
 21
385.9405853190592
 31
0.0
  0
LINE
  5
1A35
330
1A32
100
AcDbEntity
  8
图层3
100
AcDbLine
 10
250.27863120433
 20
385.9405853190592
 30
0.0
 11
138.2786312043299
 21
385.9405853190592
 31
0.0
  0
LINE
  5
1A36
330
1A32
100
AcDbEntity
  8
图层3
100
AcDbLine
 10
138.2786312043299
 20
385.9405853190592
 30
0.0
 11
138.2786312043299
 21
409.9405853190591
 31
0.0
  0
LINE
  5
1A37
330
1A32
100
AcDbEntity
  8
图层3
100
AcDbLine
 10
250.27863120433
 20
405.7405853190592
 30
0.0
 11
138.2786312043299
 21
405.7405853190592
 31
0.0
  0
LINE
  5
1A38
330
1A32
100
AcDbEntity
  8
图层3
100
AcDbLine
 10
250.27863120433
 20
392.5405853190592
 30
0.0
 11
188.2786312043299
 21
392.5405853190593
 31
0.0
  0
LINE
  5
1A39
330
1A32
100
AcDbEntity
  8
图层3
100
AcDbLine
 10
250.27863120433
 20
399.1405853190593
 30
0.0
 11
138.2786312043299
 21
399.1405853190593
 31
0.0
  0
LINE
  5
1A3A
330
1A32
100
AcDbEntity
  8
图层3
100
AcDbLine
 10
188.2786312043299
 20
385.9405853190592
 30
0.0
 11
188.2786312043299
 21
399.1405853190593
 31
0.0
  0
LINE
  5
1A3B
330
1A32
100
AcDbEntity
  8
图层3
100
AcDbLine
 10
227.7786312043299
 20
385.9405853190592
 30
0.0
 11
227.7786312043299
 21
392.5405853190593
 31
0.0
  0
LINE
  5
1A3C
330
1A32
100
AcDbEntity
  8
图层3
100
AcDbLine
 10
236.77863120433
 20
405.7405853190592
 30
0.0
 11
236.7786312043299
 21
399.1405853190593
 31
0.0
  0
LINE
  5
1A3D
330
1A32
100
AcDbEntity
  8
图层3
100
AcDbLine
 10
236.7786312043299
 20
392.5405853190592
 30
0.0
 11
236.7786312043299
 21
385.9405853190592
 31
0.0
  0
LINE
  5
1A3E
330
1A32
100
AcDbEntity
  8
图层3
100
AcDbLine
 10
158.7786312043299
 20
399.1405853190593
 30
0.0
 11
158.7786312043299
 21
409.9405853190591
 31
0.0
  0
LINE
  5
1A3F
330
1A32
100
AcDbEntity
  8
图层3
100
AcDbLine
 10
175.2786312043299
 20
399.1405853190593
 30
0.0
 11
175.2786312043299
 21
409.9405853190591
 31
0.0
  0
LINE
  5
1A40
330
1A32
100
AcDbEntity
  8
图层3
100
AcDbLine
 10
216.2786312043299
 20
399.1405853190593
 30
0.0
 11
216.2786312043299
 21
409.9405853190591
 31
0.0
  0
LINE
  5
1A41
330
1A32
100
AcDbEntity
  8
图层3
100
AcDbLine
 10
200.27863120433
 20
399.1405853190593
 30
0.0
 11
200.27863120433
 21
405.7405853190592
 31
0.0
  0
MTEXT
  5
1A42
330
1A32
100
AcDbEntity
  8
图层3
100
AcDbMText
 10
142.3137583141513
 20
394.6976827191662
 30
0.0
 40
3.5
 41
42.36062869033571
 46
0.0
 71
     1
 72
     5
  1
{\fEstrangelo Edessa|b0|i0|c0|p66;Jiangmen XHHL Stainless Steel Manufacturing Co.Ltd.}
  7
样式 2
 73
     1
 44
1.0
  0
LINE
  5
1A43
330
1A32
100
AcDbEntity
  8
图层3
100
AcDbLine
 10
148.2786312043299
 20
405.7405853190592
 30
0.0
 11
148.2786312043299
 21
409.9405853190591
 31
0.0
  0
MTEXT
  5
1A44
330
1A32
100
AcDbEntity
  8
图层3
100
AcDbMText
 10
140.0498430556535
 20
408.7391633010699
 30
0.0
 40
1.6
 41
7.79562295153596
 46
0.0
 71
     1
 72
     5
  1
{\fISOCPEUR|b0|i0|c0|p34;Itemref}
  7
样式 1
 73
     1
 44
1.0
  0
MTEXT
  5
1A45
330
1A32
100
AcDbEntity
  8
图层3
100
AcDbMText
 10
149.3612815810993
 20
408.6309745936029
 30
0.0
 40
1.6
 41
8.661803279484388
 46
0.0
 71
     1
 72
     5
  1
{\fISOCPEUR|b0|i0|c0|p34;Quantity}
  7
样式 1
 73
     1
 44
1.0
  0
MTEXT
  5
1A46
330
1A32
100
AcDbEntity
  8
图层3
100
AcDbMText
 10
160.080262928994
 20
408.7391630562454
 30
0.0
 40
1.6
 41
11.80170717876467
 46
0.0
 71
     1
 72
     5
  1
{\fISOCPEUR|b0|i0|c0|p34;Material}
  7
样式 1
 73
     1
 44
1.0
  0
MTEXT
  5
1A47
330
1A32
100
AcDbEntity
  8
图层3
100
AcDbMText
 10
177.0799122794671
 20
408.9754183409924
 30
0.0
 40
1.8
 41
20.56636873026793
 46
0.0
 71
     1
 72
     5
  1
{\fTahoma|b0|i0|c0|p34;SUS304 1.2mm}
  7
样式 1
 73
     1
 44
1.0
  0
MTEXT
  5
1A48
330
1A32
100
AcDbEntity
  8
图层3
100
AcDbMText
 10
217.9289763273547
 20
408.691964308652
 30
0.0
 40
1.8
 41
22.8357617282889
 46
0.0
 71
     1
 72
     5
  1
{\fISOCPEUR|b0|i0|c0|p34;Article No.}
  7
样式 1
 73
     1
 44
1.0
  0
MTEXT
  5
1A49
330
1A32
100
AcDbEntity
  8
图层3
100
AcDbMText
 10
141.6206547808366
 20
405.0070642099059
 30
0.0
 40
1.6
 41
14.18370265968843
 46
0.0
 71
     1
 72
     5
  1
{\fISOCPEUR|b0|i0|c0|p34;Designed by\PDESIGNED_BY}
  7
样式 1
 73
     1
 44
1.0
  0
MTEXT
  5
1A4A
330
1A32
100
AcDbEntity
  8
图层3
100
AcDbMText
 10
160.0594691895904
 20
404.7236098732931
 30
0.0
 40
1.6
 41
12.76533256209336
 46
0.0
 71
     1
 72
     5
  1
{\fISOCPEUR|b0|i0|c0|p34;Checked by\PCHECKED_BY}
  7
样式 1
 73
     1
 44
1.0
  0
MTEXT
  5
1A4B
330
1A32
100
AcDbEntity
  8
图层3
100
AcDbMText
 10
176.5125644263653
 20
405.1487908105777
 30
0.0
 40
1.6
 41
23.26127254710025
 46
0.0
 71
     1
 72
     5
  1
{\fISOCPEUR|b0|i0|c0|p34;Approved by - date}
  7
样式 1
 73
     1
 44
1.0
  0
MTEXT
  5
1A4C
330
1A32
100
AcDbEntity
  8
图层3
100
AcDbMText
 10
201.901391909391
 20
405.0070640763076
 30
0.0
 40
1.6
 41
14.3255398799152
 46
0.0
 71
     1
 72
     5
  1
{\fISOCPEUR|b0|i0|c0|p34;File name}
  7
样式 1
 73
     1
 44
1.0
  0
MTEXT
  5
1A4D
330
1A32
100
AcDbEntity
  8
图层3
100
AcDbMText
 10
217.9289763273546
 20
405.1487910554024
 30
0.0
 40
1.6
 41
16.31125843748271
 46
0.0
 71
     1
 72
     5
  1
{\fISOCPEUR|b0|i0|c0|p34;Oate}
  7
样式 1
 73
     1
 44
1.0
  0
MTEXT
  5
1A4E
330
1A32
100
AcDbEntity
  8
图层3
100
AcDbMText
 10
238.211671459038
 20
405.1487910554024
 30
0.0
 40
1.6
 41
8.93573266718505
 46
0.0
 71
     1
 72
     5
  1
{\fISOCPEUR|b0|i0|c0|p34;Scale}
  7
样式 1
 73
     1
 44
1.0
  0
MTEXT
  5
1A4F
330
1A32
100
AcDbEntity
  8
图层3
100
AcDbMText
 10
195.2350518192924
 20
397.9207178146328
 30
0.0
 40
3.5
 41
37.72864922630765
 46
0.0
 71
     1
 72
     5
  1
{\fGautami|b0|i0|c0|p2;Kitchen Sink}
  7
样式 1
 73
     1
 44
1.0
  0
MTEXT
  5
1A50
330
1A32
100
AcDbEntity
  8
图层3
100
AcDbMText
 10
229.1341015716263
 20
391.6847324482292
 30
0.0
 40
1.6
 41
6.240829271287168
 46
0.0
 71
     1
 72
     5
  1
{\fISOCPEUR|b0|i0|c0|p34;Edition}
  7
样式 1
 73
     1
 44
1.0
  0
MTEXT
  5
1A51
330
1A32
100
AcDbEntity
  8
图层3
100
AcDbMText
 10
237.3606489795466
 20
391.6847324482293
 30
0.0
 40
1.6
 41
11.06328844497926
 46
0.0
 71
     1
 72
     5
  1
{\fISOCPEUR|b0|i0|c0|p34;Sheet}
  7
样式 1
 73
     1
 44
1.0
  0
ENDBLK
  5
1A55
330
1A32
100
AcDbEntity
  8
0
100
AcDbBlockEnd
  0
BLOCK
  5
1A9D
330
1A93
100
AcDbEntity
  8
0
100
AcDbBlockBegin
  2
*D31
 70
     1
 10
0.0
 20
0.0
 30
0.0
  3
*D31
  1

  0
LINE
  5
1BE6
330
1A93
100
AcDbEntity
  8
图层3
 62
     0
440
 16777216
370
    -2
100
AcDbLine
 10
645.0490054819131
 20
1007.139430203523
 30
0.0
 11
469.7432745370397
 21
1007.139430203523
 31
0.0
  0
LINE
  5
1BE7
330
1A93
100
AcDbEntity
  8
图层3
 62
     0
440
 16777216
370
    -2
100
AcDbLine
 10
565.0489981961076
 20
1147.139430203523
 30
0.0
 11
469.7432745370397
 21
1147.139430203523
 31
0.0
  0
LINE
  5
1BE8
330
1A93
100
AcDbEntity
  8
图层3
 62
     0
440
 16777216
370
    -2
100
AcDbLine
 10
470.9932745370397
 20
1024.139430203522
 30
0.0
 11
470.9932745370397
 21
1130.139430203523
 31
0.0
  0
SOLID
  5
1BE9
330
1A93
100
AcDbEntity
  8
图层3
 62
     0
440
 16777216
100
AcDbTrace
 10
468.1599412037064
 20
1024.139430203522
 30
0.0
 11
473.826607870373
 21
1024.139430203522
 31
0.0
 12
470.9932745370397
 22
1007.139430203523
 32
0.0
 13
470.9932745370397
 23
1007.139430203523
 33
0.0
  0
SOLID
  5
1BEA
330
1A93
100
AcDbEntity
  8
图层3
 62
     0
440
 16777216
100
AcDbTrace
 10
468.1599412037064
 20
1130.139430203523
 30
0.0
 11
473.826607870373
 21
1130.139430203523
 31
0.0
 12
470.9932745370397
 22
1147.139430203523
 32
0.0
 13
470.9932745370397
 23
1147.139430203523
 33
0.0
  0
MTEXT
  5
1BEB
330
1A93
100
AcDbEntity
  8
图层3
 62
     0
440
 16777216
100
AcDbMText
 10
440.9932745370398
 20
1077.139430203522
 30
0.0
 40
18.0
 41
15.6321704777456
 46
0.0
 71
     5
 72
     1
  1
140{\Ftxt|c134; [5.5"]}
 11
0.0000000000000001
 21
1.0
 31
0.0
 73
     1
 44
1.0
  0
POINT
  5
1BEC
330
1A93
100
AcDbEntity
  8
Defpoints
 62
     0
440
 16777216
100
AcDbPoint
 10
645.0490054819131
 20
1007.139430203523
 30
0.0
  0
POINT
  5
1BED
330
1A93
100
AcDbEntity
  8
Defpoints
 62
     0
440
 16777216
100
AcDbPoint
 10
565.0489981961076
 20
1147.139430203523
 30
0.0
  0
POINT
  5
1BEE
330
1A93
100
AcDbEntity
  8
Defpoints
 62
     0
440
 16777216
100
AcDbPoint
 10
470.9932745370397
 20
1147.139430203523
 30
0.0
  0
ENDBLK
  5
1A9E
330
1A93
100
AcDbEntity
  8
0
100
AcDbBlockEnd
  0
BLOCK
  5
1AC0
330
1AB6
100
AcDbEntity
  8
0
100
AcDbBlockBegin
  2
*D32
 70
     1
 10
0.0
 20
0.0
 30
0.0
  3
*D32
  1

  0
LINE
  5
1CD8
330
1AB6
100
AcDbEntity
  8
图层3
 62
     0
440
 16777216
370
    -2
100
AcDbLine
 10
898.2519793972128
 20
921.2065711932304
 30
0.0
 11
820.2519793972129
 21
921.2065711932305
 31
0.0
  0
LINE
  5
1CD9
330
1AB6
100
AcDbEntity
  8
图层3
 62
     0
440
 16777216
370
    -2
100
AcDbLine
 10
820.2519793972129
 20
921.2065711932305
 30
0.0
 11
772.0009594791272
 21
964.759287260825
 31
0.0
  0
LINE
  5
1CDA
330
1AB6
100
AcDbEntity
  8
图层3
 62
     0
440
 16777216
370
    -2
100
AcDbLine
 10
678.0970514846985
 20
1049.51957314622
 30
0.0
 11
665.4775539676607
 21
1060.91028350236
 31
0.0
  0
MTEXT
  5
1CDB
330
1AB6
100
AcDbEntity
  8
图层3
 62
     0
440
 16777216
100
AcDbMText
 10
862.2519793972129
 20
951.2065711932304
 30
0.0
 40
18.0
 41
24.3167125295422
 46
0.0
 71
     5
 72
     1
  1
∅92.5{\Ftxt|c134; [3.6"]}
 73
     1
 44
1.0
  0
LINE
  5
1CDC
330
1AB6
100
AcDbEntity
  8
图层3
 62
     0
440
 16777216
370
    -2
100
AcDbLine
 10
690.7165490017364
 20
1038.12886279008
 30
0.0
 11
759.3814619620893
 21
976.149997616965
 31
0.0
  0
SOLID
  5
1CDD
330
1AB6
100
AcDbEntity
  8
图层3
 62
     0
440
 16777216
100
AcDbTrace
 10
679.9955032107218
 20
1051.622822732393
 30
0.0
 11
676.1985997586752
 21
1047.416323560047
 31
0.0
 12
690.7165490017364
 22
1038.12886279008
 32
0.0
 13
690.7165490017364
 23
1038.12886279008
 33
0.0
  0
SOLID
  5
1CDE
330
1AB6
100
AcDbEntity
  8
图层3
 62
     0
440
 16777216
100
AcDbTrace
 10
773.8994112051504
 20
966.8625368469976
 30
0.0
 11
770.1025077531039
 21
962.6560376746519
 31
0.0
 12
759.3814619620893
 22
976.149997616965
 32
0.0
 13
759.3814619620893
 23
976.149997616965
 33
0.0
  0
POINT
  5
1CDF
330
1AB6
100
AcDbEntity
  8
Defpoints
 62
     0
440
 16777216
100
AcDbPoint
 10
759.3814619620893
 20
976.149997616965
 30
0.0
  0
POINT
  5
1CE0
330
1AB6
100
AcDbEntity
  8
Defpoints
 62
     0
440
 16777216
100
AcDbPoint
 10
690.7165490017364
 20
1038.12886279008
 30
0.0
  0
ENDBLK
  5
1AC1
330
1AB6
100
AcDbEntity
  8
0
100
AcDbBlockEnd
  0
BLOCK
  5
1AD8
330
1ACE
100
AcDbEntity
  8
0
100
AcDbBlockBegin
  2
*D33
 70
     1
 10
0.0
 20
0.0
 30
0.0
  3
*D33
  1

  0
LINE
  5
1CEA
330
1ACE
100
AcDbEntity
  8
图层3
 62
     0
440
 16777216
370
    -2
100
AcDbLine
 10
1304.656720486057
 20
928.883856909116
 30
0.0
 11
1226.656720486057
 21
928.883856909116
 31
0.0
  0
LINE
  5
1CEB
330
1ACE
100
AcDbEntity
  8
图层3
 62
     0
440
 16777216
370
    -2
100
AcDbLine
 10
1226.656720486057
 20
928.883856909116
 30
0.0
 11
1175.159632959589
 21
968.5455509764564
 31
0.0
  0
LINE
  5
1CEC
330
1ACE
100
AcDbEntity
  8
图层3
 62
     0
440
 16777216
370
    -2
100
AcDbLine
 10
1074.938378004232
 20
1045.733309430588
 30
0.0
 11
1061.469908958848
 21
1056.106367878969
 31
0.0
  0
MTEXT
  5
1CED
330
1ACE
100
AcDbEntity
  8
图层3
 62
     0
440
 16777216
100
AcDbMText
 10
1268.656720486057
 20
958.883856909116
 30
0.0
 40
18.0
 41
20.84288527784884
 46
0.0
 71
     5
 72
     1
  1
∅92.5{\Ftxt|c134; [3.6"]}
 73
     1
 44
1.0
  0
LINE
  5
1CEE
330
1ACE
100
AcDbEntity
  8
图层3
 62
     0
440
 16777216
370
    -2
100
AcDbLine
 10
1088.406847049616
 20
1035.360250982207
 30
0.0
 11
1161.691163914205
 21
978.9186094248377
 31
0.0
  0
SOLID
  5
1CEF
330
1ACE
100
AcDbEntity
  8
图层3
 62
     0
440
 16777216
100
AcDbTrace
 10
1076.667221078962
 20
1047.978054271486
 30
0.0
 11
1073.209534929502
 21
1043.488564589691
 31
0.0
 12
1088.406847049616
 22
1035.360250982207
 32
0.0
 13
1088.406847049616
 23
1035.360250982207
 33
0.0
  0
SOLID
  5
1CF0
330
1ACE
100
AcDbEntity
  8
图层3
 62
     0
440
 16777216
100
AcDbTrace
 10
1176.888476034319
 20
970.7902958173537
 30
0.0
 11
1173.430789884859
 21
966.3008061355592
 31
0.0
 12
1161.691163914205
 22
978.9186094248377
 32
0.0
 13
1161.691163914205
 23
978.9186094248377
 33
0.0
  0
POINT
  5
1CF1
330
1ACE
100
AcDbEntity
  8
Defpoints
 62
     0
440
 16777216
100
AcDbPoint
 10
1161.691163914205
 20
978.9186094248377
 30
0.0
  0
POINT
  5
1CF2
330
1ACE
100
AcDbEntity
  8
Defpoints
 62
     0
440
 16777216
100
AcDbPoint
 10
1088.406847049616
 20
1035.360250982207
 30
0.0
  0
ENDBLK
  5
1AD9
330
1ACE
100
AcDbEntity
  8
0
100
AcDbBlockEnd
  0
ENDSEC
  0
SECTION
  2
ENTITIES
  0
LINE
  5
669
330
1F
100
AcDbEntity
  8
图层2
100
AcDbLine
 10
-951.0054819976526
 20
927.2614677413438
 30
0.0
 11
-917.0054819976526
 21
927.2614677413438
 31
0.0
  0
LINE
  5
66A
330
1F
100
AcDbEntity
  8
图层2
100
AcDbLine
 10
-934.0054819976526
 20
910.2614677413438
 30
0.0
 11
-934.0054819976526
 21
944.2614677413438
 31
0.0
  0
ARC
  5
F6F
102
{ACAD_REACTORS
330
17A4
330
18F4
102
}
330
1F
100
AcDbEntity
  8
图层2
100
AcDbCircle
 10
725.0489981961082
 20
3227.139430203523
 30
0.0
 40
2500.0
100
AcDbArc
 50
267.9191616714629
 51
272.0808379759645
  0
ARC
  5
F70
102
{ACAD_REACTORS
330
181D
330
183F
102
}
330
1F
100
AcDbEntity
  8
图层2
100
AcDbCircle
 10
-1589.951001803873
 20
937.1397429363572
 30
0.0
 40
2500.0
100
AcDbArc
 50
357.2970562994369
 51
2.702928757485274
  0
ARC
  5
F71
102
{ACAD_REACTORS
330
17A4
102
}
330
1F
100
AcDbEntity
  8
图层2
100
AcDbCircle
 10
725.0489981960977
 20
-1352.860569796477
 30
0.0
 40
2500.0
100
AcDbArc
 50
87.91916131889013
 51
92.08083832853686
  0
ARC
  5
F72
102
{ACAD_REACTORS
330
181D
102
}
330
1F
100
AcDbEntity
  8
图层2
100
AcDbCircle
 10
3040.048998196108
 20
937.1394302035193
 30
0.0
 40
2500.0
100
AcDbArc
 50
177.2970637709758
 51
182.7029362290241
  0
ARC
  5
F73
330
1F
100
AcDbEntity
  8
图层2
100
AcDbCircle
 10
812.3733237263685
 20
823.7253039716973
 30
0.0
 40
95.0
100
AcDbArc
 50
272.0808379759641
 51
357.2970562994369
  0
ARC
  5
F74
330
1F
100
AcDbEntity
  8
图层2
100
AcDbCircle
 10
637.7246578763074
 20
823.7253045090531
 30
0.0
 40
95.0
100
AcDbArc
 50
182.702936229024
 51
267.9191616714628
  0
ARC
  5
F75
330
1F
100
AcDbEntity
  8
图层2
100
AcDbCircle
 10
637.7246578763078
 20
1050.553555897992
 30
0.0
 40
95.0
100
AcDbArc
 50
92.08083832853695
 51
177.297063770976
  0
ARC
  5
F76
330
1F
100
AcDbEntity
  8
图层2
100
AcDbCircle
 10
812.3733533054423
 20
1050.553555360636
 30
0.0
 40
95.0
100
AcDbArc
 50
2.702928757484954
 51
87.91916131888966
  0
ARC
  5
FA8
102
{ACAD_REACTORS
330
1923
102
}
330
1F
100
AcDbEntity
  8
图层2
100
AcDbCircle
 10
1125.048998196106
 20
3227.139430203523
 30
0.0
 40
2500.0
100
AcDbArc
 50
267.9191616714629
 51
272.0808379759645
  0
ARC
  5
FA9
330
1F
100
AcDbEntity
  8
图层2
100
AcDbCircle
 10
1037.724657876305
 20
823.7253045090531
 30
0.0
 40
95.0
100
AcDbArc
 50
182.702936229024
 51
267.9191616714628
  0
ARC
  5
FAA
102
{ACAD_REACTORS
330
1857
102
}
330
1F
100
AcDbEntity
  8
图层2
100
AcDbCircle
 10
-1189.951001803875
 20
937.1397429363572
 30
0.0
 40
2500.0
100
AcDbArc
 50
357.2970562994369
 51
2.702928757485274
  0
ARC
  5
FAB
102
{ACAD_REACTORS
330
1933
102
}
330
1F
100
AcDbEntity
  8
图层2
100
AcDbCircle
 10
1212.373323726367
 20
823.7253039716973
 30
0.0
 40
95.0
100
AcDbArc
 50
272.0808379759641
 51
357.2970562994369
  0
ARC
  5
FAC
330
1F
100
AcDbEntity
  8
图层2
100
AcDbCircle
 10
1125.048998196096
 20
-1352.860569796477
 30
0.0
 40
2500.0
100
AcDbArc
 50
87.91916131889013
 51
92.08083832853686
  0
ARC
  5
FAD
330
1F
100
AcDbEntity
  8
图层2
100
AcDbCircle
 10
1212.37335330544
 20
1050.553555360636
 30
0.0
 40
95.0
100
AcDbArc
 50
2.702928757484954
 51
87.91916131888966
  0
ARC
  5
FAE
102
{ACAD_REACTORS
330
183F
330
1857
102
}
330
1F
100
AcDbEntity
  8
图层2
100
AcDbCircle
 10
3440.048998196106
 20
937.1394302035193
 30
0.0
 40
2500.0
100
AcDbArc
 50
177.2970637709758
 51
182.7029362290241
  0
ARC
  5
FAF
330
1F
100
AcDbEntity
  8
图层2
100
AcDbCircle
 10
1037.724657876306
 20
1050.553555897992
 30
0.0
 40
95.0
100
AcDbArc
 50
92.08083832853695
 51
177.297063770976
  0
LINE
  5
FB5
330
1F
100
AcDbEntity
  8
图层2
100
AcDbLine
 10
1260.048998196104
 20
1172.139430203522
 30
0.0
 11
590.0489981961072
 21
1172.139430203522
 31
0.0
  0
LINE
  5
FB6
330
1F
100
AcDbEntity
  8
图层2
100
AcDbLine
 10
1260.048998196104
 20
702.1394302035223
 30
0.0
 11
590.0489981961072
 21
702.1394302035223
 31
0.0
  0
LINE
  5
FB7
330
1F
100
AcDbEntity
  8
图层2
100
AcDbLine
 10
515.0489981961072
 20
1097.139430203522
 30
0.0
 11
515.0489981961072
 21
777.1394302035223
 31
0.0
  0
LINE
  5
FDA
102
{ACAD_REACTORS
330
17D5
330
17ED
102
}
330
1F
100
AcDbEntity
  8
图层2
100
AcDbLine
 10
1335.048998196104
 20
1097.139430203522
 30
0.0
 11
1335.048998196104
 21
777.1394302035223
 31
0.0
  0
LINE
  5
FDB
102
{ACAD_REACTORS
330
17ED
330
1805
102
}
330
1F
100
AcDbEntity
  8
图层2
100
AcDbLine
 10
1260.048998196104
 20
1172.139430203522
 30
0.0
 11
1335.048998196104
 21
1097.139430203522
 31
0.0
  0
LINE
  5
FDC
102
{ACAD_REACTORS
330
17D5
102
}
330
1F
100
AcDbEntity
  8
图层2
100
AcDbLine
 10
1335.048998196104
 20
777.1394302035223
 30
0.0
 11
1260.048998196104
 21
702.1394302035223
 31
0.0
  0
LINE
  5
FDD
102
{ACAD_REACTORS
330
186F
330
1887
102
}
330
1F
100
AcDbEntity
  8
图层2
100
AcDbLine
 10
590.0489981961072
 20
702.1394302035223
 30
0.0
 11
515.0489981961072
 21
777.1394302035223
 31
0.0
  0
LINE
  5
FDE
102
{ACAD_REACTORS
330
17BC
102
}
330
1F
100
AcDbEntity
  8
图层2
100
AcDbLine
 10
515.0489981961072
 20
1097.139430203522
 30
0.0
 11
590.0489981961072
 21
1172.139430203522
 31
0.0
  0
LINE
  5
FE1
330
1F
100
AcDbEntity
  8
图层2
100
AcDbLine
 10
1335.048998196104
 20
1559.783017239225
 30
0.0
 11
1312.421409612891
 21
1559.783017239225
 31
0.0
  0
LINE
  5
FE9
102
{ACAD_REACTORS
330
156C
102
}
330
1F
100
AcDbEntity
  8
图层2
100
AcDbLine
 10
1309.924835776004
 20
1557.413857129833
 30
0.0
 11
1300.331792099963
 21
1374.367679495948
 31
0.0
  0
LINE
  5
FEA
330
1F
100
AcDbEntity
  8
图层2
100
AcDbLine
 10
940.1731606162051
 20
1557.413857129833
 30
0.0
 11
949.7662042922454
 21
1374.367679495948
 31
0.0
  0
LINE
  5
FEC
330
1F
100
AcDbEntity
  8
图层2
100
AcDbLine
 10
909.9248357760059
 20
1557.413857129832
 30
0.0
 11
900.3368870354382
 21
1374.464896656129
 31
0.0
  0
LINE
  5
FED
102
{ACAD_REACTORS
330
14BC
102
}
330
1F
100
AcDbEntity
  8
图层2
100
AcDbLine
 10
537.3887117683077
 20
1557.413857129832
 30
0.0
 11
546.9766605088753
 21
1374.464896656129
 31
0.0
  0
ARC
  5
FEE
102
{ACAD_REACTORS
330
1158
102
}
330
1F
100
AcDbEntity
  8
图层2
100
AcDbCircle
 10
1125.048998196106
 20
3331.783017239225
 30
0.0
 40
2000.0
100
AcDbArc
 50
266.0405871599647
 51
273.9594128400353
  0
ARC
  5
FEF
102
{ACAD_REACTORS
330
16DB
102
}
330
1F
100
AcDbEntity
  8
图层2
100
AcDbCircle
 10
723.6567737721591
 20
3331.783017239225
 30
0.0
 40
2000.0
100
AcDbArc
 50
265.9996412221811
 51
274.0003587778188
  0
ARC
  5
FF1
330
1F
100
AcDbEntity
  8
图层2
100
AcDbCircle
 10
586.9218418990584
 20
1376.558334905847
 30
0.0
 40
40.0
100
AcDbArc
 50
183.0
 51
265.9996412221814
  0
ARC
  5
FF2
330
1F
100
AcDbEntity
  8
图层2
100
AcDbCircle
 10
860.391705645255
 20
1376.558334905847
 30
0.0
 40
40.0
100
AcDbArc
 50
274.0003587778192
 51
357.0
  0
ARC
  5
FF3
330
1F
100
AcDbEntity
  8
图层2
100
AcDbCircle
 10
989.7113856824283
 20
1376.461117745666
 30
0.0
 40
40.0
100
AcDbArc
 50
183.0
 51
266.0405871599644
  0
ARC
  5
FF4
102
{ACAD_REACTORS
330
157E
102
}
330
1F
100
AcDbEntity
  8
图层2
100
AcDbCircle
 10
1260.38661070978
 20
1376.461117745666
 30
0.0
 40
40.0
100
AcDbArc
 50
273.9594128400348
 51
357.0
  0
LINE
  5
1079
330
1F
100
AcDbEntity
  8
图层1
100
AcDbLine
 10
1045.049005481911
 20
1007.139430203522
 30
0.0
 11
1205.049005481911
 21
1007.139430203522
 31
0.0
  0
LINE
  5
107A
330
1F
100
AcDbEntity
  8
图层1
100
AcDbLine
 10
1125.049005481911
 20
935.1394302035224
 30
0.0
 11
1125.049005481911
 21
1095.139430203522
 31
0.0
  0
LINE
  5
107B
102
{ACAD_REACTORS
330
1AA9
102
}
330
1F
100
AcDbEntity
  8
图层1
100
AcDbLine
 10
645.0490054819129
 20
1007.139430203522
 30
0.0
 11
805.0490054819128
 21
1007.139430203522
 31
0.0
  0
LINE
  5
107C
330
1F
100
AcDbEntity
  8
图层1
100
AcDbLine
 10
725.0490054819128
 20
935.1394302035224
 30
0.0
 11
725.0490054819128
 21
1095.139430203522
 31
0.0
  0
DIMENSION
  5
1141
102
{ACAD_XDICTIONARY
360
114E
102
}
102
{ACAD_REACTORS
330
1158
102
}
330
1F
100
AcDbEntity
  8
图层3
100
AcDbDimension
280
     0
  2
*D2
 10
1126.413361315326
 20
1559.783017239226
 30
0.0
 11
1126.413361315326
 21
1445.579830714087
 31
0.0
 70
   160
  1
<>{\Ftxt|c134; [9"]}
 71
     5
 42
228.0000000000002
 73
     0
 74
     0
 75
     0
  3
ISO-25
100
AcDbAlignedDimension
 13
1125.048998196104
 23
1331.783017239225
 33
0.0
 14
1125.048998196104
 24
1559.783017239225
 34
0.0
 50
270.0
100
AcDbRotatedDimension
  0
LINE
  5
1414
330
1F
100
AcDbEntity
  8
图层2
100
AcDbLine
 10
937.6765867793187
 20
1559.783017239225
 30
0.0
 11
912.4214096128923
 21
1559.783017239225
 31
0.0
  0
LINE
  5
1415
330
1F
100
AcDbEntity
  8
图层2
100
AcDbLine
 10
534.8921379314212
 20
1559.783017239225
 30
0.0
 11
515.0489981961072
 21
1559.783017239225
 31
0.0
  0
ARC
  5
1416
102
{ACAD_REACTORS
330
14A4
102
}
330
1F
100
AcDbEntity
  8
图层2
100
AcDbCircle
 10
534.8921379314212
 20
1557.283017239225
 30
0.0
 40
2.5
100
AcDbArc
 50
2.999999999999915
 51
89.99999999999941
  0
ARC
  5
1417
330
1F
100
AcDbEntity
  8
图层2
100
AcDbCircle
 10
912.4214096128923
 20
1557.283017239225
 30
0.0
 40
2.5
100
AcDbArc
 50
90.00000000000044
 51
177.0
  0
ARC
  5
1418
330
1F
100
AcDbEntity
  8
图层2
100
AcDbCircle
 10
937.6765867793187
 20
1557.283017239225
 30
0.0
 40
2.5
100
AcDbArc
 50
2.999999999999978
 51
90.00000000000049
  0
ARC
  5
1419
330
1F
100
AcDbEntity
  8
图层2
100
AcDbCircle
 10
1312.421409612891
 20
1557.283017239225
 30
0.0
 40
2.5
100
AcDbArc
 50
90.0
 51
177.0
  0
LINE
  5
141A
102
{ACAD_REACTORS
330
156C
102
}
330
1F
100
AcDbEntity
  8
图层2
100
AcDbLine
 10
1312.421409612891
 20
1559.783017239225
 30
0.0
 11
937.6765867793187
 21
1559.783017239225
 31
0.0
  0
LINE
  5
141B
102
{ACAD_REACTORS
330
14BC
102
}
330
1F
100
AcDbEntity
  8
图层2
100
AcDbLine
 10
912.4214096128923
 20
1559.783017239225
 30
0.0
 11
534.8921379314212
 21
1559.783017239225
 31
0.0
  0
CIRCLE
  5
141C
102
{ACAD_REACTORS
330
1AE4
102
}
330
1F
100
AcDbEntity
  8
图层2
100
AcDbCircle
 10
1125.049005481911
 20
1007.139430203522
 30
0.0
 40
46.25
  0
CIRCLE
  5
141D
102
{ACAD_REACTORS
330
1ACC
102
}
330
1F
100
AcDbEntity
  8
图层2
100
AcDbCircle
 10
725.0490054819128
 20
1007.139430203522
 30
0.0
 40
46.25
  0
CIRCLE
  5
141E
330
1F
100
AcDbEntity
  8
图层2
100
AcDbCircle
 10
725.0490054819128
 20
1007.139430203522
 30
0.0
 40
55.5
  0
CIRCLE
  5
141F
330
1F
100
AcDbEntity
  8
图层2
100
AcDbCircle
 10
1125.049005481911
 20
1007.139430203522
 30
0.0
 40
55.5
  0
CIRCLE
  5
1421
330
1F
100
AcDbEntity
  8
图层2
100
AcDbCircle
 10
1125.049005481911
 20
1007.139430203522
 30
0.0
 40
62.0
  0
CIRCLE
  5
1422
330
1F
100
AcDbEntity
  8
图层2
100
AcDbCircle
 10
725.0490054819128
 20
1007.139430203522
 30
0.0
 40
62.0
  0
LINE
  5
142A
330
1F
100
AcDbEntity
  8
图层2
100
AcDbLine
 10
669.5490054819129
 20
1329.206079641791
 30
0.0
 11
780.5490054819126
 21
1329.283385674917
 31
0.0
  0
LINE
  5
142B
330
1F
100
AcDbEntity
  8
图层2
100
AcDbLine
 10
678.7990054819124
 20
1327.412521374679
 30
0.0
 11
771.2990054819112
 21
1327.476943068951
 31
0.0
  0
LINE
  5
142C
330
1F
100
AcDbEntity
  8
图层2
100
AcDbLine
 10
787.0490054819193
 20
1332.787913453612
 30
0.0
 11
780.5490054819127
 21
1329.283385674917
 31
0.0
  0
LINE
  5
142D
330
1F
100
AcDbEntity
  8
图层2
100
AcDbLine
 10
780.5490054819127
 20
1329.283385674917
 30
0.0
 11
771.2990054819128
 21
1327.476943068951
 31
0.0
  0
LINE
  5
142E
330
1F
100
AcDbEntity
  8
图层2
100
AcDbLine
 10
663.0490054819095
 20
1332.70155356075
 30
0.0
 11
669.5490054819128
 21
1329.206079641791
 31
0.0
  0
LINE
  5
142F
330
1F
100
AcDbEntity
  8
图层2
100
AcDbLine
 10
669.5490054819128
 20
1329.206079641791
 30
0.0
 11
678.7990054819127
 21
1327.412521374679
 31
0.0
  0
LINE
  5
1437
330
1F
100
AcDbEntity
  8
图层2
100
AcDbLine
 10
1069.549005481911
 20
1329.244248028201
 30
0.0
 11
1180.54900548191
 21
1329.244248432758
 31
0.0
  0
LINE
  5
1438
330
1F
100
AcDbEntity
  8
图层2
100
AcDbLine
 10
1078.79900548191
 20
1327.444248061914
 30
0.0
 11
1171.299005481911
 21
1327.444248399045
 31
0.0
  0
LINE
  5
1439
330
1F
100
AcDbEntity
  8
图层2
100
AcDbLine
 10
1187.049005481913
 20
1332.744248456448
 30
0.0
 11
1180.54900548191
 21
1329.244248432758
 31
0.0
  0
LINE
  5
143A
330
1F
100
AcDbEntity
  8
图层2
100
AcDbLine
 10
1180.54900548191
 20
1329.244248432758
 30
0.0
 11
1171.299005481911
 21
1327.444248399045
 31
0.0
  0
LINE
  5
143B
330
1F
100
AcDbEntity
  8
图层2
100
AcDbLine
 10
1063.049005481911
 20
1332.744248004511
 30
0.0
 11
1069.549005481911
 21
1329.244248028201
 31
0.0
  0
LINE
  5
143C
330
1F
100
AcDbEntity
  8
图层2
100
AcDbLine
 10
1069.549005481911
 20
1329.244248028201
 30
0.0
 11
1078.79900548191
 21
1327.444248061914
 31
0.0
  0
LINE
  5
1462
330
1F
100
AcDbEntity
  8
图层1
100
AcDbLine
 10
725.0490054819128
 20
1189.446564720455
 30
0.0
 11
725.0490054819128
 21
681.8474105665968
 31
0.0
  0
LINE
  5
1463
330
1F
100
AcDbEntity
  8
图层1
100
AcDbLine
 10
1125.049005481911
 20
1192.355443674111
 30
0.0
 11
1125.049005481911
 21
681.8474105665968
 31
0.0
  0
LINE
  5
1464
330
1F
100
AcDbEntity
  8
图层1
100
AcDbLine
 10
1125.049005481911
 20
1192.355443674111
 30
0.0
 11
1125.049005481911
 21
1409.066827800819
 31
0.0
  0
LINE
  5
1465
330
1F
100
AcDbEntity
  8
图层1
100
AcDbLine
 10
725.0490054819128
 20
1189.446564720455
 30
0.0
 11
725.0490054819128
 21
1406.157952763989
 31
0.0
  0
CIRCLE
  5
1467
330
1F
100
AcDbEntity
  8
图层4
100
AcDbCircle
 10
1125.049005481911
 20
1329.24424823048
 30
0.0
 40
69.63416358243124
  0
ARC
  5
1469
102
{ACAD_REACTORS
330
164E
102
}
330
1F
100
AcDbEntity
  8
图层2
100
AcDbCircle
 10
1573.704083853872
 20
5336.12178624797
 30
0.0
 40
4000.0
100
AcDbArc
 50
268.0076183369818
 51
271.9923820799348
  0
LINE
  5
146D
102
{ACAD_REACTORS
330
1636
102
}
330
1F
100
AcDbEntity
  8
图层2
100
AcDbLine
 10
1462.704098425482
 20
1331.044247825923
 30
0.0
 11
1684.704098425482
 21
1331.044248635036
 31
0.0
  0
LINE
  5
146E
330
1F
100
AcDbEntity
  8
图层2
100
AcDbLine
 10
1481.20409842548
 20
1327.444247893349
 30
0.0
 11
1666.204098425483
 21
1327.444248567611
 31
0.0
  0
LINE
  5
146F
102
{ACAD_REACTORS
330
164E
102
}
330
1F
100
AcDbEntity
  8
图层2
100
AcDbLine
 10
1697.704098425487
 20
1338.044248682417
 30
0.0
 11
1684.704098425482
 21
1331.044248635036
 31
0.0
  0
LINE
  5
1470
102
{ACAD_REACTORS
330
1636
102
}
330
1F
100
AcDbEntity
  8
图层2
100
AcDbLine
 10
1684.704098425482
 20
1331.044248635036
 30
0.0
 11
1666.204098425482
 21
1327.44424856761
 31
0.0
  0
LINE
  5
1471
102
{ACAD_REACTORS
330
159E
330
164E
102
}
330
1F
100
AcDbEntity
  8
图层2
100
AcDbLine
 10
1449.704098425482
 20
1338.044247778542
 30
0.0
 11
1462.704098425482
 21
1331.044247825923
 31
0.0
  0
LINE
  5
1472
102
{ACAD_REACTORS
330
159E
330
1636
102
}
330
1F
100
AcDbEntity
  8
图层2
100
AcDbLine
 10
1462.704098425482
 20
1331.044247825923
 30
0.0
 11
1481.204098425482
 21
1327.444247893349
 31
0.0
  0
LINE
  5
1473
330
1F
100
AcDbEntity
  8
图层1
100
AcDbLine
 10
1573.704098425482
 20
1191.775921065617
 30
0.0
 11
1573.704098425482
 21
1399.996425713633
 31
0.0
  0
CIRCLE
  5
1474
330
1F
100
AcDbEntity
  8
图层4
100
AcDbCircle
 10
1573.704098425482
 20
1331.044248230479
 30
0.0
 40
139.2683271648625
  0
DIMENSION
  5
1493
102
{ACAD_XDICTIONARY
360
149D
102
}
102
{ACAD_REACTORS
330
14A4
102
}
330
1F
100
AcDbEntity
  8
图层3
100
AcDbDimension
280
     0
  2
*D3
 10
534.8921379314218
 20
1557.283017239228
 30
0.0
 11
509.4588330916446
 21
1525.344601185919
 31
0.0
 70
   164
 71
     5
 42
2.499999999997044
 73
     0
 74
     0
 75
     0
  3
ISO-25
100
AcDbRadialDimension
 15
536.4494872025666
 25
1559.238691866473
 35
0.0
 40
0.0
1001
ACAD
1000
DSTYLE
1002
{
1070
   279
1070
     1
1070
   288
1070
     1
1002
}
  0
DIMENSION
  5
14A5
102
{ACAD_XDICTIONARY
360
14B2
102
}
102
{ACAD_REACTORS
330
14BC
102
}
330
1F
100
AcDbEntity
  8
图层3
100
AcDbDimension
280
     0
  2
*D4
 10
546.9766605088753
 20
1374.464896656129
 30
0.0
 11
594.5204383735688
 21
1505.449207318399
 31
0.0
 70
    34
 71
     5
 42
1.518436449235065
 73
     0
 74
     0
 75
     0
  3
ISO-25
100
AcDb2LineAngularDimension
 13
912.4214096128923
 23
1559.783017239225
 33
0.0
 14
534.8921379314212
 24
1559.783017239225
 34
0.0
 15
537.3887117683077
 25
1557.413857129832
 35
0.0
 16
587.0413926210903
 26
1480.123416202967
 36
0.0
  0
DIMENSION
  5
1555
102
{ACAD_XDICTIONARY
360
1562
102
}
102
{ACAD_REACTORS
330
156C
102
}
330
1F
100
AcDbEntity
  8
图层3
100
AcDbDimension
280
     0
  2
*D5
 10
937.6765867793187
 20
1559.783017239225
 30
0.0
 11
1261.060362440306
 21
1513.294537735271
 31
0.0
 70
    34
 71
     5
 42
1.518436449235066
 73
     0
 74
     0
 75
     0
  3
ISO-25
100
AcDb2LineAngularDimension
 13
1309.924835776004
 23
1557.413857129833
 33
0.0
 14
1300.331792099963
 24
1374.367679495948
 34
0.0
 15
1312.421409612891
 25
1559.783017239225
 35
0.0
 16
1237.86168479001
 26
1519.76893601817
 36
0.0
  0
DIMENSION
  5
156D
102
{ACAD_XDICTIONARY
360
1577
102
}
102
{ACAD_REACTORS
330
157E
102
}
330
1F
100
AcDbEntity
  8
图层3
100
AcDbDimension
280
     0
  2
*D6
 10
1260.38661070978
 20
1376.461117745667
 30
0.0
 11
1229.374896686198
 21
1404.78555230877
 31
0.0
 70
   164
  1
<>{\Ftxt|c134; [1.6"]}
 71
     5
 42
40.00000000000056
 73
     0
 74
     0
 75
     0
  3
ISO-25
100
AcDbRadialDimension
 15
1289.921576446526
 25
1349.485465780806
 35
0.0
 40
0.0
1001
ACAD
1000
DSTYLE
1002
{
1070
   279
1070
     1
1070
   288
1070
     1
1002
}
  0
DIMENSION
  5
1581
102
{ACAD_XDICTIONARY
360
1591
102
}
102
{ACAD_REACTORS
330
159E
102
}
330
1F
100
AcDbEntity
  8
图层3
100
AcDbDimension
280
     0
  2
*D7
 10
1428.447636386949
 20
1327.444247893349
 30
0.0
 11
1365.447636386949
 21
1281.347194386939
 31
0.0
 70
   160
  1
5.3{\Ftxt|c134; [.2"]}
 71
     5
 42
10.59999988519348
 73
     0
 74
     0
 75
     0
  3
ISO-25
100
AcDbAlignedDimension
 13
1449.704098425482
 23
1338.044247778542
 33
0.0
 14
1481.204098425482
 24
1327.444247893349
 34
0.0
 50
90.0
100
AcDbRotatedDimension
  0
DIMENSION
  5
161F
102
{ACAD_XDICTIONARY
360
162C
102
}
102
{ACAD_REACTORS
330
1636
102
}
330
1F
100
AcDbEntity
  8
图层3
100
AcDbDimension
280
     0
  2
*D8
 10
1684.70409842548
 20
1506.785211457787
 30
0.0
 11
1575.049528493817
 21
1506.785211457787
 31
0.0
 70
   160
  1
%%C111{\Ftxt|c134; [4.37"]}
 71
     5
 42
221.9999999999977
 73
     0
 74
     0
 75
     0
  3
ISO-25
100
AcDbAlignedDimension
 13
1462.704098425482
 23
1331.044247825923
 33
0.0
 14
1684.70409842548
 24
1331.044248635036
 34
0.0
100
AcDbRotatedDimension
  0
DIMENSION
  5
1637
102
{ACAD_XDICTIONARY
360
1644
102
}
102
{ACAD_REACTORS
330
164E
102
}
330
1F
100
AcDbEntity
  8
图层3
100
AcDbDimension
280
     0
  2
*D9
 10
1697.704098425487
 20
1548.963940618493
 30
0.0
 11
1573.593958582711
 21
1548.963940618493
 31
0.0
 70
   160
  1
%%C124{\Ftxt|c134; [4.88"]}
 71
     5
 42
248.0000000000048
 73
     0
 74
     0
 75
     0
  3
ISO-25
100
AcDbAlignedDimension
 13
1449.704098425482
 23
1338.044247778542
 33
0.0
 14
1697.704098425487
 24
1338.044248682417
 34
0.0
100
AcDbRotatedDimension
  0
LINE
  5
1651
330
1F
100
AcDbEntity
  8
图层4
100
AcDbLine
 10
1164.579163746716
 20
1271.166121965969
 30
0.0
 11
1307.224893817291
 21
1230.441832282091
 31
0.0
  0
LINE
  5
1652
330
1F
100
AcDbEntity
  8
图层4
100
AcDbLine
 10
1307.224893817291
 20
1230.441832282091
 30
0.0
 11
1448.415053976761
 21
1268.257243012313
 31
0.0
  0
INSERT
  5
16CB
330
1F
100
AcDbEntity
  8
图层3
100
AcDbBlockReference
  2
c
 10
632.3131115626329
 20
1321.400493133115
 30
0.0
 41
0.8
 42
0.8
 43
0.8
  0
DIMENSION
  5
16CC
102
{ACAD_XDICTIONARY
360
16D5
102
}
102
{ACAD_REACTORS
330
16DB
102
}
330
1F
100
AcDbEntity
  8
图层3
100
AcDbDimension
280
     0
  2
*D11
 10
723.6567737721579
 20
3331.783017239219
 30
0.0
 11
816.933618048403
 21
1456.601511271905
 31
0.0
 70
   164
  1
<>{\Ftxt|c134; [79"]}
 71
     5
 42
1999.999999999994
 73
     0
 74
     0
 75
     0
  3
ISO-25
100
AcDbRadialDimension
 15
823.0195905777453
 25
1334.252784517713
 35
0.0
 40
0.0
1001
ACAD
1000
DSTYLE
1002
{
1070
   288
1070
     1
1002
}
  0
MTEXT
  5
16DC
330
1F
100
AcDbEntity
  8
图层3
100
AcDbMText
 10
410.1933316888989
 20
1301.620125648638
 30
0.0
 40
18.0
 41
218.3353048391809
 46
0.0
 71
     1
 72
     5
  1
{\fKartika|b0|i0|c0|p18;Adhesive Lable}
 73
     1
 44
1.0
  0
LEADER
  5
178A
330
1F
100
AcDbEntity
  8
图层3
100
AcDbLeader
  3
ISO-25
 73
     0
 40
18.0
 76
     3
 10
685.7265364470167
 20
1447.479562560264
 30
0.0
 10
597.2420050321115
 20
1275.445620287698
 30
0.0
 10
410.6699668250512
 20
1275.445620287698
 30
0.0
340
178B
213
0.0
223
9.0
233
0.0
1001
ACAD
1000
DSTYLE
1002
{
1070
   147
1040
6.0
1070
    77
1070
     0
1002
}
  0
MTEXT
  5
178B
102
{ACAD_REACTORS
330
178A
102
}
330
1F
100
AcDbEntity
  8
图层3
100
AcDbMText
 10
404.6699668250512
 20
1266.445620287698
 30
0.0
 40
18.0
 41
0.0
 46
0.0
 71
     9
 72
     1
  1

 73
     1
 44
1.0
  0
MTEXT
  5
178C
330
1F
100
AcDbEntity
  8
图层3
100
AcDbMText
 10
1763.234888114086
 20
1351.154848801276
 30
0.0
 40
18.0
 41
295.4804427845702
 46
0.0
 71
     1
 72
     5
  1
{\fKartika|b0|i0|c0|p18;\LSCALE 2:1}
 73
     1
 44
1.0
  0
DIMENSION
  5
178D
102
{ACAD_XDICTIONARY
360
179A
102
}
102
{ACAD_REACTORS
330
17A4
102
}
330
1F
100
AcDbEntity
  8
图层3
100
AcDbDimension
280
     0
  2
*D12
 10
414.606616853627
 20
727.1394302035226
 30
0.0
 11
414.6066168536272
 21
940.596083765342
 31
0.0
 70
   160
  1
<>{\Ftxt|c134; [16.54"]}
 71
     5
 42
420.0
 73
     0
 74
     0
 75
     0
  3
ISO-25
100
AcDbAlignedDimension
 13
725.0490058880483
 23
1147.139430203522
 33
0.0
 14
725.0489905041657
 24
727.1394302035223
 34
0.0
 50
90.0
100
AcDbRotatedDimension
  0
DIMENSION
  5
17A5
102
{ACAD_XDICTIONARY
360
17B2
102
}
102
{ACAD_REACTORS
330
17BC
102
}
330
1F
100
AcDbEntity
  8
图层3
100
AcDbDimension
280
     0
  2
*D13
 10
364.485149668846
 20
702.1394302035226
 30
0.0
 11
364.4851496688461
 21
939.3440199767683
 31
0.0
 70
   160
  1
<>{\Ftxt|c134; [18.5"]}
 71
     5
 42
470.0
 73
     0
 74
     0
 75
     0
  3
ISO-25
100
AcDbAlignedDimension
 13
590.0489981961071
 23
1172.139430203522
 33
0.0
 14
595.390772469187
 24
702.1394302035223
 34
0.0
 50
90.0
100
AcDbRotatedDimension
  0
DIMENSION
  5
17BE
102
{ACAD_XDICTIONARY
360
17CB
102
}
102
{ACAD_REACTORS
330
17D5
102
}
330
1F
100
AcDbEntity
  8
图层3
100
AcDbDimension
280
     0
  2
*D14
 10
1386.901934953541
 20
777.1394302035227
 30
0.0
 11
1356.901934953541
 21
739.6394302035221
 31
0.0
 70
    32
  1
<>{\Ftxt|c134; [3"]}
 71
     5
 42
75.0
 73
     0
 74
     0
 75
     0
  3
ISO-25
100
AcDbAlignedDimension
 13
1260.048998196104
 23
702.1394302035223
 33
0.0
 14
1335.048998196104
 24
777.1394302035223
 34
0.0
 50
90.0
100
AcDbRotatedDimension
  0
DIMENSION
  5
17D6
102
{ACAD_XDICTIONARY
360
17E3
102
}
102
{ACAD_REACTORS
330
17ED
102
}
330
1F
100
AcDbEntity
  8
图层3
100
AcDbDimension
280
     0
  2
*D15
 10
1386.90193495354
 20
1097.139430203522
 30
0.0
 11
1371.90193495354
 21
937.139430203522
 31
0.0
 70
    32
  1
<>{\Ftxt|c134; [12.6"]}
 71
     5
 42
319.9999999999999
 73
     0
 74
     0
 75
     0
  3
ISO-25
100
AcDbAlignedDimension
 13
1335.048998196104
 23
777.1394302035223
 33
0.0
 14
1335.048998196104
 24
1097.139430203522
 34
0.0
 50
90.0
100
AcDbRotatedDimension
1001
ACAD
1000
DSTYLE
1002
{
1070
   279
1070
     1
1002
}
  0
DIMENSION
  5
17EE
102
{ACAD_XDICTIONARY
360
17FB
102
}
102
{ACAD_REACTORS
330
1805
102
}
330
1F
100
AcDbEntity
  8
图层3
100
AcDbDimension
280
     0
  2
*D16
 10
1386.90193495354
 20
1172.139430203522
 30
0.0
 11
1356.90193495354
 21
1134.639430203522
 31
0.0
 70
    32
  1
<>{\Ftxt|c134; [3"]}
 71
     5
 42
75.0
 73
     0
 74
     0
 75
     0
  3
ISO-25
100
AcDbAlignedDimension
 13
1335.048998196104
 23
1097.139430203522
 33
0.0
 14
1260.048998196104
 24
1172.139430203522
 34
0.0
 50
90.0
100
AcDbRotatedDimension
1001
ACAD
1000
DSTYLE
1002
{
1070
   279
1070
     1
1002
}
  0
DIMENSION
  5
1806
102
{ACAD_XDICTIONARY
360
1813
102
}
102
{ACAD_REACTORS
330
181D
102
}
330
1F
100
AcDbEntity
  8
图层3
100
AcDbDimension
280
     0
  2
*D17
 10
910.0489981961054
 20
630.7933656893969
 30
0.0
 11
725.0489981961063
 21
645.793365689397
 31
0.0
 70
    32
  1
<>{\Ftxt|c134; [14.57"]}
 71
     5
 42
369.9999999999982
 73
     0
 74
     0
 75
     0
  3
ISO-25
100
AcDbAlignedDimension
 13
540.0489981961072
 23
937.1394302035218
 33
0.0
 14
910.0489981961054
 24
937.1394169289711
 34
0.0
100
AcDbRotatedDimension
  0
DIMENSION
  5
181E
102
{ACAD_XDICTIONARY
360
1830
102
}
102
{ACAD_REACTORS
330
183F
102
}
330
1F
100
AcDbEntity
  8
图层3
100
AcDbDimension
280
     0
  2
*D18
 10
940.0489981961055
 20
630.7933656893975
 30
0.0
 11
931.0489981961055
 21
605.5433656893975
 31
0.0
 70
    32
  1
<>{\Ftxt|c134; [1.2"]}
 71
     5
 42
30.0
 73
     0
 74
     0
 75
     0
  3
ISO-25
100
AcDbAlignedDimension
 13
910.0489981961054
 23
937.1394169289716
 33
0.0
 14
940.0489981961055
 24
937.1394302035223
 34
0.0
100
AcDbRotatedDimension
1001
ACAD
1000
DSTYLE
1002
{
1070
   279
1070
     1
1002
}
  0
DIMENSION
  5
1840
102
{ACAD_XDICTIONARY
360
184D
102
}
102
{ACAD_REACTORS
330
1857
102
}
330
1F
100
AcDbEntity
  8
图层3
100
AcDbDimension
280
     0
  2
*D19
 10
1310.048998196103
 20
630.7933656893969
 30
0.0
 11
1125.048998196104
 21
645.793365689397
 31
0.0
 70
    32
  1
<>{\Ftxt|c134; [14.57"]}
 71
     5
 42
369.9999999999982
 73
     0
 74
     0
 75
     0
  3
ISO-25
100
AcDbAlignedDimension
 13
940.0489981961055
 23
937.1394302035218
 33
0.0
 14
1310.048998196103
 24
937.1394169289711
 34
0.0
100
AcDbRotatedDimension
1001
ACAD
1000
DSTYLE
1002
{
1070
   279
1070
     1
1002
}
  0
DIMENSION
  5
1858
102
{ACAD_XDICTIONARY
360
1865
102
}
102
{ACAD_REACTORS
330
186F
102
}
330
1F
100
AcDbEntity
  8
图层3
100
AcDbDimension
280
     0
  2
*D20
 10
590.0489981961072
 20
550.6072855830743
 30
0.0
 11
552.5489981961072
 21
580.6072855830743
 31
0.0
 70
    32
  1
<>{\Ftxt|c134; [3"]}
 71
     5
 42
75.0
 73
     0
 74
     0
 75
     0
  3
ISO-25
100
AcDbAlignedDimension
 13
515.0489981961072
 23
777.1394302035223
 33
0.0
 14
590.0489981961072
 24
702.1394302035223
 34
0.0
100
AcDbRotatedDimension
  0
DIMENSION
  5
1870
102
{ACAD_XDICTIONARY
360
187D
102
}
102
{ACAD_REACTORS
330
1887
102
}
330
1F
100
AcDbEntity
  8
图层3
100
AcDbDimension
280
     0
  2
*D21
 10
1260.048998196104
 20
550.6072855830743
 30
0.0
 11
925.0489981961054
 21
565.6072855830744
 31
0.0
 70
    32
  1
<>{\Ftxt|c134; [26.38"]}
 71
     5
 42
669.9999999999964
 73
     0
 74
     0
 75
     0
  3
ISO-25
100
AcDbAlignedDimension
 13
590.0489981961071
 23
702.1394302035223
 33
0.0
 14
1260.048998196104
 24
702.1394302035223
 34
0.0
100
AcDbRotatedDimension
1001
ACAD
1000
DSTYLE
1002
{
1070
   279
1070
     1
1002
}
  0
DIMENSION
  5
1888
330
1F
100
AcDbEntity
  8
图层3
100
AcDbDimension
280
     0
  2
*D22
 10
1335.048998196104
 20
550.6072855830743
 30
0.0
 11
1297.548998196103
 21
580.6072855830743
 31
0.0
 70
    32
  1
<>{\Ftxt|c134; [3"]}
 71
     5
 42
75.0
 73
     0
 74
     0
 75
     0
  3
ISO-25
100
AcDbAlignedDimension
 13
1260.048998196104
 23
702.1394302035223
 33
0.0
 14
1335.048998196104
 24
777.1394302035223
 34
0.0
100
AcDbRotatedDimension
1001
ACAD
1000
DSTYLE
1002
{
1070
   279
1070
     1
1002
}
  0
DIMENSION
  5
18E5
102
{ACAD_XDICTIONARY
360
18EE
102
}
102
{ACAD_REACTORS
330
18F4
102
}
330
1F
100
AcDbEntity
  8
图层3
100
AcDbDimension
280
     0
  2
*D25
 10
725.0489981961082
 20
3227.139430203524
 30
0.0
 11
757.7553527753971
 21
824.3620176307034
 31
0.0
 70
   164
  1
4-<>{\Ftxt|c134; [98.4"]}
 71
     5
 42
2500.0
 73
     0
 74
     0
 75
     0
  3
ISO-25
100
AcDbRadialDimension
 15
759.0755843168832
 25
727.3710026412888
 35
0.0
 40
0.0
1001
ACAD
1000
DSTYLE
1002
{
1070
   288
1070
     1
1002
}
  0
DIMENSION
  5
18FA
330
1F
100
AcDbEntity
  8
图层3
100
AcDbDimension
280
     0
  2
*D26
 10
637.7246578763065
 20
823.7253045090522
 30
0.0
 11
627.9607021837586
 21
815.1424629496407
 31
0.0
 70
   164
  1
4-<>{\Ftxt|c134; [3.7"]}
 71
     5
 42
95.00000000000012
 73
     0
 74
     0
 75
     0
  3
ISO-25
100
AcDbRadialDimension
 15
566.3726739692253
 25
761.0045392671991
 35
0.0
 40
0.0
1001
ACAD
1000
DSTYLE
1002
{
1070
   288
1070
     1
1002
}
  0
DIMENSION
  5
1914
102
{ACAD_XDICTIONARY
360
191D
102
}
102
{ACAD_REACTORS
330
1923
102
}
330
1F
100
AcDbEntity
  8
图层3
100
AcDbDimension
280
     0
  2
*D27
 10
1125.048998196105
 20
3227.13943020352
 30
0.0
 11
1084.736637176698
 21
824.4775910032966
 31
0.0
 70
   164
  1
4-<>{\Ftxt|c134; [98.43"]}
 71
     5
 42
2499.999999999992
 73
     0
 74
     0
 75
     0
  3
ISO-25
100
AcDbRadialDimension
 15
1083.109379990313
 25
727.4912412727835
 35
0.0
 40
0.0
1001
ACAD
1000
DSTYLE
1002
{
1070
   288
1070
     1
1002
}
  0
DIMENSION
  5
1924
102
{ACAD_XDICTIONARY
360
192D
102
}
102
{ACAD_REACTORS
330
1933
102
}
330
1F
100
AcDbEntity
  8
图层3
100
AcDbDimension
280
     0
  2
*D28
 10
1212.373323726366
 20
823.725303971697
 30
0.0
 11
1221.302609614129
 21
814.2771372958478
 31
0.0
 70
   164
  1
4-<>{\Ftxt|c134; [3.7"]}
 71
     5
 42
95.00000000000113
 73
     0
 74
     0
 75
     0
  3
ISO-25
100
AcDbRadialDimension
 15
1277.62579752155
 25
754.6810090328026
 35
0.0
 40
0.0
1001
ACAD
1000
DSTYLE
1002
{
1070
   288
1070
     1
1002
}
  0
DIMENSION
  5
1A92
102
{ACAD_XDICTIONARY
360
1A9F
102
}
102
{ACAD_REACTORS
330
1AA9
102
}
330
1F
100
AcDbEntity
  8
图层3
100
AcDbDimension
280
     0
  2
*D31
 10
470.9932745370397
 20
1147.139430203523
 30
0.0
 11
440.9932745370398
 21
1077.139430203522
 31
0.0
 70
    32
  1
<>{\Ftxt|c134; [5.5"]}
 71
     5
 42
140.0000000000001
 73
     0
 74
     0
 75
     0
  3
ISO-25
100
AcDbAlignedDimension
 13
645.0490054819129
 23
1007.139430203522
 33
0.0
 14
565.0489981961073
 24
1147.139430203522
 34
0.0
 50
90.0
100
AcDbRotatedDimension
  0
LINE
  5
1AAA
102
{ACAD_REACTORS
330
1AA9
102
}
330
1F
100
AcDbEntity
  8
图层1
100
AcDbLine
 10
645.0490054819129
 20
1007.139430203522
 30
0.0
 11
805.0490054819128
 21
1007.139430203522
 31
0.0
  0
LINE
  5
1AAB
330
1F
100
AcDbEntity
  8
图层1
100
AcDbLine
 10
1045.049005481911
 20
1007.139430203522
 30
0.0
 11
1205.049005481911
 21
1007.139430203522
 31
0.0
  0
DIMENSION
  5
1AB5
102
{ACAD_XDICTIONARY
360
1AC2
102
}
102
{ACAD_REACTORS
330
1ACC
102
}
330
1F
100
AcDbEntity
  8
图层3
100
AcDbDimension
280
     0
  2
*D32
 10
690.7165490017364
 20
1038.12886279008
 30
0.0
 11
862.2519793972129
 21
951.2065711932304
 31
0.0
 70
    35
  1
<>{\Ftxt|c134; [3.6"]}
 71
     5
 42
92.50000000000023
 73
     0
 74
     0
 75
     0
  3
ISO-25
100
AcDbDiametricDimension
 15
759.3814619620893
 25
976.149997616965
 35
0.0
 40
0.0
1001
ACAD
1000
DSTYLE
1002
{
1070
   288
1070
     1
1002
}
  0
DIMENSION
  5
1ACD
102
{ACAD_XDICTIONARY
360
1ADA
102
}
102
{ACAD_REACTORS
330
1AE4
102
}
330
1F
100
AcDbEntity
  8
图层3
100
AcDbDimension
280
     0
  2
*D33
 10
1088.406847049616
 20
1035.360250982207
 30
0.0
 11
1268.656720486057
 21
928.883856909116
 31
0.0
 70
   163
  1
<>{\Ftxt|c134; [3.6"]}
 71
     5
 42
92.50000000000023
 73
     0
 74
     0
 75
     0
  3
ISO-25
100
AcDbDiametricDimension
 15
1161.691163914205
 25
978.9186094248377
 35
0.0
 40
0.0
1001
ACAD
1000
DSTYLE
1002
{
1070
   288
1070
     1
1002
}
  0
ENDSEC
  0
SECTION
  2
OBJECTS
  0
DICTIONARY
  5
C
330
0
100
AcDbDictionary
281
     1
  3
ACAD_CIP_PREVIOUS_PRODUCT_INFO
350
1B47
  3
ACAD_COLOR
350
DE7
  3
ACAD_DETAILVIEWSTYLE
350
1B3A
  3
ACAD_GROUP
350
D
  3
ACAD_LAYOUT
350
1A
  3
ACAD_MATERIAL
350
DE6
  3
ACAD_MLEADERSTYLE
350
1B36
  3
ACAD_MLINESTYLE
350
17
  3
ACAD_PLOTSETTINGS
350
19
  3
ACAD_PLOTSTYLENAME
350
E
  3
ACAD_SCALELIST
350
1B24
  3
ACAD_SECTIONVIEWSTYLE
350
1B38
  3
ACAD_TABLESTYLE
350
DE8
  3
ACAD_VISUALSTYLE
350
1B0A
  3
ACDB_RECOMPOSE_DATA
350
1E1D
  3
AcDbVariableDictionary
350
5E
  0
DICTIONARY
  5
E27
330
2
100
AcDbDictionary
280
     1
281
     1
  3
ACAD_LAYERFILTERS
360
1AE7
  3
ACAD_LAYERSTATES
360
16AE
  3
ACLYDICTIONARY
360
1AE6
  0
DICTIONARY
  5
1C98
330
10
100
AcDbDictionary
280
     1
281
     1
  3
ADSK_XREC_LAYER_RECONCILED
360
1C99
  0
DICTIONARY
  5
1C9A
330
70
100
AcDbDictionary
280
     1
281
     1
  3
ADSK_XREC_LAYER_RECONCILED
360
1C9B
  0
DICTIONARY
  5
1C9C
330
71
100
AcDbDictionary
280
     1
281
     1
  3
ADSK_XREC_LAYER_RECONCILED
360
1C9D
  0
DICTIONARY
  5
1C9E
330
72
100
AcDbDictionary
280
     1
281
     1
  3
ADSK_XREC_LAYER_RECONCILED
360
1C9F
  0
DICTIONARY
  5
1CA0
330
1390
100
AcDbDictionary
280
     1
281
     1
  3
ADSK_XREC_LAYER_RECONCILED
360
1CA1
  0
DICTIONARY
  5
F25
330
1F
100
AcDbDictionary
280
     1
281
     1
  3
ACAD_SORTENTS
360
F26
  0
DICTIONARY
  5
16C3
330
16AF
100
AcDbDictionary
280
     1
281
     1
  3
ACAD_SORTENTS
360
16C4
  0
DICTIONARY
  5
1A52
330
1A32
100
AcDbDictionary
280
     1
281
     1
  3
ACAD_SORTENTS
360
1A53
  0
DICTIONARY
  5
114E
330
1141
100
AcDbDictionary
280
     1
281
     1
  3
ACAD_DIMASSOC
360
1158
  0
DICTIONARY
  5
149D
330
1493
100
AcDbDictionary
280
     1
281
     1
  3
ACAD_DIMASSOC
360
14A4
  0
DICTIONARY
  5
14B2
330
14A5
100
AcDbDictionary
280
     1
281
     1
  3
ACAD_DIMASSOC
360
14BC
  0
DICTIONARY
  5
1562
330
1555
100
AcDbDictionary
280
     1
281
     1
  3
ACAD_DIMASSOC
360
156C
  0
DICTIONARY
  5
1577
330
156D
100
AcDbDictionary
280
     1
281
     1
  3
ACAD_DIMASSOC
360
157E
  0
DICTIONARY
  5
1591
330
1581
100
AcDbDictionary
280
     1
281
     1
  3
ACAD_DIMASSOC
360
159E
  0
DICTIONARY
  5
162C
330
161F
100
AcDbDictionary
280
     1
281
     1
  3
ACAD_DIMASSOC
360
1636
  0
DICTIONARY
  5
1644
330
1637
100
AcDbDictionary
280
     1
281
     1
  3
ACAD_DIMASSOC
360
164E
  0
DICTIONARY
  5
16D5
330
16CC
100
AcDbDictionary
280
     1
281
     1
  3
ACAD_DIMASSOC
360
16DB
  0
DICTIONARY
  5
179A
330
178D
100
AcDbDictionary
280
     1
281
     1
  3
ACAD_DIMASSOC
360
17A4
  0
DICTIONARY
  5
17B2
330
17A5
100
AcDbDictionary
280
     1
281
     1
  3
ACAD_DIMASSOC
360
17BC
  0
DICTIONARY
  5
17CB
330
17BE
100
AcDbDictionary
280
     1
281
     1
  3
ACAD_DIMASSOC
360
17D5
  0
DICTIONARY
  5
17E3
330
17D6
100
AcDbDictionary
280
     1
281
     1
  3
ACAD_DIMASSOC
360
17ED
  0
DICTIONARY
  5
17FB
330
17EE
100
AcDbDictionary
280
     1
281
     1
  3
ACAD_DIMASSOC
360
1805
  0
DICTIONARY
  5
1813
330
1806
100
AcDbDictionary
280
     1
281
     1
  3
ACAD_DIMASSOC
360
181D
  0
DICTIONARY
  5
1830
330
181E
100
AcDbDictionary
280
     1
281
     1
  3
ACAD_DIMASSOC
360
183F
  0
DICTIONARY
  5
184D
330
1840
100
AcDbDictionary
280
     1
281
     1
  3
ACAD_DIMASSOC
360
1857
  0
DICTIONARY
  5
1865
330
1858
100
AcDbDictionary
280
     1
281
     1
  3
ACAD_DIMASSOC
360
186F
  0
DICTIONARY
  5
187D
330
1870
100
AcDbDictionary
280
     1
281
     1
  3
ACAD_DIMASSOC
360
1887
  0
DICTIONARY
  5
18EE
330
18E5
100
AcDbDictionary
280
     1
281
     1
  3
ACAD_DIMASSOC
360
18F4
  0
DICTIONARY
  5
191D
330
1914
100
AcDbDictionary
280
     1
281
     1
  3
ACAD_DIMASSOC
360
1923
  0
DICTIONARY
  5
192D
330
1924
100
AcDbDictionary
280
     1
281
     1
  3
ACAD_DIMASSOC
360
1933
  0
DICTIONARY
  5
1A9F
330
1A92
100
AcDbDictionary
280
     1
281
     1
  3
ACAD_DIMASSOC
360
1AA9
  0
DICTIONARY
  5
1AC2
330
1AB5
100
AcDbDictionary
280
     1
281
     1
  3
ACAD_DIMASSOC
360
1ACC
  0
DICTIONARY
  5
1ADA
330
1ACD
100
AcDbDictionary
280
     1
281
     1
  3
ACAD_DIMASSOC
360
1AE4
  0
XRECORD
  5
1B47
102
{ACAD_REACTORS
330
C
102
}
330
C
100
AcDbXrecord
280
     1
300
ACDLT
300
2018
300

  0
DICTIONARY
  5
DE7
102
{ACAD_REACTORS
330
C
102
}
330
C
100
AcDbDictionary
281
     1
  0
DICTIONARY
  5
1B3A
102
{ACAD_REACTORS
330
C
102
}
330
C
100
AcDbDictionary
281
     1
  3
Metric50
350
1B3B
  0
DICTIONARY
  5
D
102
{ACAD_REACTORS
330
C
102
}
330
C
100
AcDbDictionary
281
     1
  0
DICTIONARY
  5
1A
102
{ACAD_REACTORS
330
C
102
}
330
C
100
AcDbDictionary
281
     1
  3
Model
350
22
  3
布局1
350
51
  3
布局2
350
56
1001
AcadStringInfo
1000
MIFCodePage
1070
     5
  0
DICTIONARY
  5
DE6
102
{ACAD_REACTORS
330
C
102
}
330
C
100
AcDbDictionary
281
     1
  3
ByBlock
350
1AFA
  3
ByLayer
350
1AF2
  3
Global
350
1B02
  0
DICTIONARY
  5
1B36
102
{ACAD_REACTORS
330
C
102
}
330
C
100
AcDbDictionary
281
     1
  3
Standard
350
1B37
  0
DICTIONARY
  5
17
102
{ACAD_REACTORS
330
C
102
}
330
C
100
AcDbDictionary
281
     1
  3
Standard
350
18
  0
DICTIONARY
  5
19
102
{ACAD_REACTORS
330
C
102
}
330
C
100
AcDbDictionary
281
     1
  0
ACDBDICTIONARYWDFLT
  5
E
102
{ACAD_REACTORS
330
C
102
}
330
C
100
AcDbDictionary
281
     1
  3
Normal
350
F
100
AcDbDictionaryWithDefault
340
F
  0
DICTIONARY
  5
1B24
102
{ACAD_REACTORS
330
C
102
}
330
C
100
AcDbDictionary
281
     1
  3
A0
350
1B25
  3
A1
350
1B26
  3
A2
350
1B27
  3
A3
350
1B28
  3
A4
350
1B29
  3
A5
350
1B2A
  3
A6
350
1B2B
  3
A7
350
1B2C
  3
A8
350
1B2D
  3
A9
350
1B2E
  3
B0
350
1B2F
  3
B1
350
1B30
  3
B2
350
1B31
  3
B3
350
1B32
  3
B4
350
1B33
  3
B5
350
1B34
  3
B6
350
1B35
  0
DICTIONARY
  5
1B38
102
{ACAD_REACTORS
330
C
102
}
330
C
100
AcDbDictionary
281
     1
  3
Metric50
350
1B39
  0
DICTIONARY
  5
DE8
102
{ACAD_REACTORS
330
C
102
}
330
C
100
AcDbDictionary
281
     1
  3
Standard
350
DE9
  0
DICTIONARY
  5
1B0A
102
{ACAD_REACTORS
330
C
102
}
330
C
100
AcDbDictionary
281
     1
  3
2dWireframe
350
1B10
  3
Basic
350
1B0F
  3
Brighten
350
1B16
  3
ColorChange
350
1B1A
  3
Conceptual
350
1B13
  3
Dim
350
1B15
  3
EdgeColorOff
350
1B22
  3
Facepattern
350
1B19
  3
Flat
350
1B0B
  3
FlatWithEdges
350
1B0C
  3
Gouraud
350
1B0D
  3
GouraudWithEdges
350
1B0E
  3
Hidden
350
1B12
  3
JitterOff
350
1B20
  3
Linepattern
350
1B18
  3
OverhangOff
350
1B21
  3
Realistic
350
1B14
  3
Shaded
350
1B1F
  3
Shaded with edges
350
1B1E
  3
Shades of Gray
350
1B1B
  3
Sketchy
350
1B1C
  3
Thicken
350
1B17
  3
Wireframe
350
1B11
  3
X-Ray
350
1B1D
  0
XRECORD
  5
1E1D
102
{ACAD_REACTORS
330
C
102
}
330
C
100
AcDbXrecord
280
     1
 90
        1
330
DE9
  0
DICTIONARY
  5
5E
102
{ACAD_REACTORS
330
C
102
}
330
C
100
AcDbDictionary
281
     1
  3
CANNOSCALE
350
1E01
  3
CMLEADERSTYLE
350
1DFD
  3
CTABLESTYLE
350
DEF
  3
CVIEWDETAILSTYLE
350
1DFE
  3
CVIEWSECTIONSTYLE
350
1DFF
  3
DIMASSOC
350
5F
  3
HIDETEXT
350
63
  3
LAYEREVAL
350
1E03
  3
LAYERNOTIFY
350
1E04
  3
LIGHTINGUNITS
350
1E02
  3
MSLTSCALE
350
1E00
  0
DICTIONARY
  5
1AE7
102
{ACAD_REACTORS
330
E27
102
}
330
E27
100
AcDbDictionary
281
     1
  0
DICTIONARY
  5
16AE
102
{ACAD_REACTORS
330
E27
102
}
330
E27
100
AcDbDictionary
281
     1
  0
DICTIONARY
  5
1AE6
102
{ACAD_REACTORS
330
E27
102
}
330
E27
100
AcDbDictionary
281
     1
1001
ACAD
1000
<All
  0
XRECORD
  5
1C99
102
{ACAD_REACTORS
330
1C98
102
}
330
1C98
100
AcDbXrecord
280
     1
290
     1
  0
XRECORD
  5
1C9B
102
{ACAD_REACTORS
330
1C9A
102
}
330
1C9A
100
AcDbXrecord
280
     1
290
     1
  0
XRECORD
  5
1C9D
102
{ACAD_REACTORS
330
1C9C
102
}
330
1C9C
100
AcDbXrecord
280
     1
290
     1
  0
XRECORD
  5
1C9F
102
{ACAD_REACTORS
330
1C9E
102
}
330
1C9E
100
AcDbXrecord
280
     1
290
     1
  0
XRECORD
  5
1CA1
102
{ACAD_REACTORS
330
1CA0
102
}
330
1CA0
100
AcDbXrecord
280
     1
290
     1
  0
SORTENTSTABLE
  5
F26
102
{ACAD_REACTORS
330
F25
102
}
330
F25
100
AcDbSortentsTable
330
1F
331
141F
  5
1422
331
17EE
  5
181E
331
1464
  5
1467
331
1417
  5
FEE
331
1079
  5
1089
331
1840
  5
1870
331
FDA
  5
FE1
331
FDE
  5
FDA
331
143A
  5
143C
331
1471
  5
1473
331
66A
  5
66A
331
FF3
  5
107A
331
142A
  5
142C
331
142E
  5
1437
331
1422
  5
142B
331
FEF
  5
107B
331
16CB
  5
16DC
331
178C
  5
17A5
331
1A92
  5
1AAB
331
FA8
  5
FA9
331
FAC
  5
FAD
331
F70
  5
F71
331
F74
  5
F70
331
1469
  5
146E
331
181E
  5
1858
331
1418
  5
FF3
331
146D
  5
146F
331
141C
  5
141E
331
1465
  5
1469
331
107A
  5
1141
331
1414
  5
FED
331
1141
  5
141B
331
FDB
  5
FEA
331
1472
  5
1474
331
143B
  5
1462
331
1914
  5
1A5A
331
1437
  5
1439
331
18E5
  5
1914
331
FF4
  5
1079
331
142B
  5
142D
331
1651
  5
16CB
331
142F
  5
1438
331
FEC
  5
FF4
331
FB5
  5
FB7
331
14A5
  5
156D
331
178D
  5
17BE
331
FA9
  5
FAA
331
16CC
  5
178A
331
F71
  5
F73
331
FAD
  5
FB1
331
F75
  5
FA8
331
146E
  5
1470
331
1419
  5
FEC
331
1462
  5
1464
331
141D
  5
141F
331
107B
  5
1159
331
1870
  5
18E5
331
1415
  5
FEF
331
1493
  5
1555
331
1AAA
  5
1416
331
1473
  5
1493
331
FDC
  5
FDC
331
1438
  5
143A
331
156D
  5
161F
331
143C
  5
1463
331
17D6
  5
1806
331
1652
  5
16CC
331
FF1
  5
107E
331
FE9
  5
FF1
331
178A
  5
178C
331
FB6
  5
FDB
331
142C
  5
142E
331
FED
  5
FF5
331
1637
  5
1652
331
FAA
  5
FAB
331
FAE
  5
FB3
331
F72
  5
F76
331
161F
  5
1651
331
F76
  5
F75
331
141A
  5
141C
331
146F
  5
1471
331
1924
  5
1A5B
331
1463
  5
1465
331
141E
  5
1421
331
1555
  5
1581
331
1467
  5
146D
331
FE1
  5
FEB
331
1416
  5
FF6
331
107C
  5
141A
331
1888
  5
18FA
331
1AAB
  5
108A
331
17A5
  5
17D6
331
1806
  5
1840
331
FDD
  5
FDE
331
1470
  5
1472
331
1439
  5
143B
331
16DC
  5
178B
331
1474
  5
14A5
331
18FA
  5
1924
331
FF2
  5
107D
331
1858
  5
1888
331
669
  5
669
331
FEA
  5
FF2
331
17BE
  5
17EE
331
FEE
  5
FF7
331
FB7
  5
FDD
331
142D
  5
142F
331
178B
  5
178D
331
FAB
  5
FAC
331
1421
  5
142A
331
FAF
  5
FB5
331
F73
  5
F72
331
1581
  5
1637
331
141B
  5
141D
331
F6F
  5
F6F
  0
SORTENTSTABLE
  5
16C4
102
{ACAD_REACTORS
330
16C3
102
}
330
16C3
100
AcDbSortentsTable
330
16AF
331
16B2
  5
16B3
331
16B3
  5
16B2
  0
SORTENTSTABLE
  5
1A53
102
{ACAD_REACTORS
330
1A52
102
}
330
1A52
100
AcDbSortentsTable
330
1A32
331
1A43
  5
1A3C
331
1A3C
  5
1A35
331
1A3D
  5
1A36
331
1A41
  5
1A3F
331
1A36
  5
1A3B
331
1A37
  5
1A3A
331
1A35
  5
1A37
331
1A3A
  5
1A41
331
1A3B
  5
1A42
331
1A3E
  5
1A3D
331
1A42
  5
1A43
331
1A3F
  5
1A3E
  0
DIMASSOC
  5
1158
102
{ACAD_REACTORS
330
114E
102
}
330
114E
100
AcDbDimAssoc
330
1141
 90
        1
 70
     0
 71
     0
  1
AcDbOsnapPointRef
 72
     2
331
FEE
 73
     2
 91
        0
 40
1.570796326794895
 10
0.0
 20
0.0
 30
0.0
 75
     0
  0
DIMASSOC
  5
14A4
102
{ACAD_REACTORS
330
149D
102
}
330
149D
100
AcDbDimAssoc
330
1493
 90
        2
 70
     0
 71
     0
  1
AcDbOsnapPointRef
 72
     3
331
1416
 73
     2
 91
        0
 40
0.0
 10
0.0
 20
0.0
 30
0.0
 75
     0
  0
DIMASSOC
  5
14BC
102
{ACAD_REACTORS
330
14B2
102
}
330
14B2
100
AcDbDimAssoc
330
14A5
 90
       15
 70
     0
 71
     0
  1
AcDbOsnapPointRef
 72
    13
331
141B
 73
     2
 91
        0
 40
0.0
 10
0.0
 20
0.0
 30
2.000000000000000E+50
 75
     0
  1
AcDbOsnapPointRef
 72
     1
331
141B
 73
     2
 91
        0
 40
0.9999999999999998
 10
0.0
 20
0.0
 30
2.000000000000000E+50
 75
     0
  1
AcDbOsnapPointRef
 72
    13
331
FED
 73
     2
 91
        0
 40
0.0
 10
0.0
 20
0.0
 30
2.000000000000000E+50
 75
     0
  1
AcDbOsnapPointRef
 72
     1
331
FED
 73
     2
 91
        0
 40
1.0
 10
0.0
 20
0.0
 30
2.000000000000000E+50
 75
     0
  0
DIMASSOC
  5
156C
102
{ACAD_REACTORS
330
1562
102
}
330
1562
100
AcDbDimAssoc
330
1555
 90
       15
 70
     0
 71
     0
  1
AcDbOsnapPointRef
 72
    13
331
FE9
 73
     2
 91
        0
 40
0.0
 10
0.0
 20
0.0
 30
2.000000000000000E+50
 75
     0
  1
AcDbOsnapPointRef
 72
     1
331
FE9
 73
     2
 91
        0
 40
0.9999999999999998
 10
0.0
 20
0.0
 30
2.000000000000000E+50
 75
     0
  1
AcDbOsnapPointRef
 72
    13
331
141A
 73
     2
 91
        0
 40
0.0
 10
0.0
 20
0.0
 30
2.000000000000000E+50
 75
     0
  1
AcDbOsnapPointRef
 72
     1
331
141A
 73
     2
 91
        0
 40
1.0
 10
0.0
 20
0.0
 30
2.000000000000000E+50
 75
     0
  0
DIMASSOC
  5
157E
102
{ACAD_REACTORS
330
1577
102
}
330
1577
100
AcDbDimAssoc
330
156D
 90
        2
 70
     0
 71
     0
  1
AcDbOsnapPointRef
 72
     3
331
FF4
 73
     2
 91
        0
 40
0.0
 10
0.0
 20
0.0
 30
0.0
 75
     0
  0
DIMASSOC
  5
159E
102
{ACAD_REACTORS
330
1591
102
}
330
1591
100
AcDbDimAssoc
330
1581
 90
        3
 70
     0
 71
     0
  1
AcDbOsnapPointRef
 72
    13
331
1471
 73
     2
 91
        0
 40
0.0
 10
0.0
 20
0.0
 30
2.000000000000000E+50
 75
     0
  1
AcDbOsnapPointRef
 72
     1
331
1472
 73
     2
 91
        0
 40
0.9999999999999998
 10
0.0
 20
0.0
 30
2.000000000000000E+50
 75
     0
  0
DIMASSOC
  5
1636
102
{ACAD_REACTORS
330
162C
102
}
330
162C
100
AcDbDimAssoc
330
161F
 90
        3
 70
     0
 71
     0
  1
AcDbOsnapPointRef
 72
    13
331
1472
 73
     2
 91
        0
 40
0.0
 10
0.0
 20
0.0
 30
2.000000000000000E+50
 75
     0
  1
AcDbOsnapPointRef
 72
     6
331
1470
 73
     2
 91
        0
 40
0.000000000000123
 10
0.0
 20
0.0
 30
0.0
332
146D
 74
     2
 92
        0
 75
     0
  0
DIMASSOC
  5
164E
102
{ACAD_REACTORS
330
1644
102
}
330
1644
100
AcDbDimAssoc
330
1637
 90
        3
 70
     0
 71
     0
  1
AcDbOsnapPointRef
 72
     6
331
1471
 73
     2
 91
        0
 40
0.0000000000000282
 10
0.0
 20
0.0
 30
0.0
332
1469
 74
     2
 92
        0
 75
     0
  1
AcDbOsnapPointRef
 72
    13
331
146F
 73
     2
 91
        0
 40
0.0
 10
0.0
 20
0.0
 30
2.000000000000000E+50
 75
     0
  0
DIMASSOC
  5
16DB
102
{ACAD_REACTORS
330
16D5
102
}
330
16D5
100
AcDbDimAssoc
330
16CC
 90
        2
 70
     0
 71
     0
  1
AcDbOsnapPointRef
 72
     3
331
FEF
 73
     2
 91
        0
 40
0.0
 10
0.0
 20
0.0
 30
0.0
 75
     0
  0
DIMASSOC
  5
17A4
102
{ACAD_REACTORS
330
179A
102
}
330
179A
100
AcDbDimAssoc
330
178D
 90
        3
 70
     0
 71
     0
  1
AcDbOsnapPointRef
 72
     2
331
F71
 73
     2
 91
        0
 40
1.570796323718116
 10
0.0
 20
0.0
 30
0.0
 75
     0
  1
AcDbOsnapPointRef
 72
     2
331
F6F
 73
     2
 91
        0
 40
4.712388977307912
 10
0.0
 20
0.0
 30
0.0
 75
     0
  0
DIMASSOC
  5
17BC
102
{ACAD_REACTORS
330
17B2
102
}
330
17B2
100
AcDbDimAssoc
330
17A5
 90
        1
 70
     0
 71
     0
  1
AcDbOsnapPointRef
 72
     1
331
FDE
 73
     2
 91
        0
 40
0.9999999999999998
 10
0.0
 20
0.0
 30
2.000000000000000E+50
 75
     0
  0
DIMASSOC
  5
17D5
102
{ACAD_REACTORS
330
17CB
102
}
330
17CB
100
AcDbDimAssoc
330
17BE
 90
        3
 70
     0
 71
     0
  1
AcDbOsnapPointRef
 72
     1
331
FDC
 73
     2
 91
        0
 40
0.9999999999999998
 10
0.0
 20
0.0
 30
2.000000000000000E+50
 75
     0
  1
AcDbOsnapPointRef
 72
     1
331
FDA
 73
     2
 91
        0
 40
1.0
 10
0.0
 20
0.0
 30
2.000000000000000E+50
 75
     0
  0
DIMASSOC
  5
17ED
102
{ACAD_REACTORS
330
17E3
102
}
330
17E3
100
AcDbDimAssoc
330
17D6
 90
        3
 70
     0
 71
     0
  1
AcDbOsnapPointRef
 72
     1
331
FDA
 73
     2
 91
        0
 40
1.0
 10
0.0
 20
0.0
 30
2.000000000000000E+50
 75
     0
  1
AcDbOsnapPointRef
 72
     1
331
FDB
 73
     2
 91
        0
 40
0.9999999999999998
 10
0.0
 20
0.0
 30
2.000000000000000E+50
 75
     0
  0
DIMASSOC
  5
1805
102
{ACAD_REACTORS
330
17FB
102
}
330
17FB
100
AcDbDimAssoc
330
17EE
 90
        3
 70
     0
 71
     0
  1
AcDbOsnapPointRef
 72
     1
331
FDB
 73
     2
 91
        0
 40
0.9999999999999998
 10
0.0
 20
0.0
 30
2.000000000000000E+50
 75
     0
  1
AcDbOsnapPointRef
 72
    13
331
FDB
 73
     2
 91
        0
 40
0.0
 10
0.0
 20
0.0
 30
2.000000000000000E+50
 75
     0
  0
DIMASSOC
  5
181D
102
{ACAD_REACTORS
330
1813
102
}
330
1813
100
AcDbDimAssoc
330
1806
 90
        3
 70
     0
 71
     0
  1
AcDbOsnapPointRef
 72
     2
331
F72
 73
     2
 91
        0
 40
3.141592653589792
 10
0.0
 20
0.0
 30
0.0
 75
     0
  1
AcDbOsnapPointRef
 72
     2
331
F70
 73
     2
 91
        0
 40
6.283185176776632
 10
0.0
 20
0.0
 30
0.0
 75
     0
  0
DIMASSOC
  5
183F
102
{ACAD_REACTORS
330
1830
102
}
330
1830
100
AcDbDimAssoc
330
181E
 90
        3
 70
     0
 71
     0
  1
AcDbOsnapPointRef
 72
     2
331
F70
 73
     2
 91
        0
 40
6.283185176776632
 10
0.0
 20
0.0
 30
0.0
 75
     0
  1
AcDbOsnapPointRef
 72
     2
331
FAE
 73
     2
 91
        0
 40
3.141592653589792
 10
0.0
 20
0.0
 30
0.0
 75
     0
  0
DIMASSOC
  5
1857
102
{ACAD_REACTORS
330
184D
102
}
330
184D
100
AcDbDimAssoc
330
1840
 90
        3
 70
     0
 71
     0
  1
AcDbOsnapPointRef
 72
     2
331
FAE
 73
     2
 91
        0
 40
3.141592653589792
 10
0.0
 20
0.0
 30
0.0
 75
     0
  1
AcDbOsnapPointRef
 72
     2
331
FAA
 73
     2
 91
        0
 40
6.283185176776632
 10
0.0
 20
0.0
 30
0.0
 75
     0
  0
DIMASSOC
  5
186F
102
{ACAD_REACTORS
330
1865
102
}
330
1865
100
AcDbDimAssoc
330
1858
 90
        3
 70
     0
 71
     0
  1
AcDbOsnapPointRef
 72
     1
331
FDD
 73
     2
 91
        0
 40
0.9999999999999998
 10
0.0
 20
0.0
 30
2.000000000000000E+50
 75
     0
  1
AcDbOsnapPointRef
 72
    13
331
FDD
 73
     2
 91
        0
 40
0.0
 10
0.0
 20
0.0
 30
2.000000000000000E+50
 75
     0
  0
DIMASSOC
  5
1887
102
{ACAD_REACTORS
330
187D
102
}
330
187D
100
AcDbDimAssoc
330
1870
 90
        1
 70
     0
 71
     0
  1
AcDbOsnapPointRef
 72
    13
331
FDD
 73
     2
 91
        0
 40
0.0
 10
0.0
 20
0.0
 30
2.000000000000000E+50
 75
     0
  0
DIMASSOC
  5
18F4
102
{ACAD_REACTORS
330
18EE
102
}
330
18EE
100
AcDbDimAssoc
330
18E5
 90
        2
 70
     0
 71
     0
  1
AcDbOsnapPointRef
 72
     3
331
F6F
 73
     2
 91
        0
 40
0.0
 10
0.0
 20
0.0
 30
0.0
 75
     0
  0
DIMASSOC
  5
1923
102
{ACAD_REACTORS
330
191D
102
}
330
191D
100
AcDbDimAssoc
330
1914
 90
        2
 70
     0
 71
     0
  1
AcDbOsnapPointRef
 72
     3
331
FA8
 73
     2
 91
        0
 40
0.0
 10
0.0
 20
0.0
 30
0.0
 75
     0
  0
DIMASSOC
  5
1933
102
{ACAD_REACTORS
330
192D
102
}
330
192D
100
AcDbDimAssoc
330
1924
 90
        2
 70
     0
 71
     0
  1
AcDbOsnapPointRef
 72
     3
331
FAB
 73
     2
 91
        0
 40
0.0
 10
0.0
 20
0.0
 30
0.0
 75
     0
  0
DIMASSOC
  5
1AA9
102
{ACAD_REACTORS
330
1A9F
102
}
330
1A9F
100
AcDbDimAssoc
330
1A92
 90
        1
 70
     0
 71
     0
  1
AcDbOsnapPointRef
 72
    13
331
107B
 73
     2
 91
        0
 40
0.0
 10
0.0
 20
0.0
 30
2.000000000000000E+50
 75
     0
  0
DIMASSOC
  5
1ACC
102
{ACAD_REACTORS
330
1AC2
102
}
330
1AC2
100
AcDbDimAssoc
330
1AB5
 90
        2
 70
     0
 71
     0
  1
AcDbOsnapPointRef
 72
     3
331
141D
 73
     2
 91
        0
 40
0.0
 10
0.0
 20
0.0
 30
0.0
 75
     0
  0
DIMASSOC
  5
1AE4
102
{ACAD_REACTORS
330
1ADA
102
}
330
1ADA
100
AcDbDimAssoc
330
1ACD
 90
        2
 70
     0
 71
     0
  1
AcDbOsnapPointRef
 72
     3
331
141C
 73
     2
 91
        0
 40
0.0
 10
0.0
 20
0.0
 30
0.0
 75
     0
  0
ACDBDETAILVIEWSTYLE
  5
1B3B
102
{ACAD_REACTORS
330
1B3A
102
}
330
1B3A
100
AcDbModelDocViewStyle
 70
     0
  3
Metric50
290
     1
300
Metric50
 90
        0
100
AcDbDetailViewStyle
 70
     0
 71
     0
 90
        3
 71
     1
340
11
 62
   256
 40
5.0
340
0
 62
   256
 40
5.0
300

 40
0.0
280
     1
 71
     2
340
16
 90
       25
 62
   256
 71
     3
340
11
 62
   256
 40
5.0
 90
        0
 40
15.0
 90
        1
300
%<\AcVar ViewDetailId>% (%<\AcVar ViewScale \f "%sn">%)
 71
     4
340
16
 90
       25
 62
   256
340
16
 90
       25
 62
   256
280
     0
  0
LAYOUT
  5
22
102
{ACAD_XDICTIONARY
360
1E12
102
}
102
{ACAD_REACTORS
330
1A
102
}
330
1A
100
AcDbPlotSettings
  1

  2
SHARP AR-158
  4
A4
  6

 40
5.111750125885009
 41
5.11176061630249
 42
5.111740112304687
 43
5.11175537109375
 44
210.0579986572266
 45
296.9259948730469
 46
5.25
 47
-18.57
 48
0.0
 49
0.0
140
0.0
141
0.0
142
1.0
143
6.0
 70
 11940
 72
     1
 73
     1
 74
     0
  7

 75
     0
147
0.1666666666666666
 76
     0
 77
     2
 78
   300
148
-32.93153940573302
149
-97.08070154653524
100
AcDbLayout
  1
Model
 70
     1
 71
     0
 10
0.0
 20
0.0
 11
12.0
 21
9.0
 12
0.0
 22
0.0
 32
0.0
 14
0.0
 24
0.0
 34
0.0
 15
0.0
 25
0.0
 35
0.0
146
0.0
 13
0.0
 23
0.0
 33
0.0
 16
1.0
 26
0.0
 36
0.0
 17
0.0
 27
1.0
 37
0.0
 76
     0
330
1F
331
1AF0
  0
LAYOUT
  5
51
102
{ACAD_REACTORS
330
1A
102
}
330
1A
100
AcDbPlotSettings
  1

  2
None
  4

  6

 40
0.0
 41
0.0
 42
0.0
 43
0.0
 44
0.0
 45
0.0
 46
0.0
 47
0.0
 48
0.0
 49
0.0
140
0.0
141
0.0
142
1.0
143
1.0
 70
   688
 72
     0
 73
     0
 74
     5
  7

 75
    16
147
1.0
 76
     0
 77
     2
 78
   300
148
0.0
149
0.0
100
AcDbLayout
  1
布局1
 70
     1
 71
     1
 10
0.0
 20
0.0
 11
12.0
 21
9.0
 12
0.0
 22
0.0
 32
0.0
 14
0.0
 24
0.0
 34
0.0
 15
0.0
 25
0.0
 35
0.0
146
0.0
 13
0.0
 23
0.0
 33
0.0
 16
1.0
 26
0.0
 36
0.0
 17
0.0
 27
1.0
 37
0.0
 76
     0
330
50
1001
AcadStringInfo
1000
MIFCodePage
1070
     5
  0
LAYOUT
  5
56
102
{ACAD_REACTORS
330
1A
102
}
330
1A
100
AcDbPlotSettings
  1

  2
None
  4

  6

 40
0.0
 41
0.0
 42
0.0
 43
0.0
 44
0.0
 45
0.0
 46
0.0
 47
0.0
 48
0.0
 49
0.0
140
0.0
141
0.0
142
1.0
143
1.0
 70
   688
 72
     0
 73
     0
 74
     5
  7

 75
    16
147
1.0
 76
     0
 77
     2
 78
   300
148
0.0
149
0.0
100
AcDbLayout
  1
布局2
 70
     1
 71
     2
 10
0.0
 20
0.0
 11
12.0
 21
9.0
 12
0.0
 22
0.0
 32
0.0
 14
0.0
 24
0.0
 34
0.0
 15
0.0
 25
0.0
 35
0.0
146
0.0
 13
0.0
 23
0.0
 33
0.0
 16
1.0
 26
0.0
 36
0.0
 17
0.0
 27
1.0
 37
0.0
 76
     0
330
55
1001
AcadStringInfo
1000
MIFCodePage
1070
     5
  0
MATERIAL
  5
1AFA
102
{ACAD_XDICTIONARY
360
1AFB
102
}
102
{ACAD_REACTORS
330
DE6
102
}
330
DE6
100
AcDbMaterial
  1
ByBlock
 72
     0
 43
0.0008202099737533
 43
0.0
 43
0.0
 43
0.0
 43
0.0
 43
0.0008202099737533
 43
0.0
 43
0.0
 43
0.0
 43
0.0
 43
1.0
 43
0.0
 43
0.0
 43
0.0
 43
0.0
 43
1.0
 77
     0
 47
0.0008202099737533
 47
0.0
 47
0.0
 47
0.0
 47
0.0
 47
0.0008202099737533
 47
0.0
 47
0.0
 47
0.0
 47
0.0
 47
1.0
 47
0.0
 47
0.0
 47
0.0
 47
0.0
 47
1.0
171
     0
 49
0.0008202099737533
 49
0.0
 49
0.0
 49
0.0
 49
0.0
 49
0.0008202099737533
 49
0.0
 49
0.0
 49
0.0
 49
0.0
 49
1.0
 49
0.0
 49
0.0
 49
0.0
 49
0.0
 49
1.0
175
     0
142
0.0008202099737533
142
0.0
142
0.0
142
0.0
142
0.0
142
0.0008202099737533
142
0.0
142
0.0
142
0.0
142
0.0
142
1.0
142
0.0
142
0.0
142
0.0
142
0.0
142
1.0
179
     0
144
0.0008202099737533
144
0.0
144
0.0
144
0.0
144
0.0
144
0.0008202099737533
144
0.0
144
0.0
144
0.0
144
0.0
144
1.0
144
0.0
144
0.0
144
0.0
144
0.0
144
1.0
147
0.0008202099737533
147
0.0
147
0.0
147
0.0
147
0.0
147
0.0008202099737533
147
0.0
147
0.0
147
0.0
147
0.0
147
1.0
147
0.0
147
0.0
147
0.0
147
0.0
147
1.0
  0
MATERIAL
  5
1AF2
102
{ACAD_XDICTIONARY
360
1AF3
102
}
102
{ACAD_REACTORS
330
DE6
102
}
330
DE6
100
AcDbMaterial
  1
ByLayer
 72
     0
 43
0.0008202099737533
 43
0.0
 43
0.0
 43
0.0
 43
0.0
 43
0.0008202099737533
 43
0.0
 43
0.0
 43
0.0
 43
0.0
 43
1.0
 43
0.0
 43
0.0
 43
0.0
 43
0.0
 43
1.0
 77
     0
 47
0.0008202099737533
 47
0.0
 47
0.0
 47
0.0
 47
0.0
 47
0.0008202099737533
 47
0.0
 47
0.0
 47
0.0
 47
0.0
 47
1.0
 47
0.0
 47
0.0
 47
0.0
 47
0.0
 47
1.0
171
     0
 49
0.0008202099737533
 49
0.0
 49
0.0
 49
0.0
 49
0.0
 49
0.0008202099737533
 49
0.0
 49
0.0
 49
0.0
 49
0.0
 49
1.0
 49
0.0
 49
0.0
 49
0.0
 49
0.0
 49
1.0
175
     0
142
0.0008202099737533
142
0.0
142
0.0
142
0.0
142
0.0
142
0.0008202099737533
142
0.0
142
0.0
142
0.0
142
0.0
142
1.0
142
0.0
142
0.0
142
0.0
142
0.0
142
1.0
179
     0
144
0.0008202099737533
144
0.0
144
0.0
144
0.0
144
0.0
144
0.0008202099737533
144
0.0
144
0.0
144
0.0
144
0.0
144
1.0
144
0.0
144
0.0
144
0.0
144
0.0
144
1.0
147
0.0008202099737533
147
0.0
147
0.0
147
0.0
147
0.0
147
0.0008202099737533
147
0.0
147
0.0
147
0.0
147
0.0
147
1.0
147
0.0
147
0.0
147
0.0
147
0.0
147
1.0
  0
MATERIAL
  5
1B02
102
{ACAD_XDICTIONARY
360
1B03
102
}
102
{ACAD_REACTORS
330
DE6
102
}
330
DE6
100
AcDbMaterial
  1
Global
 72
     0
 43
0.0008202099737533
 43
0.0
 43
0.0
 43
0.0
 43
0.0
 43
0.0008202099737533
 43
0.0
 43
0.0
 43
0.0
 43
0.0
 43
1.0
 43
0.0
 43
0.0
 43
0.0
 43
0.0
 43
1.0
 77
     0
 47
0.0008202099737533
 47
0.0
 47
0.0
 47
0.0
 47
0.0
 47
0.0008202099737533
 47
0.0
 47
0.0
 47
0.0
 47
0.0
 47
1.0
 47
0.0
 47
0.0
 47
0.0
 47
0.0
 47
1.0
171
     0
 49
0.0008202099737533
 49
0.0
 49
0.0
 49
0.0
 49
0.0
 49
0.0008202099737533
 49
0.0
 49
0.0
 49
0.0
 49
0.0
 49
1.0
 49
0.0
 49
0.0
 49
0.0
 49
0.0
 49
1.0
175
     0
142
0.0008202099737533
142
0.0
142
0.0
142
0.0
142
0.0
142
0.0008202099737533
142
0.0
142
0.0
142
0.0
142
0.0
142
1.0
142
0.0
142
0.0
142
0.0
142
0.0
142
1.0
179
     0
144
0.0008202099737533
144
0.0
144
0.0
144
0.0
144
0.0
144
0.0008202099737533
144
0.0
144
0.0
144
0.0
144
0.0
144
1.0
144
0.0
144
0.0
144
0.0
144
0.0
144
1.0
147
0.0008202099737533
147
0.0
147
0.0
147
0.0
147
0.0
147
0.0008202099737533
147
0.0
147
0.0
147
0.0
147
0.0
147
1.0
147
0.0
147
0.0
147
0.0
147
0.0
147
1.0
  0
MLEADERSTYLE
  5
1B37
102
{ACAD_REACTORS
330
1B36
102
}
330
1B36
100
AcDbMLeaderStyle
179
     2
170
     2
171
     1
172
     0
 90
        2
 40
0.0
 41
0.0
173
     1
 91
-1056964608
340
14
 92
       -2
290
     1
 42
2.0
291
     1
 43
0.36
  3
Standard
 44
4.0
300

342
11
174
     1
178
     6
175
     1
176
     0
 93
-1056964608
 45
4.0
292
     0
297
     0
 46
4.0
 94
-1056964608
 47
1.0
 49
1.0
140
1.0
293
     1
141
0.0
294
     1
177
     0
142
1.0
295
     1
296
     0
143
0.125
271
     0
272
     9
273
     9
298
     1
  0
MLINESTYLE
  5
18
102
{ACAD_REACTORS
330
17
102
}
330
17
100
AcDbMlineStyle
  2
STANDARD
 70
     0
  3

 62
   256
 51
90.0
 52
90.0
 71
     2
 49
0.5
 62
   256
  6
BYLAYER
 49
-0.5
 62
   256
  6
BYLAYER
  0
ACDBPLACEHOLDER
  5
F
102
{ACAD_REACTORS
330
E
102
}
330
E
  0
SCALE
  5
1B25
102
{ACAD_REACTORS
330
1B24
102
}
330
1B24
100
AcDbScale
 70
     0
300
1:1
140
1.0
141
1.0
290
     1
  0
SCALE
  5
1B26
102
{ACAD_REACTORS
330
1B24
102
}
330
1B24
100
AcDbScale
 70
     0
300
1:2
140
1.0
141
2.0
290
     0
  0
SCALE
  5
1B27
102
{ACAD_REACTORS
330
1B24
102
}
330
1B24
100
AcDbScale
 70
     0
300
1:4
140
1.0
141
4.0
290
     0
  0
SCALE
  5
1B28
102
{ACAD_REACTORS
330
1B24
102
}
330
1B24
100
AcDbScale
 70
     0
300
1:5
140
1.0
141
5.0
290
     0
  0
SCALE
  5
1B29
102
{ACAD_REACTORS
330
1B24
102
}
330
1B24
100
AcDbScale
 70
     0
300
1:8
140
1.0
141
8.0
290
     0
  0
SCALE
  5
1B2A
102
{ACAD_REACTORS
330
1B24
102
}
330
1B24
100
AcDbScale
 70
     0
300
1:10
140
1.0
141
10.0
290
     0
  0
SCALE
  5
1B2B
102
{ACAD_REACTORS
330
1B24
102
}
330
1B24
100
AcDbScale
 70
     0
300
1:16
140
1.0
141
16.0
290
     0
  0
SCALE
  5
1B2C
102
{ACAD_REACTORS
330
1B24
102
}
330
1B24
100
AcDbScale
 70
     0
300
1:20
140
1.0
141
20.0
290
     0
  0
SCALE
  5
1B2D
102
{ACAD_REACTORS
330
1B24
102
}
330
1B24
100
AcDbScale
 70
     0
300
1:30
140
1.0
141
30.0
290
     0
  0
SCALE
  5
1B2E
102
{ACAD_REACTORS
330
1B24
102
}
330
1B24
100
AcDbScale
 70
     0
300
1:40
140
1.0
141
40.0
290
     0
  0
SCALE
  5
1B2F
102
{ACAD_REACTORS
330
1B24
102
}
330
1B24
100
AcDbScale
 70
     0
300
1:50
140
1.0
141
50.0
290
     0
  0
SCALE
  5
1B30
102
{ACAD_REACTORS
330
1B24
102
}
330
1B24
100
AcDbScale
 70
     0
300
1:100
140
1.0
141
100.0
290
     0
  0
SCALE
  5
1B31
102
{ACAD_REACTORS
330
1B24
102
}
330
1B24
100
AcDbScale
 70
     0
300
2:1
140
2.0
141
1.0
290
     0
  0
SCALE
  5
1B32
102
{ACAD_REACTORS
330
1B24
102
}
330
1B24
100
AcDbScale
 70
     0
300
4:1
140
4.0
141
1.0
290
     0
  0
SCALE
  5
1B33
102
{ACAD_REACTORS
330
1B24
102
}
330
1B24
100
AcDbScale
 70
     0
300
8:1
140
8.0
141
1.0
290
     0
  0
SCALE
  5
1B34
102
{ACAD_REACTORS
330
1B24
102
}
330
1B24
100
AcDbScale
 70
     0
300
10:1
140
10.0
141
1.0
290
     0
  0
SCALE
  5
1B35
102
{ACAD_REACTORS
330
1B24
102
}
330
1B24
100
AcDbScale
 70
     0
300
100:1
140
100.0
141
1.0
290
     0
  0
ACDBSECTIONVIEWSTYLE
  5
1B39
102
{ACAD_REACTORS
330
1B38
102
}
330
1B38
100
AcDbModelDocViewStyle
 70
     0
  3
Metric50
290
     1
300
Metric50
 90
        0
100
AcDbSectionViewStyle
 70
     0
 71
     0
 90
      102
 71
     1
340
11
 62
   256
 40
5.0
340
0
340
0
 62
   256
 40
5.0
300
I, O, Q, S, X, Z
 40
10.0
 90
        0
 40
2.5
 90
        0
 71
     2
340
16
 90
       25
 62
   256
340
16
 90
       50
 62
   256
 40
5.0
 40
2.5
 40
5.0
 71
     3
340
11
 62
   256
 40
5.0
 90
        0
 40
15.0
 90
        1
300
%<\AcVar ViewSectionStartId>%-%<\AcVar ViewSectionEndId>% (%<\AcVar ViewScale \f "%sn">%)
 71
     4
 62
   256
 62
   257
300
ANSI31
 40
1.0
 90
        0
290
     0
290
     0
 90
        6
 40
0.0
 40
1.570796326794896
 40
0.2617993877991494
 40
1.308996938995747
 40
-0.2617993877991494
 40
1.832595714594046
  0
TABLESTYLE
  5
DE9
102
{ACAD_XDICTIONARY
360
1E1B
102
}
102
{ACAD_REACTORS
330
DE8
102
}
330
DE8
100
AcDbTableStyle
280
     0
  3
Standard
 70
     0
 71
     0
 40
1.5
 41
1.5
280
     0
281
     0
  7
Standard
140
4.5
170
     2
 62
     0
 63
     7
283
     0
 90
        4
 91
        0
  1

274
    -2
284
     1
 64
     0
275
    -2
285
     1
 65
     0
276
    -2
286
     1
 66
     0
277
    -2
287
     1
 67
     0
278
    -2
288
     1
 68
     0
279
    -2
289
     1
 69
     0
  7
Standard
140
6.0
170
     5
 62
     0
 63
     7
283
     0
 90
        4
 91
        0
  1

274
    -2
284
     1
 64
     0
275
    -2
285
     1
 65
     0
276
    -2
286
     1
 66
     0
277
    -2
287
     1
 67
     0
278
    -2
288
     1
 68
     0
279
    -2
289
     1
 69
     0
  7
Standard
140
4.5
170
     5
 62
     0
 63
     7
283
     0
 90
        4
 91
        0
  1

274
    -2
284
     1
 64
     0
275
    -2
285
     1
 65
     0
276
    -2
286
     1
 66
     0
277
    -2
287
     1
 67
     0
278
    -2
288
     1
 68
     0
279
    -2
289
     1
 69
     0
  0
VISUALSTYLE
  5
1B10
102
{ACAD_REACTORS
330
1B0A
102
}
330
1B0A
100
AcDbVisualStyle
  2
2dWireframe
 70
     4
177
     3
291
     0
 70
    58
 90
        0
176
     1
 90
        2
176
     1
 90
        0
176
     1
 90
        0
176
     1
 40
0.6
176
     1
 40
30.0
176
     1
 62
     7
420
 16777215
176
     1
 90
        1
176
     1
 90
        4
176
     1
 62
     7
176
     1
 62
   257
176
     1
 90
        1
176
     1
 90
        1
176
     1
 40
1.0
176
     1
 90
        0
176
     1
 62
   257
176
     1
 40
1.0
176
     1
 90
        1
176
     1
 90
        6
176
     1
 90
        2
176
     1
 62
     7
176
     1
 90
        5
176
     1
 90
        0
176
     1
 90
        0
176
     1
290
     0
176
     1
 90
        1
176
     1
 40
0.0
176
     1
 90
        0
176
     1
290
     1
176
     1
290
     1
176
     1
290
     0
176
     1
290
     0
176
     1
290
     0
176
     1
290
     0
176
     1
290
     0
176
     1
290
     0
176
     1
290
     0
176
     1
 90
       50
176
     1
 40
0.0
176
     1
 40
1.0
176
     1
 90
        0
176
     1
 62
    18
420
        0
176
     1
 90
       50
176
     1
 90
        3
176
     1
 62
     5
420
      255
176
     1
290
     0
176
     1
 90
       50
176
     1
 90
       50
176
     1
 90
       50
176
     1
290
     0
176
     1
 90
       50
176
     1
 62
   256
176
     0
 40
1.0
176
     0
 90
        2
176
     1
  1
strokes_ogs.tif
176
     1
290
     0
176
     1
 40
1.0
176
     1
 40
1.0
176
     1
  0
VISUALSTYLE
  5
1B0F
102
{ACAD_REACTORS
330
1B0A
102
}
330
1B0A
100
AcDbVisualStyle
  2
Basic
 70
     7
177
     3
291
     1
 70
    58
 90
        1
176
     1
 90
        0
176
     1
 90
        1
176
     1
 90
        0
176
     1
 40
0.6
176
     1
 40
30.0
176
     1
 62
     7
420
 16777215
176
     1
 90
        0
176
     1
 90
        4
176
     1
 62
     7
176
     1
 62
   257
176
     1
 90
        1
176
     1
 90
        1
176
     1
 40
1.0
176
     1
 90
        8
176
     1
 62
     7
176
     1
 40
1.0
176
     1
 90
        1
176
     1
 90
        6
176
     1
 90
        2
176
     1
 62
     7
176
     1
 90
        5
176
     1
 90
        0
176
     1
 90
        0
176
     1
290
     0
176
     1
 90
        1
176
     1
 40
0.0
176
     1
 90
        0
176
     1
290
     0
176
     1
290
     1
176
     1
290
     1
176
     1
290
     0
176
     1
290
     0
176
     1
290
     0
176
     1
290
     0
176
     1
290
     0
176
     1
290
     0
176
     1
 90
       50
176
     1
 40
0.0
176
     1
 40
1.0
176
     1
 90
        0
176
     1
 62
    18
420
        0
176
     1
 90
       50
176
     1
 90
        3
176
     1
 62
     5
420
      255
176
     1
290
     0
176
     1
 90
       50
176
     1
 90
       50
176
     1
 90
       50
176
     1
290
     0
176
     1
 90
       50
176
     1
 62
   256
176
     0
 40
1.0
176
     0
 90
        2
176
     1
  1
strokes_ogs.tif
176
     1
290
     0
176
     1
 40
1.0
176
     1
 40
1.0
176
     1
  0
VISUALSTYLE
  5
1B16
102
{ACAD_REACTORS
330
1B0A
102
}
330
1B0A
100
AcDbVisualStyle
  2
Brighten
 70
    12
177
     3
291
     1
 70
    58
 90
        2
176
     1
 90
        2
176
     1
 90
        0
176
     1
 90
        0
176
     1
 40
0.6
176
     1
 40
30.0
176
     1
 62
     7
420
 16777215
176
     1
 90
        1
176
     1
 90
        4
176
     1
 62
     7
176
     1
 62
   257
176
     1
 90
        1
176
     1
 90
        1
176
     1
 40
1.0
176
     1
 90
        8
176
     1
 62
     7
176
     1
 40
1.0
176
     1
 90
        1
176
     1
 90
        6
176
     1
 90
        2
176
     1
 62
     7
176
     1
 90
        5
176
     1
 90
        0
176
     1
 90
        0
176
     1
290
     0
176
     1
 90
        1
176
     1
 40
50.0
176
     1
 90
        0
176
     1
290
     0
176
     1
290
     1
176
     1
290
     1
176
     1
290
     0
176
     1
290
     0
176
     1
290
     0
176
     1
290
     0
176
     1
290
     0
176
     1
290
     0
176
     1
 90
       50
176
     1
 40
0.0
176
     1
 40
1.0
176
     1
 90
        0
176
     1
 62
    18
420
        0
176
     1
 90
       50
176
     1
 90
        3
176
     1
 62
     5
420
      255
176
     1
290
     0
176
     1
 90
       50
176
     1
 90
       50
176
     1
 90
       50
176
     1
290
     0
176
     1
 90
       50
176
     1
 62
   256
176
     0
 40
1.0
176
     0
 90
        2
176
     1
  1
strokes_ogs.tif
176
     1
290
     0
176
     1
 40
1.0
176
     1
 40
1.0
176
     1
  0
VISUALSTYLE
  5
1B1A
102
{ACAD_REACTORS
330
1B0A
102
}
330
1B0A
100
AcDbVisualStyle
  2
ColorChange
 70
    16
177
     3
291
     1
 70
    58
 90
        2
176
     1
 90
        2
176
     1
 90
        3
176
     1
 90
        0
176
     1
 40
0.6
176
     1
 40
30.0
176
     1
 62
     8
420
  8421504
176
     1
 90
        1
176
     1
 90
        4
176
     1
 62
     7
176
     1
 62
   257
176
     1
 90
        1
176
     1
 90
        1
176
     1
 40
1.0
176
     1
 90
        8
176
     1
 62
     8
420
  8421504
176
     1
 40
1.0
176
     1
 90
        1
176
     1
 90
        6
176
     1
 90
        2
176
     1
 62
     7
176
     1
 90
        5
176
     1
 90
        0
176
     1
 90
        0
176
     1
290
     0
176
     1
 90
        1
176
     1
 40
0.0
176
     1
 90
        0
176
     1
290
     0
176
     1
290
     1
176
     1
290
     1
176
     1
290
     0
176
     1
290
     0
176
     1
290
     0
176
     1
290
     0
176
     1
290
     0
176
     1
290
     0
176
     1
 90
       50
176
     1
 40
0.0
176
     1
 40
1.0
176
     1
 90
        0
176
     1
 62
    18
420
        0
176
     1
 90
       50
176
     1
 90
        3
176
     1
 62
     5
420
      255
176
     1
290
     0
176
     1
 90
       50
176
     1
 90
       50
176
     1
 90
       50
176
     1
290
     0
176
     1
 90
       50
176
     1
 62
   256
176
     0
 40
1.0
176
     0
 90
        2
176
     1
  1
strokes_ogs.tif
176
     1
290
     0
176
     1
 40
1.0
176
     1
 40
1.0
176
     1
  0
VISUALSTYLE
  5
1B13
102
{ACAD_REACTORS
330
1B0A
102
}
330
1B0A
100
AcDbVisualStyle
  2
Conceptual
 70
     9
177
     3
291
     0
 70
    58
 90
        3
176
     1
 90
        2
176
     1
 90
        0
176
     1
 90
        0
176
     1
 40
0.6
176
     1
 40
30.0
176
     1
 62
     7
420
 16777215
176
     1
 90
        2
176
     1
 90
        2
176
     1
 62
     7
176
     1
 62
   257
176
     1
 90
        1
176
     1
 90
        1
176
     1
 40
179.0
176
     1
 90
        8
176
     1
 62
     7
176
     1
 40
1.0
176
     1
 90
        1
176
     1
 90
        6
176
     1
 90
        2
176
     1
 62
     7
176
     1
 90
        3
176
     1
 90
        0
176
     1
 90
        0
176
     1
290
     0
176
     1
 90
        1
176
     1
 40
0.0
176
     1
 90
        0
176
     1
290
     0
176
     1
290
     1
176
     1
290
     1
176
     1
290
     0
176
     1
290
     0
176
     1
290
     0
176
     1
290
     0
176
     1
290
     0
176
     1
290
     0
176
     1
 90
       50
176
     1
 40
0.0
176
     1
 40
1.0
176
     1
 90
        0
176
     1
 62
    18
420
        0
176
     1
 90
       50
176
     1
 90
        3
176
     1
 62
     5
420
      255
176
     1
290
     0
176
     1
 90
       50
176
     1
 90
       50
176
     1
 90
       50
176
     1
290
     0
176
     1
 90
       50
176
     1
 62
   256
176
     0
 40
1.0
176
     0
 90
        2
176
     1
  1
strokes_ogs.tif
176
     1
290
     0
176
     1
 40
1.0
176
     1
 40
1.0
176
     1
  0
VISUALSTYLE
  5
1B15
102
{ACAD_REACTORS
330
1B0A
102
}
330
1B0A
100
AcDbVisualStyle
  2
Dim
 70
    11
177
     3
291
     1
 70
    58
 90
        2
176
     1
 90
        2
176
     1
 90
        0
176
     1
 90
        0
176
     1
 40
0.6
176
     1
 40
30.0
176
     1
 62
     7
420
 16777215
176
     1
 90
        1
176
     1
 90
        4
176
     1
 62
     7
176
     1
 62
   257
176
     1
 90
        1
176
     1
 90
        1
176
     1
 40
1.0
176
     1
 90
        8
176
     1
 62
     7
176
     1
 40
1.0
176
     1
 90
        1
176
     1
 90
        6
176
     1
 90
        2
176
     1
 62
     7
176
     1
 90
        5
176
     1
 90
        0
176
     1
 90
        0
176
     1
290
     0
176
     1
 90
        1
176
     1
 40
-50.0
176
     1
 90
        0
176
     1
290
     0
176
     1
290
     1
176
     1
290
     1
176
     1
290
     0
176
     1
290
     0
176
     1
290
     0
176
     1
290
     0
176
     1
290
     0
176
     1
290
     0
176
     1
 90
       50
176
     1
 40
0.0
176
     1
 40
1.0
176
     1
 90
        0
176
     1
 62
    18
420
        0
176
     1
 90
       50
176
     1
 90
        3
176
     1
 62
     5
420
      255
176
     1
290
     0
176
     1
 90
       50
176
     1
 90
       50
176
     1
 90
       50
176
     1
290
     0
176
     1
 90
       50
176
     1
 62
   256
176
     0
 40
1.0
176
     0
 90
        2
176
     1
  1
strokes_ogs.tif
176
     1
290
     0
176
     1
 40
1.0
176
     1
 40
1.0
176
     1
  0
VISUALSTYLE
  5
1B22
102
{ACAD_REACTORS
330
1B0A
102
}
330
1B0A
100
AcDbVisualStyle
  2
EdgeColorOff
 70
    22
177
     3
291
     1
 70
    58
 90
        2
176
     0
 90
        2
176
     0
 90
        0
176
     0
 90
        0
176
     0
 40
0.6
176
     0
 40
30.0
176
     0
 62
     7
420
 16777215
176
     0
 90
        1
176
     0
 90
        4
176
     0
 62
     7
176
     0
 62
   257
176
     0
 90
        1
176
     0
 90
        1
176
     0
 40
1.0
176
     0
 90
        8
176
     2
 62
     7
176
     0
 40
1.0
176
     0
 90
        1
176
     0
 90
        6
176
     0
 90
        2
176
     0
 62
     7
176
     0
 90
        5
176
     0
 90
        0
176
     0
 90
        0
176
     0
290
     0
176
     0
 90
        1
176
     0
 40
0.0
176
     0
 90
        0
176
     0
290
     0
176
     0
290
     1
176
     0
290
     1
176
     0
290
     0
176
     0
290
     0
176
     0
290
     0
176
     0
290
     0
176
     0
290
     0
176
     0
290
     0
176
     0
 90
       50
176
     0
 40
0.0
176
     0
 40
1.0
176
     0
 90
        0
176
     0
 62
    18
420
        0
176
     0
 90
       50
176
     0
 90
        3
176
     0
 62
     5
420
      255
176
     0
290
     0
176
     0
 90
       50
176
     0
 90
       50
176
     0
 90
       50
176
     0
290
     0
176
     0
 90
       50
176
     0
 62
   256
176
     0
 40
1.0
176
     0
 90
        2
176
     0
  1
strokes_ogs.tif
176
     0
290
     0
176
     0
 40
1.0
176
     0
 40
1.0
176
     0
  0
VISUALSTYLE
  5
1B19
102
{ACAD_REACTORS
330
1B0A
102
}
330
1B0A
100
AcDbVisualStyle
  2
Facepattern
 70
    15
177
     3
291
     1
 70
    58
 90
        2
176
     1
 90
        2
176
     1
 90
        0
176
     1
 90
        0
176
     1
 40
0.6
176
     1
 40
30.0
176
     1
 62
     7
420
 16777215
176
     1
 90
        1
176
     1
 90
        4
176
     1
 62
     7
176
     1
 62
   257
176
     1
 90
        1
176
     1
 90
        1
176
     1
 40
1.0
176
     1
 90
        8
176
     1
 62
     7
176
     1
 40
1.0
176
     1
 90
        1
176
     1
 90
        6
176
     1
 90
        2
176
     1
 62
     7
176
     1
 90
        5
176
     1
 90
        0
176
     1
 90
        0
176
     1
290
     0
176
     1
 90
        1
176
     1
 40
0.0
176
     1
 90
        0
176
     1
290
     0
176
     1
290
     1
176
     1
290
     1
176
     1
290
     0
176
     1
290
     0
176
     1
290
     0
176
     1
290
     0
176
     1
290
     0
176
     1
290
     0
176
     1
 90
       50
176
     1
 40
0.0
176
     1
 40
1.0
176
     1
 90
        0
176
     1
 62
    18
420
        0
176
     1
 90
       50
176
     1
 90
        3
176
     1
 62
     5
420
      255
176
     1
290
     0
176
     1
 90
       50
176
     1
 90
       50
176
     1
 90
       50
176
     1
290
     0
176
     1
 90
       50
176
     1
 62
   256
176
     0
 40
1.0
176
     0
 90
        2
176
     1
  1
strokes_ogs.tif
176
     1
290
     0
176
     1
 40
1.0
176
     1
 40
1.0
176
     1
  0
VISUALSTYLE
  5
1B0B
102
{ACAD_REACTORS
330
1B0A
102
}
330
1B0A
100
AcDbVisualStyle
  2
Flat
 70
     0
177
     3
291
     1
 70
    58
 90
        2
176
     1
 90
        1
176
     1
 90
        1
176
     1
 90
        2
176
     1
 40
0.6
176
     1
 40
30.0
176
     1
 62
     7
420
 16777215
176
     1
 90
        0
176
     1
 90
        0
176
     1
 62
     7
176
     1
 62
   257
176
     1
 90
        1
176
     1
 90
        1
176
     1
 40
1.0
176
     1
 90
        8
176
     1
 62
     7
176
     1
 40
1.0
176
     1
 90
        1
176
     1
 90
        6
176
     1
 90
        2
176
     1
 62
     7
176
     1
 90
        5
176
     1
 90
        0
176
     1
 90
        0
176
     1
290
     0
176
     1
 90
       13
176
     1
 40
0.0
176
     1
 90
        0
176
     1
290
     0
176
     1
290
     1
176
     1
290
     1
176
     1
290
     0
176
     1
290
     0
176
     1
290
     0
176
     1
290
     0
176
     1
290
     0
176
     1
290
     0
176
     1
 90
       50
176
     1
 40
0.0
176
     1
 40
1.0
176
     1
 90
        0
176
     1
 62
    18
420
        0
176
     1
 90
       50
176
     1
 90
        3
176
     1
 62
     5
420
      255
176
     1
290
     0
176
     1
 90
       50
176
     1
 90
       50
176
     1
 90
       50
176
     1
290
     0
176
     1
 90
       50
176
     1
 62
   256
176
     0
 40
1.0
176
     0
 90
        2
176
     1
  1
strokes_ogs.tif
176
     1
290
     0
176
     1
 40
1.0
176
     1
 40
1.0
176
     1
  0
VISUALSTYLE
  5
1B0C
102
{ACAD_REACTORS
330
1B0A
102
}
330
1B0A
100
AcDbVisualStyle
  2
FlatWithEdges
 70
     1
177
     3
291
     1
 70
    58
 90
        2
176
     1
 90
        1
176
     1
 90
        1
176
     1
 90
        2
176
     1
 40
0.6
176
     1
 40
30.0
176
     1
 62
     7
420
 16777215
176
     1
 90
        1
176
     1
 90
        0
176
     1
 62
     7
176
     1
 62
   257
176
     1
 90
        1
176
     1
 90
        1
176
     1
 40
1.0
176
     1
 90
        0
176
     1
 62
   257
176
     1
 40
1.0
176
     1
 90
        1
176
     1
 90
        6
176
     1
 90
        2
176
     1
 62
     7
176
     1
 90
        5
176
     1
 90
        0
176
     1
 90
        0
176
     1
290
     0
176
     1
 90
       13
176
     1
 40
0.0
176
     1
 90
        0
176
     1
290
     0
176
     1
290
     1
176
     1
290
     1
176
     1
290
     0
176
     1
290
     0
176
     1
290
     0
176
     1
290
     0
176
     1
290
     0
176
     1
290
     0
176
     1
 90
       50
176
     1
 40
0.0
176
     1
 40
1.0
176
     1
 90
        0
176
     1
 62
    18
420
        0
176
     1
 90
       50
176
     1
 90
        3
176
     1
 62
     5
420
      255
176
     1
290
     0
176
     1
 90
       50
176
     1
 90
       50
176
     1
 90
       50
176
     1
290
     0
176
     1
 90
       50
176
     1
 62
   256
176
     0
 40
1.0
176
     0
 90
        2
176
     1
  1
strokes_ogs.tif
176
     1
290
     0
176
     1
 40
1.0
176
     1
 40
1.0
176
     1
  0
VISUALSTYLE
  5
1B0D
102
{ACAD_REACTORS
330
1B0A
102
}
330
1B0A
100
AcDbVisualStyle
  2
Gouraud
 70
     2
177
     3
291
     1
 70
    58
 90
        2
176
     1
 90
        2
176
     1
 90
        1
176
     1
 90
        2
176
     1
 40
0.6
176
     1
 40
30.0
176
     1
 62
     7
420
 16777215
176
     1
 90
        0
176
     1
 90
        0
176
     1
 62
     7
176
     1
 62
   257
176
     1
 90
        1
176
     1
 90
        1
176
     1
 40
1.0
176
     1
 90
        0
176
     1
 62
     7
176
     1
 40
1.0
176
     1
 90
        1
176
     1
 90
        6
176
     1
 90
        2
176
     1
 62
     7
176
     1
 90
        5
176
     1
 90
        0
176
     1
 90
        0
176
     1
290
     0
176
     1
 90
       13
176
     1
 40
0.0
176
     1
 90
        0
176
     1
290
     0
176
     1
290
     1
176
     1
290
     1
176
     1
290
     0
176
     1
290
     0
176
     1
290
     0
176
     1
290
     0
176
     1
290
     0
176
     1
290
     0
176
     1
 90
       50
176
     1
 40
0.0
176
     1
 40
1.0
176
     1
 90
        0
176
     1
 62
    18
420
        0
176
     1
 90
       50
176
     1
 90
        3
176
     1
 62
     5
420
      255
176
     1
290
     0
176
     1
 90
       50
176
     1
 90
       50
176
     1
 90
       50
176
     1
290
     0
176
     1
 90
       50
176
     1
 62
   256
176
     0
 40
1.0
176
     0
 90
        2
176
     1
  1
strokes_ogs.tif
176
     1
290
     0
176
     1
 40
1.0
176
     1
 40
1.0
176
     1
  0
VISUALSTYLE
  5
1B0E
102
{ACAD_REACTORS
330
1B0A
102
}
330
1B0A
100
AcDbVisualStyle
  2
GouraudWithEdges
 70
     3
177
     3
291
     1
 70
    58
 90
        2
176
     1
 90
        2
176
     1
 90
        1
176
     1
 90
        2
176
     1
 40
0.6
176
     1
 40
30.0
176
     1
 62
     7
420
 16777215
176
     1
 90
        1
176
     1
 90
        0
176
     1
 62
     7
176
     1
 62
   257
176
     1
 90
        1
176
     1
 90
        1
176
     1
 40
1.0
176
     1
 90
        0
176
     1
 62
   257
176
     1
 40
1.0
176
     1
 90
        1
176
     1
 90
        6
176
     1
 90
        2
176
     1
 62
     7
176
     1
 90
        5
176
     1
 90
        0
176
     1
 90
        0
176
     1
290
     0
176
     1
 90
       13
176
     1
 40
0.0
176
     1
 90
        0
176
     1
290
     0
176
     1
290
     1
176
     1
290
     1
176
     1
290
     0
176
     1
290
     0
176
     1
290
     0
176
     1
290
     0
176
     1
290
     0
176
     1
290
     0
176
     1
 90
       50
176
     1
 40
0.0
176
     1
 40
1.0
176
     1
 90
        0
176
     1
 62
    18
420
        0
176
     1
 90
       50
176
     1
 90
        3
176
     1
 62
     5
420
      255
176
     1
290
     0
176
     1
 90
       50
176
     1
 90
       50
176
     1
 90
       50
176
     1
290
     0
176
     1
 90
       50
176
     1
 62
   256
176
     0
 40
1.0
176
     0
 90
        2
176
     1
  1
strokes_ogs.tif
176
     1
290
     0
176
     1
 40
1.0
176
     1
 40
1.0
176
     1
  0
VISUALSTYLE
  5
1B12
102
{ACAD_REACTORS
330
1B0A
102
}
330
1B0A
100
AcDbVisualStyle
  2
Hidden
 70
     6
177
     3
291
     0
 70
    58
 90
        1
176
     1
 90
        2
176
     1
 90
        2
176
     1
 90
        0
176
     1
 40
0.6
176
     1
 40
30.0
176
     1
 62
     7
420
 16777215
176
     1
 90
        2
176
     1
 90
        2
176
     1
 62
     7
176
     1
 62
   257
176
     1
 90
        2
176
     1
 90
        1
176
     1
 40
40.0
176
     1
 90
        0
176
     1
 62
   257
176
     1
 40
1.0
176
     1
 90
        1
176
     1
 90
        6
176
     1
 90
        2
176
     1
 62
     7
176
     1
 90
        3
176
     1
 90
        0
176
     1
 90
        0
176
     1
290
     0
176
     1
 90
        1
176
     1
 40
0.0
176
     1
 90
        0
176
     1
290
     0
176
     1
290
     1
176
     1
290
     1
176
     1
290
     0
176
     1
290
     0
176
     1
290
     0
176
     1
290
     0
176
     1
290
     0
176
     1
290
     0
176
     1
 90
       50
176
     1
 40
0.0
176
     1
 40
1.0
176
     1
 90
        0
176
     1
 62
    18
420
        0
176
     1
 90
       50
176
     1
 90
        3
176
     1
 62
     5
420
      255
176
     1
290
     0
176
     1
 90
       50
176
     1
 90
       50
176
     1
 90
       50
176
     1
290
     0
176
     1
 90
       50
176
     1
 62
   256
176
     0
 40
1.0
176
     0
 90
        2
176
     1
  1
strokes_ogs.tif
176
     1
290
     0
176
     1
 40
1.0
176
     1
 40
1.0
176
     1
  0
VISUALSTYLE
  5
1B20
102
{ACAD_REACTORS
330
1B0A
102
}
330
1B0A
100
AcDbVisualStyle
  2
JitterOff
 70
    20
177
     3
291
     1
 70
    58
 90
        2
176
     0
 90
        2
176
     0
 90
        0
176
     0
 90
        0
176
     0
 40
0.6
176
     0
 40
30.0
176
     0
 62
     7
420
 16777215
176
     0
 90
        1
176
     0
 90
        4
176
     0
 62
     7
176
     0
 62
   257
176
     0
 90
        1
176
     0
 90
        1
176
     0
 40
1.0
176
     0
 90
       10
176
     2
 62
     7
176
     0
 40
1.0
176
     0
 90
        1
176
     0
 90
        6
176
     0
 90
        2
176
     0
 62
     7
176
     0
 90
        5
176
     0
 90
        0
176
     0
 90
        0
176
     0
290
     0
176
     0
 90
        1
176
     0
 40
0.0
176
     0
 90
        0
176
     0
290
     0
176
     0
290
     1
176
     0
290
     1
176
     0
290
     0
176
     0
290
     0
176
     0
290
     0
176
     0
290
     0
176
     0
290
     0
176
     0
290
     0
176
     0
 90
       50
176
     0
 40
0.0
176
     0
 40
1.0
176
     0
 90
        0
176
     0
 62
    18
420
        0
176
     0
 90
       50
176
     0
 90
        3
176
     0
 62
     5
420
      255
176
     0
290
     0
176
     0
 90
       50
176
     0
 90
       50
176
     0
 90
       50
176
     0
290
     0
176
     0
 90
       50
176
     0
 62
   256
176
     0
 40
1.0
176
     0
 90
        2
176
     0
  1
strokes_ogs.tif
176
     0
290
     0
176
     0
 40
1.0
176
     0
 40
1.0
176
     0
  0
VISUALSTYLE
  5
1B18
102
{ACAD_REACTORS
330
1B0A
102
}
330
1B0A
100
AcDbVisualStyle
  2
Linepattern
 70
    14
177
     3
291
     1
 70
    58
 90
        2
176
     1
 90
        2
176
     1
 90
        0
176
     1
 90
        0
176
     1
 40
0.6
176
     1
 40
30.0
176
     1
 62
     7
420
 16777215
176
     1
 90
        1
176
     1
 90
        4
176
     1
 62
     7
176
     1
 62
   257
176
     1
 90
        7
176
     1
 90
        7
176
     1
 40
1.0
176
     1
 90
        8
176
     1
 62
     7
176
     1
 40
1.0
176
     1
 90
        1
176
     1
 90
        6
176
     1
 90
        2
176
     1
 62
     7
176
     1
 90
        5
176
     1
 90
        0
176
     1
 90
        0
176
     1
290
     0
176
     1
 90
        1
176
     1
 40
0.0
176
     1
 90
        0
176
     1
290
     0
176
     1
290
     1
176
     1
290
     1
176
     1
290
     0
176
     1
290
     0
176
     1
290
     0
176
     1
290
     0
176
     1
290
     0
176
     1
290
     0
176
     1
 90
       50
176
     1
 40
0.0
176
     1
 40
1.0
176
     1
 90
        0
176
     1
 62
    18
420
        0
176
     1
 90
       50
176
     1
 90
        3
176
     1
 62
     5
420
      255
176
     1
290
     0
176
     1
 90
       50
176
     1
 90
       50
176
     1
 90
       50
176
     1
290
     0
176
     1
 90
       50
176
     1
 62
   256
176
     0
 40
1.0
176
     0
 90
        2
176
     1
  1
strokes_ogs.tif
176
     1
290
     0
176
     1
 40
1.0
176
     1
 40
1.0
176
     1
  0
VISUALSTYLE
  5
1B21
102
{ACAD_REACTORS
330
1B0A
102
}
330
1B0A
100
AcDbVisualStyle
  2
OverhangOff
 70
    21
177
     3
291
     1
 70
    58
 90
        2
176
     0
 90
        2
176
     0
 90
        0
176
     0
 90
        0
176
     0
 40
0.6
176
     0
 40
30.0
176
     0
 62
     7
420
 16777215
176
     0
 90
        1
176
     0
 90
        4
176
     0
 62
     7
176
     0
 62
   257
176
     0
 90
        1
176
     0
 90
        1
176
     0
 40
1.0
176
     0
 90
        9
176
     2
 62
     7
176
     0
 40
1.0
176
     0
 90
        1
176
     0
 90
        6
176
     0
 90
        2
176
     0
 62
     7
176
     0
 90
        5
176
     0
 90
        0
176
     0
 90
        0
176
     0
290
     0
176
     0
 90
        1
176
     0
 40
0.0
176
     0
 90
        0
176
     0
290
     0
176
     0
290
     1
176
     0
290
     1
176
     0
290
     0
176
     0
290
     0
176
     0
290
     0
176
     0
290
     0
176
     0
290
     0
176
     0
290
     0
176
     0
 90
       50
176
     0
 40
0.0
176
     0
 40
1.0
176
     0
 90
        0
176
     0
 62
    18
420
        0
176
     0
 90
       50
176
     0
 90
        3
176
     0
 62
     5
420
      255
176
     0
290
     0
176
     0
 90
       50
176
     0
 90
       50
176
     0
 90
       50
176
     0
290
     0
176
     0
 90
       50
176
     0
 62
   256
176
     0
 40
1.0
176
     0
 90
        2
176
     0
  1
strokes_ogs.tif
176
     0
290
     0
176
     0
 40
1.0
176
     0
 40
1.0
176
     0
  0
VISUALSTYLE
  5
1B14
102
{ACAD_REACTORS
330
1B0A
102
}
330
1B0A
100
AcDbVisualStyle
  2
Realistic
 70
     8
177
     3
291
     0
 70
    58
 90
        2
176
     1
 90
        3
176
     1
 90
        0
176
     1
 90
        2
176
     1
 40
0.6
176
     1
 40
30.0
176
     1
 62
     7
420
 16777215
176
     1
 90
        0
176
     1
 90
        0
176
     1
 62
     7
176
     1
 62
   257
176
     1
 90
        1
176
     1
 90
        1
176
     1
 40
1.0
176
     1
 90
        8
176
     1
 62
   257
176
     1
 40
1.0
176
     1
 90
        1
176
     1
 90
        6
176
     1
 90
        2
176
     1
 62
     7
176
     1
 90
        3
176
     1
 90
        0
176
     1
 90
        0
176
     1
290
     0
176
     1
 90
       13
176
     1
 40
0.0
176
     1
 90
        0
176
     1
290
     0
176
     1
290
     1
176
     1
290
     1
176
     1
290
     0
176
     1
290
     0
176
     1
290
     0
176
     1
290
     0
176
     1
290
     0
176
     1
290
     0
176
     1
 90
       50
176
     1
 40
0.0
176
     1
 40
1.0
176
     1
 90
        0
176
     1
 62
    18
420
        0
176
     1
 90
       50
176
     1
 90
        3
176
     1
 62
     5
420
      255
176
     1
290
     0
176
     1
 90
       50
176
     1
 90
       50
176
     1
 90
       50
176
     1
290
     0
176
     1
 90
       50
176
     1
 62
   256
176
     0
 40
1.0
176
     0
 90
        2
176
     1
  1
strokes_ogs.tif
176
     1
290
     0
176
     1
 40
1.0
176
     1
 40
1.0
176
     1
  0
VISUALSTYLE
  5
1B1F
102
{ACAD_REACTORS
330
1B0A
102
}
330
1B0A
100
AcDbVisualStyle
  2
Shaded
 70
    27
177
     3
291
     0
 70
    58
 90
        2
176
     1
 90
        2
176
     1
 90
        1
176
     1
 90
        2
176
     1
 40
0.6
176
     1
 40
30.0
176
     1
 62
     7
420
 16777215
176
     1
 90
        0
176
     1
 90
        4
176
     1
 62
     7
176
     1
 62
   257
176
     1
 90
        1
176
     1
 90
        1
176
     1
 40
1.0
176
     1
 90
        8
176
     1
 62
   257
176
     1
 40
1.0
176
     1
 90
        1
176
     1
 90
        6
176
     1
 90
        2
176
     1
 62
     8
420
  7895160
176
     1
 90
        3
176
     1
 90
        0
176
     1
 90
        0
176
     1
290
     0
176
     1
 90
        5
176
     1
 40
0.0
176
     1
 90
        0
176
     1
290
     0
176
     1
290
     1
176
     1
290
     1
176
     1
290
     0
176
     1
290
     0
176
     1
290
     0
176
     1
290
     0
176
     1
290
     0
176
     1
290
     0
176
     1
 90
       50
176
     1
 40
0.0
176
     1
 40
1.0
176
     1
 90
        0
176
     1
 62
    18
420
        0
176
     1
 90
       50
176
     1
 90
        3
176
     1
 62
     5
420
      255
176
     1
290
     0
176
     1
 90
       50
176
     1
 90
       50
176
     1
 90
       50
176
     1
290
     0
176
     1
 90
       50
176
     1
 62
   256
176
     0
 40
1.0
176
     0
 90
        2
176
     1
  1
strokes_ogs.tif
176
     1
290
     0
176
     1
 40
1.0
176
     1
 40
1.0
176
     1
  0
VISUALSTYLE
  5
1B1E
102
{ACAD_REACTORS
330
1B0A
102
}
330
1B0A
100
AcDbVisualStyle
  2
Shaded with edges
 70
    26
177
     3
291
     0
 70
    58
 90
        2
176
     1
 90
        2
176
     1
 90
        1
176
     1
 90
        2
176
     1
 40
0.6
176
     1
 40
30.0
176
     1
 62
     7
420
 16777215
176
     1
 90
        1
176
     1
 90
        2
176
     1
 62
     7
176
     1
 62
   257
176
     1
 90
        2
176
     1
 90
        1
176
     1
 40
1.0
176
     1
 90
        8
176
     1
 62
   257
176
     1
 40
1.0
176
     1
 90
        1
176
     1
 90
        6
176
     1
 90
        2
176
     1
 62
     7
176
     1
 90
        3
176
     1
 90
        0
176
     1
 90
        0
176
     1
290
     0
176
     1
 90
        5
176
     1
 40
0.0
176
     1
 90
        0
176
     1
290
     0
176
     1
290
     1
176
     1
290
     1
176
     1
290
     0
176
     1
290
     0
176
     1
290
     0
176
     1
290
     0
176
     1
290
     0
176
     1
290
     0
176
     1
 90
       50
176
     1
 40
0.0
176
     1
 40
1.0
176
     1
 90
        0
176
     1
 62
    18
420
        0
176
     1
 90
       50
176
     1
 90
        3
176
     1
 62
     5
420
      255
176
     1
290
     0
176
     1
 90
       50
176
     1
 90
       50
176
     1
 90
       50
176
     1
290
     0
176
     1
 90
       50
176
     1
 62
   256
176
     0
 40
1.0
176
     0
 90
        2
176
     1
  1
strokes_ogs.tif
176
     1
290
     0
176
     1
 40
1.0
176
     1
 40
1.0
176
     1
  0
VISUALSTYLE
  5
1B1B
102
{ACAD_REACTORS
330
1B0A
102
}
330
1B0A
100
AcDbVisualStyle
  2
Shades of Gray
 70
    23
177
     3
291
     0
 70
    58
 90
        2
176
     1
 90
        2
176
     1
 90
        3
176
     1
 90
        0
176
     1
 40
0.6
176
     1
 40
30.0
176
     1
 62
     7
420
 16777215
176
     1
 90
        2
176
     1
 90
        2
176
     1
 62
     7
176
     1
 62
     7
176
     1
 90
        1
176
     1
 90
        1
176
     1
 40
40.0
176
     1
 90
        8
176
     1
 62
     7
176
     1
 40
1.0
176
     1
 90
        1
176
     1
 90
        6
176
     1
 90
        2
176
     1
 62
     7
176
     1
 90
        3
176
     1
 90
        0
176
     1
 90
        0
176
     1
290
     0
176
     1
 90
        1
176
     1
 40
0.0
176
     1
 90
        0
176
     1
290
     0
176
     1
290
     1
176
     1
290
     1
176
     1
290
     0
176
     1
290
     0
176
     1
290
     0
176
     1
290
     0
176
     1
290
     0
176
     1
290
     0
176
     1
 90
       50
176
     1
 40
0.0
176
     1
 40
1.0
176
     1
 90
        0
176
     1
 62
    18
420
        0
176
     1
 90
       50
176
     1
 90
        3
176
     1
 62
     5
420
      255
176
     1
290
     0
176
     1
 90
       50
176
     1
 90
       50
176
     1
 90
       50
176
     1
290
     0
176
     1
 90
       50
176
     1
 62
   256
176
     0
 40
1.0
176
     0
 90
        2
176
     1
  1
strokes_ogs.tif
176
     1
290
     0
176
     1
 40
1.0
176
     1
 40
1.0
176
     1
  0
VISUALSTYLE
  5
1B1C
102
{ACAD_REACTORS
330
1B0A
102
}
330
1B0A
100
AcDbVisualStyle
  2
Sketchy
 70
    24
177
     3
291
     0
 70
    58
 90
        1
176
     1
 90
        2
176
     1
 90
        2
176
     1
 90
        0
176
     1
 40
0.6
176
     1
 40
30.0
176
     1
 62
     7
420
 16777215
176
     1
 90
        2
176
     1
 90
        2
176
     1
 62
     7
176
     1
 62
     7
176
     1
 90
        1
176
     1
 90
        1
176
     1
 40
40.0
176
     1
 90
       11
176
     1
 62
     7
176
     1
 40
1.0
176
     1
 90
        1
176
     1
 90
        6
176
     1
 90
        2
176
     1
 62
     7
176
     1
 90
        6
176
     1
 90
        0
176
     1
 90
        0
176
     1
290
     0
176
     1
 90
        1
176
     1
 40
0.0
176
     1
 90
        0
176
     1
290
     0
176
     1
290
     1
176
     1
290
     1
176
     1
290
     0
176
     1
290
     0
176
     1
290
     0
176
     1
290
     0
176
     1
290
     0
176
     1
290
     0
176
     1
 90
       50
176
     1
 40
0.0
176
     1
 40
1.0
176
     1
 90
        0
176
     1
 62
    18
420
        0
176
     1
 90
       50
176
     1
 90
        3
176
     1
 62
     5
420
      255
176
     1
290
     0
176
     1
 90
       50
176
     1
 90
       50
176
     1
 90
       50
176
     1
290
     0
176
     1
 90
       50
176
     1
 62
   256
176
     0
 40
1.0
176
     0
 90
        2
176
     1
  1
strokes_ogs.tif
176
     1
290
     0
176
     1
 40
1.0
176
     1
 40
1.0
176
     1
  0
VISUALSTYLE
  5
1B17
102
{ACAD_REACTORS
330
1B0A
102
}
330
1B0A
100
AcDbVisualStyle
  2
Thicken
 70
    13
177
     3
291
     1
 70
    58
 90
        2
176
     1
 90
        2
176
     1
 90
        0
176
     1
 90
        0
176
     1
 40
0.6
176
     1
 40
30.0
176
     1
 62
     7
420
 16777215
176
     1
 90
        1
176
     1
 90
        4
176
     1
 62
     7
176
     1
 62
   257
176
     1
 90
        1
176
     1
 90
        1
176
     1
 40
1.0
176
     1
 90
       12
176
     1
 62
     7
176
     1
 40
1.0
176
     1
 90
        1
176
     1
 90
        6
176
     1
 90
        2
176
     1
 62
     7
176
     1
 90
        5
176
     1
 90
        0
176
     1
 90
        0
176
     1
290
     0
176
     1
 90
        1
176
     1
 40
0.0
176
     1
 90
        0
176
     1
290
     0
176
     1
290
     1
176
     1
290
     1
176
     1
290
     0
176
     1
290
     0
176
     1
290
     0
176
     1
290
     0
176
     1
290
     0
176
     1
290
     0
176
     1
 90
       50
176
     1
 40
0.0
176
     1
 40
1.0
176
     1
 90
        0
176
     1
 62
    18
420
        0
176
     1
 90
       50
176
     1
 90
        3
176
     1
 62
     5
420
      255
176
     1
290
     0
176
     1
 90
       50
176
     1
 90
       50
176
     1
 90
       50
176
     1
290
     0
176
     1
 90
       50
176
     1
 62
   256
176
     0
 40
1.0
176
     0
 90
        2
176
     1
  1
strokes_ogs.tif
176
     1
290
     0
176
     1
 40
1.0
176
     1
 40
1.0
176
     1
  0
VISUALSTYLE
  5
1B11
102
{ACAD_REACTORS
330
1B0A
102
}
330
1B0A
100
AcDbVisualStyle
  2
Wireframe
 70
     5
177
     3
291
     0
 70
    58
 90
        0
176
     1
 90
        2
176
     1
 90
        0
176
     1
 90
        0
176
     1
 40
0.6
176
     1
 40
30.0
176
     1
 62
     7
420
 16777215
176
     1
 90
        1
176
     1
 90
        4
176
     1
 62
     7
176
     1
 62
   257
176
     1
 90
        1
176
     1
 90
        1
176
     1
 40
1.0
176
     1
 90
        0
176
     1
 62
   257
176
     1
 40
1.0
176
     1
 90
        1
176
     1
 90
        6
176
     1
 90
        2
176
     1
 62
     7
176
     1
 90
        3
176
     1
 90
        0
176
     1
 90
        0
176
     1
290
     0
176
     1
 90
        1
176
     1
 40
0.0
176
     1
 90
        0
176
     1
290
     0
176
     1
290
     1
176
     1
290
     1
176
     1
290
     0
176
     1
290
     0
176
     1
290
     0
176
     1
290
     0
176
     1
290
     0
176
     1
290
     0
176
     1
 90
       50
176
     1
 40
0.0
176
     1
 40
1.0
176
     1
 90
        0
176
     1
 62
    18
420
        0
176
     1
 90
       50
176
     1
 90
        3
176
     1
 62
     5
420
      255
176
     1
290
     0
176
     1
 90
       50
176
     1
 90
       50
176
     1
 90
       50
176
     1
290
     0
176
     1
 90
       50
176
     1
 62
   256
176
     0
 40
1.0
176
     0
 90
        2
176
     1
  1
strokes_ogs.tif
176
     1
290
     0
176
     1
 40
1.0
176
     1
 40
1.0
176
     1
  0
VISUALSTYLE
  5
1B1D
102
{ACAD_REACTORS
330
1B0A
102
}
330
1B0A
100
AcDbVisualStyle
  2
X-Ray
 70
    25
177
     3
291
     0
 70
    58
 90
        2
176
     1
 90
        2
176
     1
 90
        1
176
     1
 90
        1
176
     1
 40
0.5
176
     1
 40
30.0
176
     1
 62
     7
420
 16777215
176
     1
 90
        1
176
     1
 90
        0
176
     1
 62
     7
176
     1
 62
   257
176
     1
 90
        1
176
     1
 90
        1
176
     1
 40
1.0
176
     1
 90
        8
176
     1
 62
     7
176
     1
 40
1.0
176
     1
 90
        1
176
     1
 90
        6
176
     1
 90
        2
176
     1
 62
     7
176
     1
 90
        3
176
     1
 90
        0
176
     1
 90
        0
176
     1
290
     0
176
     1
 90
       13
176
     1
 40
0.0
176
     1
 90
        0
176
     1
290
     0
176
     1
290
     1
176
     1
290
     1
176
     1
290
     0
176
     1
290
     0
176
     1
290
     0
176
     1
290
     0
176
     1
290
     0
176
     1
290
     0
176
     1
 90
       50
176
     1
 40
0.0
176
     1
 40
1.0
176
     1
 90
        0
176
     1
 62
    18
420
        0
176
     1
 90
       50
176
     1
 90
        3
176
     1
 62
     5
420
      255
176
     1
290
     0
176
     1
 90
       50
176
     1
 90
       50
176
     1
 90
       50
176
     1
290
     0
176
     1
 90
       50
176
     1
 62
   256
176
     0
 40
1.0
176
     0
 90
        2
176
     1
  1
strokes_ogs.tif
176
     1
290
     0
176
     1
 40
1.0
176
     1
 40
1.0
176
     1
  0
DICTIONARYVAR
  5
1E01
102
{ACAD_REACTORS
330
5E
102
}
330
5E
100
DictionaryVariables
280
     0
  1
1:1
  0
DICTIONARYVAR
  5
1DFD
102
{ACAD_REACTORS
330
5E
102
}
330
5E
100
DictionaryVariables
280
     0
  1
STANDARD
  0
DICTIONARYVAR
  5
DEF
102
{ACAD_REACTORS
330
5E
102
}
330
5E
100
DictionaryVariables
280
     0
  1
STANDARD
  0
DICTIONARYVAR
  5
1DFE
102
{ACAD_REACTORS
330
5E
102
}
330
5E
100
DictionaryVariables
280
     0
  1
Metric50
  0
DICTIONARYVAR
  5
1DFF
102
{ACAD_REACTORS
330
5E
102
}
330
5E
100
DictionaryVariables
280
     0
  1
Metric50
  0
DICTIONARYVAR
  5
5F
102
{ACAD_REACTORS
330
5E
102
}
330
5E
100
DictionaryVariables
280
     0
  1
2
  0
DICTIONARYVAR
  5
63
102
{ACAD_REACTORS
330
5E
102
}
330
5E
100
DictionaryVariables
280
     0
  1
1
  0
DICTIONARYVAR
  5
1E03
102
{ACAD_REACTORS
330
5E
102
}
330
5E
100
DictionaryVariables
280
     0
  1
1
  0
DICTIONARYVAR
  5
1E04
102
{ACAD_REACTORS
330
5E
102
}
330
5E
100
DictionaryVariables
280
     0
  1
15
  0
DICTIONARYVAR
  5
1E02
102
{ACAD_REACTORS
330
5E
102
}
330
5E
100
DictionaryVariables
280
     0
  1
0
  0
DICTIONARYVAR
  5
1E00
102
{ACAD_REACTORS
330
5E
102
}
330
5E
100
DictionaryVariables
280
     0
  1
0
  0
DICTIONARY
  5
1E12
330
22
100
AcDbDictionary
280
     1
281
     1
  3
AcPublish_PlotSettingsOverride
360
1E13
  0
DICTIONARY
  5
1AFB
330
1AFA
100
AcDbDictionary
280
     1
281
     1
  3
BUMPTILE
360
1AFD
  3
DIFFUSETILE
360
1AFC
  3
OPACITYTILE
360
1B00
  3
REFLECTIONTILE
360
1AFF
  3
REFRACTIONTILE
360
1B01
  3
SPECULARTILE
360
1AFE
  0
DICTIONARY
  5
1AF3
330
1AF2
100
AcDbDictionary
280
     1
281
     1
  3
BUMPTILE
360
1AF5
  3
DIFFUSETILE
360
1AF4
  3
OPACITYTILE
360
1AF8
  3
REFLECTIONTILE
360
1AF7
  3
REFRACTIONTILE
360
1AF9
  3
SPECULARTILE
360
1AF6
  0
DICTIONARY
  5
1B03
330
1B02
100
AcDbDictionary
280
     1
281
     1
  3
BUMPTILE
360
1B05
  3
DIFFUSETILE
360
1B04
  3
OPACITYTILE
360
1B08
  3
REFLECTIONTILE
360
1B07
  3
REFRACTIONTILE
360
1B09
  3
SPECULARTILE
360
1B06
  0
DICTIONARY
  5
1E1B
330
DE9
100
AcDbDictionary
280
     1
281
     1
  3
ACAD_ROUNDTRIP_2008_TABLESTYLE_CELLSTYLEMAP
360
1E1C
  0
PLOTSETTINGS
  5
1E13
102
{ACAD_REACTORS
330
1E12
102
}
330
1E12
100
AcDbPlotSettings
  1

  2
SHARP AR-158
  4
A4
  6

 40
5.111750125885009
 41
5.11176061630249
 42
5.111740112304687
 43
5.11175537109375
 44
210.0579986572266
 45
296.9259948730469
 46
-20.0097674341787
 47
-72.60430315470177
 48
0.0
 49
0.0
140
0.0
141
0.0
142
1.0
143
6.0
 70
 11940
 72
     1
 73
     1
 74
     0
  7

 75
     0
147
0.1666666666666666
 76
     0
 77
     2
 78
   300
148
193.1896453757181
149
-302.9016670267256
  0
XRECORD
  5
1AFD
102
{ACAD_REACTORS
330
1AFB
102
}
330
1AFB
100
AcDbXrecord
280
     1
270
     1
271
     1
  0
XRECORD
  5
1AFC
102
{ACAD_REACTORS
330
1AFB
102
}
330
1AFB
100
AcDbXrecord
280
     1
270
     1
271
     1
  0
XRECORD
  5
1B00
102
{ACAD_REACTORS
330
1AFB
102
}
330
1AFB
100
AcDbXrecord
280
     1
270
     1
271
     1
  0
XRECORD
  5
1AFF
102
{ACAD_REACTORS
330
1AFB
102
}
330
1AFB
100
AcDbXrecord
280
     1
270
     1
271
     1
  0
XRECORD
  5
1B01
102
{ACAD_REACTORS
330
1AFB
102
}
330
1AFB
100
AcDbXrecord
280
     1
270
     1
271
     1
  0
XRECORD
  5
1AFE
102
{ACAD_REACTORS
330
1AFB
102
}
330
1AFB
100
AcDbXrecord
280
     1
270
     1
271
     1
  0
XRECORD
  5
1AF5
102
{ACAD_REACTORS
330
1AF3
102
}
330
1AF3
100
AcDbXrecord
280
     1
270
     1
271
     1
  0
XRECORD
  5
1AF4
102
{ACAD_REACTORS
330
1AF3
102
}
330
1AF3
100
AcDbXrecord
280
     1
270
     1
271
     1
  0
XRECORD
  5
1AF8
102
{ACAD_REACTORS
330
1AF3
102
}
330
1AF3
100
AcDbXrecord
280
     1
270
     1
271
     1
  0
XRECORD
  5
1AF7
102
{ACAD_REACTORS
330
1AF3
102
}
330
1AF3
100
AcDbXrecord
280
     1
270
     1
271
     1
  0
XRECORD
  5
1AF9
102
{ACAD_REACTORS
330
1AF3
102
}
330
1AF3
100
AcDbXrecord
280
     1
270
     1
271
     1
  0
XRECORD
  5
1AF6
102
{ACAD_REACTORS
330
1AF3
102
}
330
1AF3
100
AcDbXrecord
280
     1
270
     1
271
     1
  0
XRECORD
  5
1B05
102
{ACAD_REACTORS
330
1B03
102
}
330
1B03
100
AcDbXrecord
280
     1
270
     1
271
     1
  0
XRECORD
  5
1B04
102
{ACAD_REACTORS
330
1B03
102
}
330
1B03
100
AcDbXrecord
280
     1
270
     1
271
     1
  0
XRECORD
  5
1B08
102
{ACAD_REACTORS
330
1B03
102
}
330
1B03
100
AcDbXrecord
280
     1
270
     1
271
     1
  0
XRECORD
  5
1B07
102
{ACAD_REACTORS
330
1B03
102
}
330
1B03
100
AcDbXrecord
280
     1
270
     1
271
     1
  0
XRECORD
  5
1B09
102
{ACAD_REACTORS
330
1B03
102
}
330
1B03
100
AcDbXrecord
280
     1
270
     1
271
     1
  0
XRECORD
  5
1B06
102
{ACAD_REACTORS
330
1B03
102
}
330
1B03
100
AcDbXrecord
280
     1
270
     1
271
     1
  0
CELLSTYLEMAP
  5
1E1C
102
{ACAD_REACTORS
330
1E1B
102
}
330
1E1B
100
AcDbCellStyleMap
 90
        3
300
CELLSTYLE
  1
TABLEFORMAT_BEGIN
 90
        5
170
     1
 91
        0
 92
    32768
 62
   257
 93
        1
300
CONTENTFORMAT
  1
CONTENTFORMAT_BEGIN
 90
        0
 91
        0
 92
        4
 93
        0
300

 40
0.0
140
1.0
 94
        5
 62
     0
340
11
144
6.0
309
CONTENTFORMAT_END
171
     1
301
MARGIN
  1
CELLMARGIN_BEGIN
 40
1.5
 40
1.5
 40
1.5
 40
1.5
 40
0.18
 40
0.18
309
CELLMARGIN_END
 94
        6
 95
        1
302
GRIDFORMAT
  1
GRIDFORMAT_BEGIN
 90
        0
 91
        1
 62
     0
 92
       -2
340
0
 93
        0
 40
0.045
309
GRIDFORMAT_END
 95
        2
302
GRIDFORMAT
  1
GRIDFORMAT_BEGIN
 90
        0
 91
        1
 62
     0
 92
       -2
340
0
 93
        0
 40
0.045
309
GRIDFORMAT_END
 95
        4
302
GRIDFORMAT
  1
GRIDFORMAT_BEGIN
 90
        0
 91
        1
 62
     0
 92
       -2
340
0
 93
        0
 40
0.045
309
GRIDFORMAT_END
 95
        8
302
GRIDFORMAT
  1
GRIDFORMAT_BEGIN
 90
        0
 91
        1
 62
     0
 92
       -2
340
0
 93
        0
 40
0.045
309
GRIDFORMAT_END
 95
       16
302
GRIDFORMAT
  1
GRIDFORMAT_BEGIN
 90
        0
 91
        1
 62
     0
 92
       -2
340
0
 93
        0
 40
0.045
309
GRIDFORMAT_END
 95
       32
302
GRIDFORMAT
  1
GRIDFORMAT_BEGIN
 90
        0
 91
        1
 62
     0
 92
       -2
340
0
 93
        0
 40
0.045
309
GRIDFORMAT_END
309
TABLEFORMAT_END
  1
CELLSTYLE_BEGIN
 90
        1
 91
        1
300
_TITLE
309
CELLSTYLE_END
300
CELLSTYLE
  1
TABLEFORMAT_BEGIN
 90
        5
170
     1
 91
        0
 92
        0
 62
   257
 93
        1
300
CONTENTFORMAT
  1
CONTENTFORMAT_BEGIN
 90
        0
 91
        0
 92
        4
 93
        0
300

 40
0.0
140
1.0
 94
        5
 62
     0
340
11
144
4.5
309
CONTENTFORMAT_END
171
     1
301
MARGIN
  1
CELLMARGIN_BEGIN
 40
1.5
 40
1.5
 40
1.5
 40
1.5
 40
0.18
 40
0.18
309
CELLMARGIN_END
 94
        6
 95
        1
302
GRIDFORMAT
  1
GRIDFORMAT_BEGIN
 90
        0
 91
        1
 62
     0
 92
       -2
340
0
 93
        0
 40
0.045
309
GRIDFORMAT_END
 95
        2
302
GRIDFORMAT
  1
GRIDFORMAT_BEGIN
 90
        0
 91
        1
 62
     0
 92
       -2
340
0
 93
        0
 40
0.045
309
GRIDFORMAT_END
 95
        4
302
GRIDFORMAT
  1
GRIDFORMAT_BEGIN
 90
        0
 91
        1
 62
     0
 92
       -2
340
0
 93
        0
 40
0.045
309
GRIDFORMAT_END
 95
        8
302
GRIDFORMAT
  1
GRIDFORMAT_BEGIN
 90
        0
 91
        1
 62
     0
 92
       -2
340
0
 93
        0
 40
0.045
309
GRIDFORMAT_END
 95
       16
302
GRIDFORMAT
  1
GRIDFORMAT_BEGIN
 90
        0
 91
        1
 62
     0
 92
       -2
340
0
 93
        0
 40
0.045
309
GRIDFORMAT_END
 95
       32
302
GRIDFORMAT
  1
GRIDFORMAT_BEGIN
 90
        0
 91
        1
 62
     0
 92
       -2
340
0
 93
        0
 40
0.045
309
GRIDFORMAT_END
309
TABLEFORMAT_END
  1
CELLSTYLE_BEGIN
 90
        2
 91
        1
300
_HEADER
309
CELLSTYLE_END
300
CELLSTYLE
  1
TABLEFORMAT_BEGIN
 90
        5
170
     1
 91
        0
 92
        0
 62
   257
 93
        1
300
CONTENTFORMAT
  1
CONTENTFORMAT_BEGIN
 90
        0
 91
        0
 92
        4
 93
        0
300

 40
0.0
140
1.0
 94
        2
 62
     0
340
11
144
4.5
309
CONTENTFORMAT_END
171
     1
301
MARGIN
  1
CELLMARGIN_BEGIN
 40
1.5
 40
1.5
 40
1.5
 40
1.5
 40
0.18
 40
0.18
309
CELLMARGIN_END
 94
        6
 95
        1
302
GRIDFORMAT
  1
GRIDFORMAT_BEGIN
 90
        0
 91
        1
 62
     0
 92
       -2
340
0
 93
        0
 40
0.045
309
GRIDFORMAT_END
 95
        2
302
GRIDFORMAT
  1
GRIDFORMAT_BEGIN
 90
        0
 91
        1
 62
     0
 92
       -2
340
0
 93
        0
 40
0.045
309
GRIDFORMAT_END
 95
        4
302
GRIDFORMAT
  1
GRIDFORMAT_BEGIN
 90
        0
 91
        1
 62
     0
 92
       -2
340
0
 93
        0
 40
0.045
309
GRIDFORMAT_END
 95
        8
302
GRIDFORMAT
  1
GRIDFORMAT_BEGIN
 90
        0
 91
        1
 62
     0
 92
       -2
340
0
 93
        0
 40
0.045
309
GRIDFORMAT_END
 95
       16
302
GRIDFORMAT
  1
GRIDFORMAT_BEGIN
 90
        0
 91
        1
 62
     0
 92
       -2
340
0
 93
        0
 40
0.045
309
GRIDFORMAT_END
 95
       32
302
GRIDFORMAT
  1
GRIDFORMAT_BEGIN
 90
        0
 91
        1
 62
     0
 92
       -2
340
0
 93
        0
 40
0.045
309
GRIDFORMAT_END
309
TABLEFORMAT_END
  1
CELLSTYLE_BEGIN
 90
        3
 91
        2
300
_DATA
309
CELLSTYLE_END
  0
ENDSEC
  0
SECTION
  2
ACDSDATA
 70
     2
 71
     8
  0
ACDSSCHEMA
 90
        0
  1
AcDb_Thumbnail_Schema
  2
AcDbDs::ID
280
    10
 91
        8
  2
Thumbnail_Data
280
    15
 91
        0
101
ACDSRECORD
 95
        0
 90
        1
  2
AcDbDs::TreatedAsObjectData
280
     1
291
     1
101
ACDSRECORD
 95
        0
 90
        2
  2
AcDbDs::Legacy
280
     1
291
     1
101
ACDSRECORD
  1
AcDbDs::ID
 90
        3
  2
AcDs:Indexable
280
     1
291
     1
101
ACDSRECORD
  1
AcDbDs::ID
 90
        4
  2
AcDbDs::HandleAttribute
280
     7
282
     1
  0
ACDSSCHEMA
 90
        1
  1
AcDbDs::TreatedAsObjectDataSchema
  2
AcDbDs::TreatedAsObjectData
280
     1
 91
        0
  0
ACDSSCHEMA
 90
        2
  1
AcDbDs::LegacySchema
  2
AcDbDs::Legacy
280
     1
 91
        0
  0
ACDSSCHEMA
 90
        3
  1
AcDbDs::IndexedPropertySchema
  2
AcDs:Indexable
280
     1
 91
        0
  0
ACDSSCHEMA
 90
        4
  1
AcDbDs::HandleAttributeSchema
  2
AcDbDs::HandleAttribute
280
     7
 91
        1
284
     1
  0
ACDSRECORD
 90
        0
  2
AcDbDs::ID
280
    10
320
22
  2
Thumbnail_Data
280
    15
 94
     2103
310
89504E470D0A1A0A0000000D49484452000001000000008E0803000000E961264800000300504C5445212830FFFFFF2128300000000000000000000000000000000000000000000000000000330000660000990000CC0000FF0033000033330033660033990033CC0033FF0066000066330066660066990066CC0066FF0099
310
000099330099660099990099CC0099FF00CC0000CC3300CC6600CC9900CCCC00CCFF00FF0000FF3300FF6600FF9900FFCC00FFFF3300003300333300663300993300CC3300FF3333003333333333663333993333CC3333FF3366003366333366663366993366CC3366FF3399003399333399663399993399CC3399FF33CC00
310
33CC3333CC6633CC9933CCCC33CCFF33FF0033FF3333FF6633FF9933FFCC33FFFF6600006600336600666600996600CC6600FF6633006633336633666633996633CC6633FF6666006666336666666666996666CC6666FF6699006699336699666699996699CC6699FF66CC0066CC3366CC6666CC9966CCCC66CCFF66FF0066
310
FF3366FF6666FF9966FFCC66FFFF9900009900339900669900999900CC9900FF9933009933339933669933999933CC9933FF9966009966339966669966999966CC9966FF9999009999339999669999999999CC9999FF99CC0099CC3399CC6699CC9999CCCC99CCFF99FF0099FF3399FF6699FF9999FFCC99FFFFCC0000CC00
310
33CC0066CC0099CC00CCCC00FFCC3300CC3333CC3366CC3399CC33CCCC33FFCC6600CC6633CC6666CC6699CC66CCCC66FFCC9900CC9933CC9966CC9999CC99CCCC99FFCCCC00CCCC33CCCC66CCCC99CCCCCCCCCCFFCCFF00CCFF33CCFF66CCFF99CCFFCCCCFFFFFF0000FF0033FF0066FF0099FF00CCFF00FFFF3300FF3333
310
FF3366FF3399FF33CCFF33FFFF6600FF6633FF6666FF6699FF66CCFF66FFFF9900FF9933FF9966FF9999FF99CCFF99FFFFCC00FFCC33FFCC66FFCC99FFCCCCFFCCFFFFFF00FFFF33FFFF66FFFF99FFFFCCFFFFFF0000000D0D0D1A1A1A2828283535354343435050505D5D5D6B6B6B787878868686939393A1A1A1AEAEAEBB
310
BBBBC9C9C9D6D6D6E4E4E4F1F1F1FFFFFF0000000000000000000000000000000000000000000000000000000000002E4550F1000004F24944415478DAED9CDB76E3300845F9FFFF3DEFD3AED43177C949A681149ED24675AD6DC44DC84423232323232323232323232323232323230505DF42F8FA70FBF8F543C53B7CA5B8
310
973F3FA0DACCE9BC657B6FE09F165F3B97D884F45EE564CF04DE98A70044FFBA9406FCDC8EAB9DDB008E9116C0B902E8FEF48BD9011C38E839008801402EB88200EEE6492ED40C804276D8FA3E36C03C27F124217FED0120E8E95A00C1E2ABA901622D6F00C0F2377D003055D71AB0BB04A4C9E805007097AD5819B403C051
310
0971D1A20008140210CBC4059085526CFD481E8501A8BB4B3440FAF91800571474D0006DEA43007B1AE0002DAE01B4A9014784C78DC1D251FC98DCCA1A405701F0140FB957F0E387820070110094B5CBFD1D2A03005D0280F00F0D00D48D035200940380B2F84980511980B6E246030E7BAF5DA08C21ADC56F02C0D43322CD
310
86672B9018D03600C289465384F32DAC02E40040870FC5DB6B04BB65CE0BE5D0E558F6B9488D00EAA6B3AADEBABCB16455AF4AA26E6B5B632E02285712237FE5EFDA0CEC64D969B8F99EC932CF065DCE7A1C80171ED604006582228B9D2F971840710D9065EA47001C3A83AC0E5C18C0C2D9ED5F231B1B5EB3A811BC7E8348
310
92BB046AF9F95F03E08531B03B656834FFAB002404274B76A2E88F0340E7FEA76F07D068FE0F02F0FF50168BD062FE8F0358044D4DA6FF6A00547453F8F70054C8F7DF0CA0D6EC7E45BA3D5EBC4003606382BA005EF3FC105C991A00F082944D14F130D614D50A808951B212B69F369F1B48B770B00900A1B9916A23DE3DB7
310
DFDC2ADDD40200DFF6CB8D20D65F880BF5318232508DBD00B60008F3DA0C403EB13093C3D2BC7E0800C21680730FB91B8065031CFCF99AE49F167B05450148CFE646002A994D8AFF5D00DC7B1F60BD1EAC2F87758EDEB85E00E001F8297563038033AE090088BE0F55BB65679C1200B86F8CE8D0B03A80E3C14500EE8D8CC8
310
01DC2E43B61108543B14E6A5DB0B593D54E41F0F3BAD4B7D004EB5EA688BC08606DC9D415B0DF000F86B3BB4013897D3D9FCD01980B1EE51BB8C1A27BB3FAA03D0B93FFC7287F889E2035106406B0D50E7099386293D8EFA00A01400ABEF80F28E313BAEA50624477FF4D4E271FC202EBA44826B009437B739E3CA6B80D3FD
310
8A8D4DDE1500A6310D4261DAD78087007C900DF85B006CE40F1F0040C141BAD600D4F13F99E62800E65C25D005004500F4F947086FC6019CFD81F02282165EC00290877B89BD51C007C03400C48A088D4A620E00E267C4C225606243DE75DC14C011C4811E017012E80E00B409409D92E311734B00700E81CB92373FF3ECA5
310
47A0CE1A40DE2977651597008E2CA825005316F2019C26C226C810AEB3498B8C33371F802AF6BA150231A61D007237390D00DD01E0BC1BA14D7F409C1EBA7900990332018042C7202F69806D7E52AF7C81D75906932EA2559798CE06B91B84C202F52E189D0CA980A03E80AB1DAF361B74FB04BD9DE59200C8B8C1BC20423B
310
05119C3E05CD00AC7B853700E08C988A1704FE78B738791A90BD4B685303C07D0A0D8001D019006D02A04F0300F17EB0451C40106F8AFD1400FC4522140370B64D1B0378A9FB6B0880B66A38ACEC0B3C73A19A1A700540F4C2006AAB0197008483772F54D108EE02C80F937505B008DED9BBD1F35417A87F602C0440C9B4D8
310
8BE1D3457E8CEA0820B973E5F311BF2DBA5F1EF89FB2631A191919191919191919191919191919191919191919191979B5FC03E1F7FBEFAB2272A90000000049454E44AE426082
  0
ENDSEC
  0
EOF
