  0
SECTION
  2
HEADER
  9
$ACADVER
  1
AC1032
  9
$ACADMAINTVER
 90
        4
  9
$DWGCODEPAGE
  3
ANSI_1252
  9
$LASTSAVEDBY
  1
Siqi
  9
$REQUIREDVERSIONS
160
                 0
  9
$INSBASE
 10
0.0
 20
0.0
 30
0.0
  9
$EXTMIN
 10
-7928.446699289875
 20
-3901.299921888059
 30
0.0
  9
$EXTMAX
 10
7619.146555407546
 20
7406.781385560158
 30
0.0
  9
$LIMMIN
 10
0.0
 20
0.0
  9
$LIMMAX
 10
420.0
 20
297.0
  9
$ORTHOMODE
 70
     0
  9
$REGENMODE
 70
     1
  9
$FILLMODE
 70
     1
  9
$QTEXTMODE
 70
     0
  9
$MIRRTEXT
 70
     0
  9
$LTSCALE
 40
1.0
  9
$ATTMODE
 70
     1
  9
$TEXTSIZE
 40
2.5
  9
$TRACEWID
 40
1.0
  9
$TEXTSTYLE
  7
样式 2
  9
$CLAYER
  8
图层3
  9
$CELTYPE
  6
ByLayer
  9
$CECOLOR
 62
   256
  9
$CELTSCALE
 40
1.0
  9
$DISPSILH
 70
     0
  9
$DIMSCALE
 40
1.0
  9
$DIMASZ
 40
12.0
  9
$DIMEXO
 40
4.0
  9
$DIMDLI
 40
3.75
  9
$DIMRND
 40
0.0
  9
$DIMDLE
 40
0.0
  9
$DIMEXE
 40
1.25
  9
$DIMTP
 40
0.0
  9
$DIMTM
 40
0.0
  9
$DIMTXT
 40
14.0
  9
$DIMCEN
 40
80.0
  9
$DIMTSZ
 40
0.0
  9
$DIMTOL
 70
     0
  9
$DIMLIM
 70
     0
  9
$DIMTIH
 70
     0
  9
$DIMTOH
 70
     1
  9
$DIMSE1
 70
     0
  9
$DIMSE2
 70
     0
  9
$DIMTAD
 70
     1
  9
$DIMZIN
 70
     8
  9
$DIMBLK
  1

  9
$DIMASO
 70
     1
  9
$DIMSHO
 70
     1
  9
$DIMPOST
  1

  9
$DIMAPOST
  1

  9
$DIMALT
 70
     0
  9
$DIMALTD
 70
     3
  9
$DIMALTF
 40
0.03937007874016
  9
$DIMLFAC
 40
1.0
  9
$DIMTOFL
 70
     1
  9
$DIMTVP
 40
0.0
  9
$DIMTIX
 70
     0
  9
$DIMSOXD
 70
     0
  9
$DIMSAH
 70
     0
  9
$DIMBLK1
  1

  9
$DIMBLK2
  1

  9
$DIMSTYLE
  2
ISO-25
  9
$DIMCLRD
 70
     0
  9
$DIMCLRE
 70
     0
  9
$DIMCLRT
 70
     0
  9
$DIMTFAC
 40
1.0
  9
$DIMGAP
 40
5.0
  9
$DIMJUST
 70
     0
  9
$DIMSD1
 70
     0
  9
$DIMSD2
 70
     0
  9
$DIMTOLJ
 70
     0
  9
$DIMTZIN
 70
     8
  9
$DIMALTZ
 70
     0
  9
$DIMALTTZ
 70
     0
  9
$DIMUPT
 70
     0
  9
$DIMDEC
 70
     2
  9
$DIMTDEC
 70
     2
  9
$DIMALTU
 70
     7
  9
$DIMALTTD
 70
     3
  9
$DIMTXSTY
  7
Standard
  9
$DIMAUNIT
 70
     0
  9
$DIMADEC
 70
     0
  9
$DIMALTRND
 40
0.0
  9
$DIMAZIN
 70
     0
  9
$DIMDSEP
 70
    46
  9
$DIMATFIT
 70
     3
  9
$DIMFRAC
 70
     0
  9
$DIMLDRBLK
  1

  9
$DIMLUNIT
 70
     2
  9
$DIMLWD
 70
    -2
  9
$DIMLWE
 70
    -2
  9
$DIMTMOVE
 70
     0
  9
$DIMFXL
 40
1.0
  9
$DIMFXLON
 70
     0
  9
$DIMJOGANG
 40
0.7853981633974483
  9
$DIMTFILL
 70
     0
  9
$DIMTFILLCLR
 70
     0
  9
$DIMARCSYM
 70
     0
  9
$DIMLTYPE
  6

  9
$DIMLTEX1
  6

  9
$DIMLTEX2
  6

  9
$DIMTXTDIRECTION
 70
     0
  9
$LUNITS
 70
     2
  9
$LUPREC
 70
     4
  9
$SKETCHINC
 40
1.0
  9
$FILLETRAD
 40
2.5
  9
$AUNITS
 70
     0
  9
$AUPREC
 70
     0
  9
$MENU
  1
.
  9
$ELEVATION
 40
0.0
  9
$PELEVATION
 40
0.0
  9
$THICKNESS
 40
0.0
  9
$LIMCHECK
 70
     0
  9
$CHAMFERA
 40
72.0
  9
$CHAMFERB
 40
72.0
  9
$CHAMFERC
 40
0.0
  9
$CHAMFERD
 40
0.0
  9
$SKPOLY
 70
     0
  9
$TDCREATE
 40
2454478.682291667
  9
$TDUCREATE
 40
2454479.015631863
  9
$TDUPDATE
 40
2457974.700949074
  9
$TDUUPDATE
 40
2457974.992615741
  9
$TDINDWG
 40
0.4250479514
  9
$TDUSRTIMER
 40
0.4250405440
  9
$USRTIMER
 70
     1
  9
$ANGBASE
 50
0.0
  9
$ANGDIR
 70
     0
  9
$PDMODE
 70
     0
  9
$PDSIZE
 40
0.0
  9
$PLINEWID
 40
0.0
  9
$SPLFRAME
 70
     0
  9
$SPLINETYPE
 70
     6
  9
$SPLINESEGS
 70
     8
  9
$HANDSEED
  5
1E0B
  9
$SURFTAB1
 70
     6
  9
$SURFTAB2
 70
     6
  9
$SURFTYPE
 70
     6
  9
$SURFU
 70
     6
  9
$SURFV
 70
     6
  9
$UCSBASE
  2

  9
$UCSNAME
  2

  9
$UCSORG
 10
0.0
 20
0.0
 30
0.0
  9
$UCSXDIR
 10
1.0
 20
0.0
 30
0.0
  9
$UCSYDIR
 10
0.0
 20
1.0
 30
0.0
  9
$UCSORTHOREF
  2

  9
$UCSORTHOVIEW
 70
     0
  9
$UCSORGTOP
 10
0.0
 20
0.0
 30
0.0
  9
$UCSORGBOTTOM
 10
0.0
 20
0.0
 30
0.0
  9
$UCSORGLEFT
 10
0.0
 20
0.0
 30
0.0
  9
$UCSORGRIGHT
 10
0.0
 20
0.0
 30
0.0
  9
$UCSORGFRONT
 10
0.0
 20
0.0
 30
0.0
  9
$UCSORGBACK
 10
0.0
 20
0.0
 30
0.0
  9
$PUCSBASE
  2

  9
$PUCSNAME
  2

  9
$PUCSORG
 10
0.0
 20
0.0
 30
0.0
  9
$PUCSXDIR
 10
1.0
 20
0.0
 30
0.0
  9
$PUCSYDIR
 10
0.0
 20
1.0
 30
0.0
  9
$PUCSORTHOREF
  2

  9
$PUCSORTHOVIEW
 70
     0
  9
$PUCSORGTOP
 10
0.0
 20
0.0
 30
0.0
  9
$PUCSORGBOTTOM
 10
0.0
 20
0.0
 30
0.0
  9
$PUCSORGLEFT
 10
0.0
 20
0.0
 30
0.0
  9
$PUCSORGRIGHT
 10
0.0
 20
0.0
 30
0.0
  9
$PUCSORGFRONT
 10
0.0
 20
0.0
 30
0.0
  9
$PUCSORGBACK
 10
0.0
 20
0.0
 30
0.0
  9
$USERI1
 70
     0
  9
$USERI2
 70
     0
  9
$USERI3
 70
     0
  9
$USERI4
 70
     0
  9
$USERI5
 70
     0
  9
$USERR1
 40
0.0
  9
$USERR2
 40
0.0
  9
$USERR3
 40
0.0
  9
$USERR4
 40
0.0
  9
$USERR5
 40
0.0
  9
$WORLDVIEW
 70
     1
  9
$SHADEDGE
 70
     3
  9
$SHADEDIF
 70
    70
  9
$TILEMODE
 70
     1
  9
$MAXACTVP
 70
    64
  9
$PINSBASE
 10
0.0
 20
0.0
 30
0.0
  9
$PLIMCHECK
 70
     0
  9
$PEXTMIN
 10
0.0
 20
0.0
 30
0.0
  9
$PEXTMAX
 10
0.0
 20
0.0
 30
0.0
  9
$PLIMMIN
 10
0.0
 20
0.0
  9
$PLIMMAX
 10
12.0
 20
9.0
  9
$UNITMODE
 70
     0
  9
$VISRETAIN
 70
     1
  9
$PLINEGEN
 70
     0
  9
$PSLTSCALE
 70
     1
  9
$TREEDEPTH
 70
  3020
  9
$CMLSTYLE
  2
Standard
  9
$CMLJUST
 70
     0
  9
$CMLSCALE
 40
20.0
  9
$PROXYGRAPHICS
 70
     1
  9
$MEASUREMENT
 70
     1
  9
$CELWEIGHT
370
    -1
  9
$ENDCAPS
280
     0
  9
$JOINSTYLE
280
     0
  9
$LWDISPLAY
290
     0
  9
$INSUNITS
 70
     4
  9
$HYPERLINKBASE
  1

  9
$STYLESHEET
  1

  9
$XEDIT
290
     1
  9
$CEPSNTYPE
380
     0
  9
$PSTYLEMODE
290
     1
  9
$FINGERPRINTGUID
  2
{A1E31DAB-0B47-4E55-A573-340F7E1FE749}
  9
$VERSIONGUID
  2
{E179CD54-3FF8-6E41-BB53-3203D3E283C4}
  9
$EXTNAMES
290
     1
  9
$PSVPSCALE
 40
0.0
  9
$OLESTARTUP
290
     0
  9
$SORTENTS
280
   127
  9
$INDEXCTL
280
     0
  9
$HIDETEXT
280
     1
  9
$XCLIPFRAME
280
     0
  9
$HALOGAP
280
     0
  9
$OBSCOLOR
 70
   257
  9
$OBSLTYPE
280
     0
  9
$INTERSECTIONDISPLAY
280
     0
  9
$INTERSECTIONCOLOR
 70
   257
  9
$DIMASSOC
280
     2
  9
$PROJECTNAME
  1

  9
$CAMERADISPLAY
290
     0
  9
$LENSLENGTH
 40
50.0
  9
$CAMERAHEIGHT
 40
0.0
  9
$STEPSPERSEC
 40
2.0
  9
$STEPSIZE
 40
6.0
  9
$3DDWFPREC
 40
2.0
  9
$PSOLWIDTH
 40
0.25
  9
$PSOLHEIGHT
 40
4.0
  9
$LOFTANG1
 40
1.570796326794896
  9
$LOFTANG2
 40
1.570796326794896
  9
$LOFTMAG1
 40
0.0
  9
$LOFTMAG2
 40
0.0
  9
$LOFTPARAM
 70
     7
  9
$LOFTNORMALS
280
     1
  9
$LATITUDE
 40
37.795
  9
$LONGITUDE
 40
-122.394
  9
$NORTHDIRECTION
 40
0.0
  9
$TIMEZONE
 70
 -8000
  9
$LIGHTGLYPHDISPLAY
280
     1
  9
$TILEMODELIGHTSYNCH
280
     1
  9
$CMATERIAL
347
1B25
  9
$SOLIDHIST
280
     0
  9
$SHOWHIST
280
     1
  9
$DWFFRAME
280
     2
  9
$DGNFRAME
280
     0
  9
$REALWORLDSCALE
290
     1
  9
$INTERFERECOLOR
 62
     1
  9
$INTERFEREOBJVS
345
1B47
  9
$INTERFEREVPVS
346
1B44
  9
$CSHADOW
280
     0
  9
$SHADOWPLANELOCATION
 40
0.0
  0
ENDSEC
  0
SECTION
  2
CLASSES
  0
CLASS
  1
ACDBDICTIONARYWDFLT
  2
AcDbDictionaryWithDefault
  3
ObjectDBX Classes
 90
        0
 91
        1
280
     0
281
     0
  0
CLASS
  1
DICTIONARYVAR
  2
AcDbDictionaryVar
  3
ObjectDBX Classes
 90
        0
 91
       11
280
     0
281
     0
  0
CLASS
  1
TABLESTYLE
  2
AcDbTableStyle
  3
ObjectDBX Classes
 90
     4095
 91
        1
280
     0
281
     0
  0
CLASS
  1
DIMASSOC
  2
AcDbDimAssoc
  3
"AcDbDimAssoc|Product Desc:     AcDim ARX App For Dimension|Company:          Autodesk, Inc.|WEB Address:      www.autodesk.com"
 90
        0
 91
       24
280
     0
281
     0
  0
CLASS
  1
SORTENTSTABLE
  2
AcDbSortentsTable
  3
ObjectDBX Classes
 90
        0
 91
        3
280
     0
281
     0
  0
CLASS
  1
MATERIAL
  2
AcDbMaterial
  3
ObjectDBX Classes
 90
     1153
 91
        3
280
     0
281
     0
  0
CLASS
  1
VISUALSTYLE
  2
AcDbVisualStyle
  3
ObjectDBX Classes
 90
     4095
 91
       24
280
     0
281
     0
  0
CLASS
  1
SCALE
  2
AcDbScale
  3
ObjectDBX Classes
 90
     1153
 91
       17
280
     0
281
     0
  0
CLASS
  1
MLEADERSTYLE
  2
AcDbMLeaderStyle
  3
ACDB_MLEADERSTYLE_CLASS
 90
     4095
 91
        1
280
     0
281
     0
  0
CLASS
  1
ACDBSECTIONVIEWSTYLE
  2
AcDbSectionViewStyle
  3
ObjectDBX Classes
 90
     1025
 91
        1
280
     0
281
     0
  0
CLASS
  1
ACDBDETAILVIEWSTYLE
  2
AcDbDetailViewStyle
  3
ObjectDBX Classes
 90
     1025
 91
        1
280
     0
281
     0
  0
CLASS
  1
CELLSTYLEMAP
  2
AcDbCellStyleMap
  3
ObjectDBX Classes
 90
     1152
 91
        1
280
     0
281
     0
  0
ENDSEC
  0
SECTION
  2
TABLES
  0
TABLE
  2
VPORT
  5
8
330
0
100
AcDbSymbolTable
 70
     1
  0
VPORT
  5
1B23
330
8
100
AcDbSymbolTableRecord
100
AcDbViewportTableRecord
  2
*Active
 70
     0
 10
0.0
 20
0.0
 11
1.0
 21
1.0
 12
1490.519574272196
 22
701.3453777480117
 13
0.0
 23
0.0
 14
10.0
 24
10.0
 15
10.0
 25
10.0
 16
0.0
 26
0.0
 36
1.0
 17
0.0
 27
0.0
 37
0.0
 40
844.534586252932
 41
1.913595933926302
 42
50.0
 43
0.0
 44
0.0
 50
0.0
 51
0.0
 71
     0
 72
  1000
 73
     1
 74
     3
 75
     0
 76
     0
 77
     0
 78
     0
281
     0
 65
     1
110
0.0
120
0.0
130
0.0
111
1.0
121
0.0
131
0.0
112
0.0
122
1.0
132
0.0
 79
     0
146
0.0
348
1B43
 60
     3
 61
     5
292
     1
282
     1
141
0.0
142
0.0
 63
   250
421
  3355443
1001
ACAD_NAV_VCDISPLAY
1070
     3
  0
ENDTAB
  0
TABLE
  2
LTYPE
  5
5
330
0
100
AcDbSymbolTable
 70
     5
  0
LTYPE
  5
14
330
5
100
AcDbSymbolTableRecord
100
AcDbLinetypeTableRecord
  2
ByBlock
 70
     0
  3

 72
    65
 73
     0
 40
0.0
  0
LTYPE
  5
15
330
5
100
AcDbSymbolTableRecord
100
AcDbLinetypeTableRecord
  2
ByLayer
 70
     0
  3

 72
    65
 73
     0
 40
0.0
  0
LTYPE
  5
16
330
5
100
AcDbSymbolTableRecord
100
AcDbLinetypeTableRecord
  2
Continuous
 70
     0
  3
Solid line
 72
    65
 73
     0
 40
0.0
  0
LTYPE
  5
E42
330
5
100
AcDbSymbolTableRecord
100
AcDbLinetypeTableRecord
  2
JIS_08_15
 70
     0
  3
1SASEN15 ____ _ ____ _ ____ _ ____ _ ____
 72
    65
 73
     4
 40
17.25
 49
15.0
 74
     0
 49
-0.75
 74
     0
 49
0.75
 74
     0
 49
-0.75
 74
     0
  0
LTYPE
  5
E45
330
5
100
AcDbSymbolTableRecord
100
AcDbLinetypeTableRecord
  2
CENTER2
 70
     0
  3
Center (.5x) ___ _ ___ _ ___ _ ___ _ ___ _ ___
 72
    65
 73
     4
 40
28.575
 49
19.05
 74
     0
 49
-3.174999999999999
 74
     0
 49
3.174999999999999
 74
     0
 49
-3.174999999999999
 74
     0
  0
LTYPE
  5
E4C
330
5
100
AcDbSymbolTableRecord
100
AcDbLinetypeTableRecord
  2
DASHED2
 70
     0
  3
Dashed (.5x) _ _ _ _ _ _ _ _ _ _ _ _ _ _ _ _ _
 72
    65
 73
     2
 40
9.524999999999998
 49
6.349999999999999
 74
     0
 49
-3.174999999999999
 74
     0
  0
LTYPE
  5
E4F
330
5
100
AcDbSymbolTableRecord
100
AcDbLinetypeTableRecord
  2
DASHED
 70
     0
  3
Dashed __ __ __ __ __ __ __ __ __ __ __ __ __ _
 72
    65
 73
     2
 40
19.05
 49
12.7
 74
     0
 49
-6.349999999999999
 74
     0
  0
ENDTAB
  0
TABLE
  2
LAYER
  5
2
102
{ACAD_XDICTIONARY
360
F5
102
}
330
0
100
AcDbSymbolTable
 70
     6
  0
LAYER
  5
10
102
{ACAD_XDICTIONARY
360
1B7C
102
}
330
2
100
AcDbSymbolTableRecord
100
AcDbLayerTableRecord
  2
0
 70
     0
 62
     7
  6
Continuous
370
    -3
390
F
347
1B35
348
0
  0
LAYER
  5
F1
102
{ACAD_XDICTIONARY
360
1B7E
102
}
330
2
100
AcDbSymbolTableRecord
100
AcDbLayerTableRecord
  2
图层1
 70
     0
 62
     7
  6
CENTER2
370
    18
390
F
347
1B35
348
0
1001
AcAecLayerStandard
1000

1000

1001
AcadStringInfo
1000
MIFCodePage
1070
     5
  0
LAYER
  5
F3
102
{ACAD_XDICTIONARY
360
1B80
102
}
330
2
100
AcDbSymbolTableRecord
100
AcDbLayerTableRecord
  2
图层2
 70
     0
 62
     7
  6
Continuous
370
    30
390
F
347
1B35
348
0
1001
AcAecLayerStandard
1000

1000

1001
AcadStringInfo
1000
MIFCodePage
1070
     5
  0
LAYER
  5
F4
102
{ACAD_XDICTIONARY
360
1B82
102
}
330
2
100
AcDbSymbolTableRecord
100
AcDbLayerTableRecord
  2
图层3
 70
     0
 62
     7
  6
Continuous
370
    20
390
F
347
1B35
348
0
1001
AcAecLayerStandard
1000

1000

1001
AcadStringInfo
1000
MIFCodePage
1070
     5
  0
LAYER
  5
14C
330
2
100
AcDbSymbolTableRecord
100
AcDbLayerTableRecord
  2
Defpoints
 70
     0
 62
     7
  6
Continuous
290
     0
370
    -3
390
F
347
1B35
348
0
  0
LAYER
  5
E48
102
{ACAD_XDICTIONARY
360
1B84
102
}
330
2
100
AcDbSymbolTableRecord
100
AcDbLayerTableRecord
  2
图层4
 70
     0
 62
     7
  6
DASHED
370
    18
390
F
347
1B35
348
0
1001
AcAecLayerStandard
1000

1000

1001
AcadStringInfo
1000
MIFCodePage
1070
     5
  0
ENDTAB
  0
TABLE
  2
STYLE
  5
3
330
0
100
AcDbSymbolTable
 70
     4
  0
STYLE
  5
11
330
3
100
AcDbSymbolTableRecord
100
AcDbTextStyleTableRecord
  2
Standard
 70
     0
 40
0.0
 41
1.0
 50
0.0
 71
     0
 42
2.5
  3
txt
  4
gbcbig.shx
  0
STYLE
  5
E41
330
3
100
AcDbSymbolTableRecord
100
AcDbTextStyleTableRecord
  2

 70
     1
 40
0.0
 41
1.0
 50
0.0
 71
     0
 42
2.5
  3
ltypeshp.shx
  4

  0
STYLE
  5
EB5
330
3
100
AcDbSymbolTableRecord
100
AcDbTextStyleTableRecord
  2
样式 1
 70
     0
 40
0.0
 41
1.1
 50
0.0
 71
     0
 42
2.5
  3
txt.shx
  4

1001
AcadStringInfo
1000
MIFCodePage
1070
     5
  0
STYLE
  5
1914
330
3
100
AcDbSymbolTableRecord
100
AcDbTextStyleTableRecord
  2
样式 2
 70
     0
 40
0.0
 41
0.35
 50
0.0
 71
     0
 42
2.5
  3
txt.shx
  4
gbcbig.shx
1001
AcadStringInfo
1000
MIFCodePage
1070
     5
  0
ENDTAB
  0
TABLE
  2
VIEW
  5
6
330
0
100
AcDbSymbolTable
 70
     1
  0
ENDTAB
  0
TABLE
  2
UCS
  5
7
330
0
100
AcDbSymbolTable
 70
     0
  0
ENDTAB
  0
TABLE
  2
APPID
  5
9
330
0
100
AcDbSymbolTable
 70
     8
  0
APPID
  5
12
330
9
100
AcDbSymbolTableRecord
100
AcDbRegAppTableRecord
  2
ACAD
 70
     0
  0
APPID
  5
9E
330
9
100
AcDbSymbolTableRecord
100
AcDbRegAppTableRecord
  2
ACAD_PSEXT
 70
     0
  0
APPID
  5
F2
330
9
100
AcDbSymbolTableRecord
100
AcDbRegAppTableRecord
  2
AcAecLayerStandard
 70
     0
  0
APPID
  5
FA
330
9
100
AcDbSymbolTableRecord
100
AcDbRegAppTableRecord
  2
ACAD_DSTYLE_DIMTEXT_FILL
 70
     0
  0
APPID
  5
1B56
330
9
100
AcDbSymbolTableRecord
100
AcDbRegAppTableRecord
  2
AcadStringInfo
 70
     0
  0
APPID
  5
1B91
330
9
100
AcDbSymbolTableRecord
100
AcDbRegAppTableRecord
  2
ACAD_NAV_VCDISPLAY
 70
     0
  0
APPID
  5
1B9A
330
9
100
AcDbSymbolTableRecord
100
AcDbRegAppTableRecord
  2
AcadAnnoMonitorAlertIconDisabled
 70
     0
  0
APPID
  5
1B9B
330
9
100
AcDbSymbolTableRecord
100
AcDbRegAppTableRecord
  2
ACAD_EXEMPT_FROM_CAD_STANDARDS
 70
     0
  0
ENDTAB
  0
TABLE
  2
DIMSTYLE
  5
A
330
0
100
AcDbSymbolTable
 70
     2
100
AcDbDimStyleTable
 71
     2
340
27
340
1361
  0
DIMSTYLE
105
27
102
{ACAD_REACTORS
330
1570
330
15A0
330
16DB
330
16EB
330
1711
330
1729
330
1739
330
1749
330
1759
330
1779
330
1789
330
1799
330
17A9
330
17C1
330
17D9
330
17F1
330
1821
330
1839
330
1851
330
186A
330
1995
330
1A4B
330
1A78
102
}
330
A
100
AcDbSymbolTableRecord
100
AcDbDimStyleTableRecord
  2
ISO-25
 70
     0
 41
12.0
 42
4.0
 43
3.75
 44
1.25
 73
     0
 74
     0
 77
     1
 78
     8
140
14.0
141
80.0
143
0.03937007874016
147
5.0
171
     3
172
     1
173
     1
271
     2
272
     2
273
     7
274
     3
283
     0
284
     8
340
11
344
11D5
  0
DIMSTYLE
105
1361
102
{ACAD_REACTORS
330
165A
330
1672
102
}
330
A
100
AcDbSymbolTableRecord
100
AcDbDimStyleTableRecord
  2
副本 ISO-25
 70
     0
 41
12.0
 42
4.0
 43
3.75
 44
1.25
 73
     0
 74
     0
 77
     1
 78
     8
140
14.0
141
80.0
143
0.03937007874016
147
5.0
171
     3
172
     1
271
     2
272
     2
273
     7
274
     3
283
     0
284
     8
340
11
344
11D5
1001
AcadStringInfo
1000
MIFCodePage
1070
     5
  0
ENDTAB
  0
TABLE
  2
BLOCK_RECORD
  5
1
330
0
100
AcDbSymbolTable
 70
    34
  0
BLOCK_RECORD
  5
1F
102
{ACAD_XDICTIONARY
360
201
102
}
330
1
100
AcDbSymbolTableRecord
100
AcDbBlockTableRecord
  2
*Model_Space
340
22
 70
     0
280
     1
281
     0
  0
BLOCK_RECORD
  5
D2
330
1
100
AcDbSymbolTableRecord
100
AcDbBlockTableRecord
  2
*Paper_Space
340
D3
 70
     0
280
     1
281
     0
  0
BLOCK_RECORD
  5
D6
330
1
100
AcDbSymbolTableRecord
100
AcDbBlockTableRecord
  2
*Paper_Space0
340
D7
 70
     0
280
     1
281
     0
  0
BLOCK_RECORD
  5
EB7
102
{ACAD_XDICTIONARY
360
ECB
102
}
330
1
100
AcDbSymbolTableRecord
100
AcDbBlockTableRecord
  2
c
340
0
102
{BLKREFS
331
ED3
102
}
 70
     4
280
     1
281
     0
  0
BLOCK_RECORD
  5
11D5
330
1
100
AcDbSymbolTableRecord
100
AcDbBlockTableRecord
  2
_None
340
0
 70
     0
280
     1
281
     0
  0
BLOCK_RECORD
  5
132F
330
1
100
AcDbSymbolTableRecord
100
AcDbBlockTableRecord
  2
_Dot
340
0
 70
     0
280
     1
281
     0
  0
BLOCK_RECORD
  5
1344
330
1
100
AcDbSymbolTableRecord
100
AcDbBlockTableRecord
  2
_DotSmall
340
0
 70
     0
280
     1
281
     0
  0
BLOCK_RECORD
  5
1571
330
1
100
AcDbSymbolTableRecord
100
AcDbBlockTableRecord
  2
*D5
340
0
 70
     0
280
     1
281
     0
  0
BLOCK_RECORD
  5
15A1
330
1
100
AcDbSymbolTableRecord
100
AcDbBlockTableRecord
  2
*D7
340
0
 70
     0
280
     1
281
     0
  0
BLOCK_RECORD
  5
165B
330
1
100
AcDbSymbolTableRecord
100
AcDbBlockTableRecord
  2
*D8
340
0
 70
     0
280
     1
281
     0
  0
BLOCK_RECORD
  5
1673
330
1
100
AcDbSymbolTableRecord
100
AcDbBlockTableRecord
  2
*D9
340
0
 70
     0
280
     1
281
     0
  0
BLOCK_RECORD
  5
16DC
330
1
100
AcDbSymbolTableRecord
100
AcDbBlockTableRecord
  2
*D10
340
0
 70
     0
280
     1
281
     0
  0
BLOCK_RECORD
  5
16EC
330
1
100
AcDbSymbolTableRecord
100
AcDbBlockTableRecord
  2
*D11
340
0
 70
     0
280
     1
281
     0
  0
BLOCK_RECORD
  5
1712
330
1
100
AcDbSymbolTableRecord
100
AcDbBlockTableRecord
  2
*D12
340
0
 70
     0
280
     1
281
     0
  0
BLOCK_RECORD
  5
172A
330
1
100
AcDbSymbolTableRecord
100
AcDbBlockTableRecord
  2
*D13
340
0
 70
     0
280
     1
281
     0
  0
BLOCK_RECORD
  5
173A
330
1
100
AcDbSymbolTableRecord
100
AcDbBlockTableRecord
  2
*D14
340
0
 70
     0
280
     1
281
     0
  0
BLOCK_RECORD
  5
174A
330
1
100
AcDbSymbolTableRecord
100
AcDbBlockTableRecord
  2
*D15
340
0
 70
     0
280
     1
281
     0
  0
BLOCK_RECORD
  5
175A
330
1
100
AcDbSymbolTableRecord
100
AcDbBlockTableRecord
  2
*D16
340
0
 70
     0
280
     1
281
     0
  0
BLOCK_RECORD
  5
177A
330
1
100
AcDbSymbolTableRecord
100
AcDbBlockTableRecord
  2
*D18
340
0
 70
     0
280
     1
281
     0
  0
BLOCK_RECORD
  5
178A
330
1
100
AcDbSymbolTableRecord
100
AcDbBlockTableRecord
  2
*D19
340
0
 70
     0
280
     1
281
     0
  0
BLOCK_RECORD
  5
179A
330
1
100
AcDbSymbolTableRecord
100
AcDbBlockTableRecord
  2
*D20
340
0
 70
     0
280
     1
281
     0
  0
BLOCK_RECORD
  5
17AA
330
1
100
AcDbSymbolTableRecord
100
AcDbBlockTableRecord
  2
*D21
340
0
 70
     0
280
     1
281
     0
  0
BLOCK_RECORD
  5
17C2
330
1
100
AcDbSymbolTableRecord
100
AcDbBlockTableRecord
  2
*D22
340
0
 70
     0
280
     1
281
     0
  0
BLOCK_RECORD
  5
17DA
330
1
100
AcDbSymbolTableRecord
100
AcDbBlockTableRecord
  2
*D23
340
0
 70
     0
280
     1
281
     0
  0
BLOCK_RECORD
  5
17F2
330
1
100
AcDbSymbolTableRecord
100
AcDbBlockTableRecord
  2
*D24
340
0
 70
     0
280
     1
281
     0
  0
BLOCK_RECORD
  5
1822
330
1
100
AcDbSymbolTableRecord
100
AcDbBlockTableRecord
  2
*D25
340
0
 70
     0
280
     1
281
     0
  0
BLOCK_RECORD
  5
183A
330
1
100
AcDbSymbolTableRecord
100
AcDbBlockTableRecord
  2
*D26
340
0
 70
     0
280
     1
281
     0
  0
BLOCK_RECORD
  5
1852
330
1
100
AcDbSymbolTableRecord
100
AcDbBlockTableRecord
  2
*D27
340
0
 70
     0
280
     1
281
     0
  0
BLOCK_RECORD
  5
186B
330
1
100
AcDbSymbolTableRecord
100
AcDbBlockTableRecord
  2
*D28
340
0
 70
     0
280
     1
281
     0
  0
BLOCK_RECORD
  5
1910
330
1
100
AcDbSymbolTableRecord
100
AcDbBlockTableRecord
  2
h
340
0
310
2800000020000000200000000100080000000000000400000000000000000000000000000000000000000000000080000080000000808000800000008000800080800000C0C0C000C0DCC000F0CAA6000020400000206000002080000020A0000020C0000020E00000400000004020000040400000406000004080000040A0
310
000040C0000040E00000600000006020000060400000606000006080000060A0000060C0000060E00000800000008020000080400000806000008080000080A0000080C0000080E00000A0000000A0200000A0400000A0600000A0800000A0A00000A0C00000A0E00000C0000000C0200000C0400000C0600000C0800000C0
310
A00000C0C00000C0E00000E0000000E0200000E0400000E0600000E0800000E0A00000E0C00000E0E00040000000400020004000400040006000400080004000A0004000C0004000E00040200000402020004020400040206000402080004020A0004020C0004020E000404000004040200040404000404060004040800040
310
40A0004040C0004040E00040600000406020004060400040606000406080004060A0004060C0004060E00040800000408020004080400040806000408080004080A0004080C0004080E00040A0000040A0200040A0400040A0600040A0800040A0A00040A0C00040A0E00040C0000040C0200040C0400040C0600040C08000
310
40C0A00040C0C00040C0E00040E0000040E0200040E0400040E0600040E0800040E0A00040E0C00040E0E00080000000800020008000400080006000800080008000A0008000C0008000E00080200000802020008020400080206000802080008020A0008020C0008020E00080400000804020008040400080406000804080
310
008040A0008040C0008040E00080600000806020008060400080606000806080008060A0008060C0008060E00080800000808020008080400080806000808080008080A0008080C0008080E00080A0000080A0200080A0400080A0600080A0800080A0A00080A0C00080A0E00080C0000080C0200080C0400080C0600080C0
310
800080C0A00080C0C00080C0E00080E0000080E0200080E0400080E0600080E0800080E0A00080E0C00080E0E000C0000000C0002000C0004000C0006000C0008000C000A000C000C000C000E000C0200000C0202000C0204000C0206000C0208000C020A000C020C000C020E000C0400000C0402000C0404000C0406000C0
310
408000C040A000C040C000C040E000C0600000C0602000C0604000C0606000C0608000C060A000C060C000C060E000C0800000C0802000C0804000C0806000C0808000C080A000C080C000C080E000C0A00000C0A02000C0A04000C0A06000C0A08000C0A0A000C0A0C000C0A0E000C0C00000C0C02000C0C04000C0C06000
310
C0C08000C0C0A000F0FBFF00A4A0A000808080000000FF0000FF000000FFFF00FF000000FF00FF00FFFF0000FFFFFF0000000000000000000000000000000000000000000000000000000000000000000000000000000000000000000000000000000000000000000000000000000000000000000000000000000000000000
310
00000000000000000000000000000000000000000000000000000000000000000000000000000000000000000000000000000000000000000000000000000000000000000000000000000000000000000000000000000000000000000000000000000000000000000000000000000000000000000000000000000000000000
310
00000000000000000000000000000000000000000000000000000000000000000000000000000000000000000000000000000000000000000000000000000000000000000000000000000000000000000000000000000000000000000000000000000000000000000000000000000000000000000000000000000000000000
310
00000000000000000000000000000000000000000000000000000000000000000000000000000000000000000000000000000000000000000000000000000000000000000000000000000000000000000000000000000000000000000000000000000000000000000000000000000000000000000000000000000000000000
310
000000000000000000000000000000000000000000FAFAFAFAFAFAFAFAFAFAFAFAFAFAFAFAFAFAFAFAFAFAFAFAFAFAFA000000000000FAFAFAFAFAFAFAFAFAFAFAFAFAFAFAFAFAFAFAFAFAFAFAFAFAFA0000000000000000000000000000000000000000000000000000000000000000000000000000000000000000000000
310
00000000000000000000000000000000000000000000000000000000000000000000000000000000000000000000000000000000000000000000000000000000000000000000000000000000000000000000000000000000000000000000000000000000000000000000000000000000000000000000000000000000000000
310
00000000000000000000000000000000000000000000000000000000000000000000000000000000000000000000000000000000000000000000000000000000000000000000000000000000000000000000000000000000000000000000000000000000000000000000000000000000000000000000000000000000000000
310
00000000000000000000000000000000000000000000000000000000000000000000000000000000000000000000000000000000000000000000000000000000000000000000000000000000000000000000000000000000000000000000000000000000000000000000000000000000000000000000000000000000000000
310
0000000000000000000000000000000000000000000000000000000000000000000000000000000000000000000000000000000000000000
 70
     4
280
     1
281
     0
  0
BLOCK_RECORD
  5
1915
102
{ACAD_XDICTIONARY
360
1935
102
}
330
1
100
AcDbSymbolTableRecord
100
AcDbBlockTableRecord
  2
D
340
0
 70
     4
280
     1
281
     0
  0
BLOCK_RECORD
  5
1996
330
1
100
AcDbSymbolTableRecord
100
AcDbBlockTableRecord
  2
*D31
340
0
 70
     0
280
     1
281
     0
  0
BLOCK_RECORD
  5
1A4C
330
1
100
AcDbSymbolTableRecord
100
AcDbBlockTableRecord
  2
*D32
340
0
 70
     0
280
     1
281
     0
  0
BLOCK_RECORD
  5
1A79
330
1
100
AcDbSymbolTableRecord
100
AcDbBlockTableRecord
  2
*D33
340
0
 70
     0
280
     1
281
     0
  0
ENDTAB
  0
ENDSEC
  0
SECTION
  2
BLOCKS
  0
BLOCK
  5
20
330
1F
100
AcDbEntity
  8
0
100
AcDbBlockBegin
  2
*Model_Space
 70
     0
 10
0.0
 20
0.0
 30
0.0
  3
*Model_Space
  1

  0
ENDBLK
  5
21
330
1F
100
AcDbEntity
  8
0
100
AcDbBlockEnd
  0
BLOCK
  5
D4
330
D2
100
AcDbEntity
 67
     1
  8
0
100
AcDbBlockBegin
  2
*Paper_Space
 70
     0
 10
0.0
 20
0.0
 30
0.0
  3
*Paper_Space
  1

  0
ENDBLK
  5
D5
330
D2
100
AcDbEntity
 67
     1
  8
0
100
AcDbBlockEnd
  0
BLOCK
  5
D8
330
D6
100
AcDbEntity
 67
     1
  8
0
100
AcDbBlockBegin
  2
*Paper_Space0
 70
     0
 10
0.0
 20
0.0
 30
0.0
  3
*Paper_Space0
  1

  0
ENDBLK
  5
D9
330
D6
100
AcDbEntity
 67
     1
  8
0
100
AcDbBlockEnd
  0
BLOCK
  5
ECD
330
EB7
100
AcDbEntity
  8
0
100
AcDbBlockBegin
  2
c
 70
     0
 10
0.0
 20
0.0
 30
0.0
  3
c
  1

  0
MTEXT
  5
EB8
330
EB7
100
AcDbEntity
  8
图层3
100
AcDbMText
 10
54.71600927374021
 20
226.3160909522091
 30
0.0
 40
3.7
 41
320.0
 46
0.0
 71
     1
 72
     5
  1
{\fMS Reference Sans Serif|b0|i0|c0|p34;M\H1.027x;odel no:5052A\P\PSU3041.2mm\P\PMfg. date:XXXXX\P\PComplies with ASME A112.19.3 and CSA B45}
 73
     1
 44
1.0
  0
LINE
  5
EB9
330
EB7
100
AcDbEntity
  8
图层3
100
AcDbLine
 10
133.5798802168802
 20
221.116722845646
 30
0.0
 11
152.5798802168802
 21
221.116722845646
 31
0.0
  0
LINE
  5
EBA
330
EB7
100
AcDbEntity
  8
图层3
100
AcDbLine
 10
133.5798802168802
 20
221.116722845646
 30
0.0
 11
133.5798802168802
 21
213.116722845646
 31
0.0
  0
LINE
  5
EBB
330
EB7
100
AcDbEntity
  8
图层3
100
AcDbLine
 10
152.5798802168802
 20
221.116722845646
 30
0.0
 11
152.5798802168802
 21
213.116722845646
 31
0.0
  0
ARC
  5
EBC
330
EB7
100
AcDbEntity
  8
图层3
100
AcDbCircle
 10
152.8175005163763
 20
218.5860889160803
 30
0.0
 40
20.0
100
AcDbArc
 50
195.8707558324607
 51
240.8642149372622
  0
ARC
  5
EBD
330
EB7
100
AcDbEntity
  8
图层3
100
AcDbCircle
 10
133.0798802168803
 20
218.7938061789792
 30
0.0
 40
20.3095857952251
100
AcDbArc
 50
299.4970227370384
 51
343.7680064932391
  0
LINE
  5
EBE
330
EB7
100
AcDbEntity
  8
图层3
100
AcDbLine
 10
133.5798802168802
 20
221.116722845646
 30
0.0
 11
152.5798802168802
 21
213.116722845646
 31
0.0
  0
LINE
  5
EBF
330
EB7
100
AcDbEntity
  8
图层3
100
AcDbLine
 10
133.5798802168802
 20
214.6065560683549
 30
0.0
 11
150.2515382165315
 21
207.5869105948175
 31
0.0
  0
MTEXT
  5
EC0
330
EB7
100
AcDbEntity
  8
图层3
100
AcDbMText
 10
138.1416580824129
 20
216.860014701051
 30
0.0
 40
2.5
 41
4.719320932013005
 46
0.0
 71
     1
 72
     5
  1
{\fMS Reference Sans Serif|b0|i0|c0|p34;U}
 73
     1
 44
1.0
  0
MTEXT
  5
EC1
330
EB7
100
AcDbEntity
  8
图层3
100
AcDbMText
 10
142.1117902545913
 20
215.3487572451774
 30
0.0
 40
2.5
 41
1.316350149343662
 46
0.0
 71
     1
 72
     5
  1
{\fMS Reference Sans Serif|b0|i0|c0|p34;P}
 73
     1
 44
1.0
  0
MTEXT
  5
EC2
330
EB7
100
AcDbEntity
  8
图层3
100
AcDbMText
 10
145.5147618524657
 20
213.4596856031385
 30
0.0
 40
2.5
 41
4.915402377500981
 46
0.0
 71
     1
 72
     5
  1
{\fMS Reference Sans Serif|b0|i0|c0|p34;C}
 73
     1
 44
1.0
  0
MTEXT
  5
EC3
330
EB7
100
AcDbEntity
  8
图层3
100
AcDbMText
 10
132.4700397036948
 20
203.2586964128373
 30
0.0
 40
3.5
 41
5.104456174004042
 46
0.0
 71
     1
 72
     5
  1
{\fMS Reference Sans Serif|b0|i0|c0|p34;C}
 73
     1
 44
1.0
  0
CIRCLE
  5
EC4
330
EB7
100
AcDbEntity
  8
图层3
100
AcDbCircle
 10
151.5644878241899
 20
201.7474389569638
 30
0.0
 40
1.946073200565057
  0
MTEXT
  5
EC5
330
EB7
100
AcDbEntity
  8
图层3
100
AcDbMText
 10
151.0444204230561
 20
202.8808819896013
 30
0.0
 40
2.0
 41
0.9452693901175734
 46
0.0
 71
     1
 72
     5
  1
{\fSimHei|b0|i0|c134|p2;R}
 73
     1
 44
1.0
  0
LINE
  5
EC6
330
EB7
100
AcDbEntity
  8
图层3
100
AcDbLine
 10
49.55519078950499
 20
169.0633290678566
 30
0.0
 11
177.555190789505
 21
169.0633290678566
 31
0.0
  0
LINE
  5
EC7
330
EB7
100
AcDbEntity
  8
图层3
100
AcDbLine
 10
177.555190789505
 20
169.0633290678566
 30
0.0
 11
177.555190789505
 21
232.0633290678566
 31
0.0
  0
LINE
  5
EC8
330
EB7
100
AcDbEntity
  8
图层3
100
AcDbLine
 10
177.555190789505
 20
232.0633290678566
 30
0.0
 11
49.55519078950499
 21
232.0633290678566
 31
0.0
  0
LINE
  5
EC9
330
EB7
100
AcDbEntity
  8
图层3
100
AcDbLine
 10
49.55519078950499
 20
232.0633290678566
 30
0.0
 11
49.55519078950499
 21
169.0633290678566
 31
0.0
  0
MTEXT
  5
ECA
330
EB7
100
AcDbEntity
  8
图层3
100
AcDbMText
 10
54.30222319700829
 20
178.23411561022
 30
0.0
 40
3.5
 41
123.2529675924967
 46
0.0
 71
     1
 72
     5
  1
{\fFranklin Gothic Medium|b0|i0|c0|p34;Jian\fMicrosoft Sans Serif|b0|i0|c0|p34;gmen XHHL Stainless Steel Manufacturing Co.Ltd.}
 73
     1
 44
1.0
  0
ENDBLK
  5
ECE
330
EB7
100
AcDbEntity
  8
0
100
AcDbBlockEnd
  0
BLOCK
  5
11D6
330
11D5
100
AcDbEntity
  8
0
100
AcDbBlockBegin
  2
_None
 70
     0
 10
0.0
 20
0.0
 30
0.0
  3
_None
  1

  0
ENDBLK
  5
11D7
330
11D5
100
AcDbEntity
  8
0
100
AcDbBlockEnd
  0
BLOCK
  5
1332
330
132F
100
AcDbEntity
  8
0
100
AcDbBlockBegin
  2
_Dot
 70
     0
 10
0.0
 20
0.0
 30
0.0
  3
_Dot
  1

  0
LWPOLYLINE
  5
1330
330
132F
100
AcDbEntity
  8
0
  6
ByBlock
 62
     0
100
AcDbPolyline
 90
        2
 70
     1
 43
0.5
 10
-0.25
 20
0.0
 42
1.0
 10
0.25
 20
0.0
 42
1.0
  0
LINE
  5
1331
330
132F
100
AcDbEntity
  8
0
  6
ByBlock
 62
     0
370
    -2
100
AcDbLine
 10
-0.5
 20
0.0
 30
0.0
 11
-1.0
 21
0.0
 31
0.0
  0
ENDBLK
  5
1333
330
132F
100
AcDbEntity
  8
0
100
AcDbBlockEnd
  0
BLOCK
  5
1346
330
1344
100
AcDbEntity
  8
0
100
AcDbBlockBegin
  2
_DotSmall
 70
     0
 10
0.0
 20
0.0
 30
0.0
  3
_DotSmall
  1

  0
LWPOLYLINE
  5
1345
330
1344
100
AcDbEntity
  8
0
  6
ByBlock
 62
     0
100
AcDbPolyline
 90
        2
 70
     1
 43
0.5
 10
-0.0625
 20
0.0
 42
1.0
 10
0.0625
 20
0.0
 42
1.0
  0
ENDBLK
  5
1347
330
1344
100
AcDbEntity
  8
0
100
AcDbBlockEnd
  0
BLOCK
  5
157B
330
1571
100
AcDbEntity
  8
0
100
AcDbBlockBegin
  2
*D5
 70
     1
 10
0.0
 20
0.0
 30
0.0
  3
*D5
  1

  0
LINE
  5
1BB8
330
1571
100
AcDbEntity
  8
图层3
 62
     0
440
 16777216
370
    -2
100
AcDbLine
 10
1298.618744274413
 20
1105.488959601997
 30
0.0
 11
1298.618744274413
 21
1262.402185545234
 31
0.0
  0
LINE
  5
1BB9
330
1571
100
AcDbEntity
  8
图层3
 62
     0
440
 16777216
370
    -2
100
AcDbLine
 10
1520.618744274412
 20
1105.488959601997
 30
0.0
 11
1520.618744274412
 21
1262.402185545234
 31
0.0
  0
LINE
  5
1BBA
330
1571
100
AcDbEntity
  8
图层3
 62
     0
440
 16777216
370
    -2
100
AcDbLine
 10
1310.618744274413
 20
1261.152185545234
 30
0.0
 11
1508.618744274412
 21
1261.152185545234
 31
0.0
  0
SOLID
  5
1BBB
330
1571
100
AcDbEntity
  8
图层3
 62
     0
440
 16777216
100
AcDbTrace
 10
1310.618744274413
 20
1263.152185545234
 30
0.0
 11
1310.618744274413
 21
1259.152185545234
 31
0.0
 12
1298.618744274413
 22
1261.152185545234
 32
0.0
 13
1298.618744274413
 23
1261.152185545234
 33
0.0
  0
SOLID
  5
1BBC
330
1571
100
AcDbEntity
  8
图层3
 62
     0
440
 16777216
100
AcDbTrace
 10
1508.618744274412
 20
1263.152185545234
 30
0.0
 11
1508.618744274412
 21
1259.152185545234
 31
0.0
 12
1520.618744274412
 22
1261.152185545234
 32
0.0
 13
1520.618744274412
 23
1261.152185545234
 33
0.0
  0
MTEXT
  5
1BBD
330
1571
100
AcDbEntity
  8
图层3
 62
     0
440
 16777216
100
AcDbMText
 10
1409.618744274412
 20
1273.152185545234
 30
0.0
 40
14.0
 41
0.0
 46
0.0
 71
     5
 72
     1
  1
%%C111 [4.37"]
 73
     1
 44
1.0
  0
POINT
  5
1BBE
330
1571
100
AcDbEntity
  8
Defpoints
 62
     0
440
 16777216
100
AcDbPoint
 10
1298.618744274413
 20
1101.488959601997
 30
0.0
  0
POINT
  5
1BBF
330
1571
100
AcDbEntity
  8
Defpoints
 62
     0
440
 16777216
100
AcDbPoint
 10
1520.618744274412
 20
1101.488959601997
 30
0.0
  0
POINT
  5
1BC0
330
1571
100
AcDbEntity
  8
Defpoints
 62
     0
440
 16777216
100
AcDbPoint
 10
1520.618744274412
 20
1261.152185545234
 30
0.0
  0
ENDBLK
  5
157C
330
1571
100
AcDbEntity
  8
0
100
AcDbBlockEnd
  0
BLOCK
  5
15AD
330
15A1
100
AcDbEntity
  8
0
100
AcDbBlockBegin
  2
*D7
 70
     1
 10
0.0
 20
0.0
 30
0.0
  3
*D7
  1

  0
LINE
  5
1C59
330
15A1
100
AcDbEntity
  8
图层3
 62
     0
440
 16777216
370
    -2
100
AcDbLine
 10
1537.618744274411
 20
1108.488959601996
 30
0.0
 11
1591.829485560896
 21
1108.488959601996
 31
0.0
  0
LINE
  5
1C5A
330
15A1
100
AcDbEntity
  8
图层3
 62
     0
440
 16777216
370
    -2
100
AcDbLine
 10
1506.118744274411
 20
1097.888959601996
 30
0.0
 11
1591.829485560896
 21
1097.888959601997
 31
0.0
  0
LINE
  5
1C5B
330
15A1
100
AcDbEntity
  8
图层3
 62
     0
440
 16777216
370
    -2
100
AcDbLine
 10
1590.579485560896
 20
1085.888959601997
 30
0.0
 11
1590.579485560896
 21
1073.888959601997
 31
0.0
  0
LINE
  5
1C5C
330
15A1
100
AcDbEntity
  8
图层3
 62
     0
440
 16777216
370
    -2
100
AcDbLine
 10
1590.579485560896
 20
1120.488959601996
 30
0.0
 11
1590.579485560896
 21
1231.155626268663
 31
0.0
  0
LINE
  5
1C5D
330
15A1
100
AcDbEntity
  8
图层3
 62
     0
440
 16777216
370
    -2
100
AcDbLine
 10
1590.579485560896
 20
1097.888959601997
 30
0.0
 11
1590.579485560896
 21
1108.488959601996
 31
0.0
  0
SOLID
  5
1C5E
330
15A1
100
AcDbEntity
  8
图层3
 62
     0
440
 16777216
100
AcDbTrace
 10
1588.579485560896
 20
1085.888959601997
 30
0.0
 11
1592.579485560896
 21
1085.888959601997
 31
0.0
 12
1590.579485560896
 22
1097.888959601997
 32
0.0
 13
1590.579485560896
 23
1097.888959601997
 33
0.0
  0
SOLID
  5
1C5F
330
15A1
100
AcDbEntity
  8
图层3
 62
     0
440
 16777216
100
AcDbTrace
 10
1588.579485560896
 20
1120.488959601996
 30
0.0
 11
1592.579485560896
 21
1120.488959601996
 31
0.0
 12
1590.579485560896
 22
1108.488959601996
 32
0.0
 13
1590.579485560896
 23
1108.488959601996
 33
0.0
  0
MTEXT
  5
1C60
330
15A1
100
AcDbEntity
  8
图层3
 62
     0
440
 16777216
100
AcDbMText
 10
1578.579485560896
 20
1181.822292935329
 30
0.0
 40
14.0
 41
0.0
 46
0.0
 71
     5
 72
     1
  1
5.3 [.2"]
 11
0.0000000000000001
 21
1.0
 31
0.0
 73
     1
 44
1.0
  0
POINT
  5
1C61
330
15A1
100
AcDbEntity
  8
Defpoints
 62
     0
440
 16777216
100
AcDbPoint
 10
1533.618744274411
 20
1108.488959601996
 30
0.0
  0
POINT
  5
1C62
330
15A1
100
AcDbEntity
  8
Defpoints
 62
     0
440
 16777216
100
AcDbPoint
 10
1502.11874427441
 20
1097.888959601996
 30
0.0
  0
POINT
  5
1C63
330
15A1
100
AcDbEntity
  8
Defpoints
 62
     0
440
 16777216
100
AcDbPoint
 10
1590.579485560896
 20
1097.888959601997
 30
0.0
  0
ENDBLK
  5
15AE
330
15A1
100
AcDbEntity
  8
0
100
AcDbBlockEnd
  0
BLOCK
  5
1665
330
165B
100
AcDbEntity
  8
0
100
AcDbBlockBegin
  2
*D8
 70
     1
 10
0.0
 20
0.0
 30
0.0
  3
*D8
  1

  0
ARC
  5
1668
330
165B
100
AcDbEntity
  8
图层3
 62
     0
440
 16777216
370
    -2
100
AcDbCircle
 10
1069.146551953467
 20
1283.574756824445
 30
0.0
 40
85.02057813903842
100
AcDbArc
 50
188.093585704949
 51
258.9064142950509
  0
SOLID
  5
1669
330
165B
100
AcDbEntity
  8
图层3
 62
     0
440
 16777216
100
AcDbTrace
 10
982.9778141218104
 20
1271.463533545179
 30
0.0
 11
986.9678411146871
 21
1271.745818146452
 31
0.0
 12
984.1259738144293
 22
1283.574756824445
 32
0.0
 13
984.1259738144293
 23
1283.574756824445
 33
0.0
  0
SOLID
  5
166A
330
165B
100
AcDbEntity
  8
图层3
 62
     0
440
 16777216
100
AcDbTrace
 10
1053.032923010263
 20
1202.127747869836
 30
0.0
 11
1052.542203392118
 21
1198.157962704821
 31
0.0
 12
1064.696918696233
 22
1198.670696432893
 32
0.0
 13
1064.696918696233
 23
1198.670696432893
 33
0.0
  0
MTEXT
  5
166B
330
165B
100
AcDbEntity
  8
图层3
 62
     0
440
 16777216
100
AcDbMText
 10
1016.45931185666
 20
1233.576432854575
 30
0.0
 40
14.0
 41
0.0
 46
0.0
 71
     5
 72
     1
  1
87°
 11
0.688354575693754
 21
-0.7253743710122878
 31
0.0
 73
     1
 44
1.0
  0
POINT
  5
166C
330
165B
100
AcDbEntity
  8
Defpoints
 62
     0
440
 16777216
100
AcDbPoint
 10
994.7858788006797
 20
1242.355962623734
 30
0.0
  0
POINT
  5
166D
330
165B
100
AcDbEntity
  8
Defpoints
 62
     0
440
 16777216
100
AcDbPoint
 10
1069.022389533368
 20
1281.205596715053
 30
0.0
  0
POINT
  5
166E
330
165B
100
AcDbEntity
  8
Defpoints
 62
     0
440
 16777216
100
AcDbPoint
 10
616.7741474448367
 20
1283.574756824446
 30
0.0
  0
POINT
  5
166F
330
165B
100
AcDbEntity
  8
Defpoints
 62
     0
440
 16777216
100
AcDbPoint
 10
1071.518963370255
 20
1283.574756824445
 30
0.0
  0
POINT
  5
1670
330
165B
100
AcDbEntity
  8
Defpoints
 62
     0
440
 16777216
100
AcDbPoint
 10
1059.55830398167
 20
1100.620086678747
 30
0.0
  0
ENDBLK
  5
1666
330
165B
100
AcDbEntity
  8
0
100
AcDbBlockEnd
  0
BLOCK
  5
1679
330
1673
100
AcDbEntity
  8
0
100
AcDbBlockBegin
  2
*D9
 70
     1
 10
0.0
 20
0.0
 30
0.0
  3
*D9
  1

  0
LINE
  5
1C49
330
1673
100
AcDbEntity
  8
图层3
 62
     0
440
 16777216
370
    -2
100
AcDbLine
 10
938.2310300163974
 20
1181.109666466805
 30
0.0
 11
1039.778596857881
 21
1083.287932334893
 31
0.0
  0
MTEXT
  5
1C4A
330
1673
100
AcDbEntity
  8
图层3
 62
     0
440
 16777216
100
AcDbMText
 10
993.0088943487278
 20
1145.003772499355
 30
0.0
 40
14.0
 41
0.0
 46
0.0
 71
     5
 72
     1
  1
R40 [1.57"]
 11
0.7201955095140669
 21
-0.6937711640561127
 31
0.0
 73
     1
 44
1.0
  0
SOLID
  5
1C4B
330
1673
100
AcDbEntity
  8
图层3
 62
     0
440
 16777216
100
AcDbTrace
 10
1041.166139185993
 20
1084.728323353921
 30
0.0
 11
1038.391054529768
 21
1081.847541315865
 31
0.0
 12
1048.420942972049
 22
1074.96267836622
 32
0.0
 13
1048.420942972049
 23
1074.96267836622
 33
0.0
  0
POINT
  5
1C4C
330
1673
100
AcDbEntity
  8
Defpoints
 62
     0
440
 16777216
100
AcDbPoint
 10
1048.420942972049
 20
1074.96267836622
 30
0.0
  0
POINT
  5
1C4D
330
1673
100
AcDbEntity
  8
Defpoints
 62
     0
440
 16777216
100
AcDbPoint
 10
1019.613122591487
 20
1102.713524928464
 30
0.0
  0
ENDBLK
  5
167A
330
1673
100
AcDbEntity
  8
0
100
AcDbBlockEnd
  0
BLOCK
  5
16E2
330
16DC
100
AcDbEntity
  8
0
100
AcDbBlockBegin
  2
*D10
 70
     1
 10
0.0
 20
0.0
 30
0.0
  3
*D10
  1

  0
LINE
  5
16E5
330
16DC
100
AcDbEntity
  8
图层3
 62
     0
440
 16777216
370
    -2
100
AcDbLine
 10
711.4886135985667
 20
617.8841047594162
 30
0.0
 11
631.1553817317538
 21
618.0117851311216
 31
0.0
  0
MTEXT
  5
16E6
330
16DC
100
AcDbEntity
  8
图层3
 62
     0
440
 16777216
100
AcDbMText
 10
677.3410626733927
 20
629.9383934951219
 30
0.0
 40
14.0
 41
0.0
 46
0.0
 71
     5
 72
     1
  1
R7000
 11
0.999998736931281
 21
-0.0015893822203995
 31
0.0
 73
     1
 44
1.0
  0
SOLID
  5
16E7
330
16DC
100
AcDbEntity
  8
图层3
 62
     0
440
 16777216
100
AcDbTrace
 10
631.1585604961947
 20
620.0117826049842
 30
0.0
 11
631.152202967313
 21
616.0117876572591
 31
0.0
 12
619.1553968885784
 22
618.0308577177664
 32
0.0
 13
619.1553968885784
 23
618.0308577177664
 33
0.0
  0
POINT
  5
16E8
330
16DC
100
AcDbEntity
  8
Defpoints
 62
     0
440
 16777216
100
AcDbPoint
 10
619.1553968885784
 20
618.0308577177664
 30
0.0
  0
POINT
  5
16E9
330
16DC
100
AcDbEntity
  8
Defpoints
 62
     0
440
 16777216
100
AcDbPoint
 10
7619.146555407546
 20
606.9051821749676
 30
0.0
  0
ENDBLK
  5
16E3
330
16DC
100
AcDbEntity
  8
0
100
AcDbBlockEnd
  0
BLOCK
  5
16F6
330
16EC
100
AcDbEntity
  8
0
100
AcDbBlockBegin
  2
*D11
 70
     1
 10
0.0
 20
0.0
 30
0.0
  3
*D11
  1

  0
LINE
  5
1BCA
330
16EC
100
AcDbEntity
  8
图层3
 62
     0
440
 16777216
370
    -2
100
AcDbLine
 10
1645.350557635349
 20
735.7813855601684
 30
0.0
 11
1645.350557635349
 21
733.0313855601684
 31
0.0
  0
LINE
  5
1BCB
330
16EC
100
AcDbEntity
  8
图层3
 62
     0
440
 16777216
370
    -2
100
AcDbLine
 10
1417.780062478882
 20
735.7813855601684
 30
0.0
 11
1417.780062478882
 21
733.0313855601684
 31
0.0
  0
LINE
  5
1BCC
330
16EC
100
AcDbEntity
  8
图层3
 62
     0
440
 16777216
370
    -2
100
AcDbLine
 10
1633.350557635349
 20
731.7813855601684
 30
0.0
 11
1429.780062478882
 21
731.7813855601684
 31
0.0
  0
SOLID
  5
1BCD
330
16EC
100
AcDbEntity
  8
图层3
 62
     0
440
 16777216
100
AcDbTrace
 10
1633.350557635349
 20
733.7813855601685
 30
0.0
 11
1633.350557635349
 21
729.7813855601685
 31
0.0
 12
1645.350557635349
 22
731.7813855601684
 32
0.0
 13
1645.350557635349
 23
731.7813855601684
 33
0.0
  0
SOLID
  5
1BCE
330
16EC
100
AcDbEntity
  8
图层3
 62
     0
440
 16777216
100
AcDbTrace
 10
1429.780062478882
 20
733.7813855601685
 30
0.0
 11
1429.780062478882
 21
729.7813855601685
 31
0.0
 12
1417.780062478882
 22
731.7813855601684
 32
0.0
 13
1417.780062478882
 23
731.7813855601684
 33
0.0
  0
MTEXT
  5
1BCF
330
16EC
100
AcDbEntity
  8
图层3
 62
     0
440
 16777216
100
AcDbMText
 10
1531.565310057115
 20
743.7813855601684
 30
0.0
 40
14.0
 41
0.0
 46
0.0
 71
     5
 72
     1
  1
228 [9"]
 73
     1
 44
1.0
  0
POINT
  5
1BD0
330
16EC
100
AcDbEntity
  8
Defpoints
 62
     0
440
 16777216
100
AcDbPoint
 10
1645.350557635349
 20
731.7813855601684
 30
0.0
  0
POINT
  5
1BD1
330
16EC
100
AcDbEntity
  8
Defpoints
 62
     0
440
 16777216
100
AcDbPoint
 10
1417.780062478882
 20
731.7813855601684
 30
0.0
  0
POINT
  5
1BD2
330
16EC
100
AcDbEntity
  8
Defpoints
 62
     0
440
 16777216
100
AcDbPoint
 10
1417.780062478882
 20
731.7813855601684
 30
0.0
  0
ENDBLK
  5
16F7
330
16EC
100
AcDbEntity
  8
0
100
AcDbBlockEnd
  0
BLOCK
  5
171C
330
1712
100
AcDbEntity
  8
0
100
AcDbBlockBegin
  2
*D12
 70
     1
 10
0.0
 20
0.0
 30
0.0
  3
*D12
  1

  0
ARC
  5
1A42
330
1712
100
AcDbEntity
  8
图层3
 62
     0
440
 16777216
370
    -2
100
AcDbCircle
 10
1645.350557635349
 20
876.7813855601684
 30
0.0
 40
76.73061818440991
100
AcDbArc
 50
191.9697174639211
 51
261.0302825360788
  0
SOLID
  5
1A43
330
1712
100
AcDbEntity
  8
图层3
 62
     0
440
 16777216
100
AcDbTrace
 10
1568.305307658014
 20
860.6073350742887
 30
0.0
 11
1572.271224939037
 21
861.1283918083234
 31
0.0
 12
1568.725096096421
 22
872.7656152843751
 32
0.0
 13
1568.725096096421
 23
872.7656152843751
 33
0.0
  0
SOLID
  5
1A44
330
1712
100
AcDbEntity
  8
图层3
 62
     0
440
 16777216
100
AcDbTrace
 10
1633.543692525685
 20
802.9829911534077
 30
0.0
 11
1633.230909955078
 21
798.9952390217522
 31
0.0
 12
1645.350557635349
 22
800.0507673757585
 32
0.0
 13
1645.350557635349
 23
800.0507673757585
 33
0.0
  0
MTEXT
  5
1A45
330
1712
100
AcDbEntity
  8
图层3
 62
     0
440
 16777216
100
AcDbMText
 10
1601.058665532566
 20
830.1074699511667
 30
0.0
 40
14.0
 41
0.0
 46
0.0
 71
     5
 72
     1
  1
87°
 11
0.7253743710122872
 21
-0.6883545756937545
 31
0.0
 73
     1
 44
1.0
  0
POINT
  5
1A46
330
1712
100
AcDbEntity
  8
Defpoints
 62
     0
440
 16777216
100
AcDbPoint
 10
1580.279302967154
 20
836.1203528277268
 30
0.0
  0
POINT
  5
1A47
330
1712
100
AcDbEntity
  8
Defpoints
 62
     0
440
 16777216
100
AcDbPoint
 10
1642.981397525956
 20
876.6572231400688
 30
0.0
  0
POINT
  5
1A48
330
1712
100
AcDbEntity
  8
Defpoints
 62
     0
440
 16777216
100
AcDbPoint
 10
1645.350557635348
 20
879.6282792603129
 30
0.0
  0
POINT
  5
1A49
330
1712
100
AcDbEntity
  8
Defpoints
 62
     0
440
 16777216
100
AcDbPoint
 10
1645.350557635349
 20
403.9344918600244
 30
0.0
  0
POINT
  5
1A4A
330
1712
100
AcDbEntity
  8
Defpoints
 62
     0
440
 16777216
100
AcDbPoint
 10
1459.721089768825
 20
867.0529573797914
 30
0.0
  0
ENDBLK
  5
171D
330
1712
100
AcDbEntity
  8
0
100
AcDbBlockEnd
  0
BLOCK
  5
1730
330
172A
100
AcDbEntity
  8
0
100
AcDbBlockBegin
  2
*D13
 70
     1
 10
0.0
 20
0.0
 30
0.0
  3
*D13
  1

  0
LINE
  5
1BD8
330
172A
100
AcDbEntity
  8
图层3
 62
     0
440
 16777216
370
    -2
100
AcDbLine
 10
1553.505150673947
 20
532.0271347423617
 30
0.0
 11
1449.153870729525
 21
437.2019778800564
 31
0.0
  0
MTEXT
  5
1BD9
330
172A
100
AcDbEntity
  8
图层3
 62
     0
440
 16777216
100
AcDbMText
 10
1497.699764583431
 20
497.5306293644495
 30
0.0
 40
14.0
 41
0.0
 46
0.0
 71
     5
 72
     1
  1
R40 [1.57"]
 11
0.7400799996058312
 21
0.672518842995074
 31
0.0
 73
     1
 44
1.0
  0
SOLID
  5
1BDA
330
172A
100
AcDbEntity
  8
图层3
 62
     0
440
 16777216
100
AcDbTrace
 10
1447.808833043535
 20
438.6821378792681
 30
0.0
 11
1450.498908415515
 21
435.7218178808446
 31
0.0
 12
1440.272910734255
 22
429.1317517641155
 32
0.0
 13
1440.272910734255
 23
429.1317517641155
 33
0.0
  0
POINT
  5
1BDB
330
172A
100
AcDbEntity
  8
Defpoints
 62
     0
440
 16777216
100
AcDbPoint
 10
1440.272910734255
 20
429.1317517641155
 30
0.0
  0
POINT
  5
1BDC
330
172A
100
AcDbEntity
  8
Defpoints
 62
     0
440
 16777216
100
AcDbPoint
 10
1469.876110718488
 20
456.0325054839181
 30
0.0
  0
ENDBLK
  5
1731
330
172A
100
AcDbEntity
  8
0
100
AcDbBlockEnd
  0
BLOCK
  5
1740
330
173A
100
AcDbEntity
  8
0
100
AcDbBlockBegin
  2
*D14
 70
     1
 10
0.0
 20
0.0
 30
0.0
  3
*D14
  1

  0
LINE
  5
1743
330
173A
100
AcDbEntity
  8
图层3
 62
     0
440
 16777216
370
    -2
100
AcDbLine
 10
908.1659708438261
 20
788.585564260698
 30
0.0
 11
919.6152869545972
 21
858.6563367738909
 31
0.0
  0
MTEXT
  5
1744
330
173A
100
AcDbEntity
  8
图层3
 62
     0
440
 16777216
100
AcDbMText
 10
901.0801335918463
 20
819.6345724644789
 30
0.0
 40
14.0
 41
0.0
 46
0.0
 71
     5
 72
     1
  1
R480
 11
0.1612579733911422
 21
0.9869122889182108
 31
0.0
 73
     1
 44
1.0
  0
SOLID
  5
1745
330
173A
100
AcDbEntity
  8
图层3
 62
     0
440
 16777216
100
AcDbTrace
 10
917.6414623767609
 20
858.9788527206732
 30
0.0
 11
921.5891115324337
 21
858.3338208271086
 31
0.0
 12
921.5503826352907
 22
870.4992842409094
 32
0.0
 13
921.5503826352907
 23
870.4992842409094
 33
0.0
  0
POINT
  5
1746
330
173A
100
AcDbEntity
  8
Defpoints
 62
     0
440
 16777216
100
AcDbPoint
 10
921.5503826352907
 20
870.4992842409094
 30
0.0
  0
POINT
  5
1747
330
173A
100
AcDbEntity
  8
Defpoints
 62
     0
440
 16777216
100
AcDbPoint
 10
844.1465554075426
 20
396.7813855601684
 30
0.0
  0
ENDBLK
  5
1741
330
173A
100
AcDbEntity
  8
0
100
AcDbBlockEnd
  0
BLOCK
  5
1750
330
174A
100
AcDbEntity
  8
0
100
AcDbBlockBegin
  2
*D15
 70
     1
 10
0.0
 20
0.0
 30
0.0
  3
*D15
  1

  0
LINE
  5
1DC2
330
174A
100
AcDbEntity
  8
图层3
 62
     0
440
 16777216
370
    -2
100
AcDbLine
 10
897.7367158355495
 20
701.159255959808
 30
0.0
 11
1020.726655431896
 21
806.5986924059838
 31
0.0
  0
MTEXT
  5
1DC3
330
174A
100
AcDbEntity
  8
图层3
 62
     0
440
 16777216
100
AcDbMText
 10
944.2089840070593
 20
756.8061632502877
 30
0.0
 40
14.0
 41
0.0
 46
0.0
 71
     5
 72
     1
  1
  R160[6.3"]
 11
0.7591971580021363
 21
0.6508607188035546
 31
0.0
 73
     1
 44
1.0
  0
SOLID
  5
1DC4
330
174A
100
AcDbEntity
  8
图层3
 62
     0
440
 16777216
100
AcDbTrace
 10
1019.424933994288
 20
808.1170867219881
 30
0.0
 11
1022.028376869503
 21
805.0802980899796
 31
0.0
 12
1029.837021327921
 22
814.4090210316264
 32
0.0
 13
1029.837021327921
 23
814.4090210316264
 33
0.0
  0
POINT
  5
1DC5
330
174A
100
AcDbEntity
  8
Defpoints
 62
     0
440
 16777216
100
AcDbPoint
 10
1029.837021327921
 20
814.4090210316264
 30
0.0
  0
POINT
  5
1DC6
330
174A
100
AcDbEntity
  8
Defpoints
 62
     0
440
 16777216
100
AcDbPoint
 10
908.3654760475793
 20
710.2713060230576
 30
0.0
  0
ENDBLK
  5
1751
330
174A
100
AcDbEntity
  8
0
100
AcDbBlockEnd
  0
BLOCK
  5
1760
330
175A
100
AcDbEntity
  8
0
100
AcDbBlockBegin
  2
*D16
 70
     1
 10
0.0
 20
0.0
 30
0.0
  3
*D16
  1

  0
LINE
  5
1CAF
330
175A
100
AcDbEntity
  8
图层3
 62
     0
440
 16777216
370
    -2
100
AcDbLine
 10
775.3109858503278
 20
715.5331073092587
 30
0.0
 11
682.3184862327429
 21
821.5208189312834
 31
0.0
  0
MTEXT
  5
1CB0
330
175A
100
AcDbEntity
  8
图层3
 62
     0
440
 16777216
100
AcDbMText
 10
741.7920944611793
 20
771.9311030187027
 30
0.0
 40
14.0
 41
0.0
 46
0.0
 71
     5
 72
     1
  1
R160 [6.3"]
 11
0.6595212738835806
 21
-0.7516858980285443
 31
0.0
 73
     1
 44
1.0
  0
SOLID
  5
1CB1
330
175A
100
AcDbEntity
  8
图层3
 62
     0
440
 16777216
100
AcDbTrace
 10
683.8218580288
 20
822.8398614790505
 30
0.0
 11
680.8151144366858
 21
820.2017763835161
 31
0.0
 12
674.4042309461399
 22
830.5410497076259
 32
0.0
 13
674.4042309461399
 23
830.5410497076259
 33
0.0
  0
POINT
  5
1CB2
330
175A
100
AcDbEntity
  8
Defpoints
 62
     0
440
 16777216
100
AcDbPoint
 10
674.4042309461399
 20
830.5410497076259
 30
0.0
  0
POINT
  5
1CB3
330
175A
100
AcDbEntity
  8
Defpoints
 62
     0
440
 16777216
100
AcDbPoint
 10
779.927634767513
 20
710.2713060230586
 30
0.0
  0
ENDBLK
  5
1761
330
175A
100
AcDbEntity
  8
0
100
AcDbBlockEnd
  0
BLOCK
  5
1780
330
177A
100
AcDbEntity
  8
0
100
AcDbBlockBegin
  2
*D18
 70
     1
 10
0.0
 20
0.0
 30
0.0
  3
*D18
  1

  0
LINE
  5
1783
330
177A
100
AcDbEntity
  8
图层3
 62
     0
440
 16777216
370
    -2
100
AcDbLine
 10
906.0323837353607
 20
499.3919422154574
 30
0.0
 11
906.7520905648262
 21
419.0618328757826
 31
0.0
  0
MTEXT
  5
1784
330
177A
100
AcDbEntity
  8
图层3
 62
     0
440
 16777216
100
AcDbMText
 10
918.3380015206244
 20
465.3341548235242
 30
0.0
 40
14.0
 41
0.0
 46
0.0
 71
     5
 72
     1
  1
R7000
 11
0.0089590061759168
 21
-0.9999598672988531
 31
0.0
 73
     1
 44
1.0
  0
SOLID
  5
1785
330
177A
100
AcDbEntity
  8
图层3
 62
     0
440
 16777216
100
AcDbTrace
 10
908.7520102994238
 20
419.0797508881345
 30
0.0
 11
904.7521708302284
 21
419.0439148634309
 31
0.0
 12
906.859598638937
 22
407.0623144681965
 32
0.0
 13
906.859598638937
 23
407.0623144681965
 33
0.0
  0
POINT
  5
1786
330
177A
100
AcDbEntity
  8
Defpoints
 62
     0
440
 16777216
100
AcDbPoint
 10
906.859598638937
 20
407.0623144681965
 30
0.0
  0
POINT
  5
1787
330
177A
100
AcDbEntity
  8
Defpoints
 62
     0
440
 16777216
100
AcDbPoint
 10
844.1465554075204
 20
7406.781385560158
 30
0.0
  0
ENDBLK
  5
1781
330
177A
100
AcDbEntity
  8
0
100
AcDbBlockEnd
  0
BLOCK
  5
1790
330
178A
100
AcDbEntity
  8
0
100
AcDbBlockBegin
  2
*D19
 70
     1
 10
0.0
 20
0.0
 30
0.0
  3
*D19
  1

  0
LINE
  5
1CB9
330
178A
100
AcDbEntity
  8
图层3
 62
     0
440
 16777216
370
    -2
100
AcDbLine
 10
711.7920682795847
 20
499.0966331241442
 30
0.0
 11
662.8635025921912
 21
438.3513003011656
 31
0.0
  0
MTEXT
  5
1CBA
330
178A
100
AcDbEntity
  8
图层3
 62
     0
440
 16777216
100
AcDbMText
 10
672.66024505957
 20
488.2425314759821
 30
0.0
 40
14.0
 41
37.33333333333333
 46
0.0
 71
     5
 72
     1
  1
R95 [3.7"]
 11
0.6272893036845309
 21
0.7787863182433142
 31
0.0
 73
     1
 44
1.0
  0
SOLID
  5
1CBB
330
178A
100
AcDbEntity
  8
图层3
 62
     0
440
 16777216
100
AcDbTrace
 10
661.3059299557045
 20
439.6058789085347
 30
0.0
 11
664.4210752286778
 21
437.0967216937966
 31
0.0
 12
655.3360309479768
 22
429.0058644822458
 32
0.0
 13
655.3360309479768
 23
429.0058644822458
 33
0.0
  0
POINT
  5
1CBC
330
178A
100
AcDbEntity
  8
Defpoints
 62
     0
440
 16777216
100
AcDbPoint
 10
655.3360309479768
 20
429.0058644822458
 30
0.0
  0
POINT
  5
1CBD
330
178A
100
AcDbEntity
  8
Defpoints
 62
     0
440
 16777216
100
AcDbPoint
 10
714.928514798007
 20
502.9905647153604
 30
0.0
  0
ENDBLK
  5
1791
330
178A
100
AcDbEntity
  8
0
100
AcDbBlockEnd
  0
BLOCK
  5
17A0
330
179A
100
AcDbEntity
  8
0
100
AcDbBlockBegin
  2
*D20
 70
     1
 10
0.0
 20
0.0
 30
0.0
  3
*D20
  1

  0
LINE
  5
1CC3
330
179A
100
AcDbEntity
  8
图层3
 62
     0
440
 16777216
370
    -2
100
AcDbLine
 10
939.5448403571116
 20
541.1641698254324
 30
0.0
 11
1028.404590522532
 21
440.8648936538717
 31
0.0
  0
MTEXT
  5
1CC4
330
179A
100
AcDbEntity
  8
图层3
 62
     0
440
 16777216
100
AcDbMText
 10
988.9779453880773
 20
503.4631336725953
 30
0.0
 40
14.0
 41
0.0
 46
0.0
 71
     5
 72
     1
  1
R95 [3.7"]
 11
0.6631324639210508
 21
-0.7485020609817961
 31
0.0
 73
     1
 44
1.0
  0
SOLID
  5
1CC5
330
179A
100
AcDbEntity
  8
图层3
 62
     0
440
 16777216
100
AcDbTrace
 10
1029.901594644496
 20
442.1911585817137
 30
0.0
 11
1026.907586400569
 21
439.5386287260295
 31
0.0
 12
1036.362180089585
 22
431.88286892209
 32
0.0
 13
1036.362180089585
 23
431.88286892209
 33
0.0
  0
POINT
  5
1CC6
330
179A
100
AcDbEntity
  8
Defpoints
 62
     0
440
 16777216
100
AcDbPoint
 10
1036.362180089585
 20
431.88286892209
 30
0.0
  0
POINT
  5
1CC7
330
179A
100
AcDbEntity
  8
Defpoints
 62
     0
440
 16777216
100
AcDbPoint
 10
973.364596017085
 20
502.990564715361
 30
0.0
  0
ENDBLK
  5
17A1
330
179A
100
AcDbEntity
  8
0
100
AcDbBlockEnd
  0
BLOCK
  5
17B4
330
17AA
100
AcDbEntity
  8
0
100
AcDbBlockBegin
  2
*D21
 70
     1
 10
0.0
 20
0.0
 30
0.0
  3
*D21
  1

  0
LINE
  5
1D84
330
17AA
100
AcDbEntity
  8
图层3
 62
     0
440
 16777216
370
    -2
100
AcDbLine
 10
711.1465588616237
 20
905.7813855601686
 30
0.0
 11
711.1465588616237
 21
942.400805731042
 31
0.0
  0
LINE
  5
1D85
330
17AA
100
AcDbEntity
  8
图层3
 62
     0
440
 16777216
370
    -2
100
AcDbLine
 10
977.1465519534677
 20
905.7813855601686
 30
0.0
 11
977.1465519534677
 21
942.400805731042
 31
0.0
  0
LINE
  5
1D86
330
17AA
100
AcDbEntity
  8
图层3
 62
     0
440
 16777216
370
    -2
100
AcDbLine
 10
723.1465588616237
 20
941.150805731042
 30
0.0
 11
965.1465519534676
 21
941.150805731042
 31
0.0
  0
SOLID
  5
1D87
330
17AA
100
AcDbEntity
  8
图层3
 62
     0
440
 16777216
100
AcDbTrace
 10
723.1465588616237
 20
943.150805731042
 30
0.0
 11
723.1465588616237
 21
939.1508057310421
 31
0.0
 12
711.1465588616237
 22
941.150805731042
 32
0.0
 13
711.1465588616237
 23
941.150805731042
 33
0.0
  0
SOLID
  5
1D88
330
17AA
100
AcDbEntity
  8
图层3
 62
     0
440
 16777216
100
AcDbTrace
 10
965.1465519534676
 20
943.150805731042
 30
0.0
 11
965.1465519534676
 21
939.1508057310421
 31
0.0
 12
977.1465519534677
 22
941.150805731042
 32
0.0
 13
977.1465519534677
 23
941.150805731042
 33
0.0
  0
MTEXT
  5
1D89
330
17AA
100
AcDbEntity
  8
图层3
 62
     0
440
 16777216
100
AcDbMText
 10
886.0843550766148
 20
953.150805731042
 30
0.0
 40
14.0
 41
0.0
 46
0.0
 71
     5
 72
     1
  1
    266 [10.5"]
 73
     1
 44
1.0
  0
POINT
  5
1D8A
330
17AA
100
AcDbEntity
  8
Defpoints
 62
     0
440
 16777216
100
AcDbPoint
 10
711.1465588616237
 20
901.7813855601687
 30
0.0
  0
POINT
  5
1D8B
330
17AA
100
AcDbEntity
  8
Defpoints
 62
     0
440
 16777216
100
AcDbPoint
 10
977.1465519534677
 20
901.7813855601687
 30
0.0
  0
POINT
  5
1D8C
330
17AA
100
AcDbEntity
  8
Defpoints
 62
     0
440
 16777216
100
AcDbPoint
 10
977.1465519534677
 20
941.150805731042
 30
0.0
  0
ENDBLK
  5
17B5
330
17AA
100
AcDbEntity
  8
0
100
AcDbBlockEnd
  0
BLOCK
  5
17CC
330
17C2
100
AcDbEntity
  8
0
100
AcDbBlockBegin
  2
*D22
 70
     1
 10
0.0
 20
0.0
 30
0.0
  3
*D22
  1

  0
LINE
  5
1D96
330
17C2
100
AcDbEntity
  8
图层3
 62
     0
440
 16777216
370
    -2
100
AcDbLine
 10
981.1465519534682
 20
901.7813855601691
 30
0.0
 11
1134.590005939652
 21
901.7813855601691
 31
0.0
  0
LINE
  5
1D97
330
17C2
100
AcDbEntity
  8
图层3
 62
     0
440
 16777216
370
    -2
100
AcDbLine
 10
1098.146551953468
 20
784.7813855601692
 30
0.0
 11
1134.590005939652
 21
784.7813855601692
 31
0.0
  0
LINE
  5
1D98
330
17C2
100
AcDbEntity
  8
图层3
 62
     0
440
 16777216
370
    -2
100
AcDbLine
 10
1133.340005939652
 20
889.7813855601691
 30
0.0
 11
1133.340005939652
 21
796.7813855601691
 31
0.0
  0
SOLID
  5
1D99
330
17C2
100
AcDbEntity
  8
图层3
 62
     0
440
 16777216
100
AcDbTrace
 10
1131.340005939653
 20
889.7813855601691
 30
0.0
 11
1135.340005939653
 21
889.7813855601691
 31
0.0
 12
1133.340005939652
 22
901.7813855601691
 32
0.0
 13
1133.340005939652
 23
901.7813855601691
 33
0.0
  0
SOLID
  5
1D9A
330
17C2
100
AcDbEntity
  8
图层3
 62
     0
440
 16777216
100
AcDbTrace
 10
1131.340005939653
 20
796.7813855601691
 30
0.0
 11
1135.340005939653
 21
796.7813855601691
 31
0.0
 12
1133.340005939652
 22
784.7813855601692
 32
0.0
 13
1133.340005939652
 23
784.7813855601692
 33
0.0
  0
MTEXT
  5
1D9B
330
17C2
100
AcDbEntity
  8
图层3
 62
     0
440
 16777216
100
AcDbMText
 10
1121.340005939652
 20
843.2813855601686
 30
0.0
 40
14.0
 41
0.0
 46
0.0
 71
     5
 72
     1
  1
117 [4.6"]
 11
0.0000000000000001
 21
1.0
 31
0.0
 73
     1
 44
1.0
  0
POINT
  5
1D9C
330
17C2
100
AcDbEntity
  8
Defpoints
 62
     0
440
 16777216
100
AcDbPoint
 10
977.1465519534681
 20
901.7813855601691
 30
0.0
  0
POINT
  5
1D9D
330
17C2
100
AcDbEntity
  8
Defpoints
 62
     0
440
 16777216
100
AcDbPoint
 10
1094.146551953468
 20
784.7813855601692
 30
0.0
  0
POINT
  5
1D9E
330
17C2
100
AcDbEntity
  8
Defpoints
 62
     0
440
 16777216
100
AcDbPoint
 10
1133.340005939652
 20
784.7813855601692
 30
0.0
  0
ENDBLK
  5
17CD
330
17C2
100
AcDbEntity
  8
0
100
AcDbBlockEnd
  0
BLOCK
  5
17E4
330
17DA
100
AcDbEntity
  8
0
100
AcDbBlockBegin
  2
*D23
 70
     1
 10
0.0
 20
0.0
 30
0.0
  3
*D23
  1

  0
LINE
  5
1CE5
330
17DA
100
AcDbEntity
  8
图层3
 62
     0
440
 16777216
370
    -2
100
AcDbLine
 10
1026.146551953468
 20
381.7813855601693
 30
0.0
 11
1139.671843963029
 21
381.7813855601693
 31
0.0
  0
LINE
  5
1CE6
330
17DA
100
AcDbEntity
  8
图层3
 62
     0
440
 16777216
370
    -2
100
AcDbLine
 10
1098.146551953468
 20
453.7813855601694
 30
0.0
 11
1139.671843963029
 21
453.7813855601694
 31
0.0
  0
LINE
  5
1CE7
330
17DA
100
AcDbEntity
  8
图层3
 62
     0
440
 16777216
370
    -2
100
AcDbLine
 10
1138.421843963029
 20
393.7813855601693
 30
0.0
 11
1138.421843963029
 21
441.7813855601694
 31
0.0
  0
SOLID
  5
1CE8
330
17DA
100
AcDbEntity
  8
图层3
 62
     0
440
 16777216
100
AcDbTrace
 10
1136.421843963029
 20
393.7813855601693
 30
0.0
 11
1140.421843963029
 21
393.7813855601693
 31
0.0
 12
1138.421843963029
 22
381.7813855601693
 32
0.0
 13
1138.421843963029
 23
381.7813855601693
 33
0.0
  0
SOLID
  5
1CE9
330
17DA
100
AcDbEntity
  8
图层3
 62
     0
440
 16777216
100
AcDbTrace
 10
1136.421843963029
 20
441.7813855601694
 30
0.0
 11
1140.421843963029
 21
441.7813855601694
 31
0.0
 12
1138.421843963029
 22
453.7813855601694
 32
0.0
 13
1138.421843963029
 23
453.7813855601694
 33
0.0
  0
MTEXT
  5
1CEA
330
17DA
100
AcDbEntity
  8
图层3
 62
     0
440
 16777216
100
AcDbMText
 10
1114.755177296362
 20
417.7813855601689
 30
0.0
 40
14.0
 41
5.124597784393699
 46
0.0
 71
     5
 72
     1
  1
72 [2.8"]
 11
0.0000000000000001
 21
1.0
 31
0.0
 73
     1
 44
1.0
  0
POINT
  5
1CEB
330
17DA
100
AcDbEntity
  8
Defpoints
 62
     0
440
 16777216
100
AcDbPoint
 10
1022.146551953468
 20
381.7813855601693
 30
0.0
  0
POINT
  5
1CEC
330
17DA
100
AcDbEntity
  8
Defpoints
 62
     0
440
 16777216
100
AcDbPoint
 10
1094.146551953468
 20
453.7813855601694
 30
0.0
  0
POINT
  5
1CED
330
17DA
100
AcDbEntity
  8
Defpoints
 62
     0
440
 16777216
100
AcDbPoint
 10
1138.421843963029
 20
453.7813855601694
 30
0.0
  0
ENDBLK
  5
17E5
330
17DA
100
AcDbEntity
  8
0
100
AcDbBlockEnd
  0
BLOCK
  5
17FC
330
17F2
100
AcDbEntity
  8
0
100
AcDbBlockBegin
  2
*D24
 70
     1
 10
0.0
 20
0.0
 30
0.0
  3
*D24
  1

  0
LINE
  5
1CF7
330
17F2
100
AcDbEntity
  8
图层3
 62
     0
440
 16777216
370
    -2
100
AcDbLine
 10
666.1465588616236
 20
377.7813855601689
 30
0.0
 11
666.1465588616236
 21
315.4009267816036
 31
0.0
  0
LINE
  5
1CF8
330
17F2
100
AcDbEntity
  8
图层3
 62
     0
440
 16777216
370
    -2
100
AcDbLine
 10
1022.146551953467
 20
377.7813855601689
 30
0.0
 11
1022.146551953467
 21
315.4009267816036
 31
0.0
  0
LINE
  5
1CF9
330
17F2
100
AcDbEntity
  8
图层3
 62
     0
440
 16777216
370
    -2
100
AcDbLine
 10
678.1465588616235
 20
316.6509267816036
 30
0.0
 11
1010.146551953467
 21
316.6509267816036
 31
0.0
  0
SOLID
  5
1CFA
330
17F2
100
AcDbEntity
  8
图层3
 62
     0
440
 16777216
100
AcDbTrace
 10
678.1465588616235
 20
318.6509267816036
 30
0.0
 11
678.1465588616235
 21
314.6509267816036
 31
0.0
 12
666.1465588616236
 22
316.6509267816036
 32
0.0
 13
666.1465588616236
 23
316.6509267816036
 33
0.0
  0
SOLID
  5
1CFB
330
17F2
100
AcDbEntity
  8
图层3
 62
     0
440
 16777216
100
AcDbTrace
 10
1010.146551953467
 20
318.6509267816036
 30
0.0
 11
1010.146551953467
 21
314.6509267816036
 31
0.0
 12
1022.146551953467
 22
316.6509267816036
 32
0.0
 13
1022.146551953467
 23
316.6509267816036
 33
0.0
  0
MTEXT
  5
1CFC
330
17F2
100
AcDbEntity
  8
图层3
 62
     0
440
 16777216
100
AcDbMText
 10
844.1465554075454
 20
328.6509267816037
 30
0.0
 40
14.0
 41
0.0
 46
0.0
 71
     5
 72
     1
  1
356  [14"]
 73
     1
 44
1.0
  0
POINT
  5
1CFD
330
17F2
100
AcDbEntity
  8
Defpoints
 62
     0
440
 16777216
100
AcDbPoint
 10
666.1465588616236
 20
381.7813855601689
 30
0.0
  0
POINT
  5
1CFE
330
17F2
100
AcDbEntity
  8
Defpoints
 62
     0
440
 16777216
100
AcDbPoint
 10
1022.146551953467
 20
381.7813855601689
 30
0.0
  0
POINT
  5
1CFF
330
17F2
100
AcDbEntity
  8
Defpoints
 62
     0
440
 16777216
100
AcDbPoint
 10
1022.146551953467
 20
316.6509267816036
 30
0.0
  0
ENDBLK
  5
17FD
330
17F2
100
AcDbEntity
  8
0
100
AcDbBlockEnd
  0
BLOCK
  5
182C
330
1822
100
AcDbEntity
  8
0
100
AcDbBlockBegin
  2
*D25
 70
     1
 10
0.0
 20
0.0
 30
0.0
  3
*D25
  1

  0
LINE
  5
1D3C
330
1822
100
AcDbEntity
  8
图层3
 62
     0
440
 16777216
370
    -2
100
AcDbLine
 10
760.1465554075465
 20
731.7813855601687
 30
0.0
 11
549.3700742925367
 21
731.7813855601687
 31
0.0
  0
LINE
  5
1D3D
330
1822
100
AcDbEntity
  8
图层3
 62
     0
440
 16777216
370
    -2
100
AcDbLine
 10
840.1465554075461
 20
876.7813855601689
 30
0.0
 11
549.3700742925366
 21
876.7813855601687
 31
0.0
  0
LINE
  5
1D3E
330
1822
100
AcDbEntity
  8
图层3
 62
     0
440
 16777216
370
    -2
100
AcDbLine
 10
550.6200742925367
 20
743.7813855601687
 30
0.0
 11
550.6200742925366
 21
864.7813855601688
 31
0.0
  0
SOLID
  5
1D3F
330
1822
100
AcDbEntity
  8
图层3
 62
     0
440
 16777216
100
AcDbTrace
 10
548.6200742925367
 20
743.7813855601687
 30
0.0
 11
552.6200742925367
 21
743.7813855601687
 31
0.0
 12
550.6200742925367
 22
731.7813855601687
 32
0.0
 13
550.6200742925367
 23
731.7813855601687
 33
0.0
  0
SOLID
  5
1D40
330
1822
100
AcDbEntity
  8
图层3
 62
     0
440
 16777216
100
AcDbTrace
 10
548.6200742925366
 20
864.7813855601688
 30
0.0
 11
552.6200742925366
 21
864.7813855601688
 31
0.0
 12
550.6200742925366
 22
876.7813855601687
 32
0.0
 13
550.6200742925366
 23
876.7813855601687
 33
0.0
  0
MTEXT
  5
1D41
330
1822
100
AcDbEntity
  8
图层3
 62
     0
440
 16777216
100
AcDbMText
 10
538.6200742925367
 20
804.2813855601684
 30
0.0
 40
14.0
 41
0.0
 46
0.0
 71
     5
 72
     1
  1
145 [5.7"]
 11
0.0000000000000001
 21
1.0
 31
0.0
 73
     1
 44
1.0
  0
POINT
  5
1D42
330
1822
100
AcDbEntity
  8
Defpoints
 62
     0
440
 16777216
100
AcDbPoint
 10
764.1465554075465
 20
731.7813855601687
 30
0.0
  0
POINT
  5
1D43
330
1822
100
AcDbEntity
  8
Defpoints
 62
     0
440
 16777216
100
AcDbPoint
 10
844.146555407546
 20
876.7813855601689
 30
0.0
  0
POINT
  5
1D44
330
1822
100
AcDbEntity
  8
Defpoints
 62
     0
440
 16777216
100
AcDbPoint
 10
550.6200742925366
 20
876.7813855601687
 30
0.0
  0
ENDBLK
  5
182D
330
1822
100
AcDbEntity
  8
0
100
AcDbBlockEnd
  0
BLOCK
  5
1844
330
183A
100
AcDbEntity
  8
0
100
AcDbBlockBegin
  2
*D26
 70
     1
 10
0.0
 20
0.0
 30
0.0
  3
*D26
  1

  0
LINE
  5
1D4E
330
183A
100
AcDbEntity
  8
图层3
 62
     0
440
 16777216
370
    -2
100
AcDbLine
 10
682.1465588616238
 20
876.7813855601691
 30
0.0
 11
510.4091652117134
 21
876.7813855601691
 31
0.0
  0
LINE
  5
1D4F
330
183A
100
AcDbEntity
  8
图层3
 62
     0
440
 16777216
370
    -2
100
AcDbLine
 10
840.1465554075455
 20
406.7813855601691
 30
0.0
 11
510.4091652117134
 21
406.781385560169
 31
0.0
  0
LINE
  5
1D50
330
183A
100
AcDbEntity
  8
图层3
 62
     0
440
 16777216
370
    -2
100
AcDbLine
 10
511.6591652117135
 20
864.781385560169
 30
0.0
 11
511.6591652117135
 21
418.7813855601691
 31
0.0
  0
SOLID
  5
1D51
330
183A
100
AcDbEntity
  8
图层3
 62
     0
440
 16777216
100
AcDbTrace
 10
509.6591652117134
 20
864.781385560169
 30
0.0
 11
513.6591652117134
 21
864.781385560169
 31
0.0
 12
511.6591652117135
 22
876.7813855601691
 32
0.0
 13
511.6591652117135
 23
876.7813855601691
 33
0.0
  0
SOLID
  5
1D52
330
183A
100
AcDbEntity
  8
图层3
 62
     0
440
 16777216
100
AcDbTrace
 10
509.6591652117135
 20
418.7813855601691
 30
0.0
 11
513.6591652117135
 21
418.7813855601691
 31
0.0
 12
511.6591652117135
 22
406.781385560169
 32
0.0
 13
511.6591652117135
 23
406.781385560169
 33
0.0
  0
MTEXT
  5
1D53
330
183A
100
AcDbEntity
  8
图层3
 62
     0
440
 16777216
100
AcDbMText
 10
499.6591652117135
 20
641.7813855601687
 30
0.0
 40
14.0
 41
0.0
 46
0.0
 71
     5
 72
     1
  1
470 [18.5"]
 11
0.0000000000000001
 21
1.0
 31
0.0
 73
     1
 44
1.0
  0
POINT
  5
1D54
330
183A
100
AcDbEntity
  8
Defpoints
 62
     0
440
 16777216
100
AcDbPoint
 10
686.1465588616238
 20
876.7813855601691
 30
0.0
  0
POINT
  5
1D55
330
183A
100
AcDbEntity
  8
Defpoints
 62
     0
440
 16777216
100
AcDbPoint
 10
844.1465554075454
 20
406.7813855601691
 30
0.0
  0
POINT
  5
1D56
330
183A
100
AcDbEntity
  8
Defpoints
 62
     0
440
 16777216
100
AcDbPoint
 10
511.6591652117135
 20
406.781385560169
 30
0.0
  0
ENDBLK
  5
1845
330
183A
100
AcDbEntity
  8
0
100
AcDbBlockEnd
  0
BLOCK
  5
185C
330
1852
100
AcDbEntity
  8
0
100
AcDbBlockBegin
  2
*D27
 70
     1
 10
0.0
 20
0.0
 30
0.0
  3
*D27
  1

  0
LINE
  5
1D18
330
1852
100
AcDbEntity
  8
图层3
 62
     0
440
 16777216
370
    -2
100
AcDbLine
 10
707.1465588616239
 20
901.7813855601691
 30
0.0
 11
463.6312917526697
 21
901.7813855601691
 31
0.0
  0
LINE
  5
1D19
330
1852
100
AcDbEntity
  8
图层3
 62
     0
440
 16777216
370
    -2
100
AcDbLine
 10
662.1465588616238
 20
381.781385560169
 30
0.0
 11
463.6312917526699
 21
381.781385560169
 31
0.0
  0
LINE
  5
1D1A
330
1852
100
AcDbEntity
  8
图层3
 62
     0
440
 16777216
370
    -2
100
AcDbLine
 10
464.8812917526698
 20
889.7813855601691
 30
0.0
 11
464.8812917526698
 21
393.7813855601691
 31
0.0
  0
SOLID
  5
1D1B
330
1852
100
AcDbEntity
  8
图层3
 62
     0
440
 16777216
100
AcDbTrace
 10
462.8812917526698
 20
889.7813855601691
 30
0.0
 11
466.8812917526698
 21
889.7813855601691
 31
0.0
 12
464.8812917526697
 22
901.7813855601691
 32
0.0
 13
464.8812917526697
 23
901.7813855601691
 33
0.0
  0
SOLID
  5
1D1C
330
1852
100
AcDbEntity
  8
图层3
 62
     0
440
 16777216
100
AcDbTrace
 10
462.8812917526698
 20
393.7813855601691
 30
0.0
 11
466.8812917526699
 21
393.7813855601691
 31
0.0
 12
464.8812917526699
 22
381.781385560169
 32
0.0
 13
464.8812917526699
 23
381.781385560169
 33
0.0
  0
MTEXT
  5
1D1D
330
1852
100
AcDbEntity
  8
图层3
 62
     0
440
 16777216
100
AcDbMText
 10
452.8812917526699
 20
641.7813855601687
 30
0.0
 40
14.0
 41
0.0
 46
0.0
 71
     5
 72
     1
  1
520 [20.5"]
 11
0.0000000000000001
 21
1.0
 31
0.0
 73
     1
 44
1.0
  0
POINT
  5
1D1E
330
1852
100
AcDbEntity
  8
Defpoints
 62
     0
440
 16777216
100
AcDbPoint
 10
711.1465588616239
 20
901.7813855601691
 30
0.0
  0
POINT
  5
1D1F
330
1852
100
AcDbEntity
  8
Defpoints
 62
     0
440
 16777216
100
AcDbPoint
 10
666.1465588616238
 20
381.781385560169
 30
0.0
  0
POINT
  5
1D20
330
1852
100
AcDbEntity
  8
Defpoints
 62
     0
440
 16777216
100
AcDbPoint
 10
464.8812917526699
 20
381.781385560169
 30
0.0
  0
ENDBLK
  5
185D
330
1852
100
AcDbEntity
  8
0
100
AcDbBlockEnd
  0
BLOCK
  5
1874
330
186B
100
AcDbEntity
  8
0
100
AcDbBlockBegin
  2
*D28
 70
     1
 10
0.0
 20
0.0
 30
0.0
  3
*D28
  1

  0
LINE
  5
1C23
330
186B
100
AcDbEntity
  8
图层3
 62
     0
440
 16777216
370
    -2
100
AcDbLine
 10
1017.008360801588
 20
587.884536462084
 30
0.0
 11
888.9151370935172
 21
694.514287553662
 31
0.0
  0
LINE
  5
1C24
330
186B
100
AcDbEntity
  8
图层3
 62
     0
440
 16777216
370
    -2
100
AcDbLine
 10
799.3779737215756
 20
769.048483566675
 30
0.0
 11
790.1552616145945
 21
776.7258256452686
 31
0.0
  0
MTEXT
  5
1C25
330
186B
100
AcDbEntity
  8
图层3
 62
     0
440
 16777216
100
AcDbMText
 10
965.2504470796369
 20
646.5834530755573
 30
0.0
 40
14.0
 41
0.0
 46
0.0
 71
     5
 72
     1
  1
∅92.5 [3.64"]    
 11
0.7685593422484254
 21
-0.6397785065494681
 31
0.0
 73
     1
 44
1.0
  0
LINE
  5
1C26
330
186B
100
AcDbEntity
  8
图层3
 62
     0
440
 16777216
370
    -2
100
AcDbLine
 10
808.6006858285568
 20
761.3711414880813
 30
0.0
 11
879.6924249865361
 21
702.1916296322556
 31
0.0
  0
SOLID
  5
1C27
330
186B
100
AcDbEntity
  8
图层3
 62
     0
440
 16777216
100
AcDbTrace
 10
800.6575307346746
 20
770.5856022511719
 30
0.0
 11
798.0984167084768
 21
767.5113648821782
 31
0.0
 12
808.6006858285568
 22
761.3711414880813
 32
0.0
 13
808.6006858285568
 23
761.3711414880813
 33
0.0
  0
SOLID
  5
1C28
330
186B
100
AcDbEntity
  8
图层3
 62
     0
440
 16777216
100
AcDbTrace
 10
890.194694106616
 20
696.0514062381589
 30
0.0
 11
887.6355800804184
 21
692.9771688691651
 31
0.0
 12
879.6924249865361
 22
702.1916296322556
 32
0.0
 13
879.6924249865361
 23
702.1916296322556
 33
0.0
  0
POINT
  5
1C29
330
186B
100
AcDbEntity
  8
Defpoints
 62
     0
440
 16777216
100
AcDbPoint
 10
879.6924249865361
 20
702.1916296322556
 30
0.0
  0
POINT
  5
1C2A
330
186B
100
AcDbEntity
  8
Defpoints
 62
     0
440
 16777216
100
AcDbPoint
 10
808.6006858285568
 20
761.3711414880813
 30
0.0
  0
ENDBLK
  5
1875
330
186B
100
AcDbEntity
  8
0
100
AcDbBlockEnd
  0
BLOCK
  5
1911
330
1910
100
AcDbEntity
  8
0
100
AcDbBlockBegin
  2
h
 70
     0
 10
0.0
 20
0.0
 30
0.0
  3
h
  1

  0
MTEXT
  5
1912
330
1910
100
AcDbEntity
  8
图层3
100
AcDbMText
 10
140.7184734209531
 20
394.6528108057309
 30
0.0
 40
2.5
 41
49.1928157029788
 46
0.0
 71
     1
 72
     5
  1
{\fSimSun|b0|i0|c134|p2;Jiangmen XHHL Stainless Steel Manufacturing Co.Ltd.}
 73
     1
 44
1.0
  0
ENDBLK
  5
1913
330
1910
100
AcDbEntity
  8
0
100
AcDbBlockEnd
  0
BLOCK
  5
1937
330
1915
100
AcDbEntity
  8
0
100
AcDbBlockBegin
  2
D
 70
     0
 10
0.0
 20
0.0
 30
0.0
  3
D
  1

  0
LINE
  5
1AAC
330
1915
100
AcDbEntity
  8
图层3
100
AcDbLine
 10
138.2786312043299
 20
409.9405853190591
 30
0.0
 11
250.27863120433
 21
409.9405853190591
 31
0.0
  0
LINE
  5
1AAD
330
1915
100
AcDbEntity
  8
图层3
100
AcDbLine
 10
250.27863120433
 20
409.9405853190591
 30
0.0
 11
250.27863120433
 21
385.9405853190592
 31
0.0
  0
LINE
  5
1AAE
330
1915
100
AcDbEntity
  8
图层3
100
AcDbLine
 10
250.27863120433
 20
385.9405853190592
 30
0.0
 11
138.2786312043299
 21
385.9405853190592
 31
0.0
  0
LINE
  5
1AAF
330
1915
100
AcDbEntity
  8
图层3
100
AcDbLine
 10
138.2786312043299
 20
385.9405853190592
 30
0.0
 11
138.2786312043299
 21
409.9405853190591
 31
0.0
  0
LINE
  5
1AB0
330
1915
100
AcDbEntity
  8
图层3
100
AcDbLine
 10
250.27863120433
 20
405.7405853190592
 30
0.0
 11
138.2786312043299
 21
405.7405853190592
 31
0.0
  0
LINE
  5
1AB1
330
1915
100
AcDbEntity
  8
图层3
100
AcDbLine
 10
250.27863120433
 20
392.5405853190592
 30
0.0
 11
188.2786312043299
 21
392.5405853190593
 31
0.0
  0
LINE
  5
1AB2
330
1915
100
AcDbEntity
  8
图层3
100
AcDbLine
 10
250.27863120433
 20
399.1405853190593
 30
0.0
 11
138.2786312043299
 21
399.1405853190593
 31
0.0
  0
LINE
  5
1AB3
330
1915
100
AcDbEntity
  8
图层3
100
AcDbLine
 10
188.2786312043299
 20
385.9405853190592
 30
0.0
 11
188.2786312043299
 21
399.1405853190593
 31
0.0
  0
LINE
  5
1AB4
330
1915
100
AcDbEntity
  8
图层3
100
AcDbLine
 10
227.7786312043299
 20
385.9405853190592
 30
0.0
 11
227.7786312043299
 21
392.5405853190593
 31
0.0
  0
LINE
  5
1AB5
330
1915
100
AcDbEntity
  8
图层3
100
AcDbLine
 10
236.77863120433
 20
405.7405853190592
 30
0.0
 11
236.7786312043299
 21
399.1405853190593
 31
0.0
  0
LINE
  5
1AB6
330
1915
100
AcDbEntity
  8
图层3
100
AcDbLine
 10
236.7786312043299
 20
392.5405853190592
 30
0.0
 11
236.7786312043299
 21
385.9405853190592
 31
0.0
  0
LINE
  5
1AB7
330
1915
100
AcDbEntity
  8
图层3
100
AcDbLine
 10
158.7786312043299
 20
399.1405853190593
 30
0.0
 11
158.7786312043299
 21
409.9405853190591
 31
0.0
  0
LINE
  5
1AB8
330
1915
100
AcDbEntity
  8
图层3
100
AcDbLine
 10
175.2786312043299
 20
399.1405853190593
 30
0.0
 11
175.2786312043299
 21
409.9405853190591
 31
0.0
  0
LINE
  5
1AB9
330
1915
100
AcDbEntity
  8
图层3
100
AcDbLine
 10
216.2786312043299
 20
399.1405853190593
 30
0.0
 11
216.2786312043299
 21
409.9405853190591
 31
0.0
  0
LINE
  5
1ABA
330
1915
100
AcDbEntity
  8
图层3
100
AcDbLine
 10
200.27863120433
 20
399.1405853190593
 30
0.0
 11
200.27863120433
 21
405.7405853190592
 31
0.0
  0
MTEXT
  5
1ABB
330
1915
100
AcDbEntity
  8
图层3
100
AcDbMText
 10
142.3137583141513
 20
394.6976827191662
 30
0.0
 40
3.5
 41
42.36062869033571
 46
0.0
 71
     1
 72
     5
  1
{\fEstrangelo Edessa|b0|i0|c0|p66;Jiangmen XHHL Stainless Steel Manufacturing Co.Ltd.}
  7
样式 2
 73
     1
 44
1.0
  0
LINE
  5
1ABC
330
1915
100
AcDbEntity
  8
图层3
100
AcDbLine
 10
148.2786312043299
 20
405.7405853190592
 30
0.0
 11
148.2786312043299
 21
409.9405853190591
 31
0.0
  0
MTEXT
  5
1ABD
330
1915
100
AcDbEntity
  8
图层3
100
AcDbMText
 10
140.0498430556535
 20
408.7391633010699
 30
0.0
 40
1.6
 41
7.79562295153596
 46
0.0
 71
     1
 72
     5
  1
{\fISOCPEUR|b0|i0|c0|p34;Itemref}
  7
样式 1
 73
     1
 44
1.0
  0
MTEXT
  5
1ABE
330
1915
100
AcDbEntity
  8
图层3
100
AcDbMText
 10
149.3612815810993
 20
408.6309745936029
 30
0.0
 40
1.6
 41
8.661803279484388
 46
0.0
 71
     1
 72
     5
  1
{\fISOCPEUR|b0|i0|c0|p34;Quantity}
  7
样式 1
 73
     1
 44
1.0
  0
MTEXT
  5
1ABF
330
1915
100
AcDbEntity
  8
图层3
100
AcDbMText
 10
160.080262928994
 20
408.7391630562454
 30
0.0
 40
1.6
 41
11.80170717876467
 46
0.0
 71
     1
 72
     5
  1
{\fISOCPEUR|b0|i0|c0|p34;Material}
  7
样式 1
 73
     1
 44
1.0
  0
MTEXT
  5
1AC0
330
1915
100
AcDbEntity
  8
图层3
100
AcDbMText
 10
177.0799122794671
 20
408.9754183409924
 30
0.0
 40
1.8
 41
20.56636873026793
 46
0.0
 71
     1
 72
     5
  1
{\fTahoma|b0|i0|c0|p34;SUS304 1.2mm}
  7
样式 1
 73
     1
 44
1.0
  0
MTEXT
  5
1AC1
330
1915
100
AcDbEntity
  8
图层3
100
AcDbMText
 10
217.9289763273547
 20
408.691964308652
 30
0.0
 40
1.8
 41
22.8357617282889
 46
0.0
 71
     1
 72
     5
  1
{\fISOCPEUR|b0|i0|c0|p34;Article No.}
  7
样式 1
 73
     1
 44
1.0
  0
MTEXT
  5
1AC2
330
1915
100
AcDbEntity
  8
图层3
100
AcDbMText
 10
141.6206547808366
 20
405.0070642099059
 30
0.0
 40
1.6
 41
14.18370265968843
 46
0.0
 71
     1
 72
     5
  1
{\fISOCPEUR|b0|i0|c0|p34;Designed by\PDESIGNED_BY}
  7
样式 1
 73
     1
 44
1.0
  0
MTEXT
  5
1AC3
330
1915
100
AcDbEntity
  8
图层3
100
AcDbMText
 10
160.0594691895904
 20
404.7236098732931
 30
0.0
 40
1.6
 41
12.76533256209336
 46
0.0
 71
     1
 72
     5
  1
{\fISOCPEUR|b0|i0|c0|p34;Checked by\PCHECKED_BY}
  7
样式 1
 73
     1
 44
1.0
  0
MTEXT
  5
1AC4
330
1915
100
AcDbEntity
  8
图层3
100
AcDbMText
 10
176.5125644263653
 20
405.1487908105777
 30
0.0
 40
1.6
 41
23.26127254710025
 46
0.0
 71
     1
 72
     5
  1
{\fISOCPEUR|b0|i0|c0|p34;Approved by - date}
  7
样式 1
 73
     1
 44
1.0
  0
MTEXT
  5
1AC5
330
1915
100
AcDbEntity
  8
图层3
100
AcDbMText
 10
201.901391909391
 20
405.0070640763076
 30
0.0
 40
1.6
 41
14.3255398799152
 46
0.0
 71
     1
 72
     5
  1
{\fISOCPEUR|b0|i0|c0|p34;File name}
  7
样式 1
 73
     1
 44
1.0
  0
MTEXT
  5
1AC6
330
1915
100
AcDbEntity
  8
图层3
100
AcDbMText
 10
217.9289763273546
 20
405.1487910554024
 30
0.0
 40
1.6
 41
16.31125843748271
 46
0.0
 71
     1
 72
     5
  1
{\fISOCPEUR|b0|i0|c0|p34;Oate}
  7
样式 1
 73
     1
 44
1.0
  0
MTEXT
  5
1AC7
330
1915
100
AcDbEntity
  8
图层3
100
AcDbMText
 10
238.211671459038
 20
405.1487910554024
 30
0.0
 40
1.6
 41
8.93573266718505
 46
0.0
 71
     1
 72
     5
  1
{\fISOCPEUR|b0|i0|c0|p34;Scale}
  7
样式 1
 73
     1
 44
1.0
  0
MTEXT
  5
1AC8
330
1915
100
AcDbEntity
  8
图层3
100
AcDbMText
 10
195.2350518192924
 20
397.9207178146328
 30
0.0
 40
3.5
 41
37.72864922630765
 46
0.0
 71
     1
 72
     5
  1
{\fGautami|b0|i0|c0|p2;Kitchen Sink}
  7
样式 1
 73
     1
 44
1.0
  0
MTEXT
  5
1AC9
330
1915
100
AcDbEntity
  8
图层3
100
AcDbMText
 10
229.1341015716263
 20
391.6847324482292
 30
0.0
 40
1.6
 41
6.240829271287168
 46
0.0
 71
     1
 72
     5
  1
{\fISOCPEUR|b0|i0|c0|p34;Edition}
  7
样式 1
 73
     1
 44
1.0
  0
MTEXT
  5
1ACA
330
1915
100
AcDbEntity
  8
图层3
100
AcDbMText
 10
237.3606489795466
 20
391.6847324482293
 30
0.0
 40
1.6
 41
11.06328844497926
 46
0.0
 71
     1
 72
     5
  1
{\fISOCPEUR|b0|i0|c0|p34;Sheet}
  7
样式 1
 73
     1
 44
1.0
  0
ENDBLK
  5
1938
330
1915
100
AcDbEntity
  8
0
100
AcDbBlockEnd
  0
BLOCK
  5
199D
330
1996
100
AcDbEntity
  8
0
100
AcDbBlockBegin
  2
*D31
 70
     1
 10
0.0
 20
0.0
 30
0.0
  3
*D31
  1

  0
LINE
  5
19A0
330
1996
100
AcDbEntity
  8
图层3
 62
     0
440
 16777216
370
    -2
100
AcDbLine
 10
550.7677879862515
 20
1256.755869434593
 30
0.0
 11
597.7677879862515
 21
1256.755869434593
 31
0.0
  0
LINE
  5
19A1
330
1996
100
AcDbEntity
  8
图层3
 62
     0
440
 16777216
370
    -2
100
AcDbLine
 10
597.7677879862515
 20
1256.755869434593
 30
0.0
 11
610.924147503663
 21
1273.589604809405
 31
0.0
  0
MTEXT
  5
19A2
330
1996
100
AcDbEntity
  8
图层3
 62
     0
440
 16777216
100
AcDbMText
 10
571.7677879862515
 20
1268.755869434594
 30
0.0
 40
14.0
 41
0.0
 46
0.0
 71
     5
 72
     1
  1
R2.5
 73
     1
 44
1.0
  0
SOLID
  5
19A3
330
1996
100
AcDbEntity
  8
图层3
 62
     0
440
 16777216
100
AcDbTrace
 10
609.3483260268121
 20
1274.821183744389
 30
0.0
 11
612.4999689805138
 21
1272.358025874422
 31
0.0
 12
618.3136211135652
 22
1283.044533670511
 32
0.0
 13
618.3136211135652
 23
1283.044533670511
 33
0.0
  0
POINT
  5
19A4
330
1996
100
AcDbEntity
  8
Defpoints
 62
     0
440
 16777216
100
AcDbPoint
 10
618.3136211135652
 20
1283.044533670511
 30
0.0
  0
POINT
  5
19A5
330
1996
100
AcDbEntity
  8
Defpoints
 62
     0
440
 16777216
100
AcDbPoint
 10
616.7741474448355
 20
1281.074756824447
 30
0.0
  0
ENDBLK
  5
199E
330
1996
100
AcDbEntity
  8
0
100
AcDbBlockEnd
  0
BLOCK
  5
1A53
330
1A4C
100
AcDbEntity
  8
0
100
AcDbBlockBegin
  2
*D32
 70
     1
 10
0.0
 20
0.0
 30
0.0
  3
*D32
  1

  0
LINE
  5
1A56
330
1A4C
100
AcDbEntity
  8
图层3
 62
     0
440
 16777216
370
    -2
100
AcDbLine
 10
1571.412788055742
 20
904.903465284995
 30
0.0
 11
1618.412788055742
 21
904.903465284995
 31
0.0
  0
LINE
  5
1A57
330
1A4C
100
AcDbEntity
  8
图层3
 62
     0
440
 16777216
370
    -2
100
AcDbLine
 10
1618.412788055742
 20
904.903465284995
 30
0.0
 11
1636.310872818272
 21
886.0445532847423
 31
0.0
  0
MTEXT
  5
1A58
330
1A4C
100
AcDbEntity
  8
图层3
 62
     0
440
 16777216
100
AcDbMText
 10
1592.412788055742
 20
916.9034652849953
 30
0.0
 40
14.0
 41
0.0
 46
0.0
 71
     5
 72
     1
  1
R2.5
 73
     1
 44
1.0
  0
SOLID
  5
1A59
330
1A4C
100
AcDbEntity
  8
图层3
 62
     0
440
 16777216
100
AcDbTrace
 10
1637.761558356753
 20
887.4213290357062
 30
0.0
 11
1634.860187279791
 21
884.6677775337782
 31
0.0
 12
1644.571527324056
 22
877.3404400538565
 32
0.0
 13
1644.571527324056
 23
877.3404400538565
 33
0.0
  0
POINT
  5
1A5A
330
1A4C
100
AcDbEntity
  8
Defpoints
 62
     0
440
 16777216
100
AcDbPoint
 10
1644.571527324056
 20
877.3404400538565
 30
0.0
  0
POINT
  5
1A5B
330
1A4C
100
AcDbEntity
  8
Defpoints
 62
     0
440
 16777216
100
AcDbPoint
 10
1642.850557635352
 20
879.153796976956
 30
0.0
  0
ENDBLK
  5
1A54
330
1A4C
100
AcDbEntity
  8
0
100
AcDbBlockEnd
  0
BLOCK
  5
1A7F
330
1A79
100
AcDbEntity
  8
0
100
AcDbBlockBegin
  2
*D33
 70
     1
 10
0.0
 20
0.0
 30
0.0
  3
*D33
  1

  0
LINE
  5
1C69
330
1A79
100
AcDbEntity
  8
图层3
 62
     0
440
 16777216
370
    -2
100
AcDbLine
 10
1601.682797740212
 20
624.8454873784951
 30
0.0
 11
1430.434330205319
 21
619.4535046205523
 31
0.0
  0
MTEXT
  5
1C6A
330
1A79
100
AcDbEntity
  8
图层3
 62
     0
440
 16777216
100
AcDbMText
 10
1521.677943420902
 20
634.3323763903779
 30
0.0
 40
14.0
 41
0.0
 46
0.0
 71
     5
 72
     1
  1
R2200 [86.6"]
 11
0.9995046743281667
 21
0.031470716486048
 31
0.0
 73
     1
 44
1.0
  0
SOLID
  5
1C6B
330
1A79
100
AcDbEntity
  8
图层3
 62
     0
440
 16777216
100
AcDbTrace
 10
1430.371388772347
 20
621.4525139692085
 30
0.0
 11
1430.497271638292
 21
617.4544952718958
 31
0.0
 12
1418.440274113382
 22
619.0758560227196
 32
0.0
 13
1418.440274113382
 23
619.0758560227196
 33
0.0
  0
POINT
  5
1C6C
330
1A79
100
AcDbEntity
  8
Defpoints
 62
     0
440
 16777216
100
AcDbPoint
 10
1418.440274113382
 20
619.0758560227196
 30
0.0
  0
POINT
  5
1C6D
330
1A79
100
AcDbEntity
  8
Defpoints
 62
     0
440
 16777216
100
AcDbPoint
 10
3617.350557635347
 20
688.3114322920244
 30
0.0
  0
ENDBLK
  5
1A80
330
1A79
100
AcDbEntity
  8
0
100
AcDbBlockEnd
  0
ENDSEC
  0
SECTION
  2
ENTITIES
  0
ARC
  5
4BB
102
{ACAD_REACTORS
330
1748
330
1838
102
}
330
1F
100
AcDbEntity
  8
图层2
100
AcDbCircle
 10
844.1465554075431
 20
396.7813855601685
 30
0.0
 40
480.0
100
AcDbArc
 50
78.42303224005675
 51
101.5769677599421
  0
CIRCLE
  5
51B
330
1F
100
AcDbEntity
  8
图层2
100
AcDbCircle
 10
911.1330206652244
 20
709.6916178509669
 30
0.0
 40
4340.0
  0
CIRCLE
  5
51C
330
1F
100
AcDbEntity
  8
图层2
100
AcDbCircle
 10
974.1465554075462
 20
503.7000781119404
 30
0.0
 40
4405.0
  0
ARC
  5
51D
330
1F
100
AcDbEntity
  8
图层2
100
AcDbCircle
 10
-3428.446699289875
 20
649.294149738368
 30
0.0
 40
4500.0
100
AcDbArc
 50
18.29275616933049
 51
341.70724383067
  0
ARC
  5
57E
330
1F
100
AcDbEntity
  8
图层2
100
AcDbCircle
 10
-5930.853444592454
 20
606.9051821749949
 30
0.0
 40
7000.0
100
AcDbArc
 50
359.1377127053247
 51
0.8658871469341701
  0
ARC
  5
59B
102
{ACAD_REACTORS
330
16EA
102
}
330
1F
100
AcDbEntity
  8
图层2
100
AcDbCircle
 10
7619.146555407546
 20
606.9051821749678
 30
0.0
 40
7000.0
100
AcDbArc
 50
179.1341128530655
 51
180.8622872946751
  0
ARC
  5
5C8
102
{ACAD_REACTORS
330
1768
102
}
330
1F
100
AcDbEntity
  8
图层2
100
AcDbCircle
 10
779.9276347675126
 20
710.2713060230589
 30
0.0
 40
160.0
100
AcDbArc
 50
101.5769677599421
 51
179.1341128530647
  0
ARC
  5
5C9
102
{ACAD_REACTORS
330
1758
102
}
330
1F
100
AcDbEntity
  8
图层2
100
AcDbCircle
 10
908.3654760475795
 20
710.2713060230578
 30
0.0
 40
160.0
100
AcDbArc
 50
0.8658871469341779
 51
78.42303224005674
  0
ARC
  5
5CB
102
{ACAD_REACTORS
330
1788
330
1850
102
}
330
1F
100
AcDbEntity
  8
图层2
100
AcDbCircle
 10
844.1465554075215
 20
7406.781385560169
 30
0.0
 40
7000.0
100
AcDbArc
 50
268.9277218593705
 51
271.0722781406299
  0
ARC
  5
5CC
102
{ACAD_REACTORS
330
17A8
102
}
330
1F
100
AcDbEntity
  8
图层2
100
AcDbCircle
 10
973.3645960170854
 20
502.990564715361
 30
0.0
 40
95.0
100
AcDbArc
 50
271.0722781406281
 51
359.1377127053228
  0
ARC
  5
5CE
102
{ACAD_REACTORS
330
1798
102
}
330
1F
100
AcDbEntity
  8
图层2
100
AcDbCircle
 10
714.9285147980072
 20
502.9905647153607
 30
0.0
 40
95.0
100
AcDbArc
 50
180.8622872946749
 51
268.9277218593705
  0
LINE
  5
66B
102
{ACAD_REACTORS
330
17C0
330
1868
102
}
330
1F
100
AcDbEntity
  8
图层2
100
AcDbLine
 10
711.1465588616237
 20
901.7813855601687
 30
0.0
 11
977.1465519534677
 21
901.7813855601687
 31
0.0
  0
LINE
  5
66D
330
1F
100
AcDbEntity
  8
图层2
100
AcDbLine
 10
594.1465588616237
 20
784.7813855601686
 30
0.0
 11
594.1465588616235
 21
453.7813855601688
 31
0.0
  0
LINE
  5
6D9
102
{ACAD_REACTORS
330
1838
102
}
330
1F
100
AcDbEntity
  8
图层1
100
AcDbLine
 10
764.1465554075463
 20
731.7813855601684
 30
0.0
 11
924.1465554075462
 21
731.7813855601684
 31
0.0
  0
LINE
  5
6DA
330
1F
100
AcDbEntity
  8
图层1
100
AcDbLine
 10
844.1465554075463
 20
651.7813855601684
 30
0.0
 11
844.1465554075463
 21
811.7813855601685
 31
0.0
  0
LINE
  5
945
102
{ACAD_REACTORS
330
1808
330
1868
102
}
330
1F
100
AcDbEntity
  8
图层2
100
AcDbLine
 10
666.1465588616236
 20
381.7813855601689
 30
0.0
 11
1022.146551953468
 21
381.7813855601692
 31
0.0
  0
LINE
  5
947
330
1F
100
AcDbEntity
  8
图层2
100
AcDbLine
 10
1094.146551953468
 20
784.7813855601686
 30
0.0
 11
1094.146551953468
 21
453.7813855601691
 31
0.0
  0
LINE
  5
9AC
102
{ACAD_REACTORS
330
1728
102
}
330
1F
100
AcDbEntity
  8
图层2
100
AcDbLine
 10
1645.350557635349
 20
879.6282792603131
 30
0.0
 11
1645.350557635349
 21
403.9344918600244
 31
0.0
  0
ARC
  5
9B1
102
{ACAD_REACTORS
330
1A87
102
}
330
1F
100
AcDbEntity
  8
图层2
100
AcDbCircle
 10
3617.350557635349
 20
688.3114322920245
 30
0.0
 40
2200.0
100
AcDbArc
 50
176.3157742810675
 51
186.1733272840501
  0
LINE
  5
9B2
330
1F
100
AcDbEntity
  8
图层2
100
AcDbLine
 10
3386.581600052397
 20
688.3114322920245
 30
0.0
 11
3546.581600052397
 21
688.3114322920245
 31
0.0
  0
LINE
  5
9B3
330
1F
100
AcDbEntity
  8
图层2
100
AcDbLine
 10
3466.581600052397
 20
608.3114322920245
 30
0.0
 11
3466.581600052397
 21
768.3114322920244
 31
0.0
  0
LINE
  5
9CD
102
{ACAD_REACTORS
330
1728
102
}
330
1F
100
AcDbEntity
  8
图层2
100
AcDbLine
 10
1642.981397525956
 20
876.6572231400692
 30
0.0
 11
1459.721089768826
 21
867.0529573797914
 31
0.0
  0
LINE
  5
9CE
330
1F
100
AcDbEntity
  8
图层2
100
AcDbLine
 10
1642.981397525957
 20
406.9055479802683
 30
0.0
 11
1467.78267246877
 21
416.0873240937354
 31
0.0
  0
ARC
  5
9CF
330
1F
100
AcDbEntity
  8
图层2
100
AcDbCircle
 10
1461.814528018543
 20
827.1077759896083
 30
0.0
 40
40.0
100
AcDbArc
 50
92.99999999999974
 51
176.3157742810671
  0
ARC
  5
9D0
102
{ACAD_REACTORS
330
1738
102
}
330
1F
100
AcDbEntity
  8
图层2
100
AcDbCircle
 10
1469.876110718488
 20
456.0325054839182
 30
0.0
 40
40.0
100
AcDbArc
 50
186.1733272840498
 51
266.9999999999999
  0
LINE
  5
A2F
330
1F
100
AcDbEntity
  8
图层2
100
AcDbLine
 10
1645.350557635349
 20
879.1537969769557
 30
0.0
 11
1645.350557635349
 21
901.7813855601685
 31
0.0
  0
LINE
  5
A30
330
1F
100
AcDbEntity
  8
图层2
100
AcDbLine
 10
1645.350557635349
 20
404.4089741433818
 30
0.0
 11
1645.350557635349
 21
381.781385560169
 31
0.0
  0
CIRCLE
  5
E2F
102
{ACAD_REACTORS
330
187F
102
}
330
1F
100
AcDbEntity
  8
图层2
100
AcDbCircle
 10
844.1465554075463
 20
731.7813855601684
 30
0.0
 40
46.25
  0
CIRCLE
  5
E30
330
1F
100
AcDbEntity
  8
图层2
100
AcDbCircle
 10
844.1465554075463
 20
731.7813855601684
 30
0.0
 40
55.5
  0
CIRCLE
  5
E31
330
1F
100
AcDbEntity
  8
图层2
100
AcDbCircle
 10
844.1465554075463
 20
731.7813855601684
 30
0.0
 40
62.0
  0
LINE
  5
E39
330
1F
100
AcDbEntity
  8
图层2
100
AcDbLine
 10
1414.056422115231
 20
676.2813855601684
 30
0.0
 11
1416.250979449844
 21
787.2813855601685
 31
0.0
  0
LINE
  5
E3A
330
1F
100
AcDbEntity
  8
图层2
100
AcDbLine
 10
1412.438950131877
 20
685.5313855601694
 30
0.0
 11
1414.267747910721
 21
778.0313855601696
 31
0.0
  0
LINE
  5
E3B
330
1F
100
AcDbEntity
  8
图层2
100
AcDbLine
 10
1419.880173544219
 20
793.7813855601685
 30
0.0
 11
1416.250979449844
 21
787.2813855601685
 31
0.0
  0
LINE
  5
E3C
330
1F
100
AcDbEntity
  8
图层2
100
AcDbLine
 10
1416.250979449844
 20
787.2813855601685
 30
0.0
 11
1414.267747910721
 21
778.0313855601685
 31
0.0
  0
LINE
  5
E3D
330
1F
100
AcDbEntity
  8
图层2
100
AcDbLine
 10
1417.428595981228
 20
669.7813855601683
 30
0.0
 11
1414.056422115231
 21
676.2813855601685
 31
0.0
  0
LINE
  5
E3E
330
1F
100
AcDbEntity
  8
图层2
100
AcDbLine
 10
1414.056422115231
 20
676.2813855601685
 30
0.0
 11
1412.438950131877
 21
685.5313855601685
 31
0.0
  0
LINE
  5
E7B
330
1F
100
AcDbEntity
  8
图层2
100
AcDbLine
 10
594.1465588616237
 20
1283.574756824445
 30
0.0
 11
616.7741474448367
 21
1283.574756824446
 31
0.0
  0
ARC
  5
E80
330
1F
100
AcDbEntity
  8
图层2
100
AcDbCircle
 10
844.1465554075461
 20
3255.574756824446
 30
0.0
 40
2200.0
100
AcDbArc
 50
265.3404703901268
 51
274.6595296098732
  0
LINE
  5
E81
330
1F
100
AcDbEntity
  8
图层2
100
AcDbLine
 10
619.2707212817231
 20
1281.205596715053
 30
0.0
 11
628.7348068334211
 21
1100.620086678746
 31
0.0
  0
LINE
  5
E82
102
{ACAD_REACTORS
330
1671
102
}
330
1F
100
AcDbEntity
  8
图层2
100
AcDbLine
 10
1069.022389533368
 20
1281.205596715053
 30
0.0
 11
1059.55830398167
 21
1100.620086678746
 31
0.0
  0
ARC
  5
E83
330
1F
100
AcDbEntity
  8
图层2
100
AcDbCircle
 10
668.6799882236041
 20
1102.713524928464
 30
0.0
 40
40.0
100
AcDbArc
 50
183.0
 51
265.3404703901273
  0
ARC
  5
E84
102
{ACAD_REACTORS
330
1681
102
}
330
1F
100
AcDbEntity
  8
图层2
100
AcDbCircle
 10
1019.613122591487
 20
1102.713524928464
 30
0.0
 40
40.0
100
AcDbArc
 50
274.6595296098733
 51
357.0
  0
LINE
  5
E85
330
1F
100
AcDbEntity
  8
图层2
100
AcDbLine
 10
1071.518963370255
 20
1283.574756824445
 30
0.0
 11
1094.146551953468
 21
1283.574756824445
 31
0.0
  0
ARC
  5
E86
330
1F
100
AcDbEntity
  8
图层2
100
AcDbCircle
 10
1071.518963370255
 20
1281.074756824445
 30
0.0
 40
2.5
100
AcDbArc
 50
89.99999999999948
 51
177.0
  0
ARC
  5
E87
102
{ACAD_REACTORS
330
19A6
102
}
330
1F
100
AcDbEntity
  8
图层2
100
AcDbCircle
 10
616.7741474448367
 20
1281.074756824446
 30
0.0
 40
2.5
100
AcDbArc
 50
2.999999999999991
 51
90.00000000000049
  0
LINE
  5
E88
102
{ACAD_REACTORS
330
1671
102
}
330
1F
100
AcDbEntity
  8
图层2
100
AcDbLine
 10
616.7741474448367
 20
1283.574756824446
 30
0.0
 11
1071.518963370255
 21
1283.574756824445
 31
0.0
  0
LINE
  5
E90
330
1F
100
AcDbEntity
  8
图层2
100
AcDbLine
 10
788.6465554075463
 20
1052.948566720749
 30
0.0
 11
899.6465554075461
 21
1052.948566720749
 31
0.0
  0
LINE
  5
E91
330
1F
100
AcDbEntity
  8
图层2
100
AcDbLine
 10
797.8965554075466
 20
1051.148566720749
 30
0.0
 11
890.3965554075464
 21
1051.148566720749
 31
0.0
  0
LINE
  5
E92
330
1F
100
AcDbEntity
  8
图层2
100
AcDbLine
 10
782.1465554075461
 20
1056.448566720749
 30
0.0
 11
788.6465554075463
 21
1052.948566720749
 31
0.0
  0
LINE
  5
E93
330
1F
100
AcDbEntity
  8
图层2
100
AcDbLine
 10
788.6465554075463
 20
1052.948566720749
 30
0.0
 11
797.8965554075463
 21
1051.148566720749
 31
0.0
  0
LINE
  5
E94
330
1F
100
AcDbEntity
  8
图层2
100
AcDbLine
 10
906.1465554075462
 20
1056.448566720749
 30
0.0
 11
899.6465554075463
 21
1052.948566720749
 31
0.0
  0
LINE
  5
E95
330
1F
100
AcDbEntity
  8
图层2
100
AcDbLine
 10
899.6465554075463
 20
1052.948566720749
 30
0.0
 11
890.3965554075464
 21
1051.148566720749
 31
0.0
  0
INSERT
  5
ED3
330
1F
100
AcDbEntity
  8
图层2
100
AcDbBlockReference
  2
c
 10
726.48118625598
 20
984.2540015682075
 30
0.0
  0
LINE
  5
F04
102
{ACAD_REACTORS
330
17C0
330
17D8
102
}
330
1F
100
AcDbEntity
  8
图层2
100
AcDbLine
 10
977.1465519534677
 20
901.7813855601687
 30
0.0
 11
1094.146551953468
 21
784.7813855601686
 31
0.0
  0
LINE
  5
F05
330
1F
100
AcDbEntity
  8
图层2
100
AcDbLine
 10
711.1465588616237
 20
901.7813855601687
 30
0.0
 11
594.1465588616237
 21
784.7813855601686
 31
0.0
  0
LINE
  5
F1E
102
{ACAD_REACTORS
330
17F0
102
}
330
1F
100
AcDbEntity
  8
图层2
100
AcDbLine
 10
1022.146551953468
 20
381.7813855601692
 30
0.0
 11
1094.146551953468
 21
453.7813855601691
 31
0.0
  0
LINE
  5
F20
330
1F
100
AcDbEntity
  8
图层2
100
AcDbLine
 10
666.1465588616236
 20
381.7813855601689
 30
0.0
 11
594.1465588616235
 21
453.7813855601688
 31
0.0
  0
LINE
  5
1053
102
{ACAD_REACTORS
330
1838
102
}
330
1F
100
AcDbEntity
  8
图层1
100
AcDbLine
 10
844.1465554075458
 20
920.6779772109038
 30
0.0
 11
844.1465554075456
 21
366.7172914752045
 31
0.0
  0
LINE
  5
1054
330
1F
100
AcDbEntity
  8
图层1
100
AcDbLine
 10
844.1465554075456
 20
901.7813855601685
 30
0.0
 11
844.1465554075458
 21
1082.700986702913
 31
0.0
  0
MTEXT
  5
107A
330
1F
100
AcDbEntity
  8
图层3
100
AcDbMText
 10
1485.466868449111
 20
1114.382072010463
 30
0.0
 40
14.0
 41
0.0
 46
0.0
 71
     1
 72
     1
  1

 73
     1
 44
1.0
  0
MTEXT
  5
117E
330
1F
100
AcDbEntity
  8
图层3
100
AcDbMText
 10
1485.466868449111
 20
1114.925371245208
 30
0.0
 40
14.0
 41
0.0
 46
0.0
 71
     1
 72
     1
  1

 73
     1
 44
1.0
  0
MTEXT
  5
1182
330
1F
100
AcDbEntity
  8
图层3
100
AcDbMText
 10
1485.466868449111
 20
1150.781672572357
 30
0.0
 40
14.0
 41
0.0
 46
0.0
 71
     1
 72
     1
  1

 73
     1
 44
1.0
  0
CIRCLE
  5
153B
330
1F
100
AcDbEntity
  8
图层4
100
AcDbCircle
 10
844.1465554075458
 20
1055.574756824445
 30
0.0
 40
67.11748763542385
  0
ARC
  5
153D
102
{ACAD_REACTORS
330
15BB
102
}
330
1F
100
AcDbEntity
  8
图层2
100
AcDbCircle
 10
1409.618744274412
 20
5506.74133980939
 30
0.0
 40
4400.0
100
AcDbArc
 50
268.2519554902612
 51
271.7480445097387
  0
LINE
  5
153E
102
{ACAD_REACTORS
330
1587
102
}
330
1F
100
AcDbEntity
  8
图层2
100
AcDbLine
 10
1298.618744274413
 20
1101.488959601997
 30
0.0
 11
1520.618744274412
 21
1101.488959601997
 31
0.0
  0
LINE
  5
153F
330
1F
100
AcDbEntity
  8
图层2
100
AcDbLine
 10
1317.118744274413
 20
1097.888959601997
 30
0.0
 11
1502.118744274413
 21
1097.888959601997
 31
0.0
  0
LINE
  5
1540
330
1F
100
AcDbEntity
  8
图层2
100
AcDbLine
 10
1285.618744274412
 20
1108.488959601997
 30
0.0
 11
1298.618744274413
 21
1101.488959601997
 31
0.0
  0
LINE
  5
1541
102
{ACAD_REACTORS
330
1587
102
}
330
1F
100
AcDbEntity
  8
图层2
100
AcDbLine
 10
1298.618744274413
 20
1101.488959601997
 30
0.0
 11
1317.118744274413
 21
1097.888959601997
 31
0.0
  0
LINE
  5
1542
102
{ACAD_REACTORS
330
15BB
102
}
330
1F
100
AcDbEntity
  8
图层2
100
AcDbLine
 10
1533.618744274413
 20
1108.488959601997
 30
0.0
 11
1520.618744274413
 21
1101.488959601997
 31
0.0
  0
LINE
  5
1543
102
{ACAD_REACTORS
330
15BB
102
}
330
1F
100
AcDbEntity
  8
图层2
100
AcDbLine
 10
1520.618744274413
 20
1101.488959601997
 30
0.0
 11
1502.118744274413
 21
1097.888959601997
 31
0.0
  0
LINE
  5
1544
330
1F
100
AcDbEntity
  8
图层1
100
AcDbLine
 10
1409.618744274411
 20
972.5063645385422
 30
0.0
 11
1409.618744274411
 21
1160.993799566325
 31
0.0
  0
CIRCLE
  5
1545
330
1F
100
AcDbEntity
  8
图层4
100
AcDbCircle
 10
1409.618744274411
 20
1106.74133980939
 30
0.0
 40
134.2349752708477
  0
DIMENSION
  5
1570
102
{ACAD_XDICTIONARY
360
157D
102
}
102
{ACAD_REACTORS
330
1587
102
}
330
1F
100
AcDbEntity
  8
图层3
100
AcDbDimension
280
     0
  2
*D5
 10
1520.618744274412
 20
1261.152185545234
 30
0.0
 11
1409.618744274412
 21
1273.152185545234
 31
0.0
 70
    32
  1
%%C111 [4.37"]
 71
     5
 42
221.9999999999995
 73
     0
 74
     0
 75
     0
  3
ISO-25
100
AcDbAlignedDimension
 13
1298.618744274413
 23
1101.488959601997
 33
0.0
 14
1520.618744274412
 24
1101.488959601997
 34
0.0
100
AcDbRotatedDimension
1001
ACAD
1000
DSTYLE
1002
{
1070
   173
1070
     0
1002
}
  0
DIMENSION
  5
15A0
102
{ACAD_XDICTIONARY
360
15AF
102
}
102
{ACAD_REACTORS
330
15BB
102
}
330
1F
100
AcDbEntity
  8
图层3
100
AcDbDimension
280
     0
  2
*D7
 10
1590.579485560896
 20
1097.888959601997
 30
0.0
 11
1590.579485560895
 21
1181.822292935329
 31
0.0
 70
   160
  1
5.3 [.2"]
 71
     5
 42
10.59999999999945
 73
     0
 74
     0
 75
     0
  3
ISO-25
100
AcDbAlignedDimension
 13
1533.61874427441
 23
1108.488959601996
 33
0.0
 14
1502.11874427441
 24
1097.888959601996
 34
0.0
 50
90.0
100
AcDbRotatedDimension
1001
ACAD
1000
DSTYLE
1002
{
1070
   173
1070
     0
1002
}
  0
DIMENSION
  5
165A
102
{ACAD_XDICTIONARY
360
1667
102
}
102
{ACAD_REACTORS
330
1671
102
}
330
1F
100
AcDbEntity
  8
图层3
100
AcDbDimension
280
     0
  2
*D8
 10
1059.55830398167
 20
1100.620086678746
 30
0.0
 11
1016.45931185666
 21
1233.576432854575
 31
0.0
 70
    34
 71
     5
 42
1.518436449235069
 73
     0
 74
     0
 75
     0
  3
副本 ISO-25
100
AcDb2LineAngularDimension
 13
616.7741474448367
 23
1283.574756824446
 33
0.0
 14
1071.518963370255
 24
1283.574756824445
 34
0.0
 15
1069.022389533368
 25
1281.205596715053
 35
0.0
 16
994.7858788006797
 26
1242.355962623734
 36
0.0
  0
DIMENSION
  5
1672
102
{ACAD_XDICTIONARY
360
167B
102
}
102
{ACAD_REACTORS
330
1681
102
}
330
1F
100
AcDbEntity
  8
图层3
100
AcDbDimension
280
     0
  2
*D9
 10
1019.613122591487
 20
1102.713524928464
 30
0.0
 11
984.6836403800548
 21
1136.361426385186
 31
0.0
 70
   164
  1
<> [1.57"]
 71
     5
 42
39.99999999999977
 73
     0
 74
     0
 75
     0
  3
副本 ISO-25
100
AcDbRadialDimension
 15
1048.420942972049
 25
1074.96267836622
 35
0.0
 40
0.0
1001
ACAD
1000
DSTYLE
1002
{
1070
   288
1070
     1
1002
}
  0
DIMENSION
  5
16DB
102
{ACAD_XDICTIONARY
360
16E4
102
}
102
{ACAD_REACTORS
330
16EA
102
}
330
1F
100
AcDbEntity
  8
图层3
100
AcDbDimension
280
     0
  2
*D10
 10
7619.146555407546
 20
606.9051821749676
 30
0.0
 11
677.321990086748
 21
617.9384086519466
 31
0.0
 70
   164
 71
     5
 42
7000.000000000001
 73
     0
 74
     0
 75
     0
  3
ISO-25
100
AcDbRadialDimension
 15
619.1553968885784
 25
618.0308577177664
 35
0.0
 40
0.0
1001
ACAD
1000
DSTYLE
1002
{
1070
   173
1070
     0
1070
   288
1070
     1
1002
}
  0
DIMENSION
  5
16EB
330
1F
100
AcDbEntity
  8
图层3
100
AcDbDimension
280
     0
  2
*D11
 10
1417.780062478882
 20
731.7813855601684
 30
0.0
 11
1531.565310057115
 21
743.7813855601684
 31
0.0
 70
    32
  1
228 [9"]
 71
     5
 42
227.5704951564671
 73
     0
 74
     0
 75
     0
  3
ISO-25
100
AcDbAlignedDimension
 13
1645.350557635349
 23
731.7813855601684
 33
0.0
 14
1417.780062478882
 24
731.7813855601684
 34
0.0
100
AcDbRotatedDimension
1001
ACAD
1000
DSTYLE
1002
{
1070
   173
1070
     0
1002
}
  0
DIMENSION
  5
1711
102
{ACAD_XDICTIONARY
360
171E
102
}
102
{ACAD_REACTORS
330
1728
102
}
330
1F
100
AcDbEntity
  8
图层3
100
AcDbDimension
280
     0
  2
*D12
 10
1459.721089768826
 20
867.0529573797914
 30
0.0
 11
1601.058665532566
 21
830.1074699511666
 31
0.0
 70
    34
 71
     5
 42
1.518436449235066
 73
     0
 74
     0
 75
     0
  3
ISO-25
100
AcDb2LineAngularDimension
 13
1645.350557635349
 23
879.6282792603131
 33
0.0
 14
1645.350557635349
 24
403.9344918600244
 34
0.0
 15
1642.981397525956
 25
876.6572231400692
 35
0.0
 16
1580.279302967154
 26
836.1203528277268
 36
0.0
1001
ACAD
1000
DSTYLE
1002
{
1070
   173
1070
     0
1002
}
  0
DIMENSION
  5
1729
102
{ACAD_XDICTIONARY
360
1732
102
}
102
{ACAD_REACTORS
330
1738
102
}
330
1F
100
AcDbEntity
  8
图层3
100
AcDbDimension
280
     0
  2
*D13
 10
1469.876110718488
 20
456.0325054839181
 30
0.0
 11
1505.769990699372
 21
488.6496693691795
 31
0.0
 70
   164
  1
<> [1.57"]
 71
     5
 42
39.99999999999955
 73
     0
 74
     0
 75
     0
  3
ISO-25
100
AcDbRadialDimension
 15
1440.272910734255
 25
429.1317517641155
 35
0.0
 40
0.0
1001
ACAD
1000
DSTYLE
1002
{
1070
   173
1070
     0
1070
   288
1070
     1
1002
}
  0
DIMENSION
  5
1739
102
{ACAD_XDICTIONARY
360
1742
102
}
102
{ACAD_REACTORS
330
1748
102
}
330
1F
100
AcDbEntity
  8
图层3
100
AcDbDimension
280
     0
  2
*D14
 10
844.1465554075426
 20
396.7813855601684
 30
0.0
 11
912.9230810588646
 21
817.6994767837852
 31
0.0
 70
   164
 71
     5
 42
480.0
 73
     0
 74
     0
 75
     0
  3
ISO-25
100
AcDbRadialDimension
 15
921.5503826352907
 25
870.4992842409094
 35
0.0
 40
0.0
1001
ACAD
1000
DSTYLE
1002
{
1070
   173
1070
     0
1070
   288
1070
     1
1002
}
  0
DIMENSION
  5
1749
102
{ACAD_XDICTIONARY
360
1752
102
}
102
{ACAD_REACTORS
330
1758
102
}
330
1F
100
AcDbEntity
  8
图层3
100
AcDbDimension
280
     0
  2
*D15
 10
908.3654760475793
 20
710.2713060230576
 30
0.0
 11
952.019312632702
 21
747.6957973542623
 31
0.0
 70
   164
  1
  <>[6.3"]
 71
     5
 42
160.0000000000002
 73
     0
 74
     0
 75
     0
  3
ISO-25
100
AcDbRadialDimension
 15
1029.837021327921
 25
814.4090210316264
 35
0.0
 40
0.0
1001
ACAD
1000
DSTYLE
1002
{
1070
   173
1070
     0
1070
   288
1070
     1
1002
}
  0
DIMENSION
  5
1759
102
{ACAD_XDICTIONARY
360
1762
102
}
102
{ACAD_REACTORS
330
1768
102
}
330
1F
100
AcDbEntity
  8
图层3
100
AcDbDimension
280
     0
  2
*D16
 10
779.927634767513
 20
710.2713060230586
 30
0.0
 11
732.7718636848368
 21
764.0168477320997
 31
0.0
 70
   164
  1
<> [6.3"]
 71
     5
 42
160.0000000000003
 73
     0
 74
     0
 75
     0
  3
ISO-25
100
AcDbRadialDimension
 15
674.4042309461399
 25
830.5410497076259
 35
0.0
 40
0.0
1001
ACAD
1000
DSTYLE
1002
{
1070
   173
1070
     0
1070
   288
1070
     1
1002
}
  0
DIMENSION
  5
1779
102
{ACAD_XDICTIONARY
360
1782
102
}
102
{ACAD_REACTORS
330
1788
102
}
330
1F
100
AcDbEntity
  8
图层3
100
AcDbDimension
280
     0
  2
*D18
 10
844.1465554075204
 20
7406.781385560158
 30
0.0
 11
906.3384831130381
 21
465.2266467494132
 31
0.0
 70
   164
 71
     5
 42
6999.999999999992
 73
     0
 74
     0
 75
     0
  3
ISO-25
100
AcDbRadialDimension
 15
906.859598638937
 25
407.0623144681965
 35
0.0
 40
0.0
1001
ACAD
1000
DSTYLE
1002
{
1070
   173
1070
     0
1070
   288
1070
     1
1002
}
  0
DIMENSION
  5
1789
102
{ACAD_XDICTIONARY
360
1792
102
}
102
{ACAD_REACTORS
330
1798
102
}
330
1F
100
AcDbEntity
  8
图层3
100
AcDbDimension
280
     0
  2
*D19
 10
714.928514798007
 20
502.9905647153604
 30
0.0
 11
691.0915212579951
 21
473.3966846221148
 31
0.0
 70
   164
  1
<> [3.7"]
 71
     5
 42
94.99999999999966
 73
     0
 74
     0
 75
     0
  3
ISO-25
100
AcDbRadialDimension
 15
655.3360309479768
 25
429.0058644822458
 35
0.0
 40
0.0
1001
ACAD
1000
DSTYLE
1002
{
1070
   173
1070
     0
1070
   288
1070
     1
1002
}
  0
DIMENSION
  5
1799
102
{ACAD_XDICTIONARY
360
17A2
102
}
102
{ACAD_REACTORS
330
17A8
102
}
330
1F
100
AcDbEntity
  8
图层3
100
AcDbDimension
280
     0
  2
*D20
 10
973.364596017085
 20
502.990564715361
 30
0.0
 11
979.9959206562958
 21
495.5055441055428
 31
0.0
 70
   164
  1
<> [3.7"]
 71
     5
 42
95.00000000000028
 73
     0
 74
     0
 75
     0
  3
ISO-25
100
AcDbRadialDimension
 15
1036.362180089585
 25
431.88286892209
 35
0.0
 40
0.0
1001
ACAD
1000
DSTYLE
1002
{
1070
   173
1070
     0
1070
   288
1070
     1
1002
}
  0
DIMENSION
  5
17A9
102
{ACAD_XDICTIONARY
360
17B6
102
}
102
{ACAD_REACTORS
330
17C0
102
}
330
1F
100
AcDbEntity
  8
图层3
100
AcDbDimension
280
     0
  2
*D21
 10
977.1465519534677
 20
941.150805731042
 30
0.0
 11
886.0843550766148
 21
941.150805731042
 31
0.0
 70
   160
  1
    <> [10.5"]
 71
     5
 42
265.999993091844
 73
     0
 74
     0
 75
     0
  3
ISO-25
100
AcDbAlignedDimension
 13
711.1465588616237
 23
901.7813855601687
 33
0.0
 14
977.1465519534677
 24
901.7813855601687
 34
0.0
100
AcDbRotatedDimension
1001
ACAD
1000
DSTYLE
1002
{
1070
   173
1070
     0
1002
}
  0
DIMENSION
  5
17C1
102
{ACAD_XDICTIONARY
360
17CE
102
}
102
{ACAD_REACTORS
330
17D8
102
}
330
1F
100
AcDbEntity
  8
图层3
100
AcDbDimension
280
     0
  2
*D22
 10
1133.340005939652
 20
784.7813855601692
 30
0.0
 11
1121.340005939652
 21
843.2813855601686
 31
0.0
 70
    32
  1
<> [4.6"]
 71
     5
 42
117.0
 73
     0
 74
     0
 75
     0
  3
ISO-25
100
AcDbAlignedDimension
 13
977.1465519534677
 23
901.7813855601687
 33
0.0
 14
1094.146551953468
 24
784.7813855601686
 34
0.0
 50
90.0
100
AcDbRotatedDimension
1001
ACAD
1000
DSTYLE
1002
{
1070
   173
1070
     0
1002
}
  0
DIMENSION
  5
17D9
102
{ACAD_XDICTIONARY
360
17E6
102
}
102
{ACAD_REACTORS
330
17F0
102
}
330
1F
100
AcDbEntity
  8
图层3
100
AcDbDimension
280
     0
  2
*D23
 10
1138.421843963029
 20
453.7813855601694
 30
0.0
 11
1114.755177296362
 21
417.7813855601689
 31
0.0
 70
    32
  1
<> [2.8"]
 71
     5
 42
72.00000000000006
 73
     0
 74
     0
 75
     0
  3
ISO-25
100
AcDbAlignedDimension
 13
1022.146551953468
 23
381.7813855601692
 33
0.0
 14
1094.146551953468
 24
453.7813855601691
 34
0.0
 50
90.0
100
AcDbRotatedDimension
1001
ACAD
1000
DSTYLE
1002
{
1070
   173
1070
     0
1002
}
  0
DIMENSION
  5
17F1
102
{ACAD_XDICTIONARY
360
17FE
102
}
102
{ACAD_REACTORS
330
1808
102
}
330
1F
100
AcDbEntity
  8
图层3
100
AcDbDimension
280
     0
  2
*D24
 10
1022.146551953467
 20
316.6509267816036
 30
0.0
 11
844.1465554075454
 21
328.6509267816037
 31
0.0
 70
    32
  1
<>  [14"]
 71
     5
 42
355.9999930918439
 73
     0
 74
     0
 75
     0
  3
ISO-25
100
AcDbAlignedDimension
 13
666.1465588616236
 23
381.7813855601689
 33
0.0
 14
1022.146551953467
 24
381.7813855601689
 34
0.0
100
AcDbRotatedDimension
1001
ACAD
1000
DSTYLE
1002
{
1070
   173
1070
     0
1002
}
  0
DIMENSION
  5
1821
102
{ACAD_XDICTIONARY
360
182E
102
}
102
{ACAD_REACTORS
330
1838
102
}
330
1F
100
AcDbEntity
  8
图层3
100
AcDbDimension
280
     0
  2
*D25
 10
550.6200742925366
 20
876.7813855601687
 30
0.0
 11
538.6200742925367
 21
804.2813855601684
 31
0.0
 70
    32
  1
<> [5.7"]
 71
     5
 42
145.0
 73
     0
 74
     0
 75
     0
  3
ISO-25
100
AcDbAlignedDimension
 13
764.1465554075463
 23
731.7813855601684
 33
0.0
 14
844.1465554075456
 24
876.7813855601685
 34
0.0
 50
90.0
100
AcDbRotatedDimension
1001
ACAD
1000
DSTYLE
1002
{
1070
   173
1070
     0
1002
}
  0
DIMENSION
  5
1839
102
{ACAD_XDICTIONARY
360
1846
102
}
102
{ACAD_REACTORS
330
1850
102
}
330
1F
100
AcDbEntity
  8
图层3
100
AcDbDimension
280
     0
  2
*D26
 10
511.6591652117135
 20
406.781385560169
 30
0.0
 11
499.6591652117135
 21
641.7813855601687
 31
0.0
 70
    32
  1
<> [18.5"]
 71
     5
 42
469.9999999999998
 73
     0
 74
     0
 75
     0
  3
ISO-25
100
AcDbAlignedDimension
 13
686.1465588616235
 23
876.7813855601685
 33
0.0
 14
844.1465554075451
 24
406.7813855601689
 34
0.0
 50
90.0
100
AcDbRotatedDimension
1001
ACAD
1000
DSTYLE
1002
{
1070
   173
1070
     0
1002
}
  0
DIMENSION
  5
1851
102
{ACAD_XDICTIONARY
360
185E
102
}
102
{ACAD_REACTORS
330
1868
102
}
330
1F
100
AcDbEntity
  8
图层3
100
AcDbDimension
280
     0
  2
*D27
 10
464.8812917526699
 20
381.781385560169
 30
0.0
 11
452.8812917526699
 21
641.7813855601687
 31
0.0
 70
    32
  1
<> [20.5"]
 71
     5
 42
520.0
 73
     0
 74
     0
 75
     0
  3
ISO-25
100
AcDbAlignedDimension
 13
711.1465588616237
 23
901.7813855601687
 33
0.0
 14
666.1465588616236
 24
381.7813855601689
 34
0.0
 50
90.0
100
AcDbRotatedDimension
1001
ACAD
1000
DSTYLE
1002
{
1070
   173
1070
     0
1002
}
  0
DIMENSION
  5
186A
102
{ACAD_XDICTIONARY
360
1876
102
}
102
{ACAD_REACTORS
330
187F
102
}
330
1F
100
AcDbEntity
  8
图层3
100
AcDbDimension
280
     0
  2
*D28
 10
808.6006858285568
 20
761.3711414880813
 30
0.0
 11
965.2504470796369
 21
646.5834530755573
 31
0.0
 70
    35
  1
<> [3.64"]    
 71
     5
 42
92.49999999999989
 73
     0
 74
     0
 75
     0
  3
ISO-25
100
AcDbDiametricDimension
 15
879.6924249865361
 25
702.1916296322556
 35
0.0
 40
0.0
1001
ACAD
1000
DSTYLE
1002
{
1070
   173
1070
     0
1070
   288
1070
     1
1002
}
  0
MTEXT
  5
1882
330
1F
100
AcDbEntity
  8
图层3
100
AcDbMText
 10
405.3811390574046
 20
1046.217331469208
 30
0.0
 40
16.0
 41
250.0274719711888
 46
0.0
 71
     1
 72
     5
  1
{\fKartika|b0|i0|c0|p18;Adhesive Lable}
 73
     1
 44
1.0
  0
LEADER
  5
1883
330
1F
100
AcDbEntity
  8
图层3
100
AcDbLeader
  3
ISO-25
 73
     0
 40
14.0
 76
     3
 10
761.79207213685
 20
1167.60747940257
 30
0.0
 10
590.4064906234197
 20
1022.620650835601
 30
0.0
 10
404.3006684493811
 20
1022.620650835601
 30
0.0
340
1884
213
0.0
223
7.0
233
0.0
1001
ACAD
1000
DSTYLE
1002
{
1070
   147
1040
5.0
1070
    77
1070
     0
1070
   173
1070
     0
1002
}
  0
MTEXT
  5
1884
102
{ACAD_REACTORS
330
1883
102
}
330
1F
100
AcDbEntity
  8
图层3
100
AcDbMText
 10
399.3006684493812
 20
1015.620650835601
 30
0.0
 40
14.0
 41
0.0
 46
0.0
 71
     9
 72
     1
  1

 73
     1
 44
1.0
  0
LINE
  5
190D
330
1F
100
AcDbEntity
  8
图层4
100
AcDbLine
 10
905.4766453521805
 20
1021.01339718205
 30
0.0
 11
1113.832909720237
 21
979.3744898969562
 31
0.0
  0
LINE
  5
190E
330
1F
100
AcDbEntity
  8
图层4
100
AcDbLine
 10
1113.832909720237
 20
979.3744898969562
 30
0.0
 11
1284.685023866805
 21
1058.488405839547
 31
0.0
  0
MTEXT
  5
190F
330
1F
100
AcDbEntity
  8
图层3
100
AcDbMText
 10
1651.392049154587
 20
1131.356487005887
 30
0.0
 40
16.0
 41
193.7712919094265
 46
0.0
 71
     1
 72
     5
  1
{\fKartika|b0|i0|c0|p18;\LSCALE 2:1}
 73
     1
 44
1.0
  0
LWPOLYLINE
  5
193E
330
1F
100
AcDbEntity
  8
图层3
100
AcDbPolyline
 90
        4
 70
     1
 43
0.0
 10
1966.910009074859
 20
97.30418179182334
 10
102.2481768014259
 20
97.30418179182334
 10
102.2481768014259
 20
1365.992534079443
 10
1966.910009074859
 20
1365.992534079443
  0
DIMENSION
  5
1995
102
{ACAD_XDICTIONARY
360
199F
102
}
102
{ACAD_REACTORS
330
19A6
102
}
330
1F
100
AcDbEntity
  8
图层3
100
AcDbDimension
280
     0
  2
*D31
 10
616.7741474448355
 20
1281.074756824447
 30
0.0
 11
597.7677879862515
 21
1256.755869434593
 31
0.0
 70
   164
 71
     5
 42
2.5
 73
     0
 74
     0
 75
     0
  3
ISO-25
100
AcDbRadialDimension
 15
618.3136211135652
 25
1283.044533670511
 35
0.0
 40
0.0
1001
ACAD
1000
DSTYLE
1002
{
1070
    74
1070
     1
1070
   173
1070
     0
1070
   279
1070
     1
1070
   288
1070
     1
1070
   344
1005
0
1002
}
  0
ARC
  5
1A41
102
{ACAD_REACTORS
330
1A5C
102
}
330
1F
100
AcDbEntity
  8
图层2
100
AcDbCircle
 10
1642.850557635349
 20
879.1537969769557
 30
0.0
 40
2.5
100
AcDbArc
 50
272.9999999999999
 51
0.0
  0
DIMENSION
  5
1A4B
102
{ACAD_XDICTIONARY
360
1A55
102
}
102
{ACAD_REACTORS
330
1A5C
102
}
330
1F
100
AcDbEntity
  8
图层3
100
AcDbDimension
280
     0
  2
*D32
 10
1642.850557635352
 20
879.153796976956
 30
0.0
 11
1618.412788055742
 21
904.9034652849952
 31
0.0
 70
   164
 71
     5
 42
2.499999999997498
 73
     0
 74
     0
 75
     0
  3
ISO-25
100
AcDbRadialDimension
 15
1644.571527324056
 25
877.3404400538565
 35
0.0
 40
0.0
1001
ACAD
1000
DSTYLE
1002
{
1070
    74
1070
     1
1070
   173
1070
     0
1070
   279
1070
     1
1070
   288
1070
     1
1070
   344
1005
0
1002
}
  0
ARC
  5
1A5D
330
1F
100
AcDbEntity
  8
图层2
100
AcDbCircle
 10
1642.850557635349
 20
404.4089741433818
 30
0.0
 40
2.5
100
AcDbArc
 50
0.0
 51
87.00000000000002
  0
DIMENSION
  5
1A78
102
{ACAD_XDICTIONARY
360
1A81
102
}
102
{ACAD_REACTORS
330
1A87
102
}
330
1F
100
AcDbEntity
  8
图层3
100
AcDbDimension
280
     0
  2
*D33
 10
3617.350557635347
 20
688.3114322920244
 30
0.0
 11
1522.055592018735
 21
622.33832029844
 31
0.0
 70
   164
  1
<> [86.6"]
 71
     5
 42
2199.999999999999
 73
     0
 74
     0
 75
     0
  3
ISO-25
100
AcDbRadialDimension
 15
1418.440274113382
 25
619.0758560227196
 35
0.0
 40
0.0
1001
ACAD
1000
DSTYLE
1002
{
1070
    74
1070
     1
1070
   173
1070
     0
1070
   288
1070
     1
1070
   344
1005
0
1002
}
  0
ENDSEC
  0
SECTION
  2
OBJECTS
  0
DICTIONARY
  5
C
330
0
100
AcDbDictionary
281
     1
  3
ACAD_CIP_PREVIOUS_PRODUCT_INFO
350
1B7B
  3
ACAD_COLOR
350
6B
  3
ACAD_DETAILVIEWSTYLE
350
1B6D
  3
ACAD_GROUP
350
D
  3
ACAD_LAYOUT
350
1A
  3
ACAD_MATERIAL
350
6A
  3
ACAD_MLEADERSTYLE
350
1B69
  3
ACAD_MLINESTYLE
350
17
  3
ACAD_PLOTSETTINGS
350
19
  3
ACAD_PLOTSTYLENAME
350
E
  3
ACAD_SCALELIST
350
1B57
  3
ACAD_SECTIONVIEWSTYLE
350
1B6B
  3
ACAD_TABLESTYLE
350
7E
  3
ACAD_VISUALSTYLE
350
1B3D
  3
ACDB_RECOMPOSE_DATA
350
1E0A
  3
AcDbVariableDictionary
350
5E
  0
DICTIONARY
  5
F5
330
2
100
AcDbDictionary
280
     1
281
     1
  3
ACAD_LAYERFILTERS
360
1A92
  3
ACAD_LAYERSTATES
360
EB6
  3
ACLYDICTIONARY
360
1A91
  0
DICTIONARY
  5
1B7C
330
10
100
AcDbDictionary
280
     1
281
     1
  3
ADSK_XREC_LAYER_RECONCILED
360
1B7D
  0
DICTIONARY
  5
1B7E
330
F1
100
AcDbDictionary
280
     1
281
     1
  3
ADSK_XREC_LAYER_RECONCILED
360
1B7F
  0
DICTIONARY
  5
1B80
330
F3
100
AcDbDictionary
280
     1
281
     1
  3
ADSK_XREC_LAYER_RECONCILED
360
1B81
  0
DICTIONARY
  5
1B82
330
F4
100
AcDbDictionary
280
     1
281
     1
  3
ADSK_XREC_LAYER_RECONCILED
360
1B83
  0
DICTIONARY
  5
1B84
330
E48
100
AcDbDictionary
280
     1
281
     1
  3
ADSK_XREC_LAYER_RECONCILED
360
1B85
  0
DICTIONARY
  5
201
330
1F
100
AcDbDictionary
280
     1
281
     1
  3
ACAD_SORTENTS
360
202
  0
DICTIONARY
  5
ECB
330
EB7
100
AcDbDictionary
280
     1
281
     1
  3
ACAD_SORTENTS
360
ECC
  0
DICTIONARY
  5
1935
330
1915
100
AcDbDictionary
280
     1
281
     1
  3
ACAD_SORTENTS
360
1ACB
  0
DICTIONARY
  5
157D
330
1570
100
AcDbDictionary
280
     1
281
     1
  3
ACAD_DIMASSOC
360
1587
  0
DICTIONARY
  5
15AF
330
15A0
100
AcDbDictionary
280
     1
281
     1
  3
ACAD_DIMASSOC
360
15BB
  0
DICTIONARY
  5
1667
330
165A
100
AcDbDictionary
280
     1
281
     1
  3
ACAD_DIMASSOC
360
1671
  0
DICTIONARY
  5
167B
330
1672
100
AcDbDictionary
280
     1
281
     1
  3
ACAD_DIMASSOC
360
1681
  0
DICTIONARY
  5
16E4
330
16DB
100
AcDbDictionary
280
     1
281
     1
  3
ACAD_DIMASSOC
360
16EA
  0
DICTIONARY
  5
171E
330
1711
100
AcDbDictionary
280
     1
281
     1
  3
ACAD_DIMASSOC
360
1728
  0
DICTIONARY
  5
1732
330
1729
100
AcDbDictionary
280
     1
281
     1
  3
ACAD_DIMASSOC
360
1738
  0
DICTIONARY
  5
1742
330
1739
100
AcDbDictionary
280
     1
281
     1
  3
ACAD_DIMASSOC
360
1748
  0
DICTIONARY
  5
1752
330
1749
100
AcDbDictionary
280
     1
281
     1
  3
ACAD_DIMASSOC
360
1758
  0
DICTIONARY
  5
1762
330
1759
100
AcDbDictionary
280
     1
281
     1
  3
ACAD_DIMASSOC
360
1768
  0
DICTIONARY
  5
1782
330
1779
100
AcDbDictionary
280
     1
281
     1
  3
ACAD_DIMASSOC
360
1788
  0
DICTIONARY
  5
1792
330
1789
100
AcDbDictionary
280
     1
281
     1
  3
ACAD_DIMASSOC
360
1798
  0
DICTIONARY
  5
17A2
330
1799
100
AcDbDictionary
280
     1
281
     1
  3
ACAD_DIMASSOC
360
17A8
  0
DICTIONARY
  5
17B6
330
17A9
100
AcDbDictionary
280
     1
281
     1
  3
ACAD_DIMASSOC
360
17C0
  0
DICTIONARY
  5
17CE
330
17C1
100
AcDbDictionary
280
     1
281
     1
  3
ACAD_DIMASSOC
360
17D8
  0
DICTIONARY
  5
17E6
330
17D9
100
AcDbDictionary
280
     1
281
     1
  3
ACAD_DIMASSOC
360
17F0
  0
DICTIONARY
  5
17FE
330
17F1
100
AcDbDictionary
280
     1
281
     1
  3
ACAD_DIMASSOC
360
1808
  0
DICTIONARY
  5
182E
330
1821
100
AcDbDictionary
280
     1
281
     1
  3
ACAD_DIMASSOC
360
1838
  0
DICTIONARY
  5
1846
330
1839
100
AcDbDictionary
280
     1
281
     1
  3
ACAD_DIMASSOC
360
1850
  0
DICTIONARY
  5
185E
330
1851
100
AcDbDictionary
280
     1
281
     1
  3
ACAD_DIMASSOC
360
1868
  0
DICTIONARY
  5
1876
330
186A
100
AcDbDictionary
280
     1
281
     1
  3
ACAD_DIMASSOC
360
187F
  0
DICTIONARY
  5
199F
330
1995
100
AcDbDictionary
280
     1
281
     1
  3
ACAD_DIMASSOC
360
19A6
  0
DICTIONARY
  5
1A55
330
1A4B
100
AcDbDictionary
280
     1
281
     1
  3
ACAD_DIMASSOC
360
1A5C
  0
DICTIONARY
  5
1A81
330
1A78
100
AcDbDictionary
280
     1
281
     1
  3
ACAD_DIMASSOC
360
1A87
  0
XRECORD
  5
1B7B
102
{ACAD_REACTORS
330
C
102
}
330
C
100
AcDbXrecord
280
     1
300
ACDLT
300
2018
300

  0
DICTIONARY
  5
6B
102
{ACAD_REACTORS
330
C
102
}
330
C
100
AcDbDictionary
281
     1
  0
DICTIONARY
  5
1B6D
102
{ACAD_REACTORS
330
C
102
}
330
C
100
AcDbDictionary
281
     1
  3
Metric50
350
1B6E
  0
DICTIONARY
  5
D
102
{ACAD_REACTORS
330
C
102
}
330
C
100
AcDbDictionary
281
     1
  0
DICTIONARY
  5
1A
102
{ACAD_REACTORS
330
C
102
}
330
C
100
AcDbDictionary
281
     1
  3
Model
350
22
  3
布局1
350
D3
  3
布局2
350
D7
1001
AcadStringInfo
1000
MIFCodePage
1070
     5
  0
DICTIONARY
  5
6A
102
{ACAD_REACTORS
330
C
102
}
330
C
100
AcDbDictionary
281
     1
  3
ByBlock
350
1B2D
  3
ByLayer
350
1B25
  3
Global
350
1B35
  0
DICTIONARY
  5
1B69
102
{ACAD_REACTORS
330
C
102
}
330
C
100
AcDbDictionary
281
     1
  3
Standard
350
1B6A
  0
DICTIONARY
  5
17
102
{ACAD_REACTORS
330
C
102
}
330
C
100
AcDbDictionary
281
     1
  3
Standard
350
18
  0
DICTIONARY
  5
19
102
{ACAD_REACTORS
330
C
102
}
330
C
100
AcDbDictionary
281
     1
  0
ACDBDICTIONARYWDFLT
  5
E
102
{ACAD_REACTORS
330
C
102
}
330
C
100
AcDbDictionary
281
     1
  3
Normal
350
F
100
AcDbDictionaryWithDefault
340
F
  0
DICTIONARY
  5
1B57
102
{ACAD_REACTORS
330
C
102
}
330
C
100
AcDbDictionary
281
     1
  3
A0
350
1B58
  3
A1
350
1B59
  3
A2
350
1B5A
  3
A3
350
1B5B
  3
A4
350
1B5C
  3
A5
350
1B5D
  3
A6
350
1B5E
  3
A7
350
1B5F
  3
A8
350
1B60
  3
A9
350
1B61
  3
B0
350
1B62
  3
B1
350
1B63
  3
B2
350
1B64
  3
B3
350
1B65
  3
B4
350
1B66
  3
B5
350
1B67
  3
B6
350
1B68
  0
DICTIONARY
  5
1B6B
102
{ACAD_REACTORS
330
C
102
}
330
C
100
AcDbDictionary
281
     1
  3
Metric50
350
1B6C
  0
DICTIONARY
  5
7E
102
{ACAD_REACTORS
330
C
102
}
330
C
100
AcDbDictionary
281
     1
  3
Standard
350
7F
  0
DICTIONARY
  5
1B3D
102
{ACAD_REACTORS
330
C
102
}
330
C
100
AcDbDictionary
281
     1
  3
2dWireframe
350
1B43
  3
Basic
350
1B42
  3
Brighten
350
1B49
  3
ColorChange
350
1B4D
  3
Conceptual
350
1B46
  3
Dim
350
1B48
  3
EdgeColorOff
350
1B55
  3
Facepattern
350
1B4C
  3
Flat
350
1B3E
  3
FlatWithEdges
350
1B3F
  3
Gouraud
350
1B40
  3
GouraudWithEdges
350
1B41
  3
Hidden
350
1B45
  3
JitterOff
350
1B53
  3
Linepattern
350
1B4B
  3
OverhangOff
350
1B54
  3
Realistic
350
1B47
  3
Shaded
350
1B52
  3
Shaded with edges
350
1B51
  3
Shades of Gray
350
1B4E
  3
Sketchy
350
1B4F
  3
Thicken
350
1B4A
  3
Wireframe
350
1B44
  3
X-Ray
350
1B50
  0
XRECORD
  5
1E0A
102
{ACAD_REACTORS
330
C
102
}
330
C
100
AcDbXrecord
280
     1
 90
        1
330
7F
  0
DICTIONARY
  5
5E
102
{ACAD_REACTORS
330
C
102
}
330
C
100
AcDbDictionary
281
     1
  3
CANNOSCALE
350
1DF0
  3
CMLEADERSTYLE
350
1DEC
  3
CTABLESTYLE
350
84
  3
CVIEWDETAILSTYLE
350
1DED
  3
CVIEWSECTIONSTYLE
350
1DEE
  3
DIMASSOC
350
5F
  3
HIDETEXT
350
63
  3
LAYEREVAL
350
1DF2
  3
LAYERNOTIFY
350
1DF3
  3
LIGHTINGUNITS
350
1DF1
  3
MSLTSCALE
350
1DEF
  0
DICTIONARY
  5
1A92
102
{ACAD_REACTORS
330
F5
102
}
330
F5
100
AcDbDictionary
281
     1
  0
DICTIONARY
  5
EB6
102
{ACAD_REACTORS
330
F5
102
}
330
F5
100
AcDbDictionary
281
     1
  0
DICTIONARY
  5
1A91
102
{ACAD_REACTORS
330
F5
102
}
330
F5
100
AcDbDictionary
281
     1
1001
ACAD
1000
<All
  0
XRECORD
  5
1B7D
102
{ACAD_REACTORS
330
1B7C
102
}
330
1B7C
100
AcDbXrecord
280
     1
290
     1
  0
XRECORD
  5
1B7F
102
{ACAD_REACTORS
330
1B7E
102
}
330
1B7E
100
AcDbXrecord
280
     1
290
     1
  0
XRECORD
  5
1B81
102
{ACAD_REACTORS
330
1B80
102
}
330
1B80
100
AcDbXrecord
280
     1
290
     1
  0
XRECORD
  5
1B83
102
{ACAD_REACTORS
330
1B82
102
}
330
1B82
100
AcDbXrecord
280
     1
290
     1
  0
XRECORD
  5
1B85
102
{ACAD_REACTORS
330
1B84
102
}
330
1B84
100
AcDbXrecord
280
     1
290
     1
  0
SORTENTSTABLE
  5
202
102
{ACAD_REACTORS
330
201
102
}
330
201
100
AcDbSortentsTable
330
1F
331
17C1
  5
17F1
331
51D
  5
5C8
331
9B2
  5
A2F
331
9CF
  5
9FB
331
1182
  5
153D
331
E3D
  5
E83
331
59B
  5
5CA
331
F04
  5
9B4
331
66D
  5
66F
331
1053
  5
107A
331
E85
  5
E86
331
1545
  5
1588
331
E94
  5
F20
331
190E
  5
193E
331
E3A
  5
E52
331
16DB
  5
1711
331
E82
  5
E94
331
1542
  5
1544
331
1749
  5
1769
331
5CE
  5
5CC
331
6D9
  5
945
331
1054
  5
117E
331
153E
  5
1540
331
1883
  5
190D
331
1851
  5
1882
331
1729
  5
1749
331
E87
  5
E93
331
165A
  5
16DB
331
9B1
  5
9CE
331
1884
  5
190E
331
E30
  5
E3D
331
5C8
  5
559
331
1821
  5
1851
331
190D
  5
190F
331
16EB
  5
1729
331
E39
  5
E3F
331
1995
  5
1A17
331
E81
  5
E92
331
E90
  5
ED3
331
1541
  5
1543
331
9D0
  5
9D0
331
1A41
  5
D78
331
1A4B
  5
1A5D
331
153D
  5
153F
331
9B3
  5
A30
331
17D9
  5
1821
331
F05
  5
6D0
331
945
  5
97E
331
193E
  5
1A16
331
186A
  5
1883
331
E95
  5
1053
331
51B
  5
55A
331
1789
  5
17A9
331
1672
  5
16EB
331
1A5D
  5
E3B
331
190F
  5
1995
331
E3B
  5
E53
331
A2F
  5
C26
331
66B
  5
6DE
331
17A9
  5
17D9
331
E83
  5
E91
331
E92
  5
F05
331
107A
  5
1182
331
1543
  5
1545
331
51C
  5
57E
331
153F
  5
1541
331
9CE
  5
A49
331
E3C
  5
E56
331
1759
  5
1779
331
947
  5
9AC
331
E84
  5
E90
331
1779
  5
1799
331
1544
  5
1570
331
57E
  5
5C9
331
1711
  5
1739
331
1739
  5
1759
331
E2F
  5
E3C
331
1839
  5
186A
331
E31
  5
E3E
331
5C9
  5
555
331
E88
  5
E95
331
1882
  5
1884
331
E3E
  5
E84
331
E86
  5
E87
331
A30
  5
D88
331
E91
  5
F04
331
1570
  5
15A0
331
F1E
  5
9B3
331
F20
  5
68E
331
ED3
  5
1054
331
4BB
  5
50F
331
9CD
  5
A31
331
117E
  5
153B
331
5CB
  5
5CE
331
6DA
  5
947
331
9AC
  5
9B5
331
E7B
  5
E85
331
153B
  5
153E
331
17F1
  5
1839
331
15A0
  5
1672
331
E80
  5
E88
331
1540
  5
1542
331
E93
  5
F1E
331
1799
  5
17C1
331
5CC
  5
63B
  0
SORTENTSTABLE
  5
ECC
102
{ACAD_REACTORS
330
ECB
102
}
330
ECB
100
AcDbSortentsTable
330
EB7
331
EBA
  5
EBB
331
EBB
  5
EBA
  0
SORTENTSTABLE
  5
1ACB
102
{ACAD_REACTORS
330
1935
102
}
330
1935
100
AcDbSortentsTable
330
1915
331
1AB3
  5
1ABA
331
1AB0
  5
1AB3
331
1AB6
  5
1AAF
331
1AB7
  5
1AB6
331
1AB4
  5
1ABB
331
1AB5
  5
1AAE
331
1ABA
  5
1AB8
331
1ABB
  5
1ABC
331
1AB8
  5
1AB7
331
1AAE
  5
1AB0
331
1AAF
  5
1AB4
331
1ABC
  5
1AB5
  0
DIMASSOC
  5
1587
102
{ACAD_REACTORS
330
157D
102
}
330
157D
100
AcDbDimAssoc
330
1570
 90
        3
 70
     0
 71
     0
  1
AcDbOsnapPointRef
 72
    13
331
1541
 73
     2
 91
        0
 40
0.0
 10
0.0
 20
0.0
 30
2.000000000000000E+50
 75
     0
  1
AcDbOsnapPointRef
 72
     1
331
153E
 73
     2
 91
        0
 40
1.0
 10
0.0
 20
0.0
 30
2.000000000000000E+50
 75
     0
  0
DIMASSOC
  5
15BB
102
{ACAD_REACTORS
330
15AF
102
}
330
15AF
100
AcDbDimAssoc
330
15A0
 90
        3
 70
     0
 71
     0
  1
AcDbOsnapPointRef
 72
     6
331
1542
 73
     2
 91
        0
 40
0.000000000000001
 10
0.0
 20
0.0
 30
0.0
332
153D
 74
     2
 92
        0
 75
     0
  1
AcDbOsnapPointRef
 72
     1
331
1543
 73
     2
 91
        0
 40
1.0
 10
0.0
 20
0.0
 30
2.000000000000000E+50
 75
     0
  0
DIMASSOC
  5
1671
102
{ACAD_REACTORS
330
1667
102
}
330
1667
100
AcDbDimAssoc
330
165A
 90
       15
 70
     0
 71
     0
  1
AcDbOsnapPointRef
 72
    13
331
E88
 73
     2
 91
        0
 40
0.0
 10
0.0
 20
0.0
 30
2.000000000000000E+50
 75
     0
  1
AcDbOsnapPointRef
 72
     1
331
E88
 73
     2
 91
        0
 40
0.9999999999999998
 10
0.0
 20
0.0
 30
2.000000000000000E+50
 75
     0
  1
AcDbOsnapPointRef
 72
    13
331
E82
 73
     2
 91
        0
 40
0.0
 10
0.0
 20
0.0
 30
2.000000000000000E+50
 75
     0
  1
AcDbOsnapPointRef
 72
     1
331
E82
 73
     2
 91
        0
 40
1.0
 10
0.0
 20
0.0
 30
2.000000000000000E+50
 75
     0
  0
DIMASSOC
  5
1681
102
{ACAD_REACTORS
330
167B
102
}
330
167B
100
AcDbDimAssoc
330
1672
 90
        2
 70
     0
 71
     0
  1
AcDbOsnapPointRef
 72
     3
331
E84
 73
     2
 91
        0
 40
0.0
 10
0.0
 20
0.0
 30
0.0
 75
     0
  0
DIMASSOC
  5
16EA
102
{ACAD_REACTORS
330
16E4
102
}
330
16E4
100
AcDbDimAssoc
330
16DB
 90
        2
 70
     0
 71
     0
  1
AcDbOsnapPointRef
 72
     3
331
59B
 73
     2
 91
        0
 40
0.0
 10
0.0
 20
0.0
 30
0.0
 75
     0
  0
DIMASSOC
  5
1728
102
{ACAD_REACTORS
330
171E
102
}
330
171E
100
AcDbDimAssoc
330
1711
 90
       15
 70
     0
 71
     0
  1
AcDbOsnapPointRef
 72
    13
331
9AC
 73
     2
 91
        0
 40
0.0
 10
0.0
 20
0.0
 30
2.000000000000000E+50
 75
     0
  1
AcDbOsnapPointRef
 72
     1
331
9AC
 73
     2
 91
        0
 40
1.0
 10
0.0
 20
0.0
 30
2.000000000000000E+50
 75
     0
  1
AcDbOsnapPointRef
 72
    13
331
9CD
 73
     2
 91
        0
 40
0.0
 10
0.0
 20
0.0
 30
2.000000000000000E+50
 75
     0
  1
AcDbOsnapPointRef
 72
     1
331
9CD
 73
     2
 91
        0
 40
1.0
 10
0.0
 20
0.0
 30
2.000000000000000E+50
 75
     0
  0
DIMASSOC
  5
1738
102
{ACAD_REACTORS
330
1732
102
}
330
1732
100
AcDbDimAssoc
330
1729
 90
        2
 70
     0
 71
     0
  1
AcDbOsnapPointRef
 72
     3
331
9D0
 73
     2
 91
        0
 40
0.0
 10
0.0
 20
0.0
 30
0.0
 75
     0
  0
DIMASSOC
  5
1748
102
{ACAD_REACTORS
330
1742
102
}
330
1742
100
AcDbDimAssoc
330
1739
 90
        2
 70
     0
 71
     0
  1
AcDbOsnapPointRef
 72
     3
331
4BB
 73
     2
 91
        0
 40
0.0
 10
0.0
 20
0.0
 30
0.0
 75
     0
  0
DIMASSOC
  5
1758
102
{ACAD_REACTORS
330
1752
102
}
330
1752
100
AcDbDimAssoc
330
1749
 90
        2
 70
     0
 71
     0
  1
AcDbOsnapPointRef
 72
     3
331
5C9
 73
     2
 91
        0
 40
0.0
 10
0.0
 20
0.0
 30
0.0
 75
     0
  0
DIMASSOC
  5
1768
102
{ACAD_REACTORS
330
1762
102
}
330
1762
100
AcDbDimAssoc
330
1759
 90
        2
 70
     0
 71
     0
  1
AcDbOsnapPointRef
 72
     3
331
5C8
 73
     2
 91
        0
 40
0.0
 10
0.0
 20
0.0
 30
0.0
 75
     0
  0
DIMASSOC
  5
1788
102
{ACAD_REACTORS
330
1782
102
}
330
1782
100
AcDbDimAssoc
330
1779
 90
        2
 70
     0
 71
     0
  1
AcDbOsnapPointRef
 72
     3
331
5CB
 73
     2
 91
        0
 40
0.0
 10
0.0
 20
0.0
 30
0.0
 75
     0
  0
DIMASSOC
  5
1798
102
{ACAD_REACTORS
330
1792
102
}
330
1792
100
AcDbDimAssoc
330
1789
 90
        2
 70
     0
 71
     0
  1
AcDbOsnapPointRef
 72
     3
331
5CE
 73
     2
 91
        0
 40
0.0
 10
0.0
 20
0.0
 30
0.0
 75
     0
  0
DIMASSOC
  5
17A8
102
{ACAD_REACTORS
330
17A2
102
}
330
17A2
100
AcDbDimAssoc
330
1799
 90
        2
 70
     0
 71
     0
  1
AcDbOsnapPointRef
 72
     3
331
5CC
 73
     2
 91
        0
 40
0.0
 10
0.0
 20
0.0
 30
0.0
 75
     0
  0
DIMASSOC
  5
17C0
102
{ACAD_REACTORS
330
17B6
102
}
330
17B6
100
AcDbDimAssoc
330
17A9
 90
        3
 70
     0
 71
     0
  1
AcDbOsnapPointRef
 72
    13
331
66B
 73
     2
 91
        0
 40
0.0
 10
0.0
 20
0.0
 30
2.000000000000000E+50
 75
     0
  1
AcDbOsnapPointRef
 72
    13
331
F04
 73
     2
 91
        0
 40
0.0
 10
0.0
 20
0.0
 30
2.000000000000000E+50
 75
     0
  0
DIMASSOC
  5
17D8
102
{ACAD_REACTORS
330
17CE
102
}
330
17CE
100
AcDbDimAssoc
330
17C1
 90
        3
 70
     0
 71
     0
  1
AcDbOsnapPointRef
 72
    13
331
F04
 73
     2
 91
        0
 40
0.0
 10
0.0
 20
0.0
 30
2.000000000000000E+50
 75
     0
  1
AcDbOsnapPointRef
 72
     1
331
F04
 73
     2
 91
        0
 40
1.0
 10
0.0
 20
0.0
 30
2.000000000000000E+50
 75
     0
  0
DIMASSOC
  5
17F0
102
{ACAD_REACTORS
330
17E6
102
}
330
17E6
100
AcDbDimAssoc
330
17D9
 90
        3
 70
     0
 71
     0
  1
AcDbOsnapPointRef
 72
    13
331
F1E
 73
     2
 91
        0
 40
0.0
 10
0.0
 20
0.0
 30
2.000000000000000E+50
 75
     0
  1
AcDbOsnapPointRef
 72
     1
331
F1E
 73
     2
 91
        0
 40
1.0
 10
0.0
 20
0.0
 30
2.000000000000000E+50
 75
     0
  0
DIMASSOC
  5
1808
102
{ACAD_REACTORS
330
17FE
102
}
330
17FE
100
AcDbDimAssoc
330
17F1
 90
        1
 70
     0
 71
     0
  1
AcDbOsnapPointRef
 72
    13
331
945
 73
     2
 91
        0
 40
0.0
 10
0.0
 20
0.0
 30
2.000000000000000E+50
 75
     0
  0
DIMASSOC
  5
1838
102
{ACAD_REACTORS
330
182E
102
}
330
182E
100
AcDbDimAssoc
330
1821
 90
        3
 70
     0
 71
     0
  1
AcDbOsnapPointRef
 72
    13
331
6D9
 73
     2
 91
        0
 40
0.0
 10
0.0
 20
0.0
 30
2.000000000000000E+50
 75
     0
  1
AcDbOsnapPointRef
 72
     6
331
1053
 73
     2
 91
        0
 40
0.0792413483141636
 10
0.0
 20
0.0
 30
0.0
332
4BB
 74
     2
 92
        0
 75
     0
  0
DIMASSOC
  5
1850
102
{ACAD_REACTORS
330
1846
102
}
330
1846
100
AcDbDimAssoc
330
1839
 90
        2
 70
     0
 71
     0
  1
AcDbOsnapPointRef
 72
     2
331
5CB
 73
     2
 91
        0
 40
4.712388980384693
 10
0.0
 20
0.0
 30
0.0
 75
     0
  0
DIMASSOC
  5
1868
102
{ACAD_REACTORS
330
185E
102
}
330
185E
100
AcDbDimAssoc
330
1851
 90
        3
 70
     0
 71
     0
  1
AcDbOsnapPointRef
 72
    13
331
66B
 73
     2
 91
        0
 40
0.0
 10
0.0
 20
0.0
 30
2.000000000000000E+50
 75
     0
  1
AcDbOsnapPointRef
 72
    13
331
945
 73
     2
 91
        0
 40
0.0
 10
0.0
 20
0.0
 30
2.000000000000000E+50
 75
     0
  0
DIMASSOC
  5
187F
102
{ACAD_REACTORS
330
1876
102
}
330
1876
100
AcDbDimAssoc
330
186A
 90
        2
 70
     0
 71
     0
  1
AcDbOsnapPointRef
 72
     3
331
E2F
 73
     2
 91
        0
 40
0.0
 10
0.0
 20
0.0
 30
0.0
 75
     0
  0
DIMASSOC
  5
19A6
102
{ACAD_REACTORS
330
199F
102
}
330
199F
100
AcDbDimAssoc
330
1995
 90
        2
 70
     0
 71
     0
  1
AcDbOsnapPointRef
 72
     3
331
E87
 73
     2
 91
        0
 40
0.0
 10
0.0
 20
0.0
 30
0.0
 75
     0
  0
DIMASSOC
  5
1A5C
102
{ACAD_REACTORS
330
1A55
102
}
330
1A55
100
AcDbDimAssoc
330
1A4B
 90
        2
 70
     0
 71
     0
  1
AcDbOsnapPointRef
 72
     3
331
1A41
 73
     2
 91
        0
 40
0.0
 10
0.0
 20
0.0
 30
0.0
 75
     0
  0
DIMASSOC
  5
1A87
102
{ACAD_REACTORS
330
1A81
102
}
330
1A81
100
AcDbDimAssoc
330
1A78
 90
        2
 70
     0
 71
     0
  1
AcDbOsnapPointRef
 72
     3
331
9B1
 73
     2
 91
        0
 40
0.0
 10
0.0
 20
0.0
 30
0.0
 75
     0
  0
ACDBDETAILVIEWSTYLE
  5
1B6E
102
{ACAD_REACTORS
330
1B6D
102
}
330
1B6D
100
AcDbModelDocViewStyle
 70
     0
  3
Metric50
290
     1
300
Metric50
 90
        0
100
AcDbDetailViewStyle
 70
     0
 71
     0
 90
        3
 71
     1
340
11
 62
   256
 40
5.0
340
0
 62
   256
 40
5.0
300

 40
0.0
280
     1
 71
     2
340
16
 90
       25
 62
   256
 71
     3
340
11
 62
   256
 40
5.0
 90
        0
 40
15.0
 90
        1
300
%<\AcVar ViewDetailId>% (%<\AcVar ViewScale \f "%sn">%)
 71
     4
340
16
 90
       25
 62
   256
340
16
 90
       25
 62
   256
280
     0
  0
LAYOUT
  5
22
102
{ACAD_REACTORS
330
1A
102
}
330
1A
100
AcDbPlotSettings
  1

  2
none_device
  4
ISO_A4_(210.00_x_297.00_MM)
  6

 40
7.5
 41
20.0
 42
7.5
 43
20.0
 44
210.0
 45
297.0
 46
11.54999923706054
 47
-13.65000009536743
 48
0.0
 49
0.0
140
0.0
141
0.0
142
1.0
143
8.704084754739808
 70
 11952
 72
     1
 73
     0
 74
     0
  7

 75
     0
147
0.1148885871608098
 76
     0
 77
     2
 78
   300
148
0.0
149
0.0
100
AcDbLayout
  1
Model
 70
     1
 71
     0
 10
0.0
 20
0.0
 11
12.0
 21
9.0
 12
0.0
 22
0.0
 32
0.0
 14
0.0
 24
0.0
 34
0.0
 15
0.0
 25
0.0
 35
0.0
146
0.0
 13
0.0
 23
0.0
 33
0.0
 16
1.0
 26
0.0
 36
0.0
 17
0.0
 27
1.0
 37
0.0
 76
     0
330
1F
331
1B23
1001
ACAD_PSEXT
1000
None
1000
None
1000
Not applicable
1000
The layout will not be plotted unless a new plotter configuration name is selected.
1070
     0
  0
LAYOUT
  5
D3
102
{ACAD_REACTORS
330
1A
102
}
330
1A
100
AcDbPlotSettings
  1

  2
C:\Documents and Settings\basas\Application Data\Autodesk\AutoCAD 2005\R16.1\enu\plotters\Default Windows System Printer.pc3
  4

  6

 40
0.0
 41
0.0
 42
0.0
 43
0.0
 44
0.0
 45
0.0
 46
0.0
 47
0.0
 48
0.0
 49
0.0
140
0.0
141
0.0
142
1.0
143
1.0
 70
   688
 72
     0
 73
     0
 74
     5
  7

 75
    16
147
1.0
 76
     0
 77
     2
 78
   300
148
0.0
149
0.0
100
AcDbLayout
  1
布局1
 70
     1
 71
     1
 10
0.0
 20
0.0
 11
12.0
 21
9.0
 12
0.0
 22
0.0
 32
0.0
 14
0.0
 24
0.0
 34
0.0
 15
0.0
 25
0.0
 35
0.0
146
0.0
 13
0.0
 23
0.0
 33
0.0
 16
1.0
 26
0.0
 36
0.0
 17
0.0
 27
1.0
 37
0.0
 76
     0
330
D2
1001
AcadStringInfo
1000
MIFCodePage
1070
     5
  0
LAYOUT
  5
D7
102
{ACAD_REACTORS
330
1A
102
}
330
1A
100
AcDbPlotSettings
  1

  2
C:\Documents and Settings\basas\Application Data\Autodesk\AutoCAD 2005\R16.1\enu\plotters\Default Windows System Printer.pc3
  4

  6

 40
0.0
 41
0.0
 42
0.0
 43
0.0
 44
0.0
 45
0.0
 46
0.0
 47
0.0
 48
0.0
 49
0.0
140
0.0
141
0.0
142
1.0
143
1.0
 70
   688
 72
     0
 73
     0
 74
     5
  7

 75
    16
147
1.0
 76
     0
 77
     2
 78
   300
148
0.0
149
0.0
100
AcDbLayout
  1
布局2
 70
     1
 71
     2
 10
0.0
 20
0.0
 11
12.0
 21
9.0
 12
0.0
 22
0.0
 32
0.0
 14
0.0
 24
0.0
 34
0.0
 15
0.0
 25
0.0
 35
0.0
146
0.0
 13
0.0
 23
0.0
 33
0.0
 16
1.0
 26
0.0
 36
0.0
 17
0.0
 27
1.0
 37
0.0
 76
     0
330
D6
1001
AcadStringInfo
1000
MIFCodePage
1070
     5
  0
MATERIAL
  5
1B2D
102
{ACAD_XDICTIONARY
360
1B2E
102
}
102
{ACAD_REACTORS
330
6A
102
}
330
6A
100
AcDbMaterial
  1
ByBlock
 72
     0
 43
0.0008202099737533
 43
0.0
 43
0.0
 43
0.0
 43
0.0
 43
0.0008202099737533
 43
0.0
 43
0.0
 43
0.0
 43
0.0
 43
1.0
 43
0.0
 43
0.0
 43
0.0
 43
0.0
 43
1.0
 77
     0
 47
0.0008202099737533
 47
0.0
 47
0.0
 47
0.0
 47
0.0
 47
0.0008202099737533
 47
0.0
 47
0.0
 47
0.0
 47
0.0
 47
1.0
 47
0.0
 47
0.0
 47
0.0
 47
0.0
 47
1.0
171
     0
 49
0.0008202099737533
 49
0.0
 49
0.0
 49
0.0
 49
0.0
 49
0.0008202099737533
 49
0.0
 49
0.0
 49
0.0
 49
0.0
 49
1.0
 49
0.0
 49
0.0
 49
0.0
 49
0.0
 49
1.0
175
     0
142
0.0008202099737533
142
0.0
142
0.0
142
0.0
142
0.0
142
0.0008202099737533
142
0.0
142
0.0
142
0.0
142
0.0
142
1.0
142
0.0
142
0.0
142
0.0
142
0.0
142
1.0
179
     0
144
0.0008202099737533
144
0.0
144
0.0
144
0.0
144
0.0
144
0.0008202099737533
144
0.0
144
0.0
144
0.0
144
0.0
144
1.0
144
0.0
144
0.0
144
0.0
144
0.0
144
1.0
147
0.0008202099737533
147
0.0
147
0.0
147
0.0
147
0.0
147
0.0008202099737533
147
0.0
147
0.0
147
0.0
147
0.0
147
1.0
147
0.0
147
0.0
147
0.0
147
0.0
147
1.0
  0
MATERIAL
  5
1B25
102
{ACAD_XDICTIONARY
360
1B26
102
}
102
{ACAD_REACTORS
330
6A
102
}
330
6A
100
AcDbMaterial
  1
ByLayer
 72
     0
 43
0.0008202099737533
 43
0.0
 43
0.0
 43
0.0
 43
0.0
 43
0.0008202099737533
 43
0.0
 43
0.0
 43
0.0
 43
0.0
 43
1.0
 43
0.0
 43
0.0
 43
0.0
 43
0.0
 43
1.0
 77
     0
 47
0.0008202099737533
 47
0.0
 47
0.0
 47
0.0
 47
0.0
 47
0.0008202099737533
 47
0.0
 47
0.0
 47
0.0
 47
0.0
 47
1.0
 47
0.0
 47
0.0
 47
0.0
 47
0.0
 47
1.0
171
     0
 49
0.0008202099737533
 49
0.0
 49
0.0
 49
0.0
 49
0.0
 49
0.0008202099737533
 49
0.0
 49
0.0
 49
0.0
 49
0.0
 49
1.0
 49
0.0
 49
0.0
 49
0.0
 49
0.0
 49
1.0
175
     0
142
0.0008202099737533
142
0.0
142
0.0
142
0.0
142
0.0
142
0.0008202099737533
142
0.0
142
0.0
142
0.0
142
0.0
142
1.0
142
0.0
142
0.0
142
0.0
142
0.0
142
1.0
179
     0
144
0.0008202099737533
144
0.0
144
0.0
144
0.0
144
0.0
144
0.0008202099737533
144
0.0
144
0.0
144
0.0
144
0.0
144
1.0
144
0.0
144
0.0
144
0.0
144
0.0
144
1.0
147
0.0008202099737533
147
0.0
147
0.0
147
0.0
147
0.0
147
0.0008202099737533
147
0.0
147
0.0
147
0.0
147
0.0
147
1.0
147
0.0
147
0.0
147
0.0
147
0.0
147
1.0
  0
MATERIAL
  5
1B35
102
{ACAD_XDICTIONARY
360
1B36
102
}
102
{ACAD_REACTORS
330
6A
102
}
330
6A
100
AcDbMaterial
  1
Global
 72
     0
 43
0.0008202099737533
 43
0.0
 43
0.0
 43
0.0
 43
0.0
 43
0.0008202099737533
 43
0.0
 43
0.0
 43
0.0
 43
0.0
 43
1.0
 43
0.0
 43
0.0
 43
0.0
 43
0.0
 43
1.0
 77
     0
 47
0.0008202099737533
 47
0.0
 47
0.0
 47
0.0
 47
0.0
 47
0.0008202099737533
 47
0.0
 47
0.0
 47
0.0
 47
0.0
 47
1.0
 47
0.0
 47
0.0
 47
0.0
 47
0.0
 47
1.0
171
     0
 49
0.0008202099737533
 49
0.0
 49
0.0
 49
0.0
 49
0.0
 49
0.0008202099737533
 49
0.0
 49
0.0
 49
0.0
 49
0.0
 49
1.0
 49
0.0
 49
0.0
 49
0.0
 49
0.0
 49
1.0
175
     0
142
0.0008202099737533
142
0.0
142
0.0
142
0.0
142
0.0
142
0.0008202099737533
142
0.0
142
0.0
142
0.0
142
0.0
142
1.0
142
0.0
142
0.0
142
0.0
142
0.0
142
1.0
179
     0
144
0.0008202099737533
144
0.0
144
0.0
144
0.0
144
0.0
144
0.0008202099737533
144
0.0
144
0.0
144
0.0
144
0.0
144
1.0
144
0.0
144
0.0
144
0.0
144
0.0
144
1.0
147
0.0008202099737533
147
0.0
147
0.0
147
0.0
147
0.0
147
0.0008202099737533
147
0.0
147
0.0
147
0.0
147
0.0
147
1.0
147
0.0
147
0.0
147
0.0
147
0.0
147
1.0
  0
MLEADERSTYLE
  5
1B6A
102
{ACAD_REACTORS
330
1B69
102
}
330
1B69
100
AcDbMLeaderStyle
179
     2
170
     2
171
     1
172
     0
 90
        2
 40
0.0
 41
0.0
173
     1
 91
-1056964608
340
14
 92
       -2
290
     1
 42
2.0
291
     1
 43
0.36
  3
Standard
 44
4.0
300

342
11
174
     1
178
     6
175
     1
176
     0
 93
-1056964608
 45
4.0
292
     0
297
     0
 46
4.0
 94
-1056964608
 47
1.0
 49
1.0
140
1.0
293
     1
141
0.0
294
     1
177
     0
142
1.0
295
     1
296
     0
143
0.125
271
     0
272
     9
273
     9
298
     1
  0
MLINESTYLE
  5
18
102
{ACAD_REACTORS
330
17
102
}
330
17
100
AcDbMlineStyle
  2
STANDARD
 70
     0
  3

 62
   256
 51
90.0
 52
90.0
 71
     2
 49
0.5
 62
   256
  6
BYLAYER
 49
-0.5
 62
   256
  6
BYLAYER
  0
ACDBPLACEHOLDER
  5
F
102
{ACAD_REACTORS
330
E
102
}
330
E
  0
SCALE
  5
1B58
102
{ACAD_REACTORS
330
1B57
102
}
330
1B57
100
AcDbScale
 70
     0
300
1:1
140
1.0
141
1.0
290
     1
  0
SCALE
  5
1B59
102
{ACAD_REACTORS
330
1B57
102
}
330
1B57
100
AcDbScale
 70
     0
300
1:2
140
1.0
141
2.0
290
     0
  0
SCALE
  5
1B5A
102
{ACAD_REACTORS
330
1B57
102
}
330
1B57
100
AcDbScale
 70
     0
300
1:4
140
1.0
141
4.0
290
     0
  0
SCALE
  5
1B5B
102
{ACAD_REACTORS
330
1B57
102
}
330
1B57
100
AcDbScale
 70
     0
300
1:5
140
1.0
141
5.0
290
     0
  0
SCALE
  5
1B5C
102
{ACAD_REACTORS
330
1B57
102
}
330
1B57
100
AcDbScale
 70
     0
300
1:8
140
1.0
141
8.0
290
     0
  0
SCALE
  5
1B5D
102
{ACAD_REACTORS
330
1B57
102
}
330
1B57
100
AcDbScale
 70
     0
300
1:10
140
1.0
141
10.0
290
     0
  0
SCALE
  5
1B5E
102
{ACAD_REACTORS
330
1B57
102
}
330
1B57
100
AcDbScale
 70
     0
300
1:16
140
1.0
141
16.0
290
     0
  0
SCALE
  5
1B5F
102
{ACAD_REACTORS
330
1B57
102
}
330
1B57
100
AcDbScale
 70
     0
300
1:20
140
1.0
141
20.0
290
     0
  0
SCALE
  5
1B60
102
{ACAD_REACTORS
330
1B57
102
}
330
1B57
100
AcDbScale
 70
     0
300
1:30
140
1.0
141
30.0
290
     0
  0
SCALE
  5
1B61
102
{ACAD_REACTORS
330
1B57
102
}
330
1B57
100
AcDbScale
 70
     0
300
1:40
140
1.0
141
40.0
290
     0
  0
SCALE
  5
1B62
102
{ACAD_REACTORS
330
1B57
102
}
330
1B57
100
AcDbScale
 70
     0
300
1:50
140
1.0
141
50.0
290
     0
  0
SCALE
  5
1B63
102
{ACAD_REACTORS
330
1B57
102
}
330
1B57
100
AcDbScale
 70
     0
300
1:100
140
1.0
141
100.0
290
     0
  0
SCALE
  5
1B64
102
{ACAD_REACTORS
330
1B57
102
}
330
1B57
100
AcDbScale
 70
     0
300
2:1
140
2.0
141
1.0
290
     0
  0
SCALE
  5
1B65
102
{ACAD_REACTORS
330
1B57
102
}
330
1B57
100
AcDbScale
 70
     0
300
4:1
140
4.0
141
1.0
290
     0
  0
SCALE
  5
1B66
102
{ACAD_REACTORS
330
1B57
102
}
330
1B57
100
AcDbScale
 70
     0
300
8:1
140
8.0
141
1.0
290
     0
  0
SCALE
  5
1B67
102
{ACAD_REACTORS
330
1B57
102
}
330
1B57
100
AcDbScale
 70
     0
300
10:1
140
10.0
141
1.0
290
     0
  0
SCALE
  5
1B68
102
{ACAD_REACTORS
330
1B57
102
}
330
1B57
100
AcDbScale
 70
     0
300
100:1
140
100.0
141
1.0
290
     0
  0
ACDBSECTIONVIEWSTYLE
  5
1B6C
102
{ACAD_REACTORS
330
1B6B
102
}
330
1B6B
100
AcDbModelDocViewStyle
 70
     0
  3
Metric50
290
     1
300
Metric50
 90
        0
100
AcDbSectionViewStyle
 70
     0
 71
     0
 90
      102
 71
     1
340
11
 62
   256
 40
5.0
340
0
340
0
 62
   256
 40
5.0
300
I, O, Q, S, X, Z
 40
10.0
 90
        0
 40
2.5
 90
        0
 71
     2
340
16
 90
       25
 62
   256
340
16
 90
       50
 62
   256
 40
5.0
 40
2.5
 40
5.0
 71
     3
340
11
 62
   256
 40
5.0
 90
        0
 40
15.0
 90
        1
300
%<\AcVar ViewSectionStartId>%-%<\AcVar ViewSectionEndId>% (%<\AcVar ViewScale \f "%sn">%)
 71
     4
 62
   256
 62
   257
300
ANSI31
 40
1.0
 90
        0
290
     0
290
     0
 90
        6
 40
0.0
 40
1.570796326794896
 40
0.2617993877991494
 40
1.308996938995747
 40
-0.2617993877991494
 40
1.832595714594046
  0
TABLESTYLE
  5
7F
102
{ACAD_XDICTIONARY
360
1E08
102
}
102
{ACAD_REACTORS
330
7E
102
}
330
7E
100
AcDbTableStyle
280
     0
  3
Standard
 70
     0
 71
     0
 40
1.5
 41
1.5
280
     0
281
     0
  7
Standard
140
4.5
170
     2
 62
     0
 63
     7
283
     0
 90
        4
 91
        0
  1

274
    -2
284
     1
 64
     0
275
    -2
285
     1
 65
     0
276
    -2
286
     1
 66
     0
277
    -2
287
     1
 67
     0
278
    -2
288
     1
 68
     0
279
    -2
289
     1
 69
     0
  7
Standard
140
6.0
170
     5
 62
     0
 63
     7
283
     0
 90
        4
 91
        0
  1

274
    -2
284
     1
 64
     0
275
    -2
285
     1
 65
     0
276
    -2
286
     1
 66
     0
277
    -2
287
     1
 67
     0
278
    -2
288
     1
 68
     0
279
    -2
289
     1
 69
     0
  7
Standard
140
4.5
170
     5
 62
     0
 63
     7
283
     0
 90
        4
 91
        0
  1

274
    -2
284
     1
 64
     0
275
    -2
285
     1
 65
     0
276
    -2
286
     1
 66
     0
277
    -2
287
     1
 67
     0
278
    -2
288
     1
 68
     0
279
    -2
289
     1
 69
     0
  0
VISUALSTYLE
  5
1B43
102
{ACAD_REACTORS
330
1B3D
102
}
330
1B3D
100
AcDbVisualStyle
  2
2dWireframe
 70
     4
177
     3
291
     0
 70
    58
 90
        0
176
     1
 90
        2
176
     1
 90
        0
176
     1
 90
        0
176
     1
 40
0.6
176
     1
 40
30.0
176
     1
 62
     7
420
 16777215
176
     1
 90
        1
176
     1
 90
        4
176
     1
 62
     7
176
     1
 62
   257
176
     1
 90
        1
176
     1
 90
        1
176
     1
 40
1.0
176
     1
 90
        0
176
     1
 62
   257
176
     1
 40
1.0
176
     1
 90
        1
176
     1
 90
        6
176
     1
 90
        2
176
     1
 62
     7
176
     1
 90
        5
176
     1
 90
        0
176
     1
 90
        0
176
     1
290
     0
176
     1
 90
        1
176
     1
 40
0.0
176
     1
 90
        0
176
     1
290
     1
176
     1
290
     1
176
     1
290
     0
176
     1
290
     0
176
     1
290
     0
176
     1
290
     0
176
     1
290
     0
176
     1
290
     0
176
     1
290
     0
176
     1
 90
       50
176
     1
 40
0.0
176
     1
 40
1.0
176
     1
 90
        0
176
     1
 62
    18
420
        0
176
     1
 90
       50
176
     1
 90
        3
176
     1
 62
     5
420
      255
176
     1
290
     0
176
     1
 90
       50
176
     1
 90
       50
176
     1
 90
       50
176
     1
290
     0
176
     1
 90
       50
176
     1
 62
   256
176
     0
 40
1.0
176
     0
 90
        2
176
     1
  1
strokes_ogs.tif
176
     1
290
     0
176
     1
 40
1.0
176
     1
 40
1.0
176
     1
  0
VISUALSTYLE
  5
1B42
102
{ACAD_REACTORS
330
1B3D
102
}
330
1B3D
100
AcDbVisualStyle
  2
Basic
 70
     7
177
     3
291
     1
 70
    58
 90
        1
176
     1
 90
        0
176
     1
 90
        1
176
     1
 90
        0
176
     1
 40
0.6
176
     1
 40
30.0
176
     1
 62
     7
420
 16777215
176
     1
 90
        0
176
     1
 90
        4
176
     1
 62
     7
176
     1
 62
   257
176
     1
 90
        1
176
     1
 90
        1
176
     1
 40
1.0
176
     1
 90
        8
176
     1
 62
     7
176
     1
 40
1.0
176
     1
 90
        1
176
     1
 90
        6
176
     1
 90
        2
176
     1
 62
     7
176
     1
 90
        5
176
     1
 90
        0
176
     1
 90
        0
176
     1
290
     0
176
     1
 90
        1
176
     1
 40
0.0
176
     1
 90
        0
176
     1
290
     0
176
     1
290
     1
176
     1
290
     1
176
     1
290
     0
176
     1
290
     0
176
     1
290
     0
176
     1
290
     0
176
     1
290
     0
176
     1
290
     0
176
     1
 90
       50
176
     1
 40
0.0
176
     1
 40
1.0
176
     1
 90
        0
176
     1
 62
    18
420
        0
176
     1
 90
       50
176
     1
 90
        3
176
     1
 62
     5
420
      255
176
     1
290
     0
176
     1
 90
       50
176
     1
 90
       50
176
     1
 90
       50
176
     1
290
     0
176
     1
 90
       50
176
     1
 62
   256
176
     0
 40
1.0
176
     0
 90
        2
176
     1
  1
strokes_ogs.tif
176
     1
290
     0
176
     1
 40
1.0
176
     1
 40
1.0
176
     1
  0
VISUALSTYLE
  5
1B49
102
{ACAD_REACTORS
330
1B3D
102
}
330
1B3D
100
AcDbVisualStyle
  2
Brighten
 70
    12
177
     3
291
     1
 70
    58
 90
        2
176
     1
 90
        2
176
     1
 90
        0
176
     1
 90
        0
176
     1
 40
0.6
176
     1
 40
30.0
176
     1
 62
     7
420
 16777215
176
     1
 90
        1
176
     1
 90
        4
176
     1
 62
     7
176
     1
 62
   257
176
     1
 90
        1
176
     1
 90
        1
176
     1
 40
1.0
176
     1
 90
        8
176
     1
 62
     7
176
     1
 40
1.0
176
     1
 90
        1
176
     1
 90
        6
176
     1
 90
        2
176
     1
 62
     7
176
     1
 90
        5
176
     1
 90
        0
176
     1
 90
        0
176
     1
290
     0
176
     1
 90
        1
176
     1
 40
50.0
176
     1
 90
        0
176
     1
290
     0
176
     1
290
     1
176
     1
290
     1
176
     1
290
     0
176
     1
290
     0
176
     1
290
     0
176
     1
290
     0
176
     1
290
     0
176
     1
290
     0
176
     1
 90
       50
176
     1
 40
0.0
176
     1
 40
1.0
176
     1
 90
        0
176
     1
 62
    18
420
        0
176
     1
 90
       50
176
     1
 90
        3
176
     1
 62
     5
420
      255
176
     1
290
     0
176
     1
 90
       50
176
     1
 90
       50
176
     1
 90
       50
176
     1
290
     0
176
     1
 90
       50
176
     1
 62
   256
176
     0
 40
1.0
176
     0
 90
        2
176
     1
  1
strokes_ogs.tif
176
     1
290
     0
176
     1
 40
1.0
176
     1
 40
1.0
176
     1
  0
VISUALSTYLE
  5
1B4D
102
{ACAD_REACTORS
330
1B3D
102
}
330
1B3D
100
AcDbVisualStyle
  2
ColorChange
 70
    16
177
     3
291
     1
 70
    58
 90
        2
176
     1
 90
        2
176
     1
 90
        3
176
     1
 90
        0
176
     1
 40
0.6
176
     1
 40
30.0
176
     1
 62
     8
420
  8421504
176
     1
 90
        1
176
     1
 90
        4
176
     1
 62
     7
176
     1
 62
   257
176
     1
 90
        1
176
     1
 90
        1
176
     1
 40
1.0
176
     1
 90
        8
176
     1
 62
     8
420
  8421504
176
     1
 40
1.0
176
     1
 90
        1
176
     1
 90
        6
176
     1
 90
        2
176
     1
 62
     7
176
     1
 90
        5
176
     1
 90
        0
176
     1
 90
        0
176
     1
290
     0
176
     1
 90
        1
176
     1
 40
0.0
176
     1
 90
        0
176
     1
290
     0
176
     1
290
     1
176
     1
290
     1
176
     1
290
     0
176
     1
290
     0
176
     1
290
     0
176
     1
290
     0
176
     1
290
     0
176
     1
290
     0
176
     1
 90
       50
176
     1
 40
0.0
176
     1
 40
1.0
176
     1
 90
        0
176
     1
 62
    18
420
        0
176
     1
 90
       50
176
     1
 90
        3
176
     1
 62
     5
420
      255
176
     1
290
     0
176
     1
 90
       50
176
     1
 90
       50
176
     1
 90
       50
176
     1
290
     0
176
     1
 90
       50
176
     1
 62
   256
176
     0
 40
1.0
176
     0
 90
        2
176
     1
  1
strokes_ogs.tif
176
     1
290
     0
176
     1
 40
1.0
176
     1
 40
1.0
176
     1
  0
VISUALSTYLE
  5
1B46
102
{ACAD_REACTORS
330
1B3D
102
}
330
1B3D
100
AcDbVisualStyle
  2
Conceptual
 70
     9
177
     3
291
     0
 70
    58
 90
        3
176
     1
 90
        2
176
     1
 90
        0
176
     1
 90
        0
176
     1
 40
0.6
176
     1
 40
30.0
176
     1
 62
     7
420
 16777215
176
     1
 90
        2
176
     1
 90
        2
176
     1
 62
     7
176
     1
 62
   257
176
     1
 90
        1
176
     1
 90
        1
176
     1
 40
179.0
176
     1
 90
        8
176
     1
 62
     7
176
     1
 40
1.0
176
     1
 90
        1
176
     1
 90
        6
176
     1
 90
        2
176
     1
 62
     7
176
     1
 90
        3
176
     1
 90
        0
176
     1
 90
        0
176
     1
290
     0
176
     1
 90
        1
176
     1
 40
0.0
176
     1
 90
        0
176
     1
290
     0
176
     1
290
     1
176
     1
290
     1
176
     1
290
     0
176
     1
290
     0
176
     1
290
     0
176
     1
290
     0
176
     1
290
     0
176
     1
290
     0
176
     1
 90
       50
176
     1
 40
0.0
176
     1
 40
1.0
176
     1
 90
        0
176
     1
 62
    18
420
        0
176
     1
 90
       50
176
     1
 90
        3
176
     1
 62
     5
420
      255
176
     1
290
     0
176
     1
 90
       50
176
     1
 90
       50
176
     1
 90
       50
176
     1
290
     0
176
     1
 90
       50
176
     1
 62
   256
176
     0
 40
1.0
176
     0
 90
        2
176
     1
  1
strokes_ogs.tif
176
     1
290
     0
176
     1
 40
1.0
176
     1
 40
1.0
176
     1
  0
VISUALSTYLE
  5
1B48
102
{ACAD_REACTORS
330
1B3D
102
}
330
1B3D
100
AcDbVisualStyle
  2
Dim
 70
    11
177
     3
291
     1
 70
    58
 90
        2
176
     1
 90
        2
176
     1
 90
        0
176
     1
 90
        0
176
     1
 40
0.6
176
     1
 40
30.0
176
     1
 62
     7
420
 16777215
176
     1
 90
        1
176
     1
 90
        4
176
     1
 62
     7
176
     1
 62
   257
176
     1
 90
        1
176
     1
 90
        1
176
     1
 40
1.0
176
     1
 90
        8
176
     1
 62
     7
176
     1
 40
1.0
176
     1
 90
        1
176
     1
 90
        6
176
     1
 90
        2
176
     1
 62
     7
176
     1
 90
        5
176
     1
 90
        0
176
     1
 90
        0
176
     1
290
     0
176
     1
 90
        1
176
     1
 40
-50.0
176
     1
 90
        0
176
     1
290
     0
176
     1
290
     1
176
     1
290
     1
176
     1
290
     0
176
     1
290
     0
176
     1
290
     0
176
     1
290
     0
176
     1
290
     0
176
     1
290
     0
176
     1
 90
       50
176
     1
 40
0.0
176
     1
 40
1.0
176
     1
 90
        0
176
     1
 62
    18
420
        0
176
     1
 90
       50
176
     1
 90
        3
176
     1
 62
     5
420
      255
176
     1
290
     0
176
     1
 90
       50
176
     1
 90
       50
176
     1
 90
       50
176
     1
290
     0
176
     1
 90
       50
176
     1
 62
   256
176
     0
 40
1.0
176
     0
 90
        2
176
     1
  1
strokes_ogs.tif
176
     1
290
     0
176
     1
 40
1.0
176
     1
 40
1.0
176
     1
  0
VISUALSTYLE
  5
1B55
102
{ACAD_REACTORS
330
1B3D
102
}
330
1B3D
100
AcDbVisualStyle
  2
EdgeColorOff
 70
    22
177
     3
291
     1
 70
    58
 90
        2
176
     0
 90
        2
176
     0
 90
        0
176
     0
 90
        0
176
     0
 40
0.6
176
     0
 40
30.0
176
     0
 62
     7
420
 16777215
176
     0
 90
        1
176
     0
 90
        4
176
     0
 62
     7
176
     0
 62
   257
176
     0
 90
        1
176
     0
 90
        1
176
     0
 40
1.0
176
     0
 90
        8
176
     2
 62
     7
176
     0
 40
1.0
176
     0
 90
        1
176
     0
 90
        6
176
     0
 90
        2
176
     0
 62
     7
176
     0
 90
        5
176
     0
 90
        0
176
     0
 90
        0
176
     0
290
     0
176
     0
 90
        1
176
     0
 40
0.0
176
     0
 90
        0
176
     0
290
     0
176
     0
290
     1
176
     0
290
     1
176
     0
290
     0
176
     0
290
     0
176
     0
290
     0
176
     0
290
     0
176
     0
290
     0
176
     0
290
     0
176
     0
 90
       50
176
     0
 40
0.0
176
     0
 40
1.0
176
     0
 90
        0
176
     0
 62
    18
420
        0
176
     0
 90
       50
176
     0
 90
        3
176
     0
 62
     5
420
      255
176
     0
290
     0
176
     0
 90
       50
176
     0
 90
       50
176
     0
 90
       50
176
     0
290
     0
176
     0
 90
       50
176
     0
 62
   256
176
     0
 40
1.0
176
     0
 90
        2
176
     0
  1
strokes_ogs.tif
176
     0
290
     0
176
     0
 40
1.0
176
     0
 40
1.0
176
     0
  0
VISUALSTYLE
  5
1B4C
102
{ACAD_REACTORS
330
1B3D
102
}
330
1B3D
100
AcDbVisualStyle
  2
Facepattern
 70
    15
177
     3
291
     1
 70
    58
 90
        2
176
     1
 90
        2
176
     1
 90
        0
176
     1
 90
        0
176
     1
 40
0.6
176
     1
 40
30.0
176
     1
 62
     7
420
 16777215
176
     1
 90
        1
176
     1
 90
        4
176
     1
 62
     7
176
     1
 62
   257
176
     1
 90
        1
176
     1
 90
        1
176
     1
 40
1.0
176
     1
 90
        8
176
     1
 62
     7
176
     1
 40
1.0
176
     1
 90
        1
176
     1
 90
        6
176
     1
 90
        2
176
     1
 62
     7
176
     1
 90
        5
176
     1
 90
        0
176
     1
 90
        0
176
     1
290
     0
176
     1
 90
        1
176
     1
 40
0.0
176
     1
 90
        0
176
     1
290
     0
176
     1
290
     1
176
     1
290
     1
176
     1
290
     0
176
     1
290
     0
176
     1
290
     0
176
     1
290
     0
176
     1
290
     0
176
     1
290
     0
176
     1
 90
       50
176
     1
 40
0.0
176
     1
 40
1.0
176
     1
 90
        0
176
     1
 62
    18
420
        0
176
     1
 90
       50
176
     1
 90
        3
176
     1
 62
     5
420
      255
176
     1
290
     0
176
     1
 90
       50
176
     1
 90
       50
176
     1
 90
       50
176
     1
290
     0
176
     1
 90
       50
176
     1
 62
   256
176
     0
 40
1.0
176
     0
 90
        2
176
     1
  1
strokes_ogs.tif
176
     1
290
     0
176
     1
 40
1.0
176
     1
 40
1.0
176
     1
  0
VISUALSTYLE
  5
1B3E
102
{ACAD_REACTORS
330
1B3D
102
}
330
1B3D
100
AcDbVisualStyle
  2
Flat
 70
     0
177
     3
291
     1
 70
    58
 90
        2
176
     1
 90
        1
176
     1
 90
        1
176
     1
 90
        2
176
     1
 40
0.6
176
     1
 40
30.0
176
     1
 62
     7
420
 16777215
176
     1
 90
        0
176
     1
 90
        0
176
     1
 62
     7
176
     1
 62
   257
176
     1
 90
        1
176
     1
 90
        1
176
     1
 40
1.0
176
     1
 90
        8
176
     1
 62
     7
176
     1
 40
1.0
176
     1
 90
        1
176
     1
 90
        6
176
     1
 90
        2
176
     1
 62
     7
176
     1
 90
        5
176
     1
 90
        0
176
     1
 90
        0
176
     1
290
     0
176
     1
 90
       13
176
     1
 40
0.0
176
     1
 90
        0
176
     1
290
     0
176
     1
290
     1
176
     1
290
     1
176
     1
290
     0
176
     1
290
     0
176
     1
290
     0
176
     1
290
     0
176
     1
290
     0
176
     1
290
     0
176
     1
 90
       50
176
     1
 40
0.0
176
     1
 40
1.0
176
     1
 90
        0
176
     1
 62
    18
420
        0
176
     1
 90
       50
176
     1
 90
        3
176
     1
 62
     5
420
      255
176
     1
290
     0
176
     1
 90
       50
176
     1
 90
       50
176
     1
 90
       50
176
     1
290
     0
176
     1
 90
       50
176
     1
 62
   256
176
     0
 40
1.0
176
     0
 90
        2
176
     1
  1
strokes_ogs.tif
176
     1
290
     0
176
     1
 40
1.0
176
     1
 40
1.0
176
     1
  0
VISUALSTYLE
  5
1B3F
102
{ACAD_REACTORS
330
1B3D
102
}
330
1B3D
100
AcDbVisualStyle
  2
FlatWithEdges
 70
     1
177
     3
291
     1
 70
    58
 90
        2
176
     1
 90
        1
176
     1
 90
        1
176
     1
 90
        2
176
     1
 40
0.6
176
     1
 40
30.0
176
     1
 62
     7
420
 16777215
176
     1
 90
        1
176
     1
 90
        0
176
     1
 62
     7
176
     1
 62
   257
176
     1
 90
        1
176
     1
 90
        1
176
     1
 40
1.0
176
     1
 90
        0
176
     1
 62
   257
176
     1
 40
1.0
176
     1
 90
        1
176
     1
 90
        6
176
     1
 90
        2
176
     1
 62
     7
176
     1
 90
        5
176
     1
 90
        0
176
     1
 90
        0
176
     1
290
     0
176
     1
 90
       13
176
     1
 40
0.0
176
     1
 90
        0
176
     1
290
     0
176
     1
290
     1
176
     1
290
     1
176
     1
290
     0
176
     1
290
     0
176
     1
290
     0
176
     1
290
     0
176
     1
290
     0
176
     1
290
     0
176
     1
 90
       50
176
     1
 40
0.0
176
     1
 40
1.0
176
     1
 90
        0
176
     1
 62
    18
420
        0
176
     1
 90
       50
176
     1
 90
        3
176
     1
 62
     5
420
      255
176
     1
290
     0
176
     1
 90
       50
176
     1
 90
       50
176
     1
 90
       50
176
     1
290
     0
176
     1
 90
       50
176
     1
 62
   256
176
     0
 40
1.0
176
     0
 90
        2
176
     1
  1
strokes_ogs.tif
176
     1
290
     0
176
     1
 40
1.0
176
     1
 40
1.0
176
     1
  0
VISUALSTYLE
  5
1B40
102
{ACAD_REACTORS
330
1B3D
102
}
330
1B3D
100
AcDbVisualStyle
  2
Gouraud
 70
     2
177
     3
291
     1
 70
    58
 90
        2
176
     1
 90
        2
176
     1
 90
        1
176
     1
 90
        2
176
     1
 40
0.6
176
     1
 40
30.0
176
     1
 62
     7
420
 16777215
176
     1
 90
        0
176
     1
 90
        0
176
     1
 62
     7
176
     1
 62
   257
176
     1
 90
        1
176
     1
 90
        1
176
     1
 40
1.0
176
     1
 90
        0
176
     1
 62
     7
176
     1
 40
1.0
176
     1
 90
        1
176
     1
 90
        6
176
     1
 90
        2
176
     1
 62
     7
176
     1
 90
        5
176
     1
 90
        0
176
     1
 90
        0
176
     1
290
     0
176
     1
 90
       13
176
     1
 40
0.0
176
     1
 90
        0
176
     1
290
     0
176
     1
290
     1
176
     1
290
     1
176
     1
290
     0
176
     1
290
     0
176
     1
290
     0
176
     1
290
     0
176
     1
290
     0
176
     1
290
     0
176
     1
 90
       50
176
     1
 40
0.0
176
     1
 40
1.0
176
     1
 90
        0
176
     1
 62
    18
420
        0
176
     1
 90
       50
176
     1
 90
        3
176
     1
 62
     5
420
      255
176
     1
290
     0
176
     1
 90
       50
176
     1
 90
       50
176
     1
 90
       50
176
     1
290
     0
176
     1
 90
       50
176
     1
 62
   256
176
     0
 40
1.0
176
     0
 90
        2
176
     1
  1
strokes_ogs.tif
176
     1
290
     0
176
     1
 40
1.0
176
     1
 40
1.0
176
     1
  0
VISUALSTYLE
  5
1B41
102
{ACAD_REACTORS
330
1B3D
102
}
330
1B3D
100
AcDbVisualStyle
  2
GouraudWithEdges
 70
     3
177
     3
291
     1
 70
    58
 90
        2
176
     1
 90
        2
176
     1
 90
        1
176
     1
 90
        2
176
     1
 40
0.6
176
     1
 40
30.0
176
     1
 62
     7
420
 16777215
176
     1
 90
        1
176
     1
 90
        0
176
     1
 62
     7
176
     1
 62
   257
176
     1
 90
        1
176
     1
 90
        1
176
     1
 40
1.0
176
     1
 90
        0
176
     1
 62
   257
176
     1
 40
1.0
176
     1
 90
        1
176
     1
 90
        6
176
     1
 90
        2
176
     1
 62
     7
176
     1
 90
        5
176
     1
 90
        0
176
     1
 90
        0
176
     1
290
     0
176
     1
 90
       13
176
     1
 40
0.0
176
     1
 90
        0
176
     1
290
     0
176
     1
290
     1
176
     1
290
     1
176
     1
290
     0
176
     1
290
     0
176
     1
290
     0
176
     1
290
     0
176
     1
290
     0
176
     1
290
     0
176
     1
 90
       50
176
     1
 40
0.0
176
     1
 40
1.0
176
     1
 90
        0
176
     1
 62
    18
420
        0
176
     1
 90
       50
176
     1
 90
        3
176
     1
 62
     5
420
      255
176
     1
290
     0
176
     1
 90
       50
176
     1
 90
       50
176
     1
 90
       50
176
     1
290
     0
176
     1
 90
       50
176
     1
 62
   256
176
     0
 40
1.0
176
     0
 90
        2
176
     1
  1
strokes_ogs.tif
176
     1
290
     0
176
     1
 40
1.0
176
     1
 40
1.0
176
     1
  0
VISUALSTYLE
  5
1B45
102
{ACAD_REACTORS
330
1B3D
102
}
330
1B3D
100
AcDbVisualStyle
  2
Hidden
 70
     6
177
     3
291
     0
 70
    58
 90
        1
176
     1
 90
        2
176
     1
 90
        2
176
     1
 90
        0
176
     1
 40
0.6
176
     1
 40
30.0
176
     1
 62
     7
420
 16777215
176
     1
 90
        2
176
     1
 90
        2
176
     1
 62
     7
176
     1
 62
   257
176
     1
 90
        2
176
     1
 90
        1
176
     1
 40
40.0
176
     1
 90
        0
176
     1
 62
   257
176
     1
 40
1.0
176
     1
 90
        1
176
     1
 90
        6
176
     1
 90
        2
176
     1
 62
     7
176
     1
 90
        3
176
     1
 90
        0
176
     1
 90
        0
176
     1
290
     0
176
     1
 90
        1
176
     1
 40
0.0
176
     1
 90
        0
176
     1
290
     0
176
     1
290
     1
176
     1
290
     1
176
     1
290
     0
176
     1
290
     0
176
     1
290
     0
176
     1
290
     0
176
     1
290
     0
176
     1
290
     0
176
     1
 90
       50
176
     1
 40
0.0
176
     1
 40
1.0
176
     1
 90
        0
176
     1
 62
    18
420
        0
176
     1
 90
       50
176
     1
 90
        3
176
     1
 62
     5
420
      255
176
     1
290
     0
176
     1
 90
       50
176
     1
 90
       50
176
     1
 90
       50
176
     1
290
     0
176
     1
 90
       50
176
     1
 62
   256
176
     0
 40
1.0
176
     0
 90
        2
176
     1
  1
strokes_ogs.tif
176
     1
290
     0
176
     1
 40
1.0
176
     1
 40
1.0
176
     1
  0
VISUALSTYLE
  5
1B53
102
{ACAD_REACTORS
330
1B3D
102
}
330
1B3D
100
AcDbVisualStyle
  2
JitterOff
 70
    20
177
     3
291
     1
 70
    58
 90
        2
176
     0
 90
        2
176
     0
 90
        0
176
     0
 90
        0
176
     0
 40
0.6
176
     0
 40
30.0
176
     0
 62
     7
420
 16777215
176
     0
 90
        1
176
     0
 90
        4
176
     0
 62
     7
176
     0
 62
   257
176
     0
 90
        1
176
     0
 90
        1
176
     0
 40
1.0
176
     0
 90
       10
176
     2
 62
     7
176
     0
 40
1.0
176
     0
 90
        1
176
     0
 90
        6
176
     0
 90
        2
176
     0
 62
     7
176
     0
 90
        5
176
     0
 90
        0
176
     0
 90
        0
176
     0
290
     0
176
     0
 90
        1
176
     0
 40
0.0
176
     0
 90
        0
176
     0
290
     0
176
     0
290
     1
176
     0
290
     1
176
     0
290
     0
176
     0
290
     0
176
     0
290
     0
176
     0
290
     0
176
     0
290
     0
176
     0
290
     0
176
     0
 90
       50
176
     0
 40
0.0
176
     0
 40
1.0
176
     0
 90
        0
176
     0
 62
    18
420
        0
176
     0
 90
       50
176
     0
 90
        3
176
     0
 62
     5
420
      255
176
     0
290
     0
176
     0
 90
       50
176
     0
 90
       50
176
     0
 90
       50
176
     0
290
     0
176
     0
 90
       50
176
     0
 62
   256
176
     0
 40
1.0
176
     0
 90
        2
176
     0
  1
strokes_ogs.tif
176
     0
290
     0
176
     0
 40
1.0
176
     0
 40
1.0
176
     0
  0
VISUALSTYLE
  5
1B4B
102
{ACAD_REACTORS
330
1B3D
102
}
330
1B3D
100
AcDbVisualStyle
  2
Linepattern
 70
    14
177
     3
291
     1
 70
    58
 90
        2
176
     1
 90
        2
176
     1
 90
        0
176
     1
 90
        0
176
     1
 40
0.6
176
     1
 40
30.0
176
     1
 62
     7
420
 16777215
176
     1
 90
        1
176
     1
 90
        4
176
     1
 62
     7
176
     1
 62
   257
176
     1
 90
        7
176
     1
 90
        7
176
     1
 40
1.0
176
     1
 90
        8
176
     1
 62
     7
176
     1
 40
1.0
176
     1
 90
        1
176
     1
 90
        6
176
     1
 90
        2
176
     1
 62
     7
176
     1
 90
        5
176
     1
 90
        0
176
     1
 90
        0
176
     1
290
     0
176
     1
 90
        1
176
     1
 40
0.0
176
     1
 90
        0
176
     1
290
     0
176
     1
290
     1
176
     1
290
     1
176
     1
290
     0
176
     1
290
     0
176
     1
290
     0
176
     1
290
     0
176
     1
290
     0
176
     1
290
     0
176
     1
 90
       50
176
     1
 40
0.0
176
     1
 40
1.0
176
     1
 90
        0
176
     1
 62
    18
420
        0
176
     1
 90
       50
176
     1
 90
        3
176
     1
 62
     5
420
      255
176
     1
290
     0
176
     1
 90
       50
176
     1
 90
       50
176
     1
 90
       50
176
     1
290
     0
176
     1
 90
       50
176
     1
 62
   256
176
     0
 40
1.0
176
     0
 90
        2
176
     1
  1
strokes_ogs.tif
176
     1
290
     0
176
     1
 40
1.0
176
     1
 40
1.0
176
     1
  0
VISUALSTYLE
  5
1B54
102
{ACAD_REACTORS
330
1B3D
102
}
330
1B3D
100
AcDbVisualStyle
  2
OverhangOff
 70
    21
177
     3
291
     1
 70
    58
 90
        2
176
     0
 90
        2
176
     0
 90
        0
176
     0
 90
        0
176
     0
 40
0.6
176
     0
 40
30.0
176
     0
 62
     7
420
 16777215
176
     0
 90
        1
176
     0
 90
        4
176
     0
 62
     7
176
     0
 62
   257
176
     0
 90
        1
176
     0
 90
        1
176
     0
 40
1.0
176
     0
 90
        9
176
     2
 62
     7
176
     0
 40
1.0
176
     0
 90
        1
176
     0
 90
        6
176
     0
 90
        2
176
     0
 62
     7
176
     0
 90
        5
176
     0
 90
        0
176
     0
 90
        0
176
     0
290
     0
176
     0
 90
        1
176
     0
 40
0.0
176
     0
 90
        0
176
     0
290
     0
176
     0
290
     1
176
     0
290
     1
176
     0
290
     0
176
     0
290
     0
176
     0
290
     0
176
     0
290
     0
176
     0
290
     0
176
     0
290
     0
176
     0
 90
       50
176
     0
 40
0.0
176
     0
 40
1.0
176
     0
 90
        0
176
     0
 62
    18
420
        0
176
     0
 90
       50
176
     0
 90
        3
176
     0
 62
     5
420
      255
176
     0
290
     0
176
     0
 90
       50
176
     0
 90
       50
176
     0
 90
       50
176
     0
290
     0
176
     0
 90
       50
176
     0
 62
   256
176
     0
 40
1.0
176
     0
 90
        2
176
     0
  1
strokes_ogs.tif
176
     0
290
     0
176
     0
 40
1.0
176
     0
 40
1.0
176
     0
  0
VISUALSTYLE
  5
1B47
102
{ACAD_REACTORS
330
1B3D
102
}
330
1B3D
100
AcDbVisualStyle
  2
Realistic
 70
     8
177
     3
291
     0
 70
    58
 90
        2
176
     1
 90
        3
176
     1
 90
        0
176
     1
 90
        2
176
     1
 40
0.6
176
     1
 40
30.0
176
     1
 62
     7
420
 16777215
176
     1
 90
        0
176
     1
 90
        0
176
     1
 62
     7
176
     1
 62
   257
176
     1
 90
        1
176
     1
 90
        1
176
     1
 40
1.0
176
     1
 90
        8
176
     1
 62
   257
176
     1
 40
1.0
176
     1
 90
        1
176
     1
 90
        6
176
     1
 90
        2
176
     1
 62
     7
176
     1
 90
        3
176
     1
 90
        0
176
     1
 90
        0
176
     1
290
     0
176
     1
 90
       13
176
     1
 40
0.0
176
     1
 90
        0
176
     1
290
     0
176
     1
290
     1
176
     1
290
     1
176
     1
290
     0
176
     1
290
     0
176
     1
290
     0
176
     1
290
     0
176
     1
290
     0
176
     1
290
     0
176
     1
 90
       50
176
     1
 40
0.0
176
     1
 40
1.0
176
     1
 90
        0
176
     1
 62
    18
420
        0
176
     1
 90
       50
176
     1
 90
        3
176
     1
 62
     5
420
      255
176
     1
290
     0
176
     1
 90
       50
176
     1
 90
       50
176
     1
 90
       50
176
     1
290
     0
176
     1
 90
       50
176
     1
 62
   256
176
     0
 40
1.0
176
     0
 90
        2
176
     1
  1
strokes_ogs.tif
176
     1
290
     0
176
     1
 40
1.0
176
     1
 40
1.0
176
     1
  0
VISUALSTYLE
  5
1B52
102
{ACAD_REACTORS
330
1B3D
102
}
330
1B3D
100
AcDbVisualStyle
  2
Shaded
 70
    27
177
     3
291
     0
 70
    58
 90
        2
176
     1
 90
        2
176
     1
 90
        1
176
     1
 90
        2
176
     1
 40
0.6
176
     1
 40
30.0
176
     1
 62
     7
420
 16777215
176
     1
 90
        0
176
     1
 90
        4
176
     1
 62
     7
176
     1
 62
   257
176
     1
 90
        1
176
     1
 90
        1
176
     1
 40
1.0
176
     1
 90
        8
176
     1
 62
   257
176
     1
 40
1.0
176
     1
 90
        1
176
     1
 90
        6
176
     1
 90
        2
176
     1
 62
     8
420
  7895160
176
     1
 90
        3
176
     1
 90
        0
176
     1
 90
        0
176
     1
290
     0
176
     1
 90
        5
176
     1
 40
0.0
176
     1
 90
        0
176
     1
290
     0
176
     1
290
     1
176
     1
290
     1
176
     1
290
     0
176
     1
290
     0
176
     1
290
     0
176
     1
290
     0
176
     1
290
     0
176
     1
290
     0
176
     1
 90
       50
176
     1
 40
0.0
176
     1
 40
1.0
176
     1
 90
        0
176
     1
 62
    18
420
        0
176
     1
 90
       50
176
     1
 90
        3
176
     1
 62
     5
420
      255
176
     1
290
     0
176
     1
 90
       50
176
     1
 90
       50
176
     1
 90
       50
176
     1
290
     0
176
     1
 90
       50
176
     1
 62
   256
176
     0
 40
1.0
176
     0
 90
        2
176
     1
  1
strokes_ogs.tif
176
     1
290
     0
176
     1
 40
1.0
176
     1
 40
1.0
176
     1
  0
VISUALSTYLE
  5
1B51
102
{ACAD_REACTORS
330
1B3D
102
}
330
1B3D
100
AcDbVisualStyle
  2
Shaded with edges
 70
    26
177
     3
291
     0
 70
    58
 90
        2
176
     1
 90
        2
176
     1
 90
        1
176
     1
 90
        2
176
     1
 40
0.6
176
     1
 40
30.0
176
     1
 62
     7
420
 16777215
176
     1
 90
        1
176
     1
 90
        2
176
     1
 62
     7
176
     1
 62
   257
176
     1
 90
        2
176
     1
 90
        1
176
     1
 40
1.0
176
     1
 90
        8
176
     1
 62
   257
176
     1
 40
1.0
176
     1
 90
        1
176
     1
 90
        6
176
     1
 90
        2
176
     1
 62
     7
176
     1
 90
        3
176
     1
 90
        0
176
     1
 90
        0
176
     1
290
     0
176
     1
 90
        5
176
     1
 40
0.0
176
     1
 90
        0
176
     1
290
     0
176
     1
290
     1
176
     1
290
     1
176
     1
290
     0
176
     1
290
     0
176
     1
290
     0
176
     1
290
     0
176
     1
290
     0
176
     1
290
     0
176
     1
 90
       50
176
     1
 40
0.0
176
     1
 40
1.0
176
     1
 90
        0
176
     1
 62
    18
420
        0
176
     1
 90
       50
176
     1
 90
        3
176
     1
 62
     5
420
      255
176
     1
290
     0
176
     1
 90
       50
176
     1
 90
       50
176
     1
 90
       50
176
     1
290
     0
176
     1
 90
       50
176
     1
 62
   256
176
     0
 40
1.0
176
     0
 90
        2
176
     1
  1
strokes_ogs.tif
176
     1
290
     0
176
     1
 40
1.0
176
     1
 40
1.0
176
     1
  0
VISUALSTYLE
  5
1B4E
102
{ACAD_REACTORS
330
1B3D
102
}
330
1B3D
100
AcDbVisualStyle
  2
Shades of Gray
 70
    23
177
     3
291
     0
 70
    58
 90
        2
176
     1
 90
        2
176
     1
 90
        3
176
     1
 90
        0
176
     1
 40
0.6
176
     1
 40
30.0
176
     1
 62
     7
420
 16777215
176
     1
 90
        2
176
     1
 90
        2
176
     1
 62
     7
176
     1
 62
     7
176
     1
 90
        1
176
     1
 90
        1
176
     1
 40
40.0
176
     1
 90
        8
176
     1
 62
     7
176
     1
 40
1.0
176
     1
 90
        1
176
     1
 90
        6
176
     1
 90
        2
176
     1
 62
     7
176
     1
 90
        3
176
     1
 90
        0
176
     1
 90
        0
176
     1
290
     0
176
     1
 90
        1
176
     1
 40
0.0
176
     1
 90
        0
176
     1
290
     0
176
     1
290
     1
176
     1
290
     1
176
     1
290
     0
176
     1
290
     0
176
     1
290
     0
176
     1
290
     0
176
     1
290
     0
176
     1
290
     0
176
     1
 90
       50
176
     1
 40
0.0
176
     1
 40
1.0
176
     1
 90
        0
176
     1
 62
    18
420
        0
176
     1
 90
       50
176
     1
 90
        3
176
     1
 62
     5
420
      255
176
     1
290
     0
176
     1
 90
       50
176
     1
 90
       50
176
     1
 90
       50
176
     1
290
     0
176
     1
 90
       50
176
     1
 62
   256
176
     0
 40
1.0
176
     0
 90
        2
176
     1
  1
strokes_ogs.tif
176
     1
290
     0
176
     1
 40
1.0
176
     1
 40
1.0
176
     1
  0
VISUALSTYLE
  5
1B4F
102
{ACAD_REACTORS
330
1B3D
102
}
330
1B3D
100
AcDbVisualStyle
  2
Sketchy
 70
    24
177
     3
291
     0
 70
    58
 90
        1
176
     1
 90
        2
176
     1
 90
        2
176
     1
 90
        0
176
     1
 40
0.6
176
     1
 40
30.0
176
     1
 62
     7
420
 16777215
176
     1
 90
        2
176
     1
 90
        2
176
     1
 62
     7
176
     1
 62
     7
176
     1
 90
        1
176
     1
 90
        1
176
     1
 40
40.0
176
     1
 90
       11
176
     1
 62
     7
176
     1
 40
1.0
176
     1
 90
        1
176
     1
 90
        6
176
     1
 90
        2
176
     1
 62
     7
176
     1
 90
        6
176
     1
 90
        0
176
     1
 90
        0
176
     1
290
     0
176
     1
 90
        1
176
     1
 40
0.0
176
     1
 90
        0
176
     1
290
     0
176
     1
290
     1
176
     1
290
     1
176
     1
290
     0
176
     1
290
     0
176
     1
290
     0
176
     1
290
     0
176
     1
290
     0
176
     1
290
     0
176
     1
 90
       50
176
     1
 40
0.0
176
     1
 40
1.0
176
     1
 90
        0
176
     1
 62
    18
420
        0
176
     1
 90
       50
176
     1
 90
        3
176
     1
 62
     5
420
      255
176
     1
290
     0
176
     1
 90
       50
176
     1
 90
       50
176
     1
 90
       50
176
     1
290
     0
176
     1
 90
       50
176
     1
 62
   256
176
     0
 40
1.0
176
     0
 90
        2
176
     1
  1
strokes_ogs.tif
176
     1
290
     0
176
     1
 40
1.0
176
     1
 40
1.0
176
     1
  0
VISUALSTYLE
  5
1B4A
102
{ACAD_REACTORS
330
1B3D
102
}
330
1B3D
100
AcDbVisualStyle
  2
Thicken
 70
    13
177
     3
291
     1
 70
    58
 90
        2
176
     1
 90
        2
176
     1
 90
        0
176
     1
 90
        0
176
     1
 40
0.6
176
     1
 40
30.0
176
     1
 62
     7
420
 16777215
176
     1
 90
        1
176
     1
 90
        4
176
     1
 62
     7
176
     1
 62
   257
176
     1
 90
        1
176
     1
 90
        1
176
     1
 40
1.0
176
     1
 90
       12
176
     1
 62
     7
176
     1
 40
1.0
176
     1
 90
        1
176
     1
 90
        6
176
     1
 90
        2
176
     1
 62
     7
176
     1
 90
        5
176
     1
 90
        0
176
     1
 90
        0
176
     1
290
     0
176
     1
 90
        1
176
     1
 40
0.0
176
     1
 90
        0
176
     1
290
     0
176
     1
290
     1
176
     1
290
     1
176
     1
290
     0
176
     1
290
     0
176
     1
290
     0
176
     1
290
     0
176
     1
290
     0
176
     1
290
     0
176
     1
 90
       50
176
     1
 40
0.0
176
     1
 40
1.0
176
     1
 90
        0
176
     1
 62
    18
420
        0
176
     1
 90
       50
176
     1
 90
        3
176
     1
 62
     5
420
      255
176
     1
290
     0
176
     1
 90
       50
176
     1
 90
       50
176
     1
 90
       50
176
     1
290
     0
176
     1
 90
       50
176
     1
 62
   256
176
     0
 40
1.0
176
     0
 90
        2
176
     1
  1
strokes_ogs.tif
176
     1
290
     0
176
     1
 40
1.0
176
     1
 40
1.0
176
     1
  0
VISUALSTYLE
  5
1B44
102
{ACAD_REACTORS
330
1B3D
102
}
330
1B3D
100
AcDbVisualStyle
  2
Wireframe
 70
     5
177
     3
291
     0
 70
    58
 90
        0
176
     1
 90
        2
176
     1
 90
        0
176
     1
 90
        0
176
     1
 40
0.6
176
     1
 40
30.0
176
     1
 62
     7
420
 16777215
176
     1
 90
        1
176
     1
 90
        4
176
     1
 62
     7
176
     1
 62
   257
176
     1
 90
        1
176
     1
 90
        1
176
     1
 40
1.0
176
     1
 90
        0
176
     1
 62
   257
176
     1
 40
1.0
176
     1
 90
        1
176
     1
 90
        6
176
     1
 90
        2
176
     1
 62
     7
176
     1
 90
        3
176
     1
 90
        0
176
     1
 90
        0
176
     1
290
     0
176
     1
 90
        1
176
     1
 40
0.0
176
     1
 90
        0
176
     1
290
     0
176
     1
290
     1
176
     1
290
     1
176
     1
290
     0
176
     1
290
     0
176
     1
290
     0
176
     1
290
     0
176
     1
290
     0
176
     1
290
     0
176
     1
 90
       50
176
     1
 40
0.0
176
     1
 40
1.0
176
     1
 90
        0
176
     1
 62
    18
420
        0
176
     1
 90
       50
176
     1
 90
        3
176
     1
 62
     5
420
      255
176
     1
290
     0
176
     1
 90
       50
176
     1
 90
       50
176
     1
 90
       50
176
     1
290
     0
176
     1
 90
       50
176
     1
 62
   256
176
     0
 40
1.0
176
     0
 90
        2
176
     1
  1
strokes_ogs.tif
176
     1
290
     0
176
     1
 40
1.0
176
     1
 40
1.0
176
     1
  0
VISUALSTYLE
  5
1B50
102
{ACAD_REACTORS
330
1B3D
102
}
330
1B3D
100
AcDbVisualStyle
  2
X-Ray
 70
    25
177
     3
291
     0
 70
    58
 90
        2
176
     1
 90
        2
176
     1
 90
        1
176
     1
 90
        1
176
     1
 40
0.5
176
     1
 40
30.0
176
     1
 62
     7
420
 16777215
176
     1
 90
        1
176
     1
 90
        0
176
     1
 62
     7
176
     1
 62
   257
176
     1
 90
        1
176
     1
 90
        1
176
     1
 40
1.0
176
     1
 90
        8
176
     1
 62
     7
176
     1
 40
1.0
176
     1
 90
        1
176
     1
 90
        6
176
     1
 90
        2
176
     1
 62
     7
176
     1
 90
        3
176
     1
 90
        0
176
     1
 90
        0
176
     1
290
     0
176
     1
 90
       13
176
     1
 40
0.0
176
     1
 90
        0
176
     1
290
     0
176
     1
290
     1
176
     1
290
     1
176
     1
290
     0
176
     1
290
     0
176
     1
290
     0
176
     1
290
     0
176
     1
290
     0
176
     1
290
     0
176
     1
 90
       50
176
     1
 40
0.0
176
     1
 40
1.0
176
     1
 90
        0
176
     1
 62
    18
420
        0
176
     1
 90
       50
176
     1
 90
        3
176
     1
 62
     5
420
      255
176
     1
290
     0
176
     1
 90
       50
176
     1
 90
       50
176
     1
 90
       50
176
     1
290
     0
176
     1
 90
       50
176
     1
 62
   256
176
     0
 40
1.0
176
     0
 90
        2
176
     1
  1
strokes_ogs.tif
176
     1
290
     0
176
     1
 40
1.0
176
     1
 40
1.0
176
     1
  0
DICTIONARYVAR
  5
1DF0
102
{ACAD_REACTORS
330
5E
102
}
330
5E
100
DictionaryVariables
280
     0
  1
1:1
  0
DICTIONARYVAR
  5
1DEC
102
{ACAD_REACTORS
330
5E
102
}
330
5E
100
DictionaryVariables
280
     0
  1
STANDARD
  0
DICTIONARYVAR
  5
84
102
{ACAD_REACTORS
330
5E
102
}
330
5E
100
DictionaryVariables
280
     0
  1
STANDARD
  0
DICTIONARYVAR
  5
1DED
102
{ACAD_REACTORS
330
5E
102
}
330
5E
100
DictionaryVariables
280
     0
  1
Metric50
  0
DICTIONARYVAR
  5
1DEE
102
{ACAD_REACTORS
330
5E
102
}
330
5E
100
DictionaryVariables
280
     0
  1
Metric50
  0
DICTIONARYVAR
  5
5F
102
{ACAD_REACTORS
330
5E
102
}
330
5E
100
DictionaryVariables
280
     0
  1
2
  0
DICTIONARYVAR
  5
63
102
{ACAD_REACTORS
330
5E
102
}
330
5E
100
DictionaryVariables
280
     0
  1
1
  0
DICTIONARYVAR
  5
1DF2
102
{ACAD_REACTORS
330
5E
102
}
330
5E
100
DictionaryVariables
280
     0
  1
1
  0
DICTIONARYVAR
  5
1DF3
102
{ACAD_REACTORS
330
5E
102
}
330
5E
100
DictionaryVariables
280
     0
  1
15
  0
DICTIONARYVAR
  5
1DF1
102
{ACAD_REACTORS
330
5E
102
}
330
5E
100
DictionaryVariables
280
     0
  1
0
  0
DICTIONARYVAR
  5
1DEF
102
{ACAD_REACTORS
330
5E
102
}
330
5E
100
DictionaryVariables
280
     0
  1
0
  0
DICTIONARY
  5
1B2E
330
1B2D
100
AcDbDictionary
280
     1
281
     1
  3
BUMPTILE
360
1B30
  3
DIFFUSETILE
360
1B2F
  3
OPACITYTILE
360
1B33
  3
REFLECTIONTILE
360
1B32
  3
REFRACTIONTILE
360
1B34
  3
SPECULARTILE
360
1B31
  0
DICTIONARY
  5
1B26
330
1B25
100
AcDbDictionary
280
     1
281
     1
  3
BUMPTILE
360
1B28
  3
DIFFUSETILE
360
1B27
  3
OPACITYTILE
360
1B2B
  3
REFLECTIONTILE
360
1B2A
  3
REFRACTIONTILE
360
1B2C
  3
SPECULARTILE
360
1B29
  0
DICTIONARY
  5
1B36
330
1B35
100
AcDbDictionary
280
     1
281
     1
  3
BUMPTILE
360
1B38
  3
DIFFUSETILE
360
1B37
  3
OPACITYTILE
360
1B3B
  3
REFLECTIONTILE
360
1B3A
  3
REFRACTIONTILE
360
1B3C
  3
SPECULARTILE
360
1B39
  0
DICTIONARY
  5
1E08
330
7F
100
AcDbDictionary
280
     1
281
     1
  3
ACAD_ROUNDTRIP_2008_TABLESTYLE_CELLSTYLEMAP
360
1E09
  0
XRECORD
  5
1B30
102
{ACAD_REACTORS
330
1B2E
102
}
330
1B2E
100
AcDbXrecord
280
     1
270
     1
271
     1
  0
XRECORD
  5
1B2F
102
{ACAD_REACTORS
330
1B2E
102
}
330
1B2E
100
AcDbXrecord
280
     1
270
     1
271
     1
  0
XRECORD
  5
1B33
102
{ACAD_REACTORS
330
1B2E
102
}
330
1B2E
100
AcDbXrecord
280
     1
270
     1
271
     1
  0
XRECORD
  5
1B32
102
{ACAD_REACTORS
330
1B2E
102
}
330
1B2E
100
AcDbXrecord
280
     1
270
     1
271
     1
  0
XRECORD
  5
1B34
102
{ACAD_REACTORS
330
1B2E
102
}
330
1B2E
100
AcDbXrecord
280
     1
270
     1
271
     1
  0
XRECORD
  5
1B31
102
{ACAD_REACTORS
330
1B2E
102
}
330
1B2E
100
AcDbXrecord
280
     1
270
     1
271
     1
  0
XRECORD
  5
1B28
102
{ACAD_REACTORS
330
1B26
102
}
330
1B26
100
AcDbXrecord
280
     1
270
     1
271
     1
  0
XRECORD
  5
1B27
102
{ACAD_REACTORS
330
1B26
102
}
330
1B26
100
AcDbXrecord
280
     1
270
     1
271
     1
  0
XRECORD
  5
1B2B
102
{ACAD_REACTORS
330
1B26
102
}
330
1B26
100
AcDbXrecord
280
     1
270
     1
271
     1
  0
XRECORD
  5
1B2A
102
{ACAD_REACTORS
330
1B26
102
}
330
1B26
100
AcDbXrecord
280
     1
270
     1
271
     1
  0
XRECORD
  5
1B2C
102
{ACAD_REACTORS
330
1B26
102
}
330
1B26
100
AcDbXrecord
280
     1
270
     1
271
     1
  0
XRECORD
  5
1B29
102
{ACAD_REACTORS
330
1B26
102
}
330
1B26
100
AcDbXrecord
280
     1
270
     1
271
     1
  0
XRECORD
  5
1B38
102
{ACAD_REACTORS
330
1B36
102
}
330
1B36
100
AcDbXrecord
280
     1
270
     1
271
     1
  0
XRECORD
  5
1B37
102
{ACAD_REACTORS
330
1B36
102
}
330
1B36
100
AcDbXrecord
280
     1
270
     1
271
     1
  0
XRECORD
  5
1B3B
102
{ACAD_REACTORS
330
1B36
102
}
330
1B36
100
AcDbXrecord
280
     1
270
     1
271
     1
  0
XRECORD
  5
1B3A
102
{ACAD_REACTORS
330
1B36
102
}
330
1B36
100
AcDbXrecord
280
     1
270
     1
271
     1
  0
XRECORD
  5
1B3C
102
{ACAD_REACTORS
330
1B36
102
}
330
1B36
100
AcDbXrecord
280
     1
270
     1
271
     1
  0
XRECORD
  5
1B39
102
{ACAD_REACTORS
330
1B36
102
}
330
1B36
100
AcDbXrecord
280
     1
270
     1
271
     1
  0
CELLSTYLEMAP
  5
1E09
102
{ACAD_REACTORS
330
1E08
102
}
330
1E08
100
AcDbCellStyleMap
 90
        3
300
CELLSTYLE
  1
TABLEFORMAT_BEGIN
 90
        5
170
     1
 91
        0
 92
    32768
 62
   257
 93
        1
300
CONTENTFORMAT
  1
CONTENTFORMAT_BEGIN
 90
        0
 91
        0
 92
        4
 93
        0
300

 40
0.0
140
1.0
 94
        5
 62
     0
340
11
144
6.0
309
CONTENTFORMAT_END
171
     1
301
MARGIN
  1
CELLMARGIN_BEGIN
 40
1.5
 40
1.5
 40
1.5
 40
1.5
 40
0.18
 40
0.18
309
CELLMARGIN_END
 94
        6
 95
        1
302
GRIDFORMAT
  1
GRIDFORMAT_BEGIN
 90
        0
 91
        1
 62
     0
 92
       -2
340
0
 93
        0
 40
0.045
309
GRIDFORMAT_END
 95
        2
302
GRIDFORMAT
  1
GRIDFORMAT_BEGIN
 90
        0
 91
        1
 62
     0
 92
       -2
340
0
 93
        0
 40
0.045
309
GRIDFORMAT_END
 95
        4
302
GRIDFORMAT
  1
GRIDFORMAT_BEGIN
 90
        0
 91
        1
 62
     0
 92
       -2
340
0
 93
        0
 40
0.045
309
GRIDFORMAT_END
 95
        8
302
GRIDFORMAT
  1
GRIDFORMAT_BEGIN
 90
        0
 91
        1
 62
     0
 92
       -2
340
0
 93
        0
 40
0.045
309
GRIDFORMAT_END
 95
       16
302
GRIDFORMAT
  1
GRIDFORMAT_BEGIN
 90
        0
 91
        1
 62
     0
 92
       -2
340
0
 93
        0
 40
0.045
309
GRIDFORMAT_END
 95
       32
302
GRIDFORMAT
  1
GRIDFORMAT_BEGIN
 90
        0
 91
        1
 62
     0
 92
       -2
340
0
 93
        0
 40
0.045
309
GRIDFORMAT_END
309
TABLEFORMAT_END
  1
CELLSTYLE_BEGIN
 90
        1
 91
        1
300
_TITLE
309
CELLSTYLE_END
300
CELLSTYLE
  1
TABLEFORMAT_BEGIN
 90
        5
170
     1
 91
        0
 92
        0
 62
   257
 93
        1
300
CONTENTFORMAT
  1
CONTENTFORMAT_BEGIN
 90
        0
 91
        0
 92
        4
 93
        0
300

 40
0.0
140
1.0
 94
        5
 62
     0
340
11
144
4.5
309
CONTENTFORMAT_END
171
     1
301
MARGIN
  1
CELLMARGIN_BEGIN
 40
1.5
 40
1.5
 40
1.5
 40
1.5
 40
0.18
 40
0.18
309
CELLMARGIN_END
 94
        6
 95
        1
302
GRIDFORMAT
  1
GRIDFORMAT_BEGIN
 90
        0
 91
        1
 62
     0
 92
       -2
340
0
 93
        0
 40
0.045
309
GRIDFORMAT_END
 95
        2
302
GRIDFORMAT
  1
GRIDFORMAT_BEGIN
 90
        0
 91
        1
 62
     0
 92
       -2
340
0
 93
        0
 40
0.045
309
GRIDFORMAT_END
 95
        4
302
GRIDFORMAT
  1
GRIDFORMAT_BEGIN
 90
        0
 91
        1
 62
     0
 92
       -2
340
0
 93
        0
 40
0.045
309
GRIDFORMAT_END
 95
        8
302
GRIDFORMAT
  1
GRIDFORMAT_BEGIN
 90
        0
 91
        1
 62
     0
 92
       -2
340
0
 93
        0
 40
0.045
309
GRIDFORMAT_END
 95
       16
302
GRIDFORMAT
  1
GRIDFORMAT_BEGIN
 90
        0
 91
        1
 62
     0
 92
       -2
340
0
 93
        0
 40
0.045
309
GRIDFORMAT_END
 95
       32
302
GRIDFORMAT
  1
GRIDFORMAT_BEGIN
 90
        0
 91
        1
 62
     0
 92
       -2
340
0
 93
        0
 40
0.045
309
GRIDFORMAT_END
309
TABLEFORMAT_END
  1
CELLSTYLE_BEGIN
 90
        2
 91
        1
300
_HEADER
309
CELLSTYLE_END
300
CELLSTYLE
  1
TABLEFORMAT_BEGIN
 90
        5
170
     1
 91
        0
 92
        0
 62
   257
 93
        1
300
CONTENTFORMAT
  1
CONTENTFORMAT_BEGIN
 90
        0
 91
        0
 92
        4
 93
        0
300

 40
0.0
140
1.0
 94
        2
 62
     0
340
11
144
4.5
309
CONTENTFORMAT_END
171
     1
301
MARGIN
  1
CELLMARGIN_BEGIN
 40
1.5
 40
1.5
 40
1.5
 40
1.5
 40
0.18
 40
0.18
309
CELLMARGIN_END
 94
        6
 95
        1
302
GRIDFORMAT
  1
GRIDFORMAT_BEGIN
 90
        0
 91
        1
 62
     0
 92
       -2
340
0
 93
        0
 40
0.045
309
GRIDFORMAT_END
 95
        2
302
GRIDFORMAT
  1
GRIDFORMAT_BEGIN
 90
        0
 91
        1
 62
     0
 92
       -2
340
0
 93
        0
 40
0.045
309
GRIDFORMAT_END
 95
        4
302
GRIDFORMAT
  1
GRIDFORMAT_BEGIN
 90
        0
 91
        1
 62
     0
 92
       -2
340
0
 93
        0
 40
0.045
309
GRIDFORMAT_END
 95
        8
302
GRIDFORMAT
  1
GRIDFORMAT_BEGIN
 90
        0
 91
        1
 62
     0
 92
       -2
340
0
 93
        0
 40
0.045
309
GRIDFORMAT_END
 95
       16
302
GRIDFORMAT
  1
GRIDFORMAT_BEGIN
 90
        0
 91
        1
 62
     0
 92
       -2
340
0
 93
        0
 40
0.045
309
GRIDFORMAT_END
 95
       32
302
GRIDFORMAT
  1
GRIDFORMAT_BEGIN
 90
        0
 91
        1
 62
     0
 92
       -2
340
0
 93
        0
 40
0.045
309
GRIDFORMAT_END
309
TABLEFORMAT_END
  1
CELLSTYLE_BEGIN
 90
        3
 91
        2
300
_DATA
309
CELLSTYLE_END
  0
ENDSEC
  0
SECTION
  2
ACDSDATA
 70
     2
 71
     8
  0
ACDSSCHEMA
 90
        0
  1
AcDb_Thumbnail_Schema
  2
AcDbDs::ID
280
    10
 91
        8
  2
Thumbnail_Data
280
    15
 91
        0
101
ACDSRECORD
 95
        0
 90
        1
  2
AcDbDs::TreatedAsObjectData
280
     1
291
     1
101
ACDSRECORD
 95
        0
 90
        2
  2
AcDbDs::Legacy
280
     1
291
     1
101
ACDSRECORD
  1
AcDbDs::ID
 90
        3
  2
AcDs:Indexable
280
     1
291
     1
101
ACDSRECORD
  1
AcDbDs::ID
 90
        4
  2
AcDbDs::HandleAttribute
280
     7
282
     1
  0
ACDSSCHEMA
 90
        1
  1
AcDbDs::TreatedAsObjectDataSchema
  2
AcDbDs::TreatedAsObjectData
280
     1
 91
        0
  0
ACDSSCHEMA
 90
        2
  1
AcDbDs::LegacySchema
  2
AcDbDs::Legacy
280
     1
 91
        0
  0
ACDSSCHEMA
 90
        3
  1
AcDbDs::IndexedPropertySchema
  2
AcDs:Indexable
280
     1
 91
        0
  0
ACDSSCHEMA
 90
        4
  1
AcDbDs::HandleAttributeSchema
  2
AcDbDs::HandleAttribute
280
     7
 91
        1
284
     1
  0
ACDSRECORD
 90
        0
  2
AcDbDs::ID
280
    10
320
22
  2
Thumbnail_Data
280
    15
 94
     2138
310
89504E470D0A1A0A0000000D494844520000010000000085080300000083A6D68B00000300504C5445212830FFFFFF2128300000000000000000000000000000000000000000000000000000330000660000990000CC0000FF0033000033330033660033990033CC0033FF0066000066330066660066990066CC0066FF0099
310
000099330099660099990099CC0099FF00CC0000CC3300CC6600CC9900CCCC00CCFF00FF0000FF3300FF6600FF9900FFCC00FFFF3300003300333300663300993300CC3300FF3333003333333333663333993333CC3333FF3366003366333366663366993366CC3366FF3399003399333399663399993399CC3399FF33CC00
310
33CC3333CC6633CC9933CCCC33CCFF33FF0033FF3333FF6633FF9933FFCC33FFFF6600006600336600666600996600CC6600FF6633006633336633666633996633CC6633FF6666006666336666666666996666CC6666FF6699006699336699666699996699CC6699FF66CC0066CC3366CC6666CC9966CCCC66CCFF66FF0066
310
FF3366FF6666FF9966FFCC66FFFF9900009900339900669900999900CC9900FF9933009933339933669933999933CC9933FF9966009966339966669966999966CC9966FF9999009999339999669999999999CC9999FF99CC0099CC3399CC6699CC9999CCCC99CCFF99FF0099FF3399FF6699FF9999FFCC99FFFFCC0000CC00
310
33CC0066CC0099CC00CCCC00FFCC3300CC3333CC3366CC3399CC33CCCC33FFCC6600CC6633CC6666CC6699CC66CCCC66FFCC9900CC9933CC9966CC9999CC99CCCC99FFCCCC00CCCC33CCCC66CCCC99CCCCCCCCCCFFCCFF00CCFF33CCFF66CCFF99CCFFCCCCFFFFFF0000FF0033FF0066FF0099FF00CCFF00FFFF3300FF3333
310
FF3366FF3399FF33CCFF33FFFF6600FF6633FF6666FF6699FF66CCFF66FFFF9900FF9933FF9966FF9999FF99CCFF99FFFFCC00FFCC33FFCC66FFCC99FFCCCCFFCCFFFFFF00FFFF33FFFF66FFFF99FFFFCCFFFFFF0000000D0D0D1A1A1A2828283535354343435050505D5D5D6B6B6B787878868686939393A1A1A1AEAEAEBB
310
BBBBC9C9C9D6D6D6E4E4E4F1F1F1FFFFFF0000000000000000000000000000000000000000000000000000000000002E4550F1000005154944415478DAED9DD7B6E32A0C40F5FFFFBBDFE7DE9924148B5E8C319EB5E6A4B8C04608212422F2DF81941CFC7F645E86761691B3C07ACCF7BFEF5B920FAB3B08D4334CE0DF97C3
310
01FCAD345F12A3006815358F2654AD74794C2D4A8EF8A5030010FF2C281D644B405EAD6914E3C66BC3378AF40F326F552701F701204B43E43D8F52A16B21C090FA87656053005C5F3113803C0300C3BAC07400D41D2D656250EBCDED02F5464648A2D600A0B636E301C8861200014DC1F0A2AF00000A9A7B43009454779405
310
731F00A7EBF33000B402F007C98B22644CFDBBDFC7FC2D99A490EEF4F41F014702C0F303D5583E5038DB5C623A8C52DA3885C89721A5C08A00C4B8FC82EEA25CA34763C390F6EF0A405226FFF5CB64539A0B289A50DE0120F37E06426655DCBED5BBBCF301FC20140C115D7C5F2B01287D30030A7A3B80558EEE003EAB03E6
310
D510C15D1CC0674A6B5EED0940F75BB812F07DB3298009EB164B03C8FDF000185B83364DBB03005E0E403812D04060EACAD0D8E1A1CEE2A0AF00E48B85F41F1F990A80562CFD2DA42AA2BD75473E97A6D5B37E0446E880BCE7F4E902CD4AA54B909417B6A416874E127BA9316DB5A14703E8F7F323D8F26653C5F3AF3B0110
310
5DC2C36B679ABB4052C3CE1D06C98D160CADF93E1A000975EFB62F8A4FB77C1824D20F6703482EE60474202D5D200680B900905200A215915E0F45B243D1FB01200540FF8A6AD39DB84F607617206AF6ABF2EDB652B125485A274D55828951409100B717142BC154E0FFE4D9601C806F1E613739754A3067D971B21D402600
310
BE3DC61E0BB60040E433278FC76D7C93D0D3C1F268AC4DDBC208DAC4E03A005E2D958AC9DB7A00C49BE9046768CA94A826886E3D00FF927BAC4ECF3535CA6FE9BD0018134C9C34264320E417D80580585638CA1C58E9E99B0130F9904E62E8F78DA2E97A00C04A8CD43AD84C00DFF8763E969D1D00A52B7A7A01E0A35F1700
310
F053F45EDF0F9B4A9D00F843CEBCD960C3D24F3D80214B4D5D3CD3579F8C6DFDF50290BC08B907C0A7EFE33ABF887ACD1AB309161A058C418435C98D06426E0AC01ADF12211B1B02B0877E49C7C7EF09C08C49264CEE5D004CBC7C226C655B00D6CE1DD17EB02F00D7CF15B584B605E0A5F6046DE141255D0C80E8D6D08B00
310
48703AF81600EAC631AF0220CAA4A807006B9F28D5153F653A9C793FD52B585B523738E8E78A581AC06566D8178073F7350188124755171F66A7A188E60999EC11CABE9F7B7A3D808A68C4DB95A0ED30E08DA380321CBE1280B35AF44E00AEAA468614756900F27A0072001C0007C001F03E007AC8EC6B00C04000F0000908
310
C488D0E5D6024FE80223013C4109AA6152ED00D405E8354781211210893F9A03A02073D4AF700F0081F88B751226AEEE10D535505BD464B6C20C0009A794E304C3DF739226A90BC6DF4CF4092693F8103FAECD3E016915819B0D219269E25E04236ED51B00403A6B718204901653D495E25600D19D99A6768114804B8EA0FD
310
AB184D12803C02C0D5FEB163892B0164C45FCD012015006CF55F2D01F170D8952CC1F81CA02AB6174945CA2C0540DB1C1A579D55644F77FFD1A08912E02FE2D6E4CFF7FFD9A88112102C3FBFD1AC7807852703705786A06E0F8D457400906109EAE79B9F81ABDB47679951203919D2CFB4D30AEA0044C204D64B99219838C9
310
223B294D5E1720AB1F8D7AFAFD0028D1681B02C808237D080096DC5171790958727BDD0360D3671D0007C00130B550C6B03579FD6F02608DEAFCFEBD1540F857153602B086DDB7AF623A000E8003E00038005606F0076C3698466CA6C4DF0000000049454E44AE426082
  0
ENDSEC
  0
EOF
