  0
SECTION
  2
HEADER
  9
$ACADVER
  1
AC1032
  9
$ACADMAINTVER
 90
        4
  9
$DWGCODEPAGE
  3
ANSI_1252
  9
$LASTSAVEDBY
  1
Siqi
  9
$REQUIREDVERSIONS
160
                 0
  9
$INSBASE
 10
0.0
 20
0.0
 30
0.0
  9
$EXTMIN
 10
19321.53501749461
 20
-19376.89403212842
 30
0.0
  9
$EXTMAX
 10
52193.91858012872
 20
4305.354825354058
 30
0.0
  9
$LIMMIN
 10
0.0
 20
0.0
  9
$LIMMAX
 10
420.0
 20
297.0
  9
$ORTHOMODE
 70
     0
  9
$REGENMODE
 70
     1
  9
$FILLMODE
 70
     1
  9
$QTEXTMODE
 70
     0
  9
$MIRRTEXT
 70
     0
  9
$LTSCALE
 40
0.5
  9
$ATTMODE
 70
     1
  9
$TEXTSIZE
 40
2.5
  9
$TRACEWID
 40
1.0
  9
$TEXTSTYLE
  7
Standard
  9
$CLAYER
  8
base
  9
$CELTYPE
  6
ByLayer
  9
$CECOLOR
 62
   256
  9
$CELTSCALE
 40
1.0
  9
$DISPSILH
 70
     0
  9
$DIMSCALE
 40
1.0
  9
$DIMASZ
 40
5.0
  9
$DIMEXO
 40
5.0
  9
$DIMDLI
 40
5.0
  9
$DIMRND
 40
0.0
  9
$DIMDLE
 40
0.0
  9
$DIMEXE
 40
1.25
  9
$DIMTP
 40
0.0
  9
$DIMTM
 40
0.0
  9
$DIMTXT
 40
15.0
  9
$DIMCEN
 40
0.0
  9
$DIMTSZ
 40
0.0
  9
$DIMTOL
 70
     0
  9
$DIMLIM
 70
     0
  9
$DIMTIH
 70
     0
  9
$DIMTOH
 70
     0
  9
$DIMSE1
 70
     0
  9
$DIMSE2
 70
     0
  9
$DIMTAD
 70
     1
  9
$DIMZIN
 70
     8
  9
$DIMBLK
  1

  9
$DIMASO
 70
     1
  9
$DIMSHO
 70
     1
  9
$DIMPOST
  1

  9
$DIMAPOST
  1

  9
$DIMALT
 70
     0
  9
$DIMALTD
 70
     3
  9
$DIMALTF
 40
0.03937007874016
  9
$DIMLFAC
 40
1.0
  9
$DIMTOFL
 70
     1
  9
$DIMTVP
 40
0.0
  9
$DIMTIX
 70
     0
  9
$DIMSOXD
 70
     0
  9
$DIMSAH
 70
     0
  9
$DIMBLK1
  1

  9
$DIMBLK2
  1

  9
$DIMSTYLE
  2
ISO-25
  9
$DIMCLRD
 70
     0
  9
$DIMCLRE
 70
     0
  9
$DIMCLRT
 70
     0
  9
$DIMTFAC
 40
1.0
  9
$DIMGAP
 40
5.0
  9
$DIMJUST
 70
     0
  9
$DIMSD1
 70
     0
  9
$DIMSD2
 70
     0
  9
$DIMTOLJ
 70
     0
  9
$DIMTZIN
 70
     8
  9
$DIMALTZ
 70
     0
  9
$DIMALTTZ
 70
     0
  9
$DIMUPT
 70
     0
  9
$DIMDEC
 70
     2
  9
$DIMTDEC
 70
     2
  9
$DIMALTU
 70
     2
  9
$DIMALTTD
 70
     3
  9
$DIMTXSTY
  7
Standard
  9
$DIMAUNIT
 70
     0
  9
$DIMADEC
 70
     1
  9
$DIMALTRND
 40
0.0
  9
$DIMAZIN
 70
     0
  9
$DIMDSEP
 70
    44
  9
$DIMATFIT
 70
     3
  9
$DIMFRAC
 70
     0
  9
$DIMLDRBLK
  1

  9
$DIMLUNIT
 70
     2
  9
$DIMLWD
 70
    -2
  9
$DIMLWE
 70
    -2
  9
$DIMTMOVE
 70
     0
  9
$DIMFXL
 40
1.0
  9
$DIMFXLON
 70
     0
  9
$DIMJOGANG
 40
0.7853981633974483
  9
$DIMTFILL
 70
     0
  9
$DIMTFILLCLR
 70
     0
  9
$DIMARCSYM
 70
     0
  9
$DIMLTYPE
  6

  9
$DIMLTEX1
  6

  9
$DIMLTEX2
  6

  9
$DIMTXTDIRECTION
 70
     0
  9
$LUNITS
 70
     2
  9
$LUPREC
 70
     4
  9
$SKETCHINC
 40
1.0
  9
$FILLETRAD
 40
0.0
  9
$AUNITS
 70
     0
  9
$AUPREC
 70
     0
  9
$MENU
  1
.
  9
$ELEVATION
 40
0.0
  9
$PELEVATION
 40
0.0
  9
$THICKNESS
 40
0.0
  9
$LIMCHECK
 70
     0
  9
$CHAMFERA
 40
60.0
  9
$CHAMFERB
 40
60.0
  9
$CHAMFERC
 40
0.0
  9
$CHAMFERD
 40
0.0
  9
$SKPOLY
 70
     0
  9
$TDCREATE
 40
2453649.060439815
  9
$TDUCREATE
 40
2453649.352115521
  9
$TDUPDATE
 40
2457975.512129630
  9
$TDUUPDATE
 40
2457975.803796297
  9
$TDINDWG
 40
1465.6800146181
  9
$TDUSRTIMER
 40
1465.6800099190
  9
$USRTIMER
 70
     1
  9
$ANGBASE
 50
0.0
  9
$ANGDIR
 70
     0
  9
$PDMODE
 70
     0
  9
$PDSIZE
 40
0.0
  9
$PLINEWID
 40
0.0
  9
$SPLFRAME
 70
     0
  9
$SPLINETYPE
 70
     6
  9
$SPLINESEGS
 70
     8
  9
$HANDSEED
  5
21229
  9
$SURFTAB1
 70
     6
  9
$SURFTAB2
 70
     6
  9
$SURFTYPE
 70
     6
  9
$SURFU
 70
     6
  9
$SURFV
 70
     6
  9
$UCSBASE
  2

  9
$UCSNAME
  2

  9
$UCSORG
 10
20135.92273348905
 20
3420.432723209263
 30
0.0
  9
$UCSXDIR
 10
1.0
 20
0.0
 30
0.0
  9
$UCSYDIR
 10
0.0
 20
1.0
 30
0.0
  9
$UCSORTHOREF
  2

  9
$UCSORTHOVIEW
 70
     0
  9
$UCSORGTOP
 10
0.0
 20
0.0
 30
0.0
  9
$UCSORGBOTTOM
 10
0.0
 20
0.0
 30
0.0
  9
$UCSORGLEFT
 10
0.0
 20
0.0
 30
0.0
  9
$UCSORGRIGHT
 10
0.0
 20
0.0
 30
0.0
  9
$UCSORGFRONT
 10
0.0
 20
0.0
 30
0.0
  9
$UCSORGBACK
 10
0.0
 20
0.0
 30
0.0
  9
$PUCSBASE
  2

  9
$PUCSNAME
  2

  9
$PUCSORG
 10
0.0
 20
0.0
 30
0.0
  9
$PUCSXDIR
 10
1.0
 20
0.0
 30
0.0
  9
$PUCSYDIR
 10
0.0
 20
1.0
 30
0.0
  9
$PUCSORTHOREF
  2

  9
$PUCSORTHOVIEW
 70
     0
  9
$PUCSORGTOP
 10
0.0
 20
0.0
 30
0.0
  9
$PUCSORGBOTTOM
 10
0.0
 20
0.0
 30
0.0
  9
$PUCSORGLEFT
 10
0.0
 20
0.0
 30
0.0
  9
$PUCSORGRIGHT
 10
0.0
 20
0.0
 30
0.0
  9
$PUCSORGFRONT
 10
0.0
 20
0.0
 30
0.0
  9
$PUCSORGBACK
 10
0.0
 20
0.0
 30
0.0
  9
$USERI1
 70
     0
  9
$USERI2
 70
     0
  9
$USERI3
 70
     0
  9
$USERI4
 70
     0
  9
$USERI5
 70
     0
  9
$USERR1
 40
0.0
  9
$USERR2
 40
0.0
  9
$USERR3
 40
0.0
  9
$USERR4
 40
0.0
  9
$USERR5
 40
2.5
  9
$WORLDVIEW
 70
     1
  9
$SHADEDGE
 70
     3
  9
$SHADEDIF
 70
    70
  9
$TILEMODE
 70
     1
  9
$MAXACTVP
 70
    64
  9
$PINSBASE
 10
0.0
 20
0.0
 30
0.0
  9
$PLIMCHECK
 70
     0
  9
$PEXTMIN
 10
0.0
 20
0.0
 30
0.0
  9
$PEXTMAX
 10
0.0
 20
0.0
 30
0.0
  9
$PLIMMIN
 10
0.0
 20
0.0
  9
$PLIMMAX
 10
12.0
 20
9.0
  9
$UNITMODE
 70
     0
  9
$VISRETAIN
 70
     1
  9
$PLINEGEN
 70
     0
  9
$PSLTSCALE
 70
     1
  9
$TREEDEPTH
 70
  3020
  9
$CMLSTYLE
  2
Standard
  9
$CMLJUST
 70
     0
  9
$CMLSCALE
 40
20.0
  9
$PROXYGRAPHICS
 70
     1
  9
$MEASUREMENT
 70
     1
  9
$CELWEIGHT
370
    -1
  9
$ENDCAPS
280
     0
  9
$JOINSTYLE
280
     0
  9
$LWDISPLAY
290
     0
  9
$INSUNITS
 70
     4
  9
$HYPERLINKBASE
  1

  9
$STYLESHEET
  1

  9
$XEDIT
290
     1
  9
$CEPSNTYPE
380
     0
  9
$PSTYLEMODE
290
     1
  9
$FINGERPRINTGUID
  2
{FDEAD578-A652-11D2-9A35-0060089B3A3F}
  9
$VERSIONGUID
  2
{619D032D-99E8-5042-B2E9-18F2C2E3DEBF}
  9
$EXTNAMES
290
     1
  9
$PSVPSCALE
 40
0.0
  9
$OLESTARTUP
290
     0
  9
$SORTENTS
280
   127
  9
$INDEXCTL
280
     0
  9
$HIDETEXT
280
     1
  9
$XCLIPFRAME
280
     0
  9
$HALOGAP
280
     0
  9
$OBSCOLOR
 70
   257
  9
$OBSLTYPE
280
     0
  9
$INTERSECTIONDISPLAY
280
     0
  9
$INTERSECTIONCOLOR
 70
   257
  9
$DIMASSOC
280
     2
  9
$PROJECTNAME
  1

  9
$CAMERADISPLAY
290
     0
  9
$LENSLENGTH
 40
50.0
  9
$CAMERAHEIGHT
 40
0.0
  9
$STEPSPERSEC
 40
2.0
  9
$STEPSIZE
 40
6.0
  9
$3DDWFPREC
 40
2.0
  9
$PSOLWIDTH
 40
0.25
  9
$PSOLHEIGHT
 40
4.0
  9
$LOFTANG1
 40
1.570796326794896
  9
$LOFTANG2
 40
1.570796326794896
  9
$LOFTMAG1
 40
0.0
  9
$LOFTMAG2
 40
0.0
  9
$LOFTPARAM
 70
     7
  9
$LOFTNORMALS
280
     1
  9
$LATITUDE
 40
37.795
  9
$LONGITUDE
 40
-122.394
  9
$NORTHDIRECTION
 40
0.0
  9
$TIMEZONE
 70
 -8000
  9
$LIGHTGLYPHDISPLAY
280
     1
  9
$TILEMODELIGHTSYNCH
280
     1
  9
$CMATERIAL
347
20EA8
  9
$SOLIDHIST
280
     1
  9
$SHOWHIST
280
     1
  9
$DWFFRAME
280
     2
  9
$DGNFRAME
280
     0
  9
$REALWORLDSCALE
290
     1
  9
$INTERFERECOLOR
 62
     1
  9
$INTERFEREOBJVS
345
20EB5
  9
$INTERFEREVPVS
346
20F7B
  9
$CSHADOW
280
     0
  9
$SHADOWPLANELOCATION
 40
0.0
  0
ENDSEC
  0
SECTION
  2
CLASSES
  0
CLASS
  1
ACDBDICTIONARYWDFLT
  2
AcDbDictionaryWithDefault
  3
ObjectDBX Classes
 90
        0
 91
        1
280
     0
281
     0
  0
CLASS
  1
ACDBPLACEHOLDER
  2
AcDbPlaceHolder
  3
ObjectDBX Classes
 90
        0
 91
        1
280
     0
281
     0
  0
CLASS
  1
LAYOUT
  2
AcDbLayout
  3
ObjectDBX Classes
 90
        0
 91
        3
280
     0
281
     0
  0
CLASS
  1
DICTIONARYVAR
  2
AcDbDictionaryVar
  3
ObjectDBX Classes
 90
        0
 91
       12
280
     0
281
     0
  0
CLASS
  1
DIMASSOC
  2
AcDbDimAssoc
  3
"AcDbDimAssoc|Product Desc:     AcDim ARX App For Dimension|Company:          Autodesk, Inc.|WEB Address:      www.autodesk.com"
 90
        0
 91
       18
280
     0
281
     0
  0
CLASS
  1
MATERIAL
  2
AcDbMaterial
  3
ObjectDBX Classes
 90
     1153
 91
        3
280
     0
281
     0
  0
CLASS
  1
VISUALSTYLE
  2
AcDbVisualStyle
  3
ObjectDBX Classes
 90
     4095
 91
       26
280
     0
281
     0
  0
CLASS
  1
TABLESTYLE
  2
AcDbTableStyle
  3
ObjectDBX Classes
 90
     4095
 91
        1
280
     0
281
     0
  0
CLASS
  1
VLO-VL
  2
vlo_VL
  3
VL|AutoLISP based application
 90
      129
 91
        3
280
     0
281
     0
  0
CLASS
  1
SCALE
  2
AcDbScale
  3
ObjectDBX Classes
 90
     1153
 91
       17
280
     0
281
     0
  0
CLASS
  1
MLEADERSTYLE
  2
AcDbMLeaderStyle
  3
ACDB_MLEADERSTYLE_CLASS
 90
     4095
 91
        1
280
     0
281
     0
  0
CLASS
  1
ACDBSECTIONVIEWSTYLE
  2
AcDbSectionViewStyle
  3
ObjectDBX Classes
 90
     1025
 91
        1
280
     0
281
     0
  0
CLASS
  1
ACDBDETAILVIEWSTYLE
  2
AcDbDetailViewStyle
  3
ObjectDBX Classes
 90
     1025
 91
        1
280
     0
281
     0
  0
CLASS
  1
CELLSTYLEMAP
  2
AcDbCellStyleMap
  3
ObjectDBX Classes
 90
     1152
 91
        1
280
     0
281
     0
  0
ENDSEC
  0
SECTION
  2
TABLES
  0
TABLE
  2
VPORT
  5
8
330
0
100
AcDbSymbolTable
 70
     1
  0
VPORT
  5
20EA6
330
8
100
AcDbSymbolTableRecord
100
AcDbViewportTableRecord
  2
*Active
 70
     0
 10
0.0
 20
0.0
 11
1.0
 21
1.0
 12
24753.40018067513
 22
-5559.183003946401
 13
0.0
 23
0.0
 14
10.0
 24
10.0
 15
10.0
 25
10.0
 16
0.0
 26
0.0
 36
1.0
 17
0.0
 27
0.0
 37
0.0
 40
1892.373669623916
 41
1.913595933926302
 42
50.0
 43
0.0
 44
0.0
 50
0.0
 51
0.0
 71
     0
 72
  1000
 73
     1
 74
     3
 75
     0
 76
     0
 77
     0
 78
     0
281
     0
 65
     1
110
20135.92273348905
120
3420.432723209263
130
0.0
111
1.0
121
0.0
131
0.0
112
0.0
122
1.0
132
0.0
 79
     0
146
0.0
348
20EB1
 60
     3
 61
     5
292
     1
282
     1
141
0.0
142
0.0
 63
   250
421
  3355443
1001
ACAD_NAV_VCDISPLAY
1070
     3
  0
ENDTAB
  0
TABLE
  2
LTYPE
  5
5
330
0
100
AcDbSymbolTable
 70
     3
  0
LTYPE
  5
14
330
5
100
AcDbSymbolTableRecord
100
AcDbLinetypeTableRecord
  2
ByBlock
 70
     0
  3

 72
    65
 73
     0
 40
0.0
  0
LTYPE
  5
15
330
5
100
AcDbSymbolTableRecord
100
AcDbLinetypeTableRecord
  2
ByLayer
 70
     0
  3

 72
    65
 73
     0
 40
0.0
  0
LTYPE
  5
16
330
5
100
AcDbSymbolTableRecord
100
AcDbLinetypeTableRecord
  2
Continuous
 70
     0
  3
Solid line
 72
    65
 73
     0
 40
0.0
  0
LTYPE
  5
2E41
330
5
100
AcDbSymbolTableRecord
100
AcDbLinetypeTableRecord
  2
CENTER
 70
     0
  3
Center ____ _ ____ _ ____ _ ____ _ ____ _ ____
 72
    65
 73
     4
 40
50.8
 49
31.75
 74
     0
 49
-6.349999999999999
 74
     0
 49
6.349999999999999
 74
     0
 49
-6.349999999999999
 74
     0
  0
ENDTAB
  0
TABLE
  2
LAYER
  5
2
102
{ACAD_XDICTIONARY
360
210AD
102
}
330
0
100
AcDbSymbolTable
 70
     6
  0
LAYER
  5
10
102
{ACAD_XDICTIONARY
360
20FB2
102
}
330
2
100
AcDbSymbolTableRecord
100
AcDbLayerTableRecord
  2
0
 70
     0
 62
     7
  6
Continuous
370
    25
390
F
347
20EAA
348
0
  0
LAYER
  5
84
102
{ACAD_XDICTIONARY
360
20FB4
102
}
330
2
100
AcDbSymbolTableRecord
100
AcDbLayerTableRecord
  2
base
 70
     0
 62
     4
  6
Continuous
370
    40
390
F
347
20EAA
348
0
  0
LAYER
  5
1DA
330
2
100
AcDbSymbolTableRecord
100
AcDbLayerTableRecord
  2
Defpoints
 70
     0
 62
     7
  6
Continuous
290
     0
370
    -3
390
F
347
20EAA
348
0
  0
LAYER
  5
2D93
102
{ACAD_XDICTIONARY
360
20FB6
102
}
330
2
100
AcDbSymbolTableRecord
100
AcDbLayerTableRecord
  2
DIM
 70
     0
 62
     7
  6
Continuous
370
    13
390
F
347
20EAA
348
0
  0
LAYER
  5
3309
102
{ACAD_XDICTIONARY
360
20FB8
102
}
330
2
100
AcDbSymbolTableRecord
100
AcDbLayerTableRecord
  2
6dim
 70
     0
 62
     7
  6
Continuous
370
    13
390
F
347
20EAA
348
0
  0
LAYER
  5
57C0
102
{ACAD_XDICTIONARY
360
20FBA
102
}
330
2
100
AcDbSymbolTableRecord
100
AcDbLayerTableRecord
  2
DEFAULT
 70
     0
 62
     7
  6
Continuous
370
    -3
390
F
347
20EAA
348
0
  0
ENDTAB
  0
TABLE
  2
STYLE
  5
3
330
0
100
AcDbSymbolTable
 70
     2
  0
STYLE
  5
11
330
3
100
AcDbSymbolTableRecord
100
AcDbTextStyleTableRecord
  2
Standard
 70
     0
 40
0.0
 41
1.0
 50
0.0
 71
     0
 42
2.5
  3
txt
  4

  0
STYLE
  5
57C1
330
3
100
AcDbSymbolTableRecord
100
AcDbTextStyleTableRecord
  2
arial_ttf
 70
     0
 40
0.0
 41
1.0
 50
0.0
 71
     0
 42
0.2
  3
arial.ttf
  4

1001
ACAD
1000
Arial
1071
    34306
  0
ENDTAB
  0
TABLE
  2
VIEW
  5
6
330
0
100
AcDbSymbolTable
 70
     3
  0
ENDTAB
  0
TABLE
  2
UCS
  5
7
330
0
100
AcDbSymbolTable
 70
     0
  0
ENDTAB
  0
TABLE
  2
APPID
  5
9
330
0
100
AcDbSymbolTable
 70
     6
  0
APPID
  5
12
330
9
100
AcDbSymbolTableRecord
100
AcDbRegAppTableRecord
  2
ACAD
 70
     0
  0
APPID
  5
1CC5B
330
9
100
AcDbSymbolTableRecord
100
AcDbRegAppTableRecord
  2
DCO15
 70
     0
  0
APPID
  5
20FA2
330
9
100
AcDbSymbolTableRecord
100
AcDbRegAppTableRecord
  2
AcadStringInfo
 70
     0
  0
APPID
  5
20FA5
330
9
100
AcDbSymbolTableRecord
100
AcDbRegAppTableRecord
  2
AcadAnnoMonitorAlertIconDisabled
 70
     0
  0
APPID
  5
20FA6
330
9
100
AcDbSymbolTableRecord
100
AcDbRegAppTableRecord
  2
ACAD_EXEMPT_FROM_CAD_STANDARDS
 70
     0
  0
APPID
  5
20FBC
330
9
100
AcDbSymbolTableRecord
100
AcDbRegAppTableRecord
  2
ACAD_NAV_VCDISPLAY
 70
     0
  0
ENDTAB
  0
TABLE
  2
DIMSTYLE
  5
A
330
0
100
AcDbSymbolTable
 70
     1
100
AcDbDimStyleTable
 71
     1
340
27
  0
DIMSTYLE
105
27
102
{ACAD_REACTORS
330
14696
330
1468A
330
14687
330
14684
330
14681
330
14655
330
145F4
330
145F1
330
145EE
330
145EB
330
145E8
330
1477F
330
147D6
330
14AF2
330
20ECA
330
20EEC
330
20F28
330
14652
102
}
330
A
100
AcDbSymbolTableRecord
100
AcDbDimStyleTableRecord
  2
ISO-25
 70
     0
 41
2.0
 42
1.0
 43
3.75
 44
1.25
 73
     0
 74
     0
 77
     1
 78
     8
140
3.0
141
2.5
143
0.03937007874016
147
5.0
171
     3
172
     1
271
     2
272
     2
274
     3
278
    44
283
     0
284
     8
340
11
  0
ENDTAB
  0
TABLE
  2
BLOCK_RECORD
  5
1
330
0
100
AcDbSymbolTable
 70
    22
  0
BLOCK_RECORD
  5
1F
330
1
100
AcDbSymbolTableRecord
100
AcDbBlockTableRecord
  2
*Model_Space
340
22
 70
     0
280
     1
281
     0
  0
BLOCK_RECORD
  5
50
330
1
100
AcDbSymbolTableRecord
100
AcDbBlockTableRecord
  2
*Paper_Space
340
51
 70
     0
280
     1
281
     0
  0
BLOCK_RECORD
  5
55
330
1
100
AcDbSymbolTableRecord
100
AcDbBlockTableRecord
  2
*Paper_Space0
340
56
 70
     0
280
     1
281
     0
  0
BLOCK_RECORD
  5
577C
330
1
100
AcDbSymbolTableRecord
100
AcDbBlockTableRecord
  2
SE13
340
0
102
{BLKREFS
331
CCEE
331
133E5
331
13B26
331
13C20
331
13F54
331
1418A
331
14641
331
14853
331
14BD9
331
158D7
331
15E0A
331
16214
331
163EE
331
16509
331
16578
331
16799
331
16859
331
16989
331
1C614
331
1C913
331
1CFE6
331
1D508
331
20212
331
2078E
102
}
 70
     0
280
     1
281
     0
  0
BLOCK_RECORD
  5
14699
330
1
100
AcDbSymbolTableRecord
100
AcDbBlockTableRecord
  2
*D2
340
0
 70
     0
280
     1
281
     0
  0
BLOCK_RECORD
  5
146B1
330
1
100
AcDbSymbolTableRecord
100
AcDbBlockTableRecord
  2
*D3
340
0
 70
     0
280
     1
281
     0
  0
BLOCK_RECORD
  5
146B9
330
1
100
AcDbSymbolTableRecord
100
AcDbBlockTableRecord
  2
*D4
340
0
 70
     0
280
     1
281
     0
  0
BLOCK_RECORD
  5
146C5
330
1
100
AcDbSymbolTableRecord
100
AcDbBlockTableRecord
  2
*D5
340
0
 70
     0
280
     1
281
     0
  0
BLOCK_RECORD
  5
146D1
330
1
100
AcDbSymbolTableRecord
100
AcDbBlockTableRecord
  2
*D6
340
0
 70
     0
280
     1
281
     0
  0
BLOCK_RECORD
  5
146DD
330
1
100
AcDbSymbolTableRecord
100
AcDbBlockTableRecord
  2
*D7
340
0
 70
     0
280
     1
281
     0
  0
BLOCK_RECORD
  5
146E9
330
1
100
AcDbSymbolTableRecord
100
AcDbBlockTableRecord
  2
*D8
340
0
 70
     0
280
     1
281
     0
  0
BLOCK_RECORD
  5
146F1
330
1
100
AcDbSymbolTableRecord
100
AcDbBlockTableRecord
  2
*D9
340
0
 70
     0
280
     1
281
     0
  0
BLOCK_RECORD
  5
146FD
330
1
100
AcDbSymbolTableRecord
100
AcDbBlockTableRecord
  2
*D10
340
0
 70
     0
280
     1
281
     0
  0
BLOCK_RECORD
  5
14709
330
1
100
AcDbSymbolTableRecord
100
AcDbBlockTableRecord
  2
*D11
340
0
 70
     0
280
     1
281
     0
  0
BLOCK_RECORD
  5
14715
330
1
100
AcDbSymbolTableRecord
100
AcDbBlockTableRecord
  2
*D12
340
0
 70
     0
280
     1
281
     0
  0
BLOCK_RECORD
  5
14723
330
1
100
AcDbSymbolTableRecord
100
AcDbBlockTableRecord
  2
*D13
340
0
 70
     0
280
     1
281
     0
  0
BLOCK_RECORD
  5
14780
330
1
100
AcDbSymbolTableRecord
100
AcDbBlockTableRecord
  2
*D14
340
0
 70
     0
280
     1
281
     0
  0
BLOCK_RECORD
  5
147D7
330
1
100
AcDbSymbolTableRecord
100
AcDbBlockTableRecord
  2
*D15
340
0
 70
     0
280
     1
281
     0
  0
BLOCK_RECORD
  5
14AF3
330
1
100
AcDbSymbolTableRecord
100
AcDbBlockTableRecord
  2
*D16
340
0
 70
     0
280
     1
281
     0
  0
BLOCK_RECORD
  5
20ECB
330
1
100
AcDbSymbolTableRecord
100
AcDbBlockTableRecord
  2
*D17
340
0
 70
     0
280
     1
281
     0
  0
BLOCK_RECORD
  5
20EED
330
1
100
AcDbSymbolTableRecord
100
AcDbBlockTableRecord
  2
*D18
340
0
 70
     0
280
     1
281
     0
  0
BLOCK_RECORD
  5
20F0F
330
1
100
AcDbSymbolTableRecord
100
AcDbBlockTableRecord
  2
*D19
340
0
 70
     0
280
     1
281
     0
  0
BLOCK_RECORD
  5
20F29
330
1
100
AcDbSymbolTableRecord
100
AcDbBlockTableRecord
  2
*D20
340
0
 70
     0
280
     1
281
     0
  0
BLOCK_RECORD
  5
20F43
330
1
100
AcDbSymbolTableRecord
100
AcDbBlockTableRecord
  2
*D21
340
0
 70
     0
280
     1
281
     0
  0
ENDTAB
  0
ENDSEC
  0
SECTION
  2
BLOCKS
  0
BLOCK
  5
20
330
1F
100
AcDbEntity
  8
0
100
AcDbBlockBegin
  2
*Model_Space
 70
     0
 10
0.0
 20
0.0
 30
0.0
  3
*Model_Space
  1

  0
ENDBLK
  5
21
330
1F
100
AcDbEntity
  8
0
100
AcDbBlockEnd
  0
BLOCK
  5
52
330
50
100
AcDbEntity
 67
     1
  8
0
100
AcDbBlockBegin
  2
*Paper_Space
 70
     0
 10
0.0
 20
0.0
 30
0.0
  3
*Paper_Space
  1

  0
ENDBLK
  5
53
330
50
100
AcDbEntity
 67
     1
  8
0
100
AcDbBlockEnd
  0
BLOCK
  5
57
330
55
100
AcDbEntity
 67
     1
  8
0
100
AcDbBlockBegin
  2
*Paper_Space0
 70
     0
 10
0.0
 20
0.0
 30
0.0
  3
*Paper_Space0
  1

  0
ENDBLK
  5
58
330
55
100
AcDbEntity
 67
     1
  8
0
100
AcDbBlockEnd
  0
BLOCK
  5
577D
330
577C
100
AcDbEntity
  8
DEFAULT
 62
     1
 48
0.0
370
     0
100
AcDbBlockBegin
  2
SE13
 70
     0
 10
0.0
 20
0.0
 30
0.0
  3
SE13
  1

  0
TEXT
  5
577E
330
577C
100
AcDbEntity
  8
0
  6
Continuous
 62
   136
370
     0
100
AcDbText
 10
531.075280003713
 20
16.1647734594651
 30
0.0
 40
3.5
  1
 
  7
arial_ttf
 11
531.075280003713
 21
19.6647734594651
 31
0.0
100
AcDbText
 73
     3
  0
ENDBLK
  5
577F
330
577C
100
AcDbEntity
  8
0
 62
   136
370
     0
100
AcDbBlockEnd
  0
BLOCK
  5
146A3
330
14699
100
AcDbEntity
  8
0
100
AcDbBlockBegin
  2
*D2
 70
     1
 10
0.0
 20
0.0
 30
0.0
  3
*D2
  1

  0
LINE
  5
21215
330
14699
100
AcDbEntity
  8
DIM
 62
     0
440
 16777216
370
    -2
100
AcDbLine
 10
24898.37334046634
 20
-6024.377456229493
 30
0.0
 11
25088.36160271078
 21
-6024.377456229493
 31
0.0
  0
LINE
  5
21216
330
14699
100
AcDbEntity
  8
DIM
 62
     0
440
 16777216
370
    -2
100
AcDbLine
 10
24898.37334046634
 20
-5563.377456229493
 30
0.0
 11
25088.36160271078
 21
-5563.377456229493
 31
0.0
  0
LINE
  5
21217
330
14699
100
AcDbEntity
  8
DIM
 62
     0
440
 16777216
370
    -2
100
AcDbLine
 10
25087.11160271078
 20
-6019.377456229493
 30
0.0
 11
25087.11160271078
 21
-5568.377456229493
 31
0.0
  0
SOLID
  5
21218
330
14699
100
AcDbEntity
  8
DIM
 62
     0
440
 16777216
100
AcDbTrace
 10
25086.27826937745
 20
-6019.377456229493
 30
0.0
 11
25087.94493604411
 21
-6019.377456229493
 31
0.0
 12
25087.11160271078
 22
-6024.377456229493
 32
0.0
 13
25087.11160271078
 23
-6024.377456229493
 33
0.0
  0
SOLID
  5
21219
330
14699
100
AcDbEntity
  8
DIM
 62
     0
440
 16777216
100
AcDbTrace
 10
25086.27826937745
 20
-5568.377456229493
 30
0.0
 11
25087.94493604411
 21
-5568.377456229493
 31
0.0
 12
25087.11160271078
 22
-5563.377456229493
 32
0.0
 13
25087.11160271078
 23
-5563.377456229493
 33
0.0
  0
MTEXT
  5
2121A
330
14699
100
AcDbEntity
  8
DIM
 62
     0
440
 16777216
100
AcDbMText
 10
25067.11160271077
 20
-5793.877456229499
 30
0.0
 40
30.0
 41
0.0
 46
0.0
 71
     5
 72
     1
  1
461{\Ftxt|c134; [18.15"]}
 11
0.0000000000000001
 21
1.0
 31
0.0
 73
     1
 44
1.0
  0
POINT
  5
2121B
330
14699
100
AcDbEntity
  8
Defpoints
 62
     0
440
 16777216
100
AcDbPoint
 10
24893.37334046634
 20
-6024.377456229493
 30
0.0
  0
POINT
  5
2121C
330
14699
100
AcDbEntity
  8
Defpoints
 62
     0
440
 16777216
100
AcDbPoint
 10
24893.37334046634
 20
-5563.377456229493
 30
0.0
  0
POINT
  5
2121D
330
14699
100
AcDbEntity
  8
Defpoints
 62
     0
440
 16777216
100
AcDbPoint
 10
25087.11160271078
 20
-5563.377456229493
 30
0.0
  0
ENDBLK
  5
146A4
330
14699
100
AcDbEntity
  8
0
100
AcDbBlockEnd
  0
BLOCK
  5
146B7
330
146B1
100
AcDbEntity
  8
0
100
AcDbBlockBegin
  2
*D3
 70
     1
 10
0.0
 20
0.0
 30
0.0
  3
*D3
  1

  0
LINE
  5
20FFF
330
146B1
100
AcDbEntity
  8
DIM
 62
     0
440
 16777216
370
    -2
100
AcDbLine
 10
25063.95013453108
 20
-5286.478503522864
 30
0.0
 11
24923.85411682005
 21
-5123.389246299987
 31
0.0
  0
MTEXT
  5
21000
330
146B1
100
AcDbEntity
  8
DIM
 62
     0
440
 16777216
100
AcDbMText
 10
25010.70224283247
 20
-5193.798073929269
 30
0.0
 40
30.0
 41
0.0
 46
0.0
 71
     5
 72
     1
  1
R3{\Ftxt|c134; [.12"]}
 11
0.6516093847024868
 21
-0.7585546847575637
 31
0.0
 73
     1
 44
1.0
  0
SOLID
  5
21001
330
146B1
100
AcDbEntity
  8
DIM
 62
     0
440
 16777216
100
AcDbTrace
 10
24924.48624572401
 20
-5122.846238479402
 30
0.0
 11
24923.22198791608
 21
-5123.932254120573
 31
0.0
 12
24920.59606989653
 22
-5119.5964728762
 32
0.0
 13
24920.59606989653
 23
-5119.5964728762
 33
0.0
  0
POINT
  5
21002
330
146B1
100
AcDbEntity
  8
Defpoints
 62
     0
440
 16777216
100
AcDbPoint
 10
24920.59606989653
 20
-5119.5964728762
 30
0.0
  0
POINT
  5
21003
330
146B1
100
AcDbEntity
  8
Defpoints
 62
     0
440
 16777216
100
AcDbPoint
 10
24923.20250743533
 20
-5122.630691615215
 30
0.0
  0
ENDBLK
  5
146B8
330
146B1
100
AcDbEntity
  8
0
100
AcDbBlockEnd
  0
BLOCK
  5
146C3
330
146B9
100
AcDbEntity
  8
0
100
AcDbBlockBegin
  2
*D4
 70
     1
 10
0.0
 20
0.0
 30
0.0
  3
*D4
  1

  0
LINE
  5
20FE7
330
146B9
100
AcDbEntity
  8
DIM
 62
     0
440
 16777216
370
    -2
100
AcDbLine
 10
24951.87334046635
 20
-5117.430691615221
 30
0.0
 11
25152.64320005309
 21
-5117.430691615221
 31
0.0
  0
LINE
  5
20FE8
330
146B9
100
AcDbEntity
  8
DIM
 62
     0
440
 16777216
370
    -2
100
AcDbLine
 10
24806.37334046634
 20
-5345.43069161522
 30
0.0
 11
25152.64320005309
 21
-5345.43069161522
 31
0.0
  0
LINE
  5
20FE9
330
146B9
100
AcDbEntity
  8
DIM
 62
     0
440
 16777216
370
    -2
100
AcDbLine
 10
25151.3932000531
 20
-5122.430691615221
 30
0.0
 11
25151.3932000531
 21
-5340.43069161522
 31
0.0
  0
SOLID
  5
20FEA
330
146B9
100
AcDbEntity
  8
DIM
 62
     0
440
 16777216
100
AcDbTrace
 10
25150.55986671976
 20
-5122.430691615221
 30
0.0
 11
25152.22653338643
 21
-5122.430691615221
 31
0.0
 12
25151.3932000531
 22
-5117.430691615221
 32
0.0
 13
25151.3932000531
 23
-5117.430691615221
 33
0.0
  0
SOLID
  5
20FEB
330
146B9
100
AcDbEntity
  8
DIM
 62
     0
440
 16777216
100
AcDbTrace
 10
25150.55986671976
 20
-5340.43069161522
 30
0.0
 11
25152.22653338643
 21
-5340.43069161522
 31
0.0
 12
25151.3932000531
 22
-5345.43069161522
 32
0.0
 13
25151.3932000531
 23
-5345.43069161522
 33
0.0
  0
MTEXT
  5
20FEC
330
146B9
100
AcDbEntity
  8
DIM
 62
     0
440
 16777216
100
AcDbMText
 10
25131.39320005309
 20
-5231.430691615212
 30
0.0
 40
30.0
 41
0.0
 46
0.0
 71
     5
 72
     1
  1
228{\Ftxt|c134; [9"]}
 11
0.0000000000000001
 21
1.0
 31
0.0
 73
     1
 44
1.0
  0
POINT
  5
20FED
330
146B9
100
AcDbEntity
  8
Defpoints
 62
     0
440
 16777216
100
AcDbPoint
 10
24946.87334046635
 20
-5117.430691615221
 30
0.0
  0
POINT
  5
20FEE
330
146B9
100
AcDbEntity
  8
Defpoints
 62
     0
440
 16777216
100
AcDbPoint
 10
24801.37334046634
 20
-5345.43069161522
 30
0.0
  0
POINT
  5
20FEF
330
146B9
100
AcDbEntity
  8
Defpoints
 62
     0
440
 16777216
100
AcDbPoint
 10
25151.3932000531
 20
-5345.43069161522
 30
0.0
  0
ENDBLK
  5
146C4
330
146B9
100
AcDbEntity
  8
0
100
AcDbBlockEnd
  0
BLOCK
  5
146CF
330
146C5
100
AcDbEntity
  8
0
100
AcDbBlockBegin
  2
*D5
 70
     1
 10
0.0
 20
0.0
 30
0.0
  3
*D5
  1

  0
LINE
  5
211F1
330
146C5
100
AcDbEntity
  8
DIM
 62
     0
440
 16777216
370
    -2
100
AcDbLine
 10
24898.17334046635
 20
-5590.877456229493
 30
0.0
 11
25021.85698330558
 21
-5590.877456229493
 31
0.0
  0
LINE
  5
211F2
330
146C5
100
AcDbEntity
  8
DIM
 62
     0
440
 16777216
370
    -2
100
AcDbLine
 10
24898.17334046635
 20
-5996.877456229487
 30
0.0
 11
25021.85698330558
 21
-5996.877456229487
 31
0.0
  0
LINE
  5
211F3
330
146C5
100
AcDbEntity
  8
DIM
 62
     0
440
 16777216
370
    -2
100
AcDbLine
 10
25020.60698330558
 20
-5595.877456229493
 30
0.0
 11
25020.60698330558
 21
-5991.877456229488
 31
0.0
  0
SOLID
  5
211F4
330
146C5
100
AcDbEntity
  8
DIM
 62
     0
440
 16777216
100
AcDbTrace
 10
25019.77364997225
 20
-5595.877456229493
 30
0.0
 11
25021.44031663891
 21
-5595.877456229493
 31
0.0
 12
25020.60698330558
 22
-5590.877456229493
 32
0.0
 13
25020.60698330558
 23
-5590.877456229493
 33
0.0
  0
SOLID
  5
211F5
330
146C5
100
AcDbEntity
  8
DIM
 62
     0
440
 16777216
100
AcDbTrace
 10
25019.77364997225
 20
-5991.877456229488
 30
0.0
 11
25021.44031663891
 21
-5991.877456229488
 31
0.0
 12
25020.60698330558
 22
-5996.877456229487
 32
0.0
 13
25020.60698330558
 23
-5996.877456229487
 33
0.0
  0
MTEXT
  5
211F6
330
146C5
100
AcDbEntity
  8
DIM
 62
     0
440
 16777216
100
AcDbMText
 10
25000.60698330557
 20
-5793.877456229497
 30
0.0
 40
30.0
 41
0.0
 46
0.0
 71
     5
 72
     1
  1
406{\Ftxt|c134; [16"]}
 11
0.0000000000000001
 21
1.0
 31
0.0
 73
     1
 44
1.0
  0
POINT
  5
211F7
330
146C5
100
AcDbEntity
  8
Defpoints
 62
     0
440
 16777216
100
AcDbPoint
 10
24893.17334046635
 20
-5590.877456229493
 30
0.0
  0
POINT
  5
211F8
330
146C5
100
AcDbEntity
  8
Defpoints
 62
     0
440
 16777216
100
AcDbPoint
 10
24893.17334046635
 20
-5996.877456229487
 30
0.0
  0
POINT
  5
211F9
330
146C5
100
AcDbEntity
  8
Defpoints
 62
     0
440
 16777216
100
AcDbPoint
 10
25020.60698330558
 20
-5996.877456229487
 30
0.0
  0
ENDBLK
  5
146D0
330
146C5
100
AcDbEntity
  8
0
100
AcDbBlockEnd
  0
BLOCK
  5
146DB
330
146D1
100
AcDbEntity
  8
0
100
AcDbBlockBegin
  2
*D6
 70
     1
 10
0.0
 20
0.0
 30
0.0
  3
*D6
  1

  0
LINE
  5
2116F
330
146D1
100
AcDbEntity
  8
DIM
 62
     0
440
 16777216
370
    -2
100
AcDbLine
 10
24563.37334046633
 20
-5975.677456229494
 30
0.0
 11
24563.37334046633
 21
-6096.730390092796
 31
0.0
  0
LINE
  5
21170
330
146D1
100
AcDbEntity
  8
DIM
 62
     0
440
 16777216
370
    -2
100
AcDbLine
 10
24919.37334046633
 20
-5975.677456229486
 30
0.0
 11
24919.37334046633
 21
-6096.730390092796
 31
0.0
  0
LINE
  5
21171
330
146D1
100
AcDbEntity
  8
DIM
 62
     0
440
 16777216
370
    -2
100
AcDbLine
 10
24568.37334046633
 20
-6095.480390092795
 30
0.0
 11
24914.37334046633
 21
-6095.480390092795
 31
0.0
  0
MTEXT
  5
21172
330
146D1
100
AcDbEntity
  8
DIM
 62
     0
440
 16777216
100
AcDbMText
 10
24631.3854313093
 20
-6090.480390092794
 30
0.0
 40
30.0
 41
0.0
 46
0.0
 71
     7
 72
     1
  1
356{\Ftxt|c134; [14"]}
 73
     1
 44
1.0
  0
SOLID
  5
21173
330
146D1
100
AcDbEntity
  8
DIM
 62
     0
440
 16777216
100
AcDbTrace
 10
24568.37334046633
 20
-6094.647056759463
 30
0.0
 11
24568.37334046633
 21
-6096.313723426129
 31
0.0
 12
24563.37334046633
 22
-6095.480390092795
 32
0.0
 13
24563.37334046633
 23
-6095.480390092795
 33
0.0
  0
SOLID
  5
21174
330
146D1
100
AcDbEntity
  8
DIM
 62
     0
440
 16777216
100
AcDbTrace
 10
24914.37334046633
 20
-6094.647056759463
 30
0.0
 11
24914.37334046633
 21
-6096.313723426129
 31
0.0
 12
24919.37334046633
 22
-6095.480390092795
 32
0.0
 13
24919.37334046633
 23
-6095.480390092795
 33
0.0
  0
POINT
  5
21175
330
146D1
100
AcDbEntity
  8
Defpoints
 62
     0
440
 16777216
100
AcDbPoint
 10
24563.37334046633
 20
-5970.677456229493
 30
0.0
  0
POINT
  5
21176
330
146D1
100
AcDbEntity
  8
Defpoints
 62
     0
440
 16777216
100
AcDbPoint
 10
24919.37334046633
 20
-5970.677456229486
 30
0.0
  0
POINT
  5
21177
330
146D1
100
AcDbEntity
  8
Defpoints
 62
     0
440
 16777216
100
AcDbPoint
 10
24919.37334046633
 20
-6095.480390092795
 30
0.0
  0
ENDBLK
  5
146DC
330
146D1
100
AcDbEntity
  8
0
100
AcDbBlockEnd
  0
BLOCK
  5
146E7
330
146DD
100
AcDbEntity
  8
0
100
AcDbBlockBegin
  2
*D7
 70
     1
 10
0.0
 20
0.0
 30
0.0
  3
*D7
  1

  0
LINE
  5
211D6
330
146DD
100
AcDbEntity
  8
DIM
 62
     0
440
 16777216
370
    -2
100
AcDbLine
 10
24793.37334046634
 20
-5718.877456229493
 30
0.0
 11
24854.30504100638
 21
-5718.877456229493
 31
0.0
  0
LINE
  5
211D7
330
146DD
100
AcDbEntity
  8
DIM
 62
     0
440
 16777216
370
    -2
100
AcDbLine
 10
24746.37334046634
 20
-5793.877456229494
 30
0.0
 11
24854.30504100638
 21
-5793.877456229494
 31
0.0
  0
LINE
  5
211D8
330
146DD
100
AcDbEntity
  8
DIM
 62
     0
440
 16777216
370
    -2
100
AcDbLine
 10
24853.05504100638
 20
-5723.877456229493
 30
0.0
 11
24853.05504100638
 21
-5788.877456229494
 31
0.0
  0
LINE
  5
211D9
330
146DD
100
AcDbEntity
  8
DIM
 62
     0
440
 16777216
370
    -2
100
AcDbLine
 10
24853.05504100638
 20
-5793.877456229494
 30
0.0
 11
24853.05504100638
 21
-5958.877456229494
 31
0.0
  0
SOLID
  5
211DA
330
146DD
100
AcDbEntity
  8
DIM
 62
     0
440
 16777216
100
AcDbTrace
 10
24852.22170767305
 20
-5723.877456229493
 30
0.0
 11
24853.88837433971
 21
-5723.877456229493
 31
0.0
 12
24853.05504100638
 22
-5718.877456229493
 32
0.0
 13
24853.05504100638
 23
-5718.877456229493
 33
0.0
  0
SOLID
  5
211DB
330
146DD
100
AcDbEntity
  8
DIM
 62
     0
440
 16777216
100
AcDbTrace
 10
24852.22170767305
 20
-5788.877456229494
 30
0.0
 11
24853.88837433971
 21
-5788.877456229494
 31
0.0
 12
24853.05504100638
 22
-5793.877456229494
 32
0.0
 13
24853.05504100638
 23
-5793.877456229494
 33
0.0
  0
MTEXT
  5
211DC
330
146DD
100
AcDbEntity
  8
DIM
 62
     0
440
 16777216
100
AcDbMText
 10
24808.05504100637
 20
-5878.8774562295
 30
0.0
 40
30.0
 41
14.41775127747678
 46
0.0
 71
     5
 72
     1
  1
75{\Ftxt|c134; [2.95"]}
 11
0.0000000000000001
 21
1.0
 31
0.0
 73
     1
 44
1.0
  0
POINT
  5
211DD
330
146DD
100
AcDbEntity
  8
Defpoints
 62
     0
440
 16777216
100
AcDbPoint
 10
24788.37334046634
 20
-5718.877456229493
 30
0.0
  0
POINT
  5
211DE
330
146DD
100
AcDbEntity
  8
Defpoints
 62
     0
440
 16777216
100
AcDbPoint
 10
24741.37334046635
 20
-5793.877456229494
 30
0.0
  0
POINT
  5
211DF
330
146DD
100
AcDbEntity
  8
Defpoints
 62
     0
440
 16777216
100
AcDbPoint
 10
24853.05504100638
 20
-5793.877456229494
 30
0.0
  0
ENDBLK
  5
146E8
330
146DD
100
AcDbEntity
  8
0
100
AcDbBlockEnd
  0
BLOCK
  5
146EF
330
146E9
100
AcDbEntity
  8
0
100
AcDbBlockBegin
  2
*D8
 70
     1
 10
0.0
 20
0.0
 30
0.0
  3
*D8
  1

  0
LINE
  5
20FF5
330
146E9
100
AcDbEntity
  8
DIM
 62
     0
440
 16777216
370
    -2
100
AcDbLine
 10
24703.27879646869
 20
-5215.56300516648
 30
0.0
 11
24901.95820178306
 21
-5326.530042219689
 31
0.0
  0
MTEXT
  5
20FF6
330
146E9
100
AcDbEntity
  8
DIM
 62
     0
440
 16777216
100
AcDbMText
 10
24800.33674127956
 20
-5246.86404906423
 30
0.0
 40
30.0
 41
0.0
 46
0.0
 71
     5
 72
     1
  1
R25{\Ftxt|c134; [1"]}
 11
0.8730551541473701
 21
-0.4876214698069719
 31
0.0
 73
     1
 44
1.0
  0
SOLID
  5
20FF7
330
146E9
100
AcDbEntity
  8
DIM
 62
     0
440
 16777216
100
AcDbTrace
 10
24902.36455300789
 20
-5325.8024962579
 30
0.0
 11
24901.55185055821
 21
-5327.257588181478
 31
0.0
 12
24906.32347755379
 22
-5328.968149568724
 32
0.0
 13
24906.32347755379
 23
-5328.968149568724
 33
0.0
  0
POINT
  5
20FF8
330
146E9
100
AcDbEntity
  8
Defpoints
 62
     0
440
 16777216
100
AcDbPoint
 10
24906.32347755379
 20
-5328.968149568724
 30
0.0
  0
POINT
  5
20FF9
330
146E9
100
AcDbEntity
  8
Defpoints
 62
     0
440
 16777216
100
AcDbPoint
 10
24884.49709870009
 20
-5316.777612823538
 30
0.0
  0
ENDBLK
  5
146F0
330
146E9
100
AcDbEntity
  8
0
100
AcDbBlockEnd
  0
BLOCK
  5
146FB
330
146F1
100
AcDbEntity
  8
0
100
AcDbBlockBegin
  2
*D9
 70
     1
 10
0.0
 20
0.0
 30
0.0
  3
*D9
  1

  0
LINE
  5
210A1
330
146F1
100
AcDbEntity
  8
DIM
 62
     0
440
 16777216
370
    -2
100
AcDbLine
 10
23811.04966546169
 20
-5681.514885095983
 30
0.0
 11
23811.04966546169
 21
-5630.74382199795
 31
0.0
  0
LINE
  5
210A2
330
146F1
100
AcDbEntity
  8
DIM
 62
     0
440
 16777216
370
    -2
100
AcDbLine
 10
23999.04966546168
 20
-5681.514885095983
 30
0.0
 11
23999.04966546168
 21
-5630.74382199795
 31
0.0
  0
LINE
  5
210A3
330
146F1
100
AcDbEntity
  8
DIM
 62
     0
440
 16777216
370
    -2
100
AcDbLine
 10
23816.0496654617
 20
-5631.993821997951
 30
0.0
 11
23994.04966546168
 21
-5631.993821997951
 31
0.0
  0
SOLID
  5
210A4
330
146F1
100
AcDbEntity
  8
DIM
 62
     0
440
 16777216
100
AcDbTrace
 10
23816.0496654617
 20
-5631.160488664617
 30
0.0
 11
23816.0496654617
 21
-5632.827155331284
 31
0.0
 12
23811.04966546169
 22
-5631.993821997951
 32
0.0
 13
23811.04966546169
 23
-5631.993821997951
 33
0.0
  0
SOLID
  5
210A5
330
146F1
100
AcDbEntity
  8
DIM
 62
     0
440
 16777216
100
AcDbTrace
 10
23994.04966546168
 20
-5631.160488664617
 30
0.0
 11
23994.04966546168
 21
-5632.827155331284
 31
0.0
 12
23999.04966546168
 22
-5631.993821997951
 32
0.0
 13
23999.04966546168
 23
-5631.993821997951
 33
0.0
  0
MTEXT
  5
210A6
330
146F1
100
AcDbEntity
  8
DIM
 62
     0
440
 16777216
100
AcDbMText
 10
23905.04966546169
 20
-5611.99382199795
 30
0.0
 40
30.0
 41
0.0
 46
0.0
 71
     5
 72
     1
  1
%%C94{\Ftxt|c134; [3.7"]}
 73
     1
 44
1.0
  0
POINT
  5
210A7
330
146F1
100
AcDbEntity
  8
Defpoints
 62
     0
440
 16777216
100
AcDbPoint
 10
23811.04966546169
 20
-5686.514885095983
 30
0.0
  0
POINT
  5
210A8
330
146F1
100
AcDbEntity
  8
Defpoints
 62
     0
440
 16777216
100
AcDbPoint
 10
23999.04966546168
 20
-5686.514885095983
 30
0.0
  0
POINT
  5
210A9
330
146F1
100
AcDbEntity
  8
Defpoints
 62
     0
440
 16777216
100
AcDbPoint
 10
23999.04966546168
 20
-5631.993821997951
 30
0.0
  0
ENDBLK
  5
146FC
330
146F1
100
AcDbEntity
  8
0
100
AcDbBlockEnd
  0
BLOCK
  5
14707
330
146FD
100
AcDbEntity
  8
0
100
AcDbBlockBegin
  2
*D10
 70
     1
 10
0.0
 20
0.0
 30
0.0
  3
*D10
  1

  0
LINE
  5
2105E
330
146FD
100
AcDbEntity
  8
DIM
 62
     0
440
 16777216
370
    -2
100
AcDbLine
 10
23791.04966546168
 20
-5675.514885095983
 30
0.0
 11
23791.04966546168
 21
-5567.384383546114
 31
0.0
  0
LINE
  5
2105F
330
146FD
100
AcDbEntity
  8
DIM
 62
     0
440
 16777216
370
    -2
100
AcDbLine
 10
24019.04966546168
 20
-5675.514885095983
 30
0.0
 11
24019.04966546168
 21
-5567.384383546114
 31
0.0
  0
LINE
  5
21060
330
146FD
100
AcDbEntity
  8
DIM
 62
     0
440
 16777216
370
    -2
100
AcDbLine
 10
23796.04966546168
 20
-5568.634383546114
 30
0.0
 11
24014.04966546168
 21
-5568.634383546114
 31
0.0
  0
MTEXT
  5
21061
330
146FD
100
AcDbEntity
  8
DIM
 62
     0
440
 16777216
100
AcDbMText
 10
23907.5634231763
 20
-5548.634383546114
 30
0.0
 40
30.0
 41
0.0
 46
0.0
 71
     5
 72
     1
  1
%%C114{\Ftxt|c134; [4.5"]}
 73
     1
 44
1.0
  0
SOLID
  5
21062
330
146FD
100
AcDbEntity
  8
DIM
 62
     0
440
 16777216
100
AcDbTrace
 10
23796.04966546168
 20
-5567.801050212781
 30
0.0
 11
23796.04966546168
 21
-5569.467716879447
 31
0.0
 12
23791.04966546168
 22
-5568.634383546114
 32
0.0
 13
23791.04966546168
 23
-5568.634383546114
 33
0.0
  0
SOLID
  5
21063
330
146FD
100
AcDbEntity
  8
DIM
 62
     0
440
 16777216
100
AcDbTrace
 10
24014.04966546168
 20
-5567.801050212781
 30
0.0
 11
24014.04966546168
 21
-5569.467716879447
 31
0.0
 12
24019.04966546168
 22
-5568.634383546114
 32
0.0
 13
24019.04966546168
 23
-5568.634383546114
 33
0.0
  0
POINT
  5
21064
330
146FD
100
AcDbEntity
  8
Defpoints
 62
     0
440
 16777216
100
AcDbPoint
 10
23791.04966546168
 20
-5680.514885095983
 30
0.0
  0
POINT
  5
21065
330
146FD
100
AcDbEntity
  8
Defpoints
 62
     0
440
 16777216
100
AcDbPoint
 10
24019.04966546168
 20
-5680.514885095983
 30
0.0
  0
POINT
  5
21066
330
146FD
100
AcDbEntity
  8
Defpoints
 62
     0
440
 16777216
100
AcDbPoint
 10
24019.04966546168
 20
-5568.634383546114
 30
0.0
  0
ENDBLK
  5
14708
330
146FD
100
AcDbEntity
  8
0
100
AcDbBlockEnd
  0
BLOCK
  5
14713
330
14709
100
AcDbEntity
  8
0
100
AcDbBlockBegin
  2
*D11
 70
     1
 10
0.0
 20
0.0
 30
0.0
  3
*D11
  1

  0
LINE
  5
2102D
330
14709
100
AcDbEntity
  8
DIM
 62
     0
440
 16777216
370
    -2
100
AcDbLine
 10
23785.0496654617
 20
-5669.514885095983
 30
0.0
 11
23785.0496654617
 21
-5503.359664076006
 31
0.0
  0
LINE
  5
2102E
330
14709
100
AcDbEntity
  8
DIM
 62
     0
440
 16777216
370
    -2
100
AcDbLine
 10
24025.04966546167
 20
-5669.514885095983
 30
0.0
 11
24025.04966546167
 21
-5503.359664076006
 31
0.0
  0
LINE
  5
2102F
330
14709
100
AcDbEntity
  8
DIM
 62
     0
440
 16777216
370
    -2
100
AcDbLine
 10
23790.04966546169
 20
-5504.609664076006
 30
0.0
 11
24020.04966546166
 21
-5504.609664076006
 31
0.0
  0
SOLID
  5
21030
330
14709
100
AcDbEntity
  8
DIM
 62
     0
440
 16777216
100
AcDbTrace
 10
23790.04966546169
 20
-5503.776330742673
 30
0.0
 11
23790.04966546169
 21
-5505.442997409339
 31
0.0
 12
23785.0496654617
 22
-5504.609664076006
 32
0.0
 13
23785.0496654617
 23
-5504.609664076006
 33
0.0
  0
SOLID
  5
21031
330
14709
100
AcDbEntity
  8
DIM
 62
     0
440
 16777216
100
AcDbTrace
 10
24020.04966546166
 20
-5503.776330742673
 30
0.0
 11
24020.04966546166
 21
-5505.442997409339
 31
0.0
 12
24025.04966546167
 22
-5504.609664076006
 32
0.0
 13
24025.04966546167
 23
-5504.609664076006
 33
0.0
  0
MTEXT
  5
21032
330
14709
100
AcDbEntity
  8
DIM
 62
     0
440
 16777216
100
AcDbMText
 10
23905.04966546168
 20
-5459.609664076006
 30
0.0
 40
30.0
 41
16.82061400698148
 46
0.0
 71
     5
 72
     1
  1
%%C120{\Ftxt|c134; [4.7"]}
 73
     1
 44
1.0
  0
POINT
  5
21033
330
14709
100
AcDbEntity
  8
Defpoints
 62
     0
440
 16777216
100
AcDbPoint
 10
23785.0496654617
 20
-5674.514885095983
 30
0.0
  0
POINT
  5
21034
330
14709
100
AcDbEntity
  8
Defpoints
 62
     0
440
 16777216
100
AcDbPoint
 10
24025.04966546167
 20
-5674.514885095983
 30
0.0
  0
POINT
  5
21035
330
14709
100
AcDbEntity
  8
Defpoints
 62
     0
440
 16777216
100
AcDbPoint
 10
24025.04966546167
 20
-5504.609664076006
 30
0.0
  0
ENDBLK
  5
14714
330
14709
100
AcDbEntity
  8
0
100
AcDbBlockEnd
  0
BLOCK
  5
14721
330
14715
100
AcDbEntity
  8
0
100
AcDbBlockBegin
  2
*D12
 70
     1
 10
0.0
 20
0.0
 30
0.0
  3
*D12
  1

  0
LINE
  5
21183
330
14715
100
AcDbEntity
  8
DIM
 62
     0
440
 16777216
370
    -2
100
AcDbLine
 10
23780.0496654617
 20
-5674.514885095985
 30
0.0
 11
23714.30688797219
 21
-5674.514885095985
 31
0.0
  0
LINE
  5
21184
330
14715
100
AcDbEntity
  8
DIM
 62
     0
440
 16777216
370
    -2
100
AcDbLine
 10
23786.04966546169
 20
-5680.514885095985
 30
0.0
 11
23714.30688797219
 21
-5680.514885095985
 31
0.0
  0
LINE
  5
21185
330
14715
100
AcDbEntity
  8
DIM
 62
     0
440
 16777216
370
    -2
100
AcDbLine
 10
23715.5568879722
 20
-5685.514885095985
 30
0.0
 11
23715.5568879722
 21
-5690.514885095985
 31
0.0
  0
LINE
  5
21186
330
14715
100
AcDbEntity
  8
DIM
 62
     0
440
 16777216
370
    -2
100
AcDbLine
 10
23715.5568879722
 20
-5669.514885095985
 30
0.0
 11
23715.5568879722
 21
-5484.514885095985
 31
0.0
  0
LINE
  5
21187
330
14715
100
AcDbEntity
  8
DIM
 62
     0
440
 16777216
370
    -2
100
AcDbLine
 10
23715.5568879722
 20
-5680.514885095985
 30
0.0
 11
23715.5568879722
 21
-5674.514885095985
 31
0.0
  0
SOLID
  5
21188
330
14715
100
AcDbEntity
  8
DIM
 62
     0
440
 16777216
100
AcDbTrace
 10
23714.72355463886
 20
-5685.514885095985
 30
0.0
 11
23716.39022130552
 21
-5685.514885095985
 31
0.0
 12
23715.5568879722
 22
-5680.514885095985
 32
0.0
 13
23715.5568879722
 23
-5680.514885095985
 33
0.0
  0
SOLID
  5
21189
330
14715
100
AcDbEntity
  8
DIM
 62
     0
440
 16777216
100
AcDbTrace
 10
23714.72355463886
 20
-5669.514885095985
 30
0.0
 11
23716.39022130552
 21
-5669.514885095985
 31
0.0
 12
23715.5568879722
 22
-5674.514885095985
 32
0.0
 13
23715.5568879722
 23
-5674.514885095985
 33
0.0
  0
MTEXT
  5
2118A
330
14715
100
AcDbEntity
  8
DIM
 62
     0
440
 16777216
100
AcDbMText
 10
23695.55688797219
 20
-5574.514885095991
 30
0.0
 40
30.0
 41
0.0
 46
0.0
 71
     5
 72
     1
  1
3{\Ftxt|c134; [.12"]}
 11
0.0000000000000001
 21
1.0
 31
0.0
 73
     1
 44
1.0
  0
POINT
  5
2118B
330
14715
100
AcDbEntity
  8
Defpoints
 62
     0
440
 16777216
100
AcDbPoint
 10
23785.0496654617
 20
-5674.514885095985
 30
0.0
  0
POINT
  5
2118C
330
14715
100
AcDbEntity
  8
Defpoints
 62
     0
440
 16777216
100
AcDbPoint
 10
23791.04966546169
 20
-5680.514885095985
 30
0.0
  0
POINT
  5
2118D
330
14715
100
AcDbEntity
  8
Defpoints
 62
     0
440
 16777216
100
AcDbPoint
 10
23715.5568879722
 20
-5680.514885095985
 30
0.0
  0
ENDBLK
  5
14722
330
14715
100
AcDbEntity
  8
0
100
AcDbBlockEnd
  0
BLOCK
  5
1472F
330
14723
100
AcDbEntity
  8
0
100
AcDbBlockBegin
  2
*D13
 70
     1
 10
0.0
 20
0.0
 30
0.0
  3
*D13
  1

  0
LINE
  5
21199
330
14723
100
AcDbEntity
  8
DIM
 62
     0
440
 16777216
370
    -2
100
AcDbLine
 10
23806.0496654617
 20
-5686.514885095984
 30
0.0
 11
23659.13634918001
 21
-5686.514885095984
 31
0.0
  0
LINE
  5
2119A
330
14723
100
AcDbEntity
  8
DIM
 62
     0
440
 16777216
370
    -2
100
AcDbLine
 10
23780.0496654617
 20
-5674.514885095985
 30
0.0
 11
23659.13634918001
 21
-5674.514885095985
 31
0.0
  0
LINE
  5
2119B
330
14723
100
AcDbEntity
  8
DIM
 62
     0
440
 16777216
370
    -2
100
AcDbLine
 10
23660.38634918001
 20
-5691.514885095985
 30
0.0
 11
23660.38634918001
 21
-5696.514885095985
 31
0.0
  0
LINE
  5
2119C
330
14723
100
AcDbEntity
  8
DIM
 62
     0
440
 16777216
370
    -2
100
AcDbLine
 10
23660.38634918001
 20
-5669.514885095985
 30
0.0
 11
23660.38634918001
 21
-5474.514885095985
 31
0.0
  0
LINE
  5
2119D
330
14723
100
AcDbEntity
  8
DIM
 62
     0
440
 16777216
370
    -2
100
AcDbLine
 10
23660.38634918001
 20
-5686.514885095984
 30
0.0
 11
23660.38634918001
 21
-5674.514885095985
 31
0.0
  0
SOLID
  5
2119E
330
14723
100
AcDbEntity
  8
DIM
 62
     0
440
 16777216
100
AcDbTrace
 10
23659.55301584667
 20
-5691.514885095985
 30
0.0
 11
23661.21968251334
 21
-5691.514885095985
 31
0.0
 12
23660.38634918001
 22
-5686.514885095984
 32
0.0
 13
23660.38634918001
 23
-5686.514885095984
 33
0.0
  0
SOLID
  5
2119F
330
14723
100
AcDbEntity
  8
DIM
 62
     0
440
 16777216
100
AcDbTrace
 10
23659.55301584667
 20
-5669.514885095985
 30
0.0
 11
23661.21968251334
 21
-5669.514885095985
 31
0.0
 12
23660.38634918001
 22
-5674.514885095985
 32
0.0
 13
23660.38634918001
 23
-5674.514885095985
 33
0.0
  0
MTEXT
  5
211A0
330
14723
100
AcDbEntity
  8
DIM
 62
     0
440
 16777216
100
AcDbMText
 10
23640.38634918001
 20
-5569.514885095991
 30
0.0
 40
30.0
 41
0.0
 46
0.0
 71
     5
 72
     1
  1
6{\Ftxt|c134; [.24"]}
 11
0.0000000000000001
 21
1.0
 31
0.0
 73
     1
 44
1.0
  0
POINT
  5
211A1
330
14723
100
AcDbEntity
  8
Defpoints
 62
     0
440
 16777216
100
AcDbPoint
 10
23811.0496654617
 20
-5686.514885095984
 30
0.0
  0
POINT
  5
211A2
330
14723
100
AcDbEntity
  8
Defpoints
 62
     0
440
 16777216
100
AcDbPoint
 10
23785.0496654617
 20
-5674.514885095985
 30
0.0
  0
POINT
  5
211A3
330
14723
100
AcDbEntity
  8
Defpoints
 62
     0
440
 16777216
100
AcDbPoint
 10
23660.38634918001
 20
-5674.514885095985
 30
0.0
  0
ENDBLK
  5
14730
330
14723
100
AcDbEntity
  8
0
100
AcDbBlockEnd
  0
BLOCK
  5
1478A
330
14780
100
AcDbEntity
  8
0
100
AcDbBlockBegin
  2
*D14
 70
     1
 10
0.0
 20
0.0
 30
0.0
  3
*D14
  1

  0
LINE
  5
21203
330
14780
100
AcDbEntity
  8
DIM
 62
     0
440
 16777216
370
    -2
100
AcDbLine
 10
24535.87334046633
 20
-5975.877456229491
 30
0.0
 11
24535.87334046633
 21
-6148.513346358916
 31
0.0
  0
LINE
  5
21204
330
14780
100
AcDbEntity
  8
DIM
 62
     0
440
 16777216
370
    -2
100
AcDbLine
 10
24946.87334046633
 20
-5975.877456229491
 30
0.0
 11
24946.87334046633
 21
-6148.513346358916
 31
0.0
  0
LINE
  5
21205
330
14780
100
AcDbEntity
  8
DIM
 62
     0
440
 16777216
370
    -2
100
AcDbLine
 10
24540.87334046632
 20
-6147.263346358915
 30
0.0
 11
24941.87334046633
 21
-6147.263346358915
 31
0.0
  0
SOLID
  5
21206
330
14780
100
AcDbEntity
  8
DIM
 62
     0
440
 16777216
100
AcDbTrace
 10
24540.87334046632
 20
-6146.430013025582
 30
0.0
 11
24540.87334046632
 21
-6148.096679692248
 31
0.0
 12
24535.87334046633
 22
-6147.263346358915
 32
0.0
 13
24535.87334046633
 23
-6147.263346358915
 33
0.0
  0
SOLID
  5
21207
330
14780
100
AcDbEntity
  8
DIM
 62
     0
440
 16777216
100
AcDbTrace
 10
24941.87334046633
 20
-6146.430013025582
 30
0.0
 11
24941.87334046633
 21
-6148.096679692248
 31
0.0
 12
24946.87334046633
 22
-6147.263346358915
 32
0.0
 13
24946.87334046633
 23
-6147.263346358915
 33
0.0
  0
MTEXT
  5
21208
330
14780
100
AcDbEntity
  8
DIM
 62
     0
440
 16777216
100
AcDbMText
 10
24741.37334046633
 20
-6127.263346358915
 30
0.0
 40
30.0
 41
0.0
 46
0.0
 71
     5
 72
     1
  1
411{\Ftxt|c134; [16.18"]}
 73
     1
 44
1.0
  0
POINT
  5
21209
330
14780
100
AcDbEntity
  8
Defpoints
 62
     0
440
 16777216
100
AcDbPoint
 10
24535.87334046633
 20
-5970.877456229491
 30
0.0
  0
POINT
  5
2120A
330
14780
100
AcDbEntity
  8
Defpoints
 62
     0
440
 16777216
100
AcDbPoint
 10
24946.87334046633
 20
-5970.877456229491
 30
0.0
  0
POINT
  5
2120B
330
14780
100
AcDbEntity
  8
Defpoints
 62
     0
440
 16777216
100
AcDbPoint
 10
24946.87334046633
 20
-6147.263346358915
 30
0.0
  0
ENDBLK
  5
1478B
330
14780
100
AcDbEntity
  8
0
100
AcDbBlockEnd
  0
BLOCK
  5
147DE
330
147D7
100
AcDbEntity
  8
0
100
AcDbBlockBegin
  2
*D15
 70
     1
 10
0.0
 20
0.0
 30
0.0
  3
*D15
  1

  0
LINE
  5
2100A
330
147D7
100
AcDbEntity
  8
DIM
 62
     0
440
 16777216
370
    -2
100
AcDbLine
 10
24193.29258375514
 20
-5480.905438105322
 30
0.0
 11
24524.49800854296
 21
-5594.055632939962
 31
0.0
  0
MTEXT
  5
2100B
330
147D7
100
AcDbEntity
  8
DIM
 62
     0
440
 16777216
100
AcDbMText
 10
24362.30484085253
 20
-5504.301099045886
 30
0.0
 40
30.0
 41
0.0
 46
0.0
 71
     5
 72
     1
  1
4-R52,5{\Ftxt|c134; [2"]}
 11
0.9463012136794972
 21
-0.3232862709561153
 31
0.0
 73
     1
 44
1.0
  0
LINE
  5
2100C
330
147D7
100
AcDbEntity
  8
DIM
 62
     0
440
 16777216
370
    -2
100
AcDbLine
 10
24588.37334046633
 20
-5615.8774562295
 30
0.0
 11
24538.69252674816
 21
-5598.904927004303
 31
0.0
  0
SOLID
  5
2100D
330
147D7
100
AcDbEntity
  8
DIM
 62
     0
440
 16777216
100
AcDbTrace
 10
24525.30622422036
 20
-5591.689879905763
 30
0.0
 11
24523.68979286557
 21
-5596.421385974161
 31
0.0
 12
24538.69252674816
 22
-5598.904927004303
 32
0.0
 13
24538.69252674816
 23
-5598.904927004303
 33
0.0
  0
POINT
  5
2100E
330
147D7
100
AcDbEntity
  8
Defpoints
 62
     0
440
 16777216
100
AcDbPoint
 10
24538.69252674816
 20
-5598.904927004303
 30
0.0
  0
POINT
  5
2100F
330
147D7
100
AcDbEntity
  8
Defpoints
 62
     0
440
 16777216
100
AcDbPoint
 10
24588.37334046633
 20
-5615.8774562295
 30
0.0
  0
ENDBLK
  5
147DF
330
147D7
100
AcDbEntity
  8
0
100
AcDbBlockEnd
  0
BLOCK
  5
14AF9
330
14AF3
100
AcDbEntity
  8
0
100
AcDbBlockBegin
  2
*D16
 70
     1
 10
0.0
 20
0.0
 30
0.0
  3
*D16
  1

  0
LINE
  5
211A9
330
14AF3
100
AcDbEntity
  8
DIM
 62
     0
440
 16777216
370
    -2
100
AcDbLine
 10
24718.47682880376
 20
-5854.099882509498
 30
0.0
 11
24581.26655640776
 21
-5978.189935088323
 31
0.0
  0
MTEXT
  5
211AA
330
14AF3
100
AcDbEntity
  8
DIM
 62
     0
440
 16777216
100
AcDbMText
 10
24618.54263396324
 20
-5870.321987846907
 30
0.0
 40
30.0
 41
13.91487380603725
 46
0.0
 71
     5
 72
     1
  1
4-R25{\Ftxt|c134; [1"]}
 11
0.7416771480864774
 21
0.6707570409666304
 31
0.0
 73
     1
 44
1.0
  0
SOLID
  5
211AB
330
14AF3
100
AcDbEntity
  8
DIM
 62
     0
440
 16777216
100
AcDbTrace
 10
24579.58966380535
 20
-5976.335742218108
 30
0.0
 11
24582.94344901018
 21
-5980.044127958539
 31
0.0
 12
24570.14139918646
 22
-5988.251290702823
 32
0.0
 13
24570.14139918646
 23
-5988.251290702823
 33
0.0
  0
POINT
  5
211AC
330
14AF3
100
AcDbEntity
  8
Defpoints
 62
     0
440
 16777216
100
AcDbPoint
 10
24570.14139918646
 20
-5988.251290702823
 30
0.0
  0
POINT
  5
211AD
330
14AF3
100
AcDbEntity
  8
Defpoints
 62
     0
440
 16777216
100
AcDbPoint
 10
24589.57334046633
 20
-5970.677456229502
 30
0.0
  0
ENDBLK
  5
14AFA
330
14AF3
100
AcDbEntity
  8
0
100
AcDbBlockEnd
  0
BLOCK
  5
20EDA
330
20ECB
100
AcDbEntity
  8
0
100
AcDbBlockBegin
  2
*D17
 70
     1
 10
0.0
 20
0.0
 30
0.0
  3
*D17
  1

  0
LINE
  5
20EDD
330
20ECB
100
AcDbEntity
  8
base
 62
     0
440
 16777216
370
    -2
100
AcDbLine
 10
24563.54036638363
 20
-5188.797478961889
 30
0.0
 11
24563.54036638364
 21
-5197.449544031275
 31
0.0
  0
ARC
  5
20EDE
330
20ECB
100
AcDbEntity
  8
base
 62
     0
440
 16777216
370
    -2
100
AcDbCircle
 10
24563.54036638363
 20
-5122.456214065746
 30
0.0
 40
73.74332996553075
100
AcDbArc
 50
262.2244126015227
 51
270.0000000000002
  0
LINE
  5
20EDF
330
20ECB
100
AcDbEntity
  8
base
 62
     0
440
 16777216
370
    -2
100
AcDbLine
 10
24553.56337892181
 20
-5195.521516608003
 30
0.0
 11
24501.54608616786
 21
-5188.418611952215
 31
0.0
  0
ARC
  5
20EE0
330
20ECB
100
AcDbEntity
  8
base
 62
     0
440
 16777216
370
    -2
100
AcDbCircle
 10
24563.54036638363
 20
-5122.456214065746
 30
0.0
 40
73.74332996553075
100
AcDbArc
 50
262.2288890053124
 51
266.1144445026563
  0
ARC
  5
20EE1
330
20ECB
100
AcDbEntity
  8
base
 62
     0
440
 16777216
370
    -2
100
AcDbCircle
 10
24563.54036638363
 20
-5122.456214065746
 30
0.0
 40
73.74332996553075
100
AcDbArc
 50
276.3855554973436
 51
280.2711109946875
  0
ARC
  5
20EE2
330
20ECB
100
AcDbEntity
  8
base
 62
     0
440
 16777216
370
    -2
100
AcDbCircle
 10
24563.54036638363
 20
-5122.456214065746
 30
0.0
 40
73.74332996553075
100
AcDbArc
 50
270.0000000000002
 51
272.4999999999996
  0
SOLID
  5
20EE3
330
20ECB
100
AcDbEntity
  8
base
 62
     0
440
 16777216
100
AcDbTrace
 10
24558.57149160972
 20
-5195.197182856034
 30
0.0
 11
24558.51498932445
 21
-5196.862891494883
 31
0.0
 12
24563.54036638363
 22
-5196.199544031276
 32
0.0
 13
24563.54036638363
 23
-5196.199544031276
 33
0.0
  0
SOLID
  5
20EE4
330
20ECB
100
AcDbEntity
  8
base
 62
     0
440
 16777216
100
AcDbTrace
 10
24571.80653408274
 20
-5196.572868956539
 30
0.0
 11
24571.67742838477
 21
-5194.911210298291
 31
0.0
 12
24566.75700525901
 22
-5196.129356721332
 32
0.0
 13
24566.75700525901
 23
-5196.129356721332
 33
0.0
  0
MTEXT
  5
20EE5
330
20ECB
100
AcDbEntity
  8
base
 62
     0
440
 16777216
100
AcDbMText
 10
24529.41501709754
 20
-5178.346487606455
 30
0.0
 40
15.0
 41
0.0
 46
0.0
 71
     5
 72
     1
  1
2,5\U+00B0
 11
0.9908055762658317
 21
-0.1352934220150155
 31
0.0
 73
     1
 44
1.0
  0
POINT
  5
20EE6
330
20ECB
100
AcDbEntity
  8
Defpoints
 62
     0
440
 16777216
100
AcDbPoint
 10
24565.68517039486
 20
-5196.168346921596
 30
0.0
  0
POINT
  5
20EE7
330
20ECB
100
AcDbEntity
  8
Defpoints
 62
     0
440
 16777216
100
AcDbPoint
 10
24563.54036638363
 20
-5122.456214065746
 30
0.0
  0
POINT
  5
20EE8
330
20ECB
100
AcDbEntity
  8
Defpoints
 62
     0
440
 16777216
100
AcDbPoint
 10
24563.54036638363
 20
-5122.456214065746
 30
0.0
  0
POINT
  5
20EE9
330
20ECB
100
AcDbEntity
  8
Defpoints
 62
     0
440
 16777216
100
AcDbPoint
 10
24563.54036638364
 20
-5183.797478961889
 30
0.0
  0
POINT
  5
20EEA
330
20ECB
100
AcDbEntity
  8
Defpoints
 62
     0
440
 16777216
100
AcDbPoint
 10
24572.07451882654
 20
-5317.920440772621
 30
0.0
  0
ENDBLK
  5
20EDB
330
20ECB
100
AcDbEntity
  8
0
100
AcDbBlockEnd
  0
BLOCK
  5
20EFC
330
20EED
100
AcDbEntity
  8
0
100
AcDbBlockBegin
  2
*D18
 70
     1
 10
0.0
 20
0.0
 30
0.0
  3
*D18
  1

  0
LINE
  5
20EFF
330
20EED
100
AcDbEntity
  8
base
 62
     0
440
 16777216
370
    -2
100
AcDbLine
 10
24643.50475247358
 20
-5346.609194298665
 30
0.0
 11
24629.7220645511
 21
-5346.609194298665
 31
0.0
  0
ARC
  5
20F00
330
20EED
100
AcDbEntity
  8
base
 62
     0
440
 16777216
370
    -2
100
AcDbCircle
 10
24680.85478687496
 20
-5346.609194298665
 30
0.0
 40
49.88272232385264
100
AcDbArc
 50
165.9945817429695
 51
177.5000000000002
  0
LINE
  5
20F01
330
20EED
100
AcDbEntity
  8
base
 62
     0
440
 16777216
370
    -2
100
AcDbLine
 10
24632.45493600693
 20
-5334.536894501571
 30
0.0
 11
24645.1606527325
 21
-5283.597570178517
 31
0.0
  0
ARC
  5
20F02
330
20EED
100
AcDbEntity
  8
base
 62
     0
440
 16777216
370
    -2
100
AcDbCircle
 10
24680.85478687496
 20
-5346.609194298665
 30
0.0
 40
49.88272232385264
100
AcDbArc
 50
166.0090889945688
 51
171.7545444972845
  0
ARC
  5
20F03
330
20EED
100
AcDbEntity
  8
base
 62
     0
440
 16777216
370
    -2
100
AcDbCircle
 10
24680.85478687496
 20
-5346.609194298665
 30
0.0
 40
49.88272232385264
100
AcDbArc
 50
185.7454555027146
 51
191.4909110054303
  0
ARC
  5
20F04
330
20EED
100
AcDbEntity
  8
base
 62
     0
440
 16777216
370
    -2
100
AcDbCircle
 10
24680.85478687496
 20
-5346.609194298665
 30
0.0
 40
49.88272232385264
100
AcDbArc
 50
177.5000000000002
 51
179.9999999999989
  0
SOLID
  5
20F05
330
20EED
100
AcDbEntity
  8
base
 62
     0
440
 16777216
100
AcDbTrace
 10
24632.31738617809
 20
-5339.53333596552
 30
0.0
 11
24630.65804176727
 21
-5339.377278591179
 31
0.0
 12
24631.01954184965
 22
-5344.433340510785
 32
0.0
 13
24631.01954184965
 23
-5344.433340510785
 33
0.0
  0
SOLID
  5
20F06
330
20EED
100
AcDbEntity
  8
base
 62
     0
440
 16777216
100
AcDbTrace
 10
24630.39036621329
 20
-5351.644675555528
 30
0.0
 11
24632.05493842297
 21
-5351.561146299854
 31
0.0
 12
24630.97206455111
 22
-5346.609194298665
 32
0.0
 13
24630.97206455111
 23
-5346.609194298665
 33
0.0
  0
MTEXT
  5
20F07
330
20EED
100
AcDbEntity
  8
base
 62
     0
440
 16777216
100
AcDbMText
 10
24625.46654276129
 20
-5305.739544626199
 30
0.0
 40
15.0
 41
0.0
 46
0.0
 71
     5
 72
     1
  1
2,5\U+00B0
 11
0.242013651915723
 21
0.9702728442486758
 31
0.0
 73
     1
 44
1.0
  0
POINT
  5
20F08
330
20EED
100
AcDbEntity
  8
Defpoints
 62
     0
440
 16777216
100
AcDbPoint
 10
24630.97734055052
 20
-5345.883705090605
 30
0.0
  0
POINT
  5
20F09
330
20EED
100
AcDbEntity
  8
Defpoints
 62
     0
440
 16777216
100
AcDbPoint
 10
24680.85478687493
 20
-5346.609194298665
 30
0.0
  0
POINT
  5
20F0A
330
20EED
100
AcDbEntity
  8
Defpoints
 62
     0
440
 16777216
100
AcDbPoint
 10
24680.85478687493
 20
-5346.609194298663
 30
0.0
  0
POINT
  5
20F0B
330
20EED
100
AcDbEntity
  8
Defpoints
 62
     0
440
 16777216
100
AcDbPoint
 10
24597.1067542836
 20
-5342.952676228994
 30
0.0
  0
POINT
  5
20F0C
330
20EED
100
AcDbEntity
  8
Defpoints
 62
     0
440
 16777216
100
AcDbPoint
 10
24648.50475247358
 20
-5346.609194298665
 30
0.0
  0
ENDBLK
  5
20EFD
330
20EED
100
AcDbEntity
  8
0
100
AcDbBlockEnd
  0
BLOCK
  5
20F1A
330
20F0F
100
AcDbEntity
  8
0
100
AcDbBlockBegin
  2
*D19
 70
     1
 10
0.0
 20
0.0
 30
0.0
  3
*D19
  1

  0
LINE
  5
210DA
330
20F0F
100
AcDbEntity
  8
base
 62
     0
440
 16777216
370
    -2
100
AcDbLine
 10
24919.37334046633
 20
-5724.119552841716
 30
0.0
 11
24919.37334046633
 21
-5690.990643695375
 31
0.0
  0
LINE
  5
210DB
330
20F0F
100
AcDbEntity
  8
base
 62
     0
440
 16777216
370
    -2
100
AcDbLine
 10
24946.87334046633
 20
-5724.119552841716
 30
0.0
 11
24946.87334046633
 21
-5690.990643695375
 31
0.0
  0
LINE
  5
210DC
330
20F0F
100
AcDbEntity
  8
base
 62
     0
440
 16777216
370
    -2
100
AcDbLine
 10
24924.37334046633
 20
-5692.240643695375
 30
0.0
 11
24941.87334046633
 21
-5692.240643695375
 31
0.0
  0
LINE
  5
210DD
330
20F0F
100
AcDbEntity
  8
base
 62
     0
440
 16777216
370
    -2
100
AcDbLine
 10
24946.87334046633
 20
-5692.240643695375
 30
0.0
 11
25009.37334046633
 21
-5692.240643695375
 31
0.0
  0
SOLID
  5
210DE
330
20F0F
100
AcDbEntity
  8
base
 62
     0
440
 16777216
100
AcDbTrace
 10
24924.37334046633
 20
-5691.407310362042
 30
0.0
 11
24924.37334046633
 21
-5693.073977028708
 31
0.0
 12
24919.37334046633
 22
-5692.240643695375
 32
0.0
 13
24919.37334046633
 23
-5692.240643695375
 33
0.0
  0
SOLID
  5
210DF
330
20F0F
100
AcDbEntity
  8
base
 62
     0
440
 16777216
100
AcDbTrace
 10
24941.87334046633
 20
-5691.407310362042
 30
0.0
 11
24941.87334046633
 21
-5693.073977028708
 31
0.0
 12
24946.87334046633
 22
-5692.240643695375
 32
0.0
 13
24946.87334046633
 23
-5692.240643695375
 33
0.0
  0
MTEXT
  5
210E0
330
20F0F
100
AcDbEntity
  8
base
 62
     0
440
 16777216
100
AcDbMText
 10
24980.62334046633
 20
-5667.240643695375
 30
0.0
 40
15.0
 41
16.82061400698148
 46
0.0
 71
     5
 72
     1
  1
27,5{\Ftxt|c134; [1"]}
 73
     1
 44
1.0
  0
POINT
  5
210E1
330
20F0F
100
AcDbEntity
  8
Defpoints
 62
     0
440
 16777216
100
AcDbPoint
 10
24919.37334046633
 20
-5729.119552841716
 30
0.0
  0
POINT
  5
210E2
330
20F0F
100
AcDbEntity
  8
Defpoints
 62
     0
440
 16777216
100
AcDbPoint
 10
24946.87334046633
 20
-5729.119552841716
 30
0.0
  0
POINT
  5
210E3
330
20F0F
100
AcDbEntity
  8
Defpoints
 62
     0
440
 16777216
100
AcDbPoint
 10
24946.87334046633
 20
-5692.240643695375
 30
0.0
  0
ENDBLK
  5
20F1B
330
20F0F
100
AcDbEntity
  8
0
100
AcDbBlockEnd
  0
BLOCK
  5
20F34
330
20F29
100
AcDbEntity
  8
0
100
AcDbBlockBegin
  2
*D20
 70
     1
 10
0.0
 20
0.0
 30
0.0
  3
*D20
  1

  0
LINE
  5
210C6
330
20F29
100
AcDbEntity
  8
base
 62
     0
440
 16777216
370
    -2
100
AcDbLine
 10
24808.1235183321
 20
-5590.877456229493
 30
0.0
 11
24822.0181567251
 21
-5590.877456229493
 31
0.0
  0
LINE
  5
210C7
330
20F29
100
AcDbEntity
  8
base
 62
     0
440
 16777216
370
    -2
100
AcDbLine
 10
24808.1235183321
 20
-5563.377456229493
 30
0.0
 11
24822.0181567251
 21
-5563.377456229493
 31
0.0
  0
LINE
  5
210C8
330
20F29
100
AcDbEntity
  8
base
 62
     0
440
 16777216
370
    -2
100
AcDbLine
 10
24820.7681567251
 20
-5585.877456229493
 30
0.0
 11
24820.7681567251
 21
-5568.377456229493
 31
0.0
  0
LINE
  5
210C9
330
20F29
100
AcDbEntity
  8
base
 62
     0
440
 16777216
370
    -2
100
AcDbLine
 10
24820.7681567251
 20
-5563.377456229493
 30
0.0
 11
24820.7681567251
 21
-5445.877456229493
 31
0.0
  0
SOLID
  5
210CA
330
20F29
100
AcDbEntity
  8
base
 62
     0
440
 16777216
100
AcDbTrace
 10
24819.93482339177
 20
-5585.877456229493
 30
0.0
 11
24821.60149005843
 21
-5585.877456229493
 31
0.0
 12
24820.7681567251
 22
-5590.877456229493
 32
0.0
 13
24820.7681567251
 23
-5590.877456229493
 33
0.0
  0
SOLID
  5
210CB
330
20F29
100
AcDbEntity
  8
base
 62
     0
440
 16777216
100
AcDbTrace
 10
24819.93482339177
 20
-5568.377456229493
 30
0.0
 11
24821.60149005843
 21
-5568.377456229493
 31
0.0
 12
24820.7681567251
 22
-5563.377456229493
 32
0.0
 13
24820.7681567251
 23
-5563.377456229493
 33
0.0
  0
MTEXT
  5
210CC
330
20F29
100
AcDbEntity
  8
base
 62
     0
440
 16777216
100
AcDbMText
 10
24807.01815672509
 20
-5502.127456229499
 30
0.0
 40
15.0
 41
0.0
 46
0.0
 71
     5
 72
     1
  1
27,5{\Ftxt|c134; [1"]}
 11
0.0000000000000001
 21
1.0
 31
0.0
 73
     1
 44
1.0
  0
POINT
  5
210CD
330
20F29
100
AcDbEntity
  8
Defpoints
 62
     0
440
 16777216
100
AcDbPoint
 10
24803.1235183321
 20
-5590.877456229493
 30
0.0
  0
POINT
  5
210CE
330
20F29
100
AcDbEntity
  8
Defpoints
 62
     0
440
 16777216
100
AcDbPoint
 10
24803.1235183321
 20
-5563.377456229493
 30
0.0
  0
POINT
  5
210CF
330
20F29
100
AcDbEntity
  8
Defpoints
 62
     0
440
 16777216
100
AcDbPoint
 10
24820.7681567251
 20
-5563.377456229493
 30
0.0
  0
ENDBLK
  5
20F35
330
20F29
100
AcDbEntity
  8
0
100
AcDbBlockEnd
  0
BLOCK
  5
20F4E
330
20F43
100
AcDbEntity
  8
0
100
AcDbBlockBegin
  2
*D21
 70
     1
 10
0.0
 20
0.0
 30
0.0
  3
*D21
  1

  0
LINE
  5
21102
330
20F43
100
AcDbEntity
  8
base
 62
     0
440
 16777216
370
    -2
100
AcDbLine
 10
24825.76815672509
 20
-5996.87745622949
 30
0.0
 11
24841.26683803808
 21
-5996.87745622949
 31
0.0
  0
LINE
  5
21103
330
20F43
100
AcDbEntity
  8
base
 62
     0
440
 16777216
370
    -2
100
AcDbLine
 10
24825.76815672509
 20
-6024.377456229493
 30
0.0
 11
24841.26683803808
 21
-6024.377456229493
 31
0.0
  0
LINE
  5
21104
330
20F43
100
AcDbEntity
  8
base
 62
     0
440
 16777216
370
    -2
100
AcDbLine
 10
24840.01683803808
 20
-6001.87745622949
 30
0.0
 11
24840.01683803808
 21
-6019.377456229493
 31
0.0
  0
LINE
  5
21105
330
20F43
100
AcDbEntity
  8
base
 62
     0
440
 16777216
370
    -2
100
AcDbLine
 10
24840.01683803808
 20
-6024.377456229493
 30
0.0
 11
24840.01683803808
 21
-6086.877456229493
 31
0.0
  0
SOLID
  5
21106
330
20F43
100
AcDbEntity
  8
base
 62
     0
440
 16777216
100
AcDbTrace
 10
24839.18350470475
 20
-6001.87745622949
 30
0.0
 11
24840.85017137141
 21
-6001.87745622949
 31
0.0
 12
24840.01683803808
 22
-5996.87745622949
 32
0.0
 13
24840.01683803808
 23
-5996.87745622949
 33
0.0
  0
SOLID
  5
21107
330
20F43
100
AcDbEntity
  8
base
 62
     0
440
 16777216
100
AcDbTrace
 10
24839.18350470475
 20
-6019.377456229493
 30
0.0
 11
24840.85017137141
 21
-6019.377456229493
 31
0.0
 12
24840.01683803808
 22
-6024.377456229493
 32
0.0
 13
24840.01683803808
 23
-6024.377456229493
 33
0.0
  0
MTEXT
  5
21108
330
20F43
100
AcDbEntity
  8
base
 62
     0
440
 16777216
100
AcDbMText
 10
24815.01683803807
 20
-6058.127456229499
 30
0.0
 40
15.0
 41
9.611793970398139
 46
0.0
 71
     5
 72
     1
  1
27,5{\Ftxt|c134; [1"]}
 11
0.0000000000000001
 21
1.0
 31
0.0
 73
     1
 44
1.0
  0
POINT
  5
21109
330
20F43
100
AcDbEntity
  8
Defpoints
 62
     0
440
 16777216
100
AcDbPoint
 10
24820.7681567251
 20
-5996.87745622949
 30
0.0
  0
POINT
  5
2110A
330
20F43
100
AcDbEntity
  8
Defpoints
 62
     0
440
 16777216
100
AcDbPoint
 10
24820.7681567251
 20
-6024.377456229493
 30
0.0
  0
POINT
  5
2110B
330
20F43
100
AcDbEntity
  8
Defpoints
 62
     0
440
 16777216
100
AcDbPoint
 10
24840.01683803808
 20
-6024.377456229493
 30
0.0
  0
ENDBLK
  5
20F4F
330
20F43
100
AcDbEntity
  8
0
100
AcDbBlockEnd
  0
ENDSEC
  0
SECTION
  2
ENTITIES
  0
INSERT
  5
CCEE
330
1F
100
AcDbEntity
  8
0
 48
0.0
100
AcDbBlockReference
  2
SE13
 10
21100.86383910394
 20
760.9211756285185
 30
0.0
 41
8.063999999998486
 42
8.063999999998486
 43
8.063999999999998
  0
INSERT
  5
133E5
330
1F
100
AcDbEntity
  8
0
 48
0.0
100
AcDbBlockReference
  2
SE13
 10
21100.86383910394
 20
-2062.724946992694
 30
0.0
 41
8.063999999998486
 42
8.063999999998486
 43
8.063999999999998
  0
INSERT
  5
13B26
330
1F
100
AcDbEntity
  8
0
 62
     0
 48
0.0
100
AcDbBlockReference
  2
SE13
 10
27676.44737402535
 20
-10674.33944102963
 30
0.0
 41
4.838399999999091
 42
4.838399999999091
 43
4.838399999999091
  0
INSERT
  5
13C20
330
1F
100
AcDbEntity
  8
0
 48
0.0
100
AcDbBlockReference
  2
SE13
 10
28400.88653754619
 20
1233.750014580027
 30
0.0
 41
4.031999999999243
 42
4.031999999999243
 43
4.031999999999243
  0
INSERT
  5
13F54
330
1F
100
AcDbEntity
  8
0
 48
0.0
100
AcDbBlockReference
  2
SE13
 10
26718.78403608023
 20
2612.340765755924
 30
0.0
 41
8.063999999998486
 42
8.063999999998486
 43
8.063999999999998
  0
INSERT
  5
1418A
330
1F
100
AcDbEntity
  8
0
 62
     0
 48
0.0
100
AcDbBlockReference
  2
SE13
 10
22536.66666962087
 20
4199.728298467085
 30
0.0
 41
5.160959999999032
 42
5.160959999999032
 43
5.160959999999032
  0
LINE
  5
145DA
102
{ACAD_REACTORS
330
20F0D
102
}
330
1F
100
AcDbEntity
  8
0
 62
     0
100
AcDbLine
 10
24680.85478687494
 20
-5346.609194298665
 30
0.0
 11
24648.50475247359
 21
-5346.609194298665
 31
0.0
  0
LINE
  5
145E1
330
1F
100
AcDbEntity
  8
base
 62
     0
100
AcDbLine
 10
24535.87334046633
 20
-5117.430691615219
 30
0.0
 11
24535.87334046633
 21
-5118.630691615218
 31
0.0
  0
SPLINE
  5
145E6
330
1F
100
AcDbEntity
  8
DIM
 62
     0
100
AcDbSpline
210
0.0
220
0.0
230
1.0
 70
  1064
 71
     3
 72
    10
 73
     6
 74
     4
 42
0.000000001
 43
0.0000000001
 44
0.0000000001
 40
0.0
 40
0.0
 40
0.0
 40
0.0
 40
48.9684640961515
 40
98.01469611246506
 40
135.2960078901303
 40
135.2960078901303
 40
135.2960078901303
 40
135.2960078901303
 10
23735.63866015564
 20
-5606.585773814817
 30
0.0
 10
23745.50220678981
 20
-5621.381866979406
 30
0.0
 10
23765.24496457861
 20
-5650.997551317214
 30
0.0
 10
23735.30808828538
 20
-5695.406445333325
 30
0.0
 10
23746.86577614323
 20
-5723.203852234753
 30
0.0
 10
23751.85706566127
 20
-5735.208407765441
 30
0.0
 11
23735.63866015564
 21
-5606.585773814817
 31
0.0
 11
23754.88812515827
 21
-5651.612083601968
 31
0.0
 11
23742.6012263676
 21
-5699.094343374496
 31
0.0
 11
23751.85706566127
 21
-5735.208407765441
 31
0.0
  0
SPLINE
  5
145E7
330
1F
100
AcDbEntity
  8
DIM
 62
     0
100
AcDbSpline
210
0.0
220
0.0
230
1.0
 70
  1064
 71
     3
 72
    10
 73
     6
 74
     4
 42
0.000000001
 43
0.0000000001
 44
0.0000000001
 40
0.0
 40
0.0
 40
0.0
 40
0.0
 40
48.9684640961515
 40
98.01469611246506
 40
135.2960078901303
 40
135.2960078901303
 40
135.2960078901303
 40
135.2960078901303
 10
24074.46067076772
 20
-5606.585773814817
 30
0.0
 10
24064.59712413355
 20
-5621.381866979406
 30
0.0
 10
24044.85436634476
 20
-5650.997551317214
 30
0.0
 10
24074.79124263797
 20
-5695.406445333325
 30
0.0
 10
24063.23355478014
 20
-5723.203852234753
 30
0.0
 10
24058.2422652621
 20
-5735.208407765441
 30
0.0
 11
24074.46067076772
 21
-5606.585773814817
 31
0.0
 11
24055.21120576509
 21
-5651.612083601968
 31
0.0
 11
24067.49810455576
 21
-5699.094343374496
 31
0.0
 11
24058.2422652621
 21
-5735.208407765441
 31
0.0
  0
DIMENSION
  5
145E8
102
{ACAD_XDICTIONARY
360
145E9
102
}
102
{ACAD_REACTORS
330
145EA
102
}
330
1F
100
AcDbEntity
  8
DIM
 62
     0
100
AcDbDimension
280
     0
  2
*D13
 10
23660.38634918001
 20
-5674.514885095985
 30
0.0
 11
23640.38634918001
 21
-5569.514885095991
 31
0.0
 70
    32
  1
6{\Ftxt|c134; [.24"]}
 71
     5
 42
12.0
 73
     0
 74
     0
 75
     0
  3
ISO-25
100
AcDbAlignedDimension
 13
23811.04966546169
 23
-5686.514885095983
 33
0.0
 14
23785.0496654617
 24
-5674.514885095983
 34
0.0
 50
90.0
100
AcDbRotatedDimension
1001
ACAD
1000
DSTYLE
1002
{
1070
    41
1040
5.0
1070
    42
1040
5.0
1070
    43
1040
5.0
1070
   140
1040
30.0
1070
   141
1040
0.0
1070
   179
1070
     1
1002
}
  0
DIMENSION
  5
145EB
102
{ACAD_XDICTIONARY
360
145EC
102
}
102
{ACAD_REACTORS
330
145ED
102
}
330
1F
100
AcDbEntity
  8
DIM
 62
     0
100
AcDbDimension
280
     0
  2
*D12
 10
23715.5568879722
 20
-5680.514885095985
 30
0.0
 11
23715.55688797219
 21
-5574.514885095991
 31
0.0
 70
   160
  1
3{\Ftxt|c134; [.12"]}
 71
     5
 42
6.0
 73
     0
 74
     0
 75
     0
  3
ISO-25
100
AcDbAlignedDimension
 13
23785.0496654617
 23
-5674.514885095983
 33
0.0
 14
23791.04966546168
 24
-5680.514885095983
 34
0.0
 50
90.0
100
AcDbRotatedDimension
1001
ACAD
1000
DSTYLE
1002
{
1070
    41
1040
5.0
1070
    42
1040
5.0
1070
    43
1040
5.0
1070
   140
1040
30.0
1070
   141
1040
0.0
1070
   179
1070
     1
1002
}
  0
DIMENSION
  5
145EE
102
{ACAD_XDICTIONARY
360
145EF
102
}
102
{ACAD_REACTORS
330
145F0
102
}
330
1F
100
AcDbEntity
  8
DIM
 62
     0
100
AcDbDimension
280
     0
  2
*D11
 10
24025.04966546167
 20
-5504.609664076006
 30
0.0
 11
23905.04966546168
 21
-5459.609664076006
 31
0.0
 70
    32
  1
%%C120{\Ftxt|c134; [4.7"]}
 71
     5
 42
239.9999999999709
 73
     0
 74
     0
 75
     0
  3
ISO-25
100
AcDbAlignedDimension
 13
23785.0496654617
 23
-5674.514885095983
 33
0.0
 14
24025.04966546167
 24
-5674.514885095983
 34
0.0
100
AcDbRotatedDimension
1001
ACAD
1000
DSTYLE
1002
{
1070
    41
1040
5.0
1070
    42
1040
5.0
1070
    43
1040
5.0
1070
   140
1040
30.0
1070
   141
1040
0.0
1070
   179
1070
     1
1002
}
  0
DIMENSION
  5
145F1
102
{ACAD_XDICTIONARY
360
145F2
102
}
102
{ACAD_REACTORS
330
145F3
102
}
330
1F
100
AcDbEntity
  8
DIM
 62
     0
100
AcDbDimension
280
     0
  2
*D10
 10
24019.04966546168
 20
-5568.634383546114
 30
0.0
 11
23907.5634231763
 21
-5548.634383546114
 31
0.0
 70
   160
  1
%%C114{\Ftxt|c134; [4.5"]}
 71
     5
 42
228.0
 73
     0
 74
     0
 75
     0
  3
ISO-25
100
AcDbAlignedDimension
 13
23791.04966546168
 23
-5680.514885095983
 33
0.0
 14
24019.04966546168
 24
-5680.514885095983
 34
0.0
100
AcDbRotatedDimension
1001
ACAD
1000
DSTYLE
1002
{
1070
    41
1040
5.0
1070
    42
1040
5.0
1070
    43
1040
5.0
1070
   140
1040
30.0
1070
   141
1040
0.0
1070
   179
1070
     1
1070
   279
1070
     2
1002
}
  0
DIMENSION
  5
145F4
102
{ACAD_XDICTIONARY
360
145F5
102
}
102
{ACAD_REACTORS
330
145F6
102
}
330
1F
100
AcDbEntity
  8
DIM
 62
     0
100
AcDbDimension
280
     0
  2
*D9
 10
23999.04966546168
 20
-5631.993821997951
 30
0.0
 11
23905.04966546169
 21
-5631.993821997951
 31
0.0
 70
   160
  1
%%C94{\Ftxt|c134; [3.7"]}
 71
     5
 42
187.9999999999854
 73
     0
 74
     0
 75
     0
  3
ISO-25
100
AcDbAlignedDimension
 13
23811.04966546169
 23
-5686.514885095983
 33
0.0
 14
23999.04966546168
 24
-5686.514885095983
 34
0.0
100
AcDbRotatedDimension
1001
ACAD
1000
DSTYLE
1002
{
1070
    41
1040
5.0
1070
    42
1040
5.0
1070
    43
1040
5.0
1070
   140
1040
30.0
1070
   141
1040
0.0
1070
   179
1070
     1
1002
}
  0
LINE
  5
145F7
330
1F
100
AcDbEntity
  8
base
 62
     0
100
AcDbLine
 10
23784.0125582789
 20
-5676.871890462876
 30
0.0
 11
23748.86593855082
 21
-5675.337355905502
 31
0.0
  0
LINE
  5
145F8
330
1F
100
AcDbEntity
  8
base
 62
     0
100
AcDbLine
 10
23785.0496654617
 20
-5674.514885095983
 30
0.0
 11
23749.72361938717
 21
-5672.972516615141
 31
0.0
  0
LINE
  5
145F9
330
1F
100
AcDbEntity
  8
base
 62
     0
100
AcDbLine
 10
24025.04966546167
 20
-5674.514885095983
 30
0.0
 11
24060.37571153619
 21
-5672.972516615142
 31
0.0
  0
LINE
  5
145FA
330
1F
100
AcDbEntity
  8
base
 62
     0
100
AcDbLine
 10
24026.08677264447
 20
-5676.871890462876
 30
0.0
 11
24061.23339237254
 21
-5675.337355905502
 31
0.0
  0
LINE
  5
145FB
330
1F
100
AcDbEntity
  8
base
 62
     0
100
AcDbLine
 10
24025.04966546168
 20
-5674.514885095983
 30
0.0
 11
23785.0496654617
 21
-5674.514885095983
 31
0.0
  0
LINE
  5
145FC
330
1F
100
AcDbEntity
  8
DIM
  6
CENTER
 62
     0
100
AcDbLine
 10
23905.04966546168
 20
-5642.721809604116
 30
0.0
 11
23905.04966546168
 21
-5745.207320572574
 31
0.0
  0
LINE
  5
145FD
102
{ACAD_REACTORS
330
145F3
330
145ED
102
}
330
1F
100
AcDbEntity
  8
base
 62
     0
100
AcDbLine
 10
24019.04966546168
 20
-5680.514885095983
 30
0.0
 11
23791.04966546168
 21
-5680.514885095983
 31
0.0
  0
LINE
  5
145FE
102
{ACAD_REACTORS
330
145F6
330
145EA
102
}
330
1F
100
AcDbEntity
  8
base
 62
     0
100
AcDbLine
 10
23999.04966546168
 20
-5686.514885095983
 30
0.0
 11
23811.04966546169
 21
-5686.514885095983
 31
0.0
  0
LINE
  5
145FF
330
1F
100
AcDbEntity
  8
base
 62
     0
100
AcDbLine
 10
23999.04966546168
 20
-5686.514885095983
 30
0.0
 11
24019.04966546168
 21
-5680.514885095983
 31
0.0
  0
LINE
  5
14600
102
{ACAD_REACTORS
330
145F3
330
145F0
102
}
330
1F
100
AcDbEntity
  8
base
 62
     0
100
AcDbLine
 10
24019.04966546168
 20
-5680.514885095983
 30
0.0
 11
24025.04966546167
 21
-5674.514885095983
 31
0.0
  0
LINE
  5
14601
330
1F
100
AcDbEntity
  8
base
 62
     0
100
AcDbLine
 10
24020.31886401532
 20
-5682.639799092023
 30
0.0
 11
24026.08677264447
 21
-5676.871890462878
 31
0.0
  0
LINE
  5
14602
330
1F
100
AcDbEntity
  8
base
 62
     0
100
AcDbLine
 10
23999.40191066881
 20
-5688.914885095982
 30
0.0
 11
24020.31886401532
 21
-5682.639799092023
 31
0.0
  0
LINE
  5
14603
330
1F
100
AcDbEntity
  8
base
 62
     0
100
AcDbLine
 10
23999.40191066881
 20
-5688.914885095982
 30
0.0
 11
23810.69742025454
 21
-5688.914885095982
 31
0.0
  0
LINE
  5
14604
330
1F
100
AcDbEntity
  8
base
 62
     0
100
AcDbLine
 10
23810.69742025454
 20
-5688.914885095982
 30
0.0
 11
23789.78046690805
 21
-5682.639799092023
 31
0.0
  0
LINE
  5
14605
330
1F
100
AcDbEntity
  8
base
 62
     0
100
AcDbLine
 10
23789.78046690805
 20
-5682.639799092023
 30
0.0
 11
23784.0125582789
 21
-5676.871890462878
 31
0.0
  0
LINE
  5
14606
102
{ACAD_REACTORS
330
145F0
330
145ED
330
145EA
102
}
330
1F
100
AcDbEntity
  8
base
 62
     0
100
AcDbLine
 10
23791.04966546168
 20
-5680.514885095983
 30
0.0
 11
23785.0496654617
 21
-5674.514885095983
 31
0.0
  0
LINE
  5
14607
330
1F
100
AcDbEntity
  8
base
 62
     0
100
AcDbLine
 10
23811.04966546168
 20
-5686.514885095983
 30
0.0
 11
23791.04966546168
 21
-5680.514885095983
 31
0.0
  0
INSERT
  5
14641
330
1F
100
AcDbEntity
  8
0
 62
     0
 48
0.0
100
AcDbBlockReference
  2
SE13
 10
21100.86383910394
 20
-6757.236913592281
 30
0.0
 41
8.063999999998486
 42
8.063999999998486
 43
8.063999999999998
  0
MTEXT
  5
1464E
102
{ACAD_REACTORS
330
1464F
102
}
330
1F
100
AcDbEntity
  8
DIM
 62
     0
100
AcDbMText
 10
24630.47953314291
 20
-5404.605040716506
 30
0.0
 40
30.0
 41
0.0
 46
0.0
 71
     3
 72
     1
  1
I
 73
     1
 44
1.0
  0
LEADER
  5
1464F
330
1F
100
AcDbEntity
  8
DIM
 62
     0
100
AcDbLeader
  3
ISO-25
 73
     0
 75
     1
 40
30.0
 41
10.0
 76
     3
 10
24771.26893024845
 20
-5370.768086564254
 30
0.0
 10
24640.47953314291
 20
-5419.605040716506
 30
0.0
 10
24635.47953314291
 20
-5419.605040716506
 30
0.0
340
1464E
213
0.0
223
-15.0
233
0.0
1001
ACAD
1000
DSTYLE
1002
{
1070
   147
1040
5.0
1070
    77
1070
     0
1070
    41
1040
5.0
1070
    42
1040
5.0
1070
    43
1040
5.0
1070
   140
1040
30.0
1070
   141
1040
0.0
1070
   179
1070
     1
1002
}
  0
CIRCLE
  5
14650
330
1F
100
AcDbEntity
  8
DIM
 62
     0
100
AcDbCircle
 10
24741.37334046632
 20
-5346.285848174895
 30
0.0
 40
74.89473559407634
  0
LINE
  5
14651
330
1F
100
AcDbEntity
  8
DIM
 62
     0
100
AcDbLine
 10
24919.20631454902
 20
-5122.456214065746
 30
0.0
 11
24919.20631454902
 21
-5164.893322656428
 31
0.0
  0
DIMENSION
  5
14652
102
{ACAD_XDICTIONARY
360
14653
102
}
102
{ACAD_REACTORS
330
14654
102
}
330
1F
100
AcDbEntity
  8
DIM
 62
     0
100
AcDbDimension
280
     0
  2
*D8
 10
24884.49709870009
 20
-5316.777612823538
 30
0.0
 11
24790.58431188343
 21
-5264.325152147177
 31
0.0
 70
   164
  1
<>{\Ftxt|c134; [1"]}
 71
     5
 42
25.00000000002547
 73
     0
 74
     0
 75
     0
  3
ISO-25
100
AcDbRadialDimension
 15
24906.32347755379
 25
-5328.968149568724
 35
0.0
 40
0.0
1001
ACAD
1000
DSTYLE
1002
{
1070
    41
1040
5.0
1070
    42
1040
5.0
1070
    43
1040
5.0
1070
   140
1040
30.0
1070
   141
1040
0.0
1070
   179
1070
     1
1070
   279
1070
     1
1070
   288
1070
     1
1002
}
1001
AcadStringInfo
1000
MIFCodePage
1070
     5
  0
DIMENSION
  5
14655
102
{ACAD_XDICTIONARY
360
14656
102
}
102
{ACAD_REACTORS
330
14657
102
}
330
1F
100
AcDbEntity
  8
DIM
 62
     0
100
AcDbDimension
280
     0
  2
*D7
 10
24853.05504100638
 20
-5793.877456229494
 30
0.0
 11
24808.05504100637
 21
-5878.8774562295
 31
0.0
 70
    32
  1
<>{\Ftxt|c134; [2.95"]}
 71
     5
 42
75.00000000000091
 73
     0
 74
     0
 75
     0
  3
ISO-25
100
AcDbAlignedDimension
 13
24788.37334046633
 23
-5718.877456229491
 33
0.0
 14
24741.37334046633
 24
-5793.877456229492
 34
0.0
 50
90.0
100
AcDbRotatedDimension
1001
ACAD
1000
DSTYLE
1002
{
1070
    41
1040
5.0
1070
    42
1040
5.0
1070
    43
1040
5.0
1070
   140
1040
30.0
1070
   141
1040
0.0
1070
   179
1070
     1
1002
}
  0
CIRCLE
  5
14658
102
{ACAD_REACTORS
330
14657
102
}
330
1F
100
AcDbEntity
  8
base
 62
     0
100
AcDbCircle
 10
24741.37334046633
 20
-5718.877456229491
 30
0.0
 40
47.0
  0
CIRCLE
  5
14659
330
1F
100
AcDbEntity
  8
base
 62
     0
100
AcDbCircle
 10
24741.37334046633
 20
-5718.877456229491
 30
0.0
 40
57.0
  0
CIRCLE
  5
1465A
330
1F
100
AcDbEntity
  8
base
 62
     0
100
AcDbCircle
 10
24741.37334046633
 20
-5718.877456229491
 30
0.0
 40
60.0
  0
LINE
  5
1465B
330
1F
100
AcDbEntity
  8
DIM
  6
CENTER
 62
     0
100
AcDbLine
 10
24801.37334046633
 20
-5718.877456229491
 30
0.0
 11
24681.37334046633
 21
-5718.877456229491
 31
0.0
  0
LINE
  5
1465C
102
{ACAD_REACTORS
330
14657
102
}
330
1F
100
AcDbEntity
  8
DIM
  6
CENTER
 62
     0
100
AcDbLine
 10
24741.37334046633
 20
-5563.377456229491
 30
0.0
 11
24741.37334046633
 21
-6024.377456229492
 31
0.0
  0
LINE
  5
1465D
330
1F
100
AcDbEntity
  8
DIM
  6
CENTER
 62
     0
100
AcDbLine
 10
24946.87334046633
 20
-5793.877456229491
 30
0.0
 11
24535.87334046633
 21
-5793.877456229491
 31
0.0
  0
LWPOLYLINE
  5
1465E
102
{ACAD_REACTORS
330
14683
330
14686
330
14B01
330
20F41
102
}
330
1F
100
AcDbEntity
  8
base
 62
     0
100
AcDbPolyline
 90
        8
 70
     1
 43
0.0
 10
24893.17334046633
 20
-5996.877456229486
 42
0.4142135623730551
 10
24919.37334046633
 20
-5970.677456229486
 10
24919.37334046633
 20
-5617.07745622949
 42
0.4142135623730631
 10
24893.17334046633
 20
-5590.877456229492
 10
24589.57334046633
 20
-5590.877456229492
 42
0.4142135623730631
 10
24563.37334046633
 20
-5617.07745622949
 10
24563.37334046633
 20
-5970.677456229493
 42
0.4142135623730697
 10
24589.57334046633
 20
-5996.877456229493
  0
LINE
  5
1465F
102
{ACAD_REACTORS
330
14689
102
}
330
1F
100
AcDbEntity
  8
base
 62
     0
100
AcDbLine
 10
24535.87334046633
 20
-5117.430691615219
 30
0.0
 11
24946.87334046633
 21
-5117.430691615219
 31
0.0
  0
LINE
  5
14660
330
1F
100
AcDbEntity
  8
base
 62
     0
100
AcDbLine
 10
24563.37334046633
 20
-5117.430691615219
 30
0.0
 11
24563.37334046633
 21
-5118.190881184342
 31
0.0
  0
LINE
  5
14661
102
{ACAD_REACTORS
330
20EEB
102
}
330
1F
100
AcDbEntity
  8
base
 62
     0
100
AcDbLine
 10
24563.54036638364
 20
-5122.456214065746
 30
0.0
 11
24572.07451882654
 21
-5317.920440772621
 31
0.0
  0
ARC
  5
14662
330
1F
100
AcDbEntity
  8
base
 62
     0
100
AcDbCircle
 10
24559.54417349732
 20
-5122.630691615218
 30
0.0
 40
4.0
100
AcDbArc
 50
2.500000002574032
 51
90.0
  0
ARC
  5
14663
102
{ACAD_REACTORS
330
1468C
102
}
330
1F
100
AcDbEntity
  8
base
 62
     0
100
AcDbCircle
 10
24923.20250743533
 20
-5122.630691615218
 30
0.0
 40
4.0
100
AcDbArc
 50
90.0
 51
177.4999999974259
  0
LINE
  5
14664
330
1F
100
AcDbEntity
  8
base
 62
     0
100
AcDbLine
 10
24919.20631454902
 20
-5122.456214065746
 30
0.0
 11
24910.67216210612
 21
-5317.920440772612
 31
0.0
  0
LINE
  5
14665
330
1F
100
AcDbEntity
  8
base
 62
     0
100
AcDbLine
 10
24681.37334046633
 20
-5345.430691615218
 30
0.0
 11
24801.37334046632
 21
-5345.430691615218
 31
0.0
  0
LINE
  5
14666
330
1F
100
AcDbEntity
  8
base
 62
     0
100
AcDbLine
 10
24681.37334046634
 20
-5345.430691615218
 30
0.0
 11
24597.15909754844
 21
-5341.753818363096
 31
0.0
  0
LINE
  5
14667
330
1F
100
AcDbEntity
  8
base
 62
     0
100
AcDbLine
 10
24684.37334046633
 20
-5348.430691615218
 30
0.0
 11
24798.37334046633
 21
-5348.430691615217
 31
0.0
  0
LINE
  5
14668
330
1F
100
AcDbEntity
  8
base
 62
     0
100
AcDbLine
 10
24694.37334046633
 20
-5351.430691615218
 30
0.0
 11
24788.37334046632
 21
-5351.430691615218
 31
0.0
  0
LINE
  5
14669
330
1F
100
AcDbEntity
  8
base
 62
     0
100
AcDbLine
 10
24694.37334046633
 20
-5351.430691615218
 30
0.0
 11
24684.37334046633
 21
-5348.430691615218
 31
0.0
  0
LINE
  5
1466A
330
1F
100
AcDbEntity
  8
base
 62
     0
100
AcDbLine
 10
24684.37334046633
 20
-5348.430691615217
 30
0.0
 11
24681.37334046634
 21
-5345.430691615217
 31
0.0
  0
LINE
  5
1466B
102
{ACAD_REACTORS
330
20F0D
102
}
330
1F
100
AcDbEntity
  8
base
 62
     0
100
AcDbLine
 10
24680.85478687494
 20
-5346.609194298665
 30
0.0
 11
24597.1067542836
 21
-5342.952676228994
 31
0.0
  0
LINE
  5
1466C
330
1F
100
AcDbEntity
  8
base
 62
     0
100
AcDbLine
 10
24683.73874118951
 20
-5349.493148613237
 30
0.0
 11
24680.85478687494
 21
-5346.609194298665
 31
0.0
  0
LINE
  5
1466D
330
1F
100
AcDbEntity
  8
base
 62
     0
100
AcDbLine
 10
24694.19721786276
 20
-5352.630691615217
 30
0.0
 11
24683.73874118951
 21
-5349.493148613237
 31
0.0
  0
LINE
  5
1466E
330
1F
100
AcDbEntity
  8
base
 62
     0
100
AcDbLine
 10
24694.19721786276
 20
-5352.630691615217
 30
0.0
 11
24788.5494630699
 21
-5352.630691615217
 31
0.0
  0
LINE
  5
1466F
330
1F
100
AcDbEntity
  8
base
 62
     0
100
AcDbLine
 10
24564.73922424954
 20
-5122.403870800908
 30
0.0
 11
24573.27337669243
 21
-5317.86809750778
 31
0.0
  0
ARC
  5
14670
330
1F
100
AcDbEntity
  8
base
 62
     0
100
AcDbCircle
 10
24559.54417349732
 20
-5122.630691615218
 30
0.0
 40
5.2
100
AcDbArc
 50
2.500000002574032
 51
90.0
  0
LINE
  5
14671
330
1F
100
AcDbEntity
  8
base
 62
     0
100
AcDbLine
 10
24923.20250743533
 20
-5118.630691615218
 30
0.0
 11
24946.87334046633
 21
-5118.630691615216
 31
0.0
  0
ARC
  5
14672
330
1F
100
AcDbEntity
  8
base
 62
     0
100
AcDbCircle
 10
24923.20250743533
 20
-5122.630691615218
 30
0.0
 40
5.2
100
AcDbArc
 50
90.0
 51
177.4999999974259
  0
LINE
  5
14673
330
1F
100
AcDbEntity
  8
base
 62
     0
100
AcDbLine
 10
24918.00745668312
 20
-5122.403870800908
 30
0.0
 11
24909.47330424022
 21
-5317.868097507779
 31
0.0
  0
LINE
  5
14674
330
1F
100
AcDbEntity
  8
base
 62
     0
100
AcDbLine
 10
24919.37334046633
 20
-5117.430691615219
 30
0.0
 11
24919.37334046633
 21
-5118.190881184342
 31
0.0
  0
ARC
  5
14675
330
1F
100
AcDbEntity
  8
base
 62
     0
100
AcDbCircle
 10
24598.24958223256
 20
-5316.777612823546
 30
0.0
 40
25.0
100
AcDbArc
 50
182.5000000001792
 51
267.4999999998253
  0
ARC
  5
14676
330
1F
100
AcDbEntity
  8
base
 62
     0
100
AcDbCircle
 10
24598.24958223257
 20
-5316.777612823537
 30
0.0
 40
26.2
100
AcDbArc
 50
182.5000000001792
 51
267.4999999998253
  0
ARC
  5
14677
330
1F
100
AcDbEntity
  8
base
 62
     0
100
AcDbCircle
 10
24884.49709870009
 20
-5316.777612823537
 30
0.0
 40
26.2
100
AcDbArc
 50
272.5000000001747
 51
357.4999999998208
  0
ARC
  5
14678
102
{ACAD_REACTORS
330
14654
102
}
330
1F
100
AcDbEntity
  8
base
 62
     0
100
AcDbCircle
 10
24884.4970987001
 20
-5316.777612823546
 30
0.0
 40
25.0
100
AcDbArc
 50
272.5000000001747
 51
357.4999999998208
  0
LINE
  5
14679
330
1F
100
AcDbEntity
  8
base
 62
     0
100
AcDbLine
 10
24801.89189405772
 20
-5346.609194298665
 30
0.0
 11
24885.63992664905
 21
-5342.952676228994
 31
0.0
  0
LINE
  5
1467A
330
1F
100
AcDbEntity
  8
base
 62
     0
100
AcDbLine
 10
24801.37334046632
 20
-5345.430691615218
 30
0.0
 11
24885.58758338422
 21
-5341.753818363096
 31
0.0
  0
LINE
  5
1467B
330
1F
100
AcDbEntity
  8
base
 62
     0
100
AcDbLine
 10
24788.5494630699
 20
-5352.630691615217
 30
0.0
 11
24799.00793974315
 21
-5349.493148613237
 31
0.0
  0
LINE
  5
1467C
330
1F
100
AcDbEntity
  8
base
 62
     0
100
AcDbLine
 10
24799.00793974315
 20
-5349.493148613237
 30
0.0
 11
24801.89189405772
 21
-5346.609194298665
 31
0.0
  0
LINE
  5
1467D
330
1F
100
AcDbEntity
  8
base
 62
     0
100
AcDbLine
 10
24798.37334046633
 20
-5348.430691615217
 30
0.0
 11
24801.37334046632
 21
-5345.430691615217
 31
0.0
  0
LINE
  5
1467E
330
1F
100
AcDbEntity
  8
base
 62
     0
100
AcDbLine
 10
24788.37334046633
 20
-5351.430691615218
 30
0.0
 11
24798.37334046633
 21
-5348.430691615218
 31
0.0
  0
LINE
  5
1467F
330
1F
100
AcDbEntity
  8
base
 62
     0
100
AcDbLine
 10
24535.87334046633
 20
-5118.630691615218
 30
0.0
 11
24559.54417349732
 21
-5118.630691615218
 31
0.0
  0
LINE
  5
14680
330
1F
100
AcDbEntity
  8
DIM
  6
CENTER
 62
     0
100
AcDbLine
 10
24741.37334046632
 20
-5308.883964442891
 30
0.0
 11
24741.37334046632
 21
-5383.687731906898
 31
0.0
  0
DIMENSION
  5
14681
102
{ACAD_XDICTIONARY
360
14682
102
}
102
{ACAD_REACTORS
330
14683
102
}
330
1F
100
AcDbEntity
  8
DIM
 62
     0
100
AcDbDimension
280
     0
  2
*D6
 10
24919.37334046633
 20
-6095.480390092795
 30
0.0
 11
24741.3854313093
 21
-6075.480390092795
 31
0.0
 70
   160
  1
<>{\Ftxt|c134; [14"]}
 71
     7
 42
356.0
 73
     0
 74
     0
 75
     0
  3
ISO-25
100
AcDbAlignedDimension
 13
24563.37334046633
 23
-5970.677456229493
 33
0.0
 14
24919.37334046633
 24
-5970.677456229486
 34
0.0
100
AcDbRotatedDimension
1001
ACAD
1000
DSTYLE
1002
{
1070
    41
1040
5.0
1070
    42
1040
5.0
1070
    43
1040
5.0
1070
   140
1040
30.0
1070
   141
1040
0.0
1070
   179
1070
     1
1070
   279
1070
     2
1002
}
  0
DIMENSION
  5
14684
102
{ACAD_XDICTIONARY
360
14685
102
}
102
{ACAD_REACTORS
330
14686
102
}
330
1F
100
AcDbEntity
  8
DIM
 62
     0
100
AcDbDimension
280
     0
  2
*D5
 10
25020.60698330558
 20
-5996.877456229487
 30
0.0
 11
25000.60698330557
 21
-5793.877456229497
 31
0.0
 70
    32
  1
<>{\Ftxt|c134; [16"]}
 71
     5
 42
405.9999999999945
 73
     0
 74
     0
 75
     0
  3
ISO-25
100
AcDbAlignedDimension
 13
24893.17334046633
 23
-5590.877456229492
 33
0.0
 14
24893.17334046633
 24
-5996.877456229486
 34
0.0
 50
90.0
100
AcDbRotatedDimension
1001
ACAD
1000
DSTYLE
1002
{
1070
    41
1040
5.0
1070
    42
1040
5.0
1070
    43
1040
5.0
1070
   140
1040
30.0
1070
   141
1040
0.0
1070
   179
1070
     1
1002
}
  0
DIMENSION
  5
14687
102
{ACAD_XDICTIONARY
360
14688
102
}
102
{ACAD_REACTORS
330
14689
102
}
330
1F
100
AcDbEntity
  8
DIM
 62
     0
100
AcDbDimension
280
     0
  2
*D4
 10
25151.3932000531
 20
-5345.43069161522
 30
0.0
 11
25151.39320005309
 21
-5231.430691615212
 31
0.0
 70
   160
  1
<>{\Ftxt|c134; [9"]}
 71
     5
 42
227.9999999999991
 73
     0
 74
     0
 75
     0
  3
ISO-25
100
AcDbAlignedDimension
 13
24946.87334046633
 23
-5117.430691615219
 33
0.0
 14
24801.37334046632
 24
-5345.430691615218
 34
0.0
 50
90.0
100
AcDbRotatedDimension
1001
ACAD
1000
DSTYLE
1002
{
1070
    41
1040
5.0
1070
    42
1040
5.0
1070
    43
1040
5.0
1070
   140
1040
30.0
1070
   141
1040
0.0
1070
   179
1070
     1
1002
}
  0
DIMENSION
  5
1468A
102
{ACAD_XDICTIONARY
360
1468B
102
}
102
{ACAD_REACTORS
330
1468C
102
}
330
1F
100
AcDbEntity
  8
DIM
 62
     0
100
AcDbDimension
280
     0
  2
*D3
 10
24923.20250743533
 20
-5122.630691615215
 30
0.0
 11
24995.53114913732
 21
-5206.830261623317
 31
0.0
 70
   164
  1
R3{\Ftxt|c134; [.12"]}
 71
     5
 42
3.99999999998181
 73
     0
 74
     0
 75
     0
  3
ISO-25
100
AcDbRadialDimension
 15
24920.59606989653
 25
-5119.5964728762
 35
0.0
 40
0.0
1001
ACAD
1000
DSTYLE
1002
{
1070
    41
1040
5.0
1070
    42
1040
5.0
1070
    43
1040
5.0
1070
   140
1040
30.0
1070
   141
1040
0.0
1070
   179
1070
     1
1070
   279
1070
     1
1070
   288
1070
     1
1002
}
  0
LINE
  5
1468F
330
1F
100
AcDbEntity
  8
base
 62
     0
100
AcDbLine
 10
24946.87334046633
 20
-5117.430691615219
 30
0.0
 11
24946.87334046633
 21
-5118.630691615218
 31
0.0
  0
DIMENSION
  5
14696
330
1F
100
AcDbEntity
  8
DIM
 62
     0
100
AcDbDimension
280
     0
  2
*D2
 10
25087.11160271078
 20
-5563.377456229493
 30
0.0
 11
25067.11160271077
 21
-5793.877456229499
 31
0.0
 70
    32
  1
<>{\Ftxt|c134; [18.15"]}
 71
     5
 42
461.0
 73
     0
 74
     0
 75
     0
  3
ISO-25
100
AcDbAlignedDimension
 13
24893.37334046633
 23
-6024.37745622949
 33
0.0
 14
24893.37334046633
 24
-5563.377456229491
 34
0.0
 50
90.0
100
AcDbRotatedDimension
1001
ACAD
1000
DSTYLE
1002
{
1070
    41
1040
5.0
1070
    42
1040
5.0
1070
    43
1040
5.0
1070
   140
1040
30.0
1070
   141
1040
0.0
1070
   179
1070
     1
1002
}
  0
DIMENSION
  5
1477F
330
1F
100
AcDbEntity
  8
DIM
 62
     0
100
AcDbDimension
280
     0
  2
*D14
 10
24946.87334046633
 20
-6147.263346358915
 30
0.0
 11
24741.37334046633
 21
-6127.263346358915
 31
0.0
 70
    32
  1
<>{\Ftxt|c134; [16.18"]}
 71
     5
 42
411.0000000000036
 73
     0
 74
     0
 75
     0
  3
ISO-25
100
AcDbAlignedDimension
 13
24535.87334046633
 23
-5970.877456229491
 33
0.0
 14
24946.87334046633
 24
-5970.877456229491
 34
0.0
100
AcDbRotatedDimension
1001
ACAD
1000
DSTYLE
1002
{
1070
    41
1040
5.0
1070
    42
1040
5.0
1070
    43
1040
5.0
1070
   140
1040
30.0
1070
   141
1040
0.0
1070
   179
1070
     1
1002
}
  0
LINE
  5
147BB
330
1F
100
AcDbEntity
  8
base
 62
     0
100
AcDbLine
 10
24535.87334046632
 20
-5971.877456229492
 30
0.0
 11
24535.87334046633
 21
-5615.87745622949
 31
0.0
  0
LINE
  5
147BF
330
1F
100
AcDbEntity
  8
base
 62
     0
100
AcDbLine
 10
24946.87334046633
 20
-5615.877456229491
 30
0.0
 11
24946.87334046633
 21
-5971.877456229491
 31
0.0
  0
LINE
  5
147C1
330
1F
100
AcDbEntity
  8
base
 62
     0
100
AcDbLine
 10
24894.37334046633
 20
-6024.37745622949
 30
0.0
 11
24588.37334046632
 21
-6024.377456229493
 31
0.0
  0
ARC
  5
147D2
102
{ACAD_REACTORS
330
147E7
102
}
330
1F
100
AcDbEntity
  8
base
 62
     0
100
AcDbCircle
 10
24588.37334046633
 20
-5615.877456229491
 30
0.0
 40
52.5
100
AcDbArc
 50
90.0
 51
179.9999999999988
  0
ARC
  5
147D3
330
1F
100
AcDbEntity
  8
base
 62
     0
100
AcDbCircle
 10
24588.37334046632
 20
-5971.877456229493
 30
0.0
 40
52.5
100
AcDbArc
 50
179.9999999999988
 51
270.0000000000003
  0
ARC
  5
147D4
330
1F
100
AcDbEntity
  8
base
 62
     0
100
AcDbCircle
 10
24894.37334046633
 20
-5971.877456229491
 30
0.0
 40
52.5
100
AcDbArc
 50
270.0000000000003
 51
0.0
  0
ARC
  5
147D5
330
1F
100
AcDbEntity
  8
base
 62
     0
100
AcDbCircle
 10
24894.37334046633
 20
-5615.877456229491
 30
0.0
 40
52.5
100
AcDbArc
 50
0.0
 51
90.0
  0
DIMENSION
  5
147D6
102
{ACAD_XDICTIONARY
360
147E0
102
}
102
{ACAD_REACTORS
330
147E7
102
}
330
1F
100
AcDbEntity
  8
DIM
 62
     0
100
AcDbDimension
280
     0
  2
*D15
 10
24588.37334046633
 20
-5615.8774562295
 30
0.0
 11
24362.30484085253
 21
-5504.301099045886
 31
0.0
 70
    36
  1
4-<>{\Ftxt|c134; [2"]}
 71
     5
 42
52.5
 73
     0
 74
     0
 75
     0
  3
ISO-25
100
AcDbRadialDimension
 15
24538.69252674816
 25
-5598.904927004303
 35
0.0
 40
0.0
1001
ACAD
1000
DSTYLE
1002
{
1070
    41
1040
15.0
1070
    42
1040
5.0
1070
    43
1040
5.0
1070
   140
1040
30.0
1070
   141
1040
0.0
1070
   147
1040
15.0
1070
   179
1070
     1
1070
   288
1070
     1
1002
}
  0
INSERT
  5
14853
330
1F
100
AcDbEntity
  8
0
 62
     0
 48
0.0
100
AcDbBlockReference
  2
SE13
 10
21100.86383910394
 20
-8728.499000666404
 30
0.0
 41
8.063999999998486
 42
8.063999999998486
 43
8.063999999999998
  0
LWPOLYLINE
  5
1498B
102
{ACAD_REACTORS
330
20F41
102
}
330
1F
100
AcDbEntity
  8
base
 62
     0
100
AcDbPolyline
 90
        2
 70
     0
 43
0.0
 10
24588.37334046633
 20
-5563.377456229491
 10
24894.37334046633
 20
-5563.377456229491
  0
DIMENSION
  5
14AF2
102
{ACAD_XDICTIONARY
360
14AFB
102
}
102
{ACAD_REACTORS
330
14B01
102
}
330
1F
100
AcDbEntity
  8
DIM
 62
     0
100
AcDbDimension
280
     0
  2
*D16
 10
24589.57334046633
 20
-5970.677456229502
 30
0.0
 11
24655.43427121641
 21
-5911.114230991663
 31
0.0
 70
   164
  1
4-R25{\Ftxt|c134; [1"]}
 71
     5
 42
26.19999999999345
 73
     0
 74
     0
 75
     0
  3
ISO-25
100
AcDbRadialDimension
 15
24570.14139918646
 25
-5988.251290702823
 35
0.0
 40
0.0
1001
ACAD
1000
DSTYLE
1002
{
1070
    41
1040
15.0
1070
    42
1040
5.0
1070
    43
1040
5.0
1070
   140
1040
30.0
1070
   141
1040
0.0
1070
   147
1040
15.0
1070
   179
1070
     1
1070
   288
1070
     1
1002
}
  0
INSERT
  5
14BD9
330
1F
100
AcDbEntity
  8
0
 62
     0
 48
0.0
100
AcDbBlockReference
  2
SE13
 10
21100.86383910394
 20
-10812.70027735086
 30
0.0
 41
8.063999999998486
 42
8.063999999998486
 43
8.063999999999998
  0
INSERT
  5
158D7
330
1F
100
AcDbEntity
  8
0
 48
0.0
100
AcDbBlockReference
  2
SE13
 10
33085.47741958009
 20
-19501.57043010999
 30
0.0
 41
8.063999999998486
 42
8.063999999998486
 43
8.063999999999998
  0
INSERT
  5
15E0A
330
1F
100
AcDbEntity
  8
0
 48
0.0
100
AcDbBlockReference
  2
SE13
 10
36598.54309582438
 20
-19501.57043010999
 30
0.0
 41
8.063999999998486
 42
8.063999999998486
 43
8.063999999999998
  0
INSERT
  5
16214
330
1F
100
AcDbEntity
  8
0
 48
0.0
100
AcDbBlockReference
  2
SE13
 10
39583.7495423617
 20
-19501.57043010999
 30
0.0
 41
8.063999999998486
 42
8.063999999998486
 43
8.063999999999998
  0
INSERT
  5
163EE
330
1F
100
AcDbEntity
  8
0
 48
0.0
100
AcDbBlockReference
  2
SE13
 10
43515.78732784413
 20
-18950.4451481101
 30
0.0
 41
4.031999999999243
 42
4.031999999999243
 43
4.031999999999243
  0
INSERT
  5
16509
330
1F
100
AcDbEntity
  8
0
 48
0.0
100
AcDbBlockReference
  2
SE13
 10
44402.41599309879
 20
-19152.51685015296
 30
0.0
 41
5.64479999999894
 42
5.64479999999894
 43
5.644799999999998
  0
INSERT
  5
16578
330
1F
100
AcDbEntity
  8
0
 48
0.0
100
AcDbBlockReference
  2
SE13
 10
46717.94381932789
 20
-18989.95687077952
 30
0.0
 41
4.031999999999243
 42
4.031999999999243
 43
4.031999999999243
  0
INSERT
  5
16799
330
1F
100
AcDbEntity
  8
0
 48
0.0
100
AcDbBlockReference
  2
SE13
 10
47512.91963549451
 20
-19152.51685015296
 30
0.0
 41
5.64479999999894
 42
5.64479999999894
 43
5.644799999999998
  0
INSERT
  5
16859
330
1F
100
AcDbEntity
  8
0
 48
0.0
100
AcDbBlockReference
  2
SE13
 10
50042.53178858432
 20
-18950.4451481101
 30
0.0
 41
4.031999999999243
 42
4.031999999999243
 43
4.031999999999243
  0
INSERT
  5
16989
330
1F
100
AcDbEntity
  8
0
 48
0.0
100
AcDbBlockReference
  2
SE13
 10
32566.80503054657
 20
-19109.55787444112
 30
0.0
 41
4.031999999999243
 42
4.031999999999243
 43
4.031999999999243
  0
MTEXT
  5
183D3
330
1F
100
AcDbEntity
  8
6dim
100
AcDbMText
 10
46877.83987997606
 20
-23718.02019458323
 30
0.0
 40
15.0
 41
0.0
 46
0.0
 71
     9
 72
     1
  1

 73
     1
 44
1.0
  0
INSERT
  5
1C614
330
1F
100
AcDbEntity
  8
0
 62
     0
 48
0.0
100
AcDbBlockReference
  2
SE13
 10
24120.73252852143
 20
-8728.499000666404
 30
0.0
 41
8.063999999998486
 42
8.063999999998486
 43
8.063999999999998
  0
INSERT
  5
1C913
330
1F
100
AcDbEntity
  8
0
 62
     0
 48
0.0
100
AcDbBlockReference
  2
SE13
 10
28550.39267833755
 20
-9501.506783633516
 30
0.0
 41
2.903039999999455
 42
2.903039999999455
 43
2.903039999999455
  0
INSERT
  5
1CFE6
330
1F
100
AcDbEntity
  8
0
 48
0.0
100
AcDbBlockReference
  2
SE13
 10
29994.23364217829
 20
1233.750014580027
 30
0.0
 41
4.031999999999243
 42
4.031999999999243
 43
4.031999999999243
  0
INSERT
  5
1D508
330
1F
100
AcDbEntity
  8
0
 62
     4
 48
0.0
100
AcDbBlockReference
  2
SE13
 10
15038.94395954547
 20
-6757.236913592281
 30
0.0
 41
8.063999999998486
 42
8.063999999998486
 43
8.063999999999998
  0
INSERT
  5
20212
330
1F
100
AcDbEntity
  8
0
 62
     0
 48
0.0
100
AcDbBlockReference
  2
SE13
 10
18170.97857910349
 20
-10812.70027735086
 30
0.0
 41
8.063999999998486
 42
8.063999999998486
 43
8.063999999999998
  0
INSERT
  5
2078E
330
1F
100
AcDbEntity
  8
0
 62
     0
 48
0.0
100
AcDbBlockReference
  2
SE13
 10
18197.37821753476
 20
-6757.236913592281
 30
0.0
 41
8.063999999998486
 42
8.063999999998486
 43
8.063999999999998
  0
LINE
  5
20EC8
102
{ACAD_REACTORS
330
20EEB
102
}
330
1F
100
AcDbEntity
  8
base
100
AcDbLine
 10
24563.54036638364
 20
-5122.456214065746
 30
0.0
 11
24563.54036638364
 21
-5183.797478961889
 31
0.0
  0
DIMENSION
  5
20ECA
102
{ACAD_XDICTIONARY
360
20EDC
102
}
102
{ACAD_REACTORS
330
20EEB
102
}
330
1F
100
AcDbEntity
  8
base
100
AcDbDimension
280
     0
  2
*D17
 10
24572.07451882654
 20
-5317.920440772621
 30
0.0
 11
24529.41501709754
 21
-5178.346487606454
 31
0.0
 70
    34
 71
     5
 42
0.0436332312998484
 73
     0
 74
     0
 75
     0
  3
ISO-25
100
AcDb2LineAngularDimension
 13
24563.54036638364
 23
-5122.456214065746
 33
0.0
 14
24563.54036638364
 24
-5183.797478961889
 34
0.0
 15
24563.54036638364
 25
-5122.456214065746
 35
0.0
 16
24565.68517039486
 26
-5196.168346921596
 36
0.0
1001
ACAD
1000
DSTYLE
1002
{
1070
    41
1040
5.0
1070
    42
1040
5.0
1070
    43
1040
5.0
1070
   140
1040
15.0
1070
   141
1040
0.0
1070
   179
1070
     1
1002
}
  0
DIMENSION
  5
20EEC
102
{ACAD_XDICTIONARY
360
20EFE
102
}
102
{ACAD_REACTORS
330
20F0D
102
}
330
1F
100
AcDbEntity
  8
base
100
AcDbDimension
280
     0
  2
*D18
 10
24648.50475247359
 20
-5346.609194298665
 30
0.0
 11
24625.46654276129
 21
-5305.739544626202
 31
0.0
 70
    34
 71
     5
 42
0.0436332312998358
 73
     0
 74
     0
 75
     0
  3
ISO-25
100
AcDb2LineAngularDimension
 13
24680.85478687494
 23
-5346.609194298665
 33
0.0
 14
24597.1067542836
 24
-5342.952676228994
 34
0.0
 15
24680.85478687494
 25
-5346.609194298665
 35
0.0
 16
24630.97734055052
 26
-5345.883705090605
 36
0.0
1001
ACAD
1000
DSTYLE
1002
{
1070
    41
1040
5.0
1070
    42
1040
5.0
1070
    43
1040
5.0
1070
   140
1040
15.0
1070
   141
1040
0.0
1070
   179
1070
     1
1002
}
  0
DIMENSION
  5
20F28
102
{ACAD_XDICTIONARY
360
20F36
102
}
102
{ACAD_REACTORS
330
20F41
102
}
330
1F
100
AcDbEntity
  8
base
100
AcDbDimension
280
     0
  2
*D20
 10
24820.7681567251
 20
-5563.377456229493
 30
0.0
 11
24807.01815672509
 21
-5502.127456229499
 31
0.0
 70
    32
  1
<>{\Ftxt|c134; [1"]}
 71
     5
 42
27.5
 73
     0
 74
     0
 75
     0
  3
ISO-25
100
AcDbAlignedDimension
 13
24803.12351833208
 23
-5590.877456229492
 33
0.0
 14
24803.12351833208
 24
-5563.377456229491
 34
0.0
 50
90.0
100
AcDbRotatedDimension
1001
ACAD
1000
DSTYLE
1002
{
1070
    41
1040
5.0
1070
    42
1040
5.0
1070
    43
1040
5.0
1070
   140
1040
15.0
1070
   141
1040
0.0
1070
   179
1070
     1
1002
}
  0
ENDSEC
  0
SECTION
  2
OBJECTS
  0
DICTIONARY
  5
C
330
0
100
AcDbDictionary
281
     1
  3
ACAD_CIP_PREVIOUS_PRODUCT_INFO
350
20FA4
  3
ACAD_COLOR
350
6B
  3
ACAD_DETAILVIEWSTYLE
350
20F9B
  3
ACAD_GROUP
350
D
  3
ACAD_LAYOUT
350
1A
  3
ACAD_MATERIAL
350
6A
  3
ACAD_MLEADERSTYLE
350
20F97
  3
ACAD_MLINESTYLE
350
17
  3
ACAD_PLOTSETTINGS
350
19
  3
ACAD_PLOTSTYLENAME
350
E
  3
ACAD_SCALELIST
350
20F85
  3
ACAD_SECTIONVIEWSTYLE
350
20F99
  3
ACAD_TABLESTYLE
350
20EBC
  3
ACAD_VISUALSTYLE
350
20EAB
  3
AcadDim
350
1893F
  3
ACDB_RECOMPOSE_DATA
350
21228
  3
AcDbVariableDictionary
350
5E
  3
ASE_INDEX_DICTIONARY
350
1CC5A
  3
lxx_dict
350
20F67
  0
DICTIONARY
  5
210AD
330
2
100
AcDbDictionary
280
     1
281
     1
  3
ACAD_LAYERSTATES
360
210AE
  0
DICTIONARY
  5
20FB2
330
10
100
AcDbDictionary
280
     1
281
     1
  3
ADSK_XREC_LAYER_RECONCILED
360
20FB3
  0
DICTIONARY
  5
20FB4
330
84
100
AcDbDictionary
280
     1
281
     1
  3
ADSK_XREC_LAYER_RECONCILED
360
20FB5
  0
DICTIONARY
  5
20FB6
330
2D93
100
AcDbDictionary
280
     1
281
     1
  3
ADSK_XREC_LAYER_RECONCILED
360
20FB7
  0
DICTIONARY
  5
20FB8
330
3309
100
AcDbDictionary
280
     1
281
     1
  3
ADSK_XREC_LAYER_RECONCILED
360
20FB9
  0
DICTIONARY
  5
20FBA
330
57C0
100
AcDbDictionary
280
     1
281
     1
  3
ADSK_XREC_LAYER_RECONCILED
360
20FBB
  0
DICTIONARY
  5
145E9
330
145E8
100
AcDbDictionary
280
     1
281
     1
  3
ACAD_DIMASSOC
360
145EA
  0
DICTIONARY
  5
145EC
330
145EB
100
AcDbDictionary
280
     1
281
     1
  3
ACAD_DIMASSOC
360
145ED
  0
DICTIONARY
  5
145EF
330
145EE
100
AcDbDictionary
280
     1
281
     1
  3
ACAD_DIMASSOC
360
145F0
  0
DICTIONARY
  5
145F2
330
145F1
100
AcDbDictionary
280
     1
281
     1
  3
ACAD_DIMASSOC
360
145F3
  0
DICTIONARY
  5
145F5
330
145F4
100
AcDbDictionary
280
     1
281
     1
  3
ACAD_DIMASSOC
360
145F6
  0
DICTIONARY
  5
14653
330
14652
100
AcDbDictionary
280
     1
281
     1
  3
ACAD_DIMASSOC
360
14654
  0
DICTIONARY
  5
14656
330
14655
100
AcDbDictionary
280
     1
281
     1
  3
ACAD_DIMASSOC
360
14657
  0
DICTIONARY
  5
14682
330
14681
100
AcDbDictionary
280
     1
281
     1
  3
ACAD_DIMASSOC
360
14683
  0
DICTIONARY
  5
14685
330
14684
100
AcDbDictionary
280
     1
281
     1
  3
ACAD_DIMASSOC
360
14686
  0
DICTIONARY
  5
14688
330
14687
100
AcDbDictionary
280
     1
281
     1
  3
ACAD_DIMASSOC
360
14689
  0
DICTIONARY
  5
1468B
330
1468A
100
AcDbDictionary
280
     1
281
     1
  3
ACAD_DIMASSOC
360
1468C
  0
DICTIONARY
  5
147E0
330
147D6
100
AcDbDictionary
280
     1
281
     1
  3
ACAD_DIMASSOC
360
147E7
  0
DICTIONARY
  5
14AFB
330
14AF2
100
AcDbDictionary
280
     1
281
     1
  3
ACAD_DIMASSOC
360
14B01
  0
DICTIONARY
  5
20EDC
330
20ECA
100
AcDbDictionary
280
     1
281
     1
  3
ACAD_DIMASSOC
360
20EEB
  0
DICTIONARY
  5
20EFE
330
20EEC
100
AcDbDictionary
280
     1
281
     1
  3
ACAD_DIMASSOC
360
20F0D
  0
DICTIONARY
  5
20F36
330
20F28
100
AcDbDictionary
280
     1
281
     1
  3
ACAD_DIMASSOC
360
20F41
  0
XRECORD
  5
20FA4
102
{ACAD_REACTORS
330
C
102
}
330
C
100
AcDbXrecord
280
     1
300
ACDLT
300
2018
300

  0
DICTIONARY
  5
6B
102
{ACAD_REACTORS
330
C
102
}
330
C
100
AcDbDictionary
281
     1
  0
DICTIONARY
  5
20F9B
102
{ACAD_REACTORS
330
C
102
}
330
C
100
AcDbDictionary
281
     1
  3
Metric50
350
20F9C
  0
DICTIONARY
  5
D
102
{ACAD_REACTORS
330
C
102
}
330
C
100
AcDbDictionary
281
     1
  0
DICTIONARY
  5
1A
102
{ACAD_REACTORS
330
C
102
}
330
C
100
AcDbDictionary
281
     1
  3
Layout1
350
51
  3
Layout2
350
56
  3
Model
350
22
  0
DICTIONARY
  5
6A
102
{ACAD_REACTORS
330
C
102
}
330
C
100
AcDbDictionary
281
     1
  3
ByBlock
350
20EA9
  3
ByLayer
350
20EA8
  3
Global
350
20EAA
  0
DICTIONARY
  5
20F97
102
{ACAD_REACTORS
330
C
102
}
330
C
100
AcDbDictionary
281
     1
  3
Standard
350
20F98
  0
DICTIONARY
  5
17
102
{ACAD_REACTORS
330
C
102
}
330
C
100
AcDbDictionary
281
     1
  3
Standard
350
18
  0
DICTIONARY
  5
19
102
{ACAD_REACTORS
330
C
102
}
330
C
100
AcDbDictionary
281
     1
  0
ACDBDICTIONARYWDFLT
  5
E
102
{ACAD_REACTORS
330
C
102
}
330
C
100
AcDbDictionary
281
     1
  3
Normal
350
F
100
AcDbDictionaryWithDefault
340
F
  0
DICTIONARY
  5
20F85
102
{ACAD_REACTORS
330
C
102
}
330
C
100
AcDbDictionary
281
     1
  3
A0
350
20F86
  3
A1
350
20F87
  3
A2
350
20F88
  3
A3
350
20F89
  3
A4
350
20F8A
  3
A5
350
20F8B
  3
A6
350
20F8C
  3
A7
350
20F8D
  3
A8
350
20F8E
  3
A9
350
20F8F
  3
B0
350
20F90
  3
B1
350
20F91
  3
B2
350
20F92
  3
B3
350
20F93
  3
B4
350
20F94
  3
B5
350
20F95
  3
B6
350
20F96
  0
DICTIONARY
  5
20F99
102
{ACAD_REACTORS
330
C
102
}
330
C
100
AcDbDictionary
281
     1
  3
Metric50
350
20F9A
  0
DICTIONARY
  5
20EBC
102
{ACAD_REACTORS
330
C
102
}
330
C
100
AcDbDictionary
281
     1
  3
Standard
350
20EBD
  0
DICTIONARY
  5
20EAB
102
{ACAD_REACTORS
330
C
102
}
330
C
100
AcDbDictionary
281
     1
  3
2dWireframe
350
20EB1
  3
3D Hidden
350
20EB3
  3
3dWireframe
350
20EB2
  3
Basic
350
20EB0
  3
Brighten
350
20EB7
  3
ColorChange
350
20EBB
  3
Conceptual
350
20EB4
  3
Dim
350
20EB6
  3
EdgeColorOff
350
20F84
  3
Facepattern
350
20EBA
  3
Flat
350
20EAC
  3
FlatWithEdges
350
20EAD
  3
Gouraud
350
20EAE
  3
GouraudWithEdges
350
20EAF
  3
Hidden
350
20F7C
  3
JitterOff
350
20F82
  3
Linepattern
350
20EB9
  3
OverhangOff
350
20F83
  3
Realistic
350
20EB5
  3
Shaded
350
20F81
  3
Shaded with edges
350
20F80
  3
Shades of Gray
350
20F7D
  3
Sketchy
350
20F7E
  3
Thicken
350
20EB8
  3
Wireframe
350
20F7B
  3
X-Ray
350
20F7F
  0
XRECORD
  5
1893F
102
{ACAD_REACTORS
330
C
102
}
330
C
100
AcDbXrecord
280
     1
 90
   990106
  3

 60
     0
 61
     0
 62
     1
 63
     3
 64
     0
 65
     0
 66
     0
 67
     3
 68
     1
 69
     0
 70
     0
 71
     0
 72
     0
 40
0.0
170
     0
340
0
  0
XRECORD
  5
21228
102
{ACAD_REACTORS
330
C
102
}
330
C
100
AcDbXrecord
280
     1
 90
        1
330
145F1
330
14681
330
20EBD
  0
DICTIONARY
  5
5E
102
{ACAD_REACTORS
330
C
102
}
330
C
100
AcDbDictionary
281
     1
  3
CANNOSCALE
350
20FC1
  3
CMLEADERSTYLE
350
20FBD
  3
CTABLESTYLE
350
20EC9
  3
CVIEWDETAILSTYLE
350
20FBE
  3
CVIEWSECTIONSTYLE
350
20FBF
  3
DIMASSOC
350
5F
  3
HIDETEXT
350
63
  3
LAYEREVAL
350
20FC3
  3
LAYERNOTIFY
350
20FC4
  3
LIGHTINGUNITS
350
20FC2
  3
MSLTSCALE
350
20FC0
  3
PROJECTNAME
350
1CF
  0
DICTIONARY
  5
1CC5A
102
{ACAD_REACTORS
330
C
102
}
330
C
100
AcDbDictionary
281
     1
  3
ASEBlockHierarchyIndexRecord
350
1CC5C
1001
DCO15
1040
1648296996.796
  0
DICTIONARY
  5
20F67
102
{ACAD_REACTORS
330
C
102
}
330
C
100
AcDbDictionary
281
     1
  3
lxx_dimth
350
20F68
  0
DICTIONARY
  5
210AE
102
{ACAD_REACTORS
330
210AD
102
}
330
210AD
100
AcDbDictionary
281
     1
  0
XRECORD
  5
20FB3
102
{ACAD_REACTORS
330
20FB2
102
}
330
20FB2
100
AcDbXrecord
280
     1
290
     1
  0
XRECORD
  5
20FB5
102
{ACAD_REACTORS
330
20FB4
102
}
330
20FB4
100
AcDbXrecord
280
     1
290
     1
  0
XRECORD
  5
20FB7
102
{ACAD_REACTORS
330
20FB6
102
}
330
20FB6
100
AcDbXrecord
280
     1
290
     1
  0
XRECORD
  5
20FB9
102
{ACAD_REACTORS
330
20FB8
102
}
330
20FB8
100
AcDbXrecord
280
     1
290
     1
  0
XRECORD
  5
20FBB
102
{ACAD_REACTORS
330
20FBA
102
}
330
20FBA
100
AcDbXrecord
280
     1
290
     1
  0
DIMASSOC
  5
145EA
102
{ACAD_REACTORS
330
145E9
102
}
330
145E9
100
AcDbDimAssoc
330
145E8
 90
        3
 70
     0
 71
     0
  1
AcDbOsnapPointRef
 72
     1
331
145FE
 73
     2
 91
        0
 40
1.0
 10
0.0
 20
0.0
 30
2.000000000000000E+50
 75
     0
  1
AcDbOsnapPointRef
 72
     1
331
14606
 73
     2
 91
        0
 40
1.0
 10
0.0
 20
0.0
 30
2.000000000000000E+50
 75
     0
  0
DIMASSOC
  5
145ED
102
{ACAD_REACTORS
330
145EC
102
}
330
145EC
100
AcDbDimAssoc
330
145EB
 90
        3
 70
     0
 71
     0
  1
AcDbOsnapPointRef
 72
     1
331
14606
 73
     2
 91
        0
 40
1.0
 10
0.0
 20
0.0
 30
2.000000000000000E+50
 75
     0
  1
AcDbOsnapPointRef
 72
     1
331
145FD
 73
     2
 91
        0
 40
1.0
 10
0.0
 20
0.0
 30
2.000000000000000E+50
 75
     0
  0
DIMASSOC
  5
145F0
102
{ACAD_REACTORS
330
145EF
102
}
330
145EF
100
AcDbDimAssoc
330
145EE
 90
        3
 70
     0
 71
     0
  1
AcDbOsnapPointRef
 72
     1
331
14606
 73
     2
 91
        0
 40
1.0
 10
0.0
 20
0.0
 30
2.000000000000000E+50
 75
     0
  1
AcDbOsnapPointRef
 72
     1
331
14600
 73
     2
 91
        0
 40
1.0
 10
0.0
 20
0.0
 30
2.000000000000000E+50
 75
     0
  0
DIMASSOC
  5
145F3
102
{ACAD_REACTORS
330
145F2
102
}
330
145F2
100
AcDbDimAssoc
330
145F1
 90
        3
 70
     0
 71
     0
  1
AcDbOsnapPointRef
 72
     1
331
145FD
 73
     2
 91
        0
 40
1.0
 10
0.0
 20
0.0
 30
2.000000000000000E+50
 75
     0
  1
AcDbOsnapPointRef
 72
    13
331
14600
 73
     2
 91
        0
 40
0.0
 10
0.0
 20
0.0
 30
2.000000000000000E+50
 75
     0
  0
DIMASSOC
  5
145F6
102
{ACAD_REACTORS
330
145F5
102
}
330
145F5
100
AcDbDimAssoc
330
145F4
 90
        3
 70
     0
 71
     0
  1
AcDbOsnapPointRef
 72
     1
331
145FE
 73
     2
 91
        0
 40
1.0
 10
0.0
 20
0.0
 30
2.000000000000000E+50
 75
     0
  1
AcDbOsnapPointRef
 72
    13
331
145FE
 73
     2
 91
        0
 40
0.0
 10
0.0
 20
0.0
 30
2.000000000000000E+50
 75
     0
  0
DIMASSOC
  5
14654
102
{ACAD_REACTORS
330
14653
102
}
330
14653
100
AcDbDimAssoc
330
14652
 90
        2
 70
     0
 71
     0
  1
AcDbOsnapPointRef
 72
     3
331
14678
 73
     2
 91
        0
 40
0.0
 10
0.0
 20
0.0
 30
0.0
 75
     0
  0
DIMASSOC
  5
14657
102
{ACAD_REACTORS
330
14656
102
}
330
14656
100
AcDbDimAssoc
330
14655
 90
        3
 70
     0
 71
     0
  1
AcDbOsnapPointRef
 72
     5
331
14658
 73
     2
 91
        0
 40
0.0
 10
0.0
 20
0.0
 30
0.0
 75
     0
  1
AcDbOsnapPointRef
 72
     2
331
1465C
 73
     2
 91
        0
 40
0.4999999999999995
 10
0.0
 20
0.0
 30
0.0
 75
     0
  0
DIMASSOC
  5
14683
102
{ACAD_REACTORS
330
14682
102
}
330
14682
100
AcDbDimAssoc
330
14681
 90
        3
 70
     0
 71
     0
  1
AcDbOsnapPointRef
 72
     1
331
1465E
 73
     2
 91
        6
 40
1.0
 10
0.0
 20
0.0
 30
2.000000000000000E+50
 75
     0
  1
AcDbOsnapPointRef
 72
    13
331
1465E
 73
     2
 91
        2
 40
-0.0000000000000003
 10
0.0
 20
0.0
 30
2.000000000000000E+50
 75
     0
  0
DIMASSOC
  5
14686
102
{ACAD_REACTORS
330
14685
102
}
330
14685
100
AcDbDimAssoc
330
14684
 90
        3
 70
     0
 71
     0
  1
AcDbOsnapPointRef
 72
    13
331
1465E
 73
     2
 91
        4
 40
0.0
 10
0.0
 20
0.0
 30
2.000000000000000E+50
 75
     0
  1
AcDbOsnapPointRef
 72
     1
331
1465E
 73
     2
 91
        8
 40
1.0
 10
0.0
 20
0.0
 30
2.000000000000000E+50
 75
     0
  0
DIMASSOC
  5
14689
102
{ACAD_REACTORS
330
14688
102
}
330
14688
100
AcDbDimAssoc
330
14687
 90
        1
 70
     0
 71
     0
  1
AcDbOsnapPointRef
 72
     1
331
1465F
 73
     2
 91
        0
 40
1.0
 10
0.0
 20
0.0
 30
2.000000000000000E+50
 75
     0
  0
DIMASSOC
  5
1468C
102
{ACAD_REACTORS
330
1468B
102
}
330
1468B
100
AcDbDimAssoc
330
1468A
 90
        2
 70
     0
 71
     0
  1
AcDbOsnapPointRef
 72
     3
331
14663
 73
     2
 91
        0
 40
0.0
 10
0.0
 20
0.0
 30
0.0
 75
     0
  0
DIMASSOC
  5
147E7
102
{ACAD_REACTORS
330
147E0
102
}
330
147E0
100
AcDbDimAssoc
330
147D6
 90
        2
 70
     0
 71
     0
  1
AcDbOsnapPointRef
 72
     3
331
147D2
 73
     2
 91
        0
 40
0.0
 10
0.0
 20
0.0
 30
0.0
 75
     0
  0
DIMASSOC
  5
14B01
102
{ACAD_REACTORS
330
14AFB
102
}
330
14AFB
100
AcDbDimAssoc
330
14AF2
 90
        2
 70
     0
 71
     0
  1
AcDbOsnapPointRef
 72
     3
331
1465E
 73
     2
 91
        7
 40
0.0
 10
0.0
 20
0.0
 30
0.0
 75
     0
  0
DIMASSOC
  5
20EEB
102
{ACAD_REACTORS
330
20EDC
102
}
330
20EDC
100
AcDbDimAssoc
330
20ECA
 90
       15
 70
     0
 71
     0
  1
AcDbOsnapPointRef
 72
    13
331
20EC8
 73
     2
 91
        0
 40
0.0
 10
0.0
 20
0.0
 30
2.000000000000000E+50
 75
     0
  1
AcDbOsnapPointRef
 72
     1
331
20EC8
 73
     2
 91
        0
 40
1.0
 10
0.0
 20
0.0
 30
2.000000000000000E+50
 75
     0
  1
AcDbOsnapPointRef
 72
    13
331
14661
 73
     2
 91
        0
 40
0.0
 10
0.0
 20
0.0
 30
2.000000000000000E+50
 75
     0
  1
AcDbOsnapPointRef
 72
     1
331
14661
 73
     2
 91
        0
 40
0.9999999999999998
 10
0.0
 20
0.0
 30
2.000000000000000E+50
 75
     0
  0
DIMASSOC
  5
20F0D
102
{ACAD_REACTORS
330
20EFE
102
}
330
20EFE
100
AcDbDimAssoc
330
20EEC
 90
       15
 70
     0
 71
     0
  1
AcDbOsnapPointRef
 72
    13
331
1466B
 73
     2
 91
        0
 40
0.0
 10
0.0
 20
0.0
 30
2.000000000000000E+50
 75
     0
  1
AcDbOsnapPointRef
 72
     1
331
1466B
 73
     2
 91
        0
 40
0.9999999999999998
 10
0.0
 20
0.0
 30
2.000000000000000E+50
 75
     0
  1
AcDbOsnapPointRef
 72
    13
331
145DA
 73
     2
 91
        0
 40
0.0
 10
0.0
 20
0.0
 30
2.000000000000000E+50
 75
     0
  1
AcDbOsnapPointRef
 72
     1
331
145DA
 73
     2
 91
        0
 40
1.0
 10
0.0
 20
0.0
 30
2.000000000000000E+50
 75
     0
  0
DIMASSOC
  5
20F41
102
{ACAD_REACTORS
330
20F36
102
}
330
20F36
100
AcDbDimAssoc
330
20F28
 90
        3
 70
     0
 71
     0
  1
AcDbOsnapPointRef
 72
    10
331
1465E
 73
     2
 91
        4
 40
0.2966067922735436
 10
0.0
 20
0.0
 30
0.0
 75
     0
  1
AcDbOsnapPointRef
 72
     8
331
1498B
 73
     2
 91
        1
 40
0.7017979668815434
 10
0.0
 20
0.0
 30
0.0
 75
     1
  1
AcDbOsnapPointRef
 72
    10
331
1465E
 73
     2
 91
        4
 40
0.2966067922735436
 10
0.0
 20
0.0
 30
0.0
 75
     0
  0
ACDBDETAILVIEWSTYLE
  5
20F9C
102
{ACAD_REACTORS
330
20F9B
102
}
330
20F9B
100
AcDbModelDocViewStyle
 70
     0
  3
Metric50
290
     1
300
Metric50
 90
        0
100
AcDbDetailViewStyle
 70
     0
 71
     0
 90
        3
 71
     1
340
11
 62
   256
 40
5.0
340
0
 62
   256
 40
5.0
300

 40
0.0
280
     1
 71
     2
340
16
 90
       25
 62
   256
 71
     3
340
11
 62
   256
 40
5.0
 90
        0
 40
15.0
 90
        1
300
%<\AcVar ViewDetailId>% (%<\AcVar ViewScale \f "%sn">%)
 71
     4
340
16
 90
       25
 62
   256
340
16
 90
       25
 62
   256
280
     0
  0
LAYOUT
  5
51
102
{ACAD_REACTORS
330
1A
102
}
330
1A
100
AcDbPlotSettings
  1

  2
None
  4

  6

 40
0.0
 41
0.0
 42
0.0
 43
0.0
 44
0.0
 45
0.0
 46
0.0
 47
0.0
 48
0.0
 49
0.0
140
0.0
141
0.0
142
1.0
143
1.0
 70
   688
 72
     0
 73
     0
 74
     5
  7

 75
    16
147
1.0
 76
     0
 77
     2
 78
   300
148
0.0
149
0.0
100
AcDbLayout
  1
Layout1
 70
     1
 71
     1
 10
0.0
 20
0.0
 11
12.0
 21
9.0
 12
0.0
 22
0.0
 32
0.0
 14
0.0
 24
0.0
 34
0.0
 15
0.0
 25
0.0
 35
0.0
146
0.0
 13
0.0
 23
0.0
 33
0.0
 16
1.0
 26
0.0
 36
0.0
 17
0.0
 27
1.0
 37
0.0
 76
     0
330
50
  0
LAYOUT
  5
56
102
{ACAD_REACTORS
330
1A
102
}
330
1A
100
AcDbPlotSettings
  1

  2
None
  4

  6

 40
0.0
 41
0.0
 42
0.0
 43
0.0
 44
0.0
 45
0.0
 46
0.0
 47
0.0
 48
0.0
 49
0.0
140
0.0
141
0.0
142
1.0
143
1.0
 70
   688
 72
     0
 73
     0
 74
     5
  7

 75
    16
147
1.0
 76
     0
 77
     2
 78
   300
148
0.0
149
0.0
100
AcDbLayout
  1
Layout2
 70
     1
 71
     2
 10
0.0
 20
0.0
 11
12.0
 21
9.0
 12
0.0
 22
0.0
 32
0.0
 14
0.0
 24
0.0
 34
0.0
 15
0.0
 25
0.0
 35
0.0
146
0.0
 13
0.0
 23
0.0
 33
0.0
 16
1.0
 26
0.0
 36
0.0
 17
0.0
 27
1.0
 37
0.0
 76
     0
330
55
  0
LAYOUT
  5
22
102
{ACAD_REACTORS
330
1A
102
}
330
1A
100
AcDbPlotSettings
  1

  2
EPSON ME 1
  4
A4
  6

 40
3.757083177566528
 41
13.28207111358642
 42
3.757080078125
 43
3.757080078125
 44
209.9733276367187
 45
296.9683227539062
 46
0.0
 47
37.33
 48
26648.52676146108
 49
-6394.357991630095
140
29428.85600104148
141
-3652.213276987541
142
1.0
143
13.54418666611628
 70
 11956
 72
     1
 73
     1
 74
     4
  7

 75
     0
147
0.0738324142048128
 76
     0
 77
     2
 78
   180
148
-26648.52676146108
149
6394.357991630095
100
AcDbLayout
  1
Model
 70
     1
 71
     0
 10
0.0
 20
0.0
 11
12.0
 21
9.0
 12
0.0
 22
0.0
 32
0.0
 14
0.0
 24
0.0
 34
0.0
 15
0.0
 25
0.0
 35
0.0
146
0.0
 13
0.0
 23
0.0
 33
0.0
 16
1.0
 26
0.0
 36
0.0
 17
0.0
 27
1.0
 37
0.0
 76
     0
330
1F
331
20EA6
  0
MATERIAL
  5
20EA9
102
{ACAD_REACTORS
330
6A
102
}
330
6A
100
AcDbMaterial
  1
ByBlock
 73
     1
 78
     1
172
     1
176
     1
270
     1
274
     1
 94
       63
  0
MATERIAL
  5
20EA8
102
{ACAD_REACTORS
330
6A
102
}
330
6A
100
AcDbMaterial
  1
ByLayer
 73
     1
 78
     1
172
     1
176
     1
270
     1
274
     1
 94
       63
  0
MATERIAL
  5
20EAA
102
{ACAD_REACTORS
330
6A
102
}
330
6A
100
AcDbMaterial
  1
Global
 73
     1
 78
     1
172
     1
176
     1
270
     1
274
     1
 94
       63
  0
MLEADERSTYLE
  5
20F98
102
{ACAD_REACTORS
330
20F97
102
}
330
20F97
100
AcDbMLeaderStyle
179
     2
170
     2
171
     1
172
     0
 90
        2
 40
0.0
 41
0.0
173
     1
 91
-1056964608
340
14
 92
       -2
290
     1
 42
2.0
291
     1
 43
0.36
  3
Standard
 44
4.0
300

342
11
174
     1
178
     6
175
     1
176
     0
 93
-1056964608
 45
4.0
292
     0
297
     0
 46
4.0
 94
-1056964608
 47
1.0
 49
1.0
140
1.0
293
     1
141
0.0
294
     1
177
     0
142
1.0
295
     1
296
     0
143
0.125
271
     0
272
     9
273
     9
298
     1
  0
MLINESTYLE
  5
18
102
{ACAD_REACTORS
330
17
102
}
330
17
100
AcDbMlineStyle
  2
STANDARD
 70
     0
  3

 62
   256
 51
90.0
 52
90.0
 71
     2
 49
0.5
 62
   256
  6
BYLAYER
 49
-0.5
 62
   256
  6
BYLAYER
  0
ACDBPLACEHOLDER
  5
F
102
{ACAD_REACTORS
330
E
102
}
330
E
  0
SCALE
  5
20F86
102
{ACAD_REACTORS
330
20F85
102
}
330
20F85
100
AcDbScale
 70
     0
300
1:1
140
1.0
141
1.0
290
     1
  0
SCALE
  5
20F87
102
{ACAD_REACTORS
330
20F85
102
}
330
20F85
100
AcDbScale
 70
     0
300
1:2
140
1.0
141
2.0
290
     0
  0
SCALE
  5
20F88
102
{ACAD_REACTORS
330
20F85
102
}
330
20F85
100
AcDbScale
 70
     0
300
1:4
140
1.0
141
4.0
290
     0
  0
SCALE
  5
20F89
102
{ACAD_REACTORS
330
20F85
102
}
330
20F85
100
AcDbScale
 70
     0
300
1:5
140
1.0
141
5.0
290
     0
  0
SCALE
  5
20F8A
102
{ACAD_REACTORS
330
20F85
102
}
330
20F85
100
AcDbScale
 70
     0
300
1:8
140
1.0
141
8.0
290
     0
  0
SCALE
  5
20F8B
102
{ACAD_REACTORS
330
20F85
102
}
330
20F85
100
AcDbScale
 70
     0
300
1:10
140
1.0
141
10.0
290
     0
  0
SCALE
  5
20F8C
102
{ACAD_REACTORS
330
20F85
102
}
330
20F85
100
AcDbScale
 70
     0
300
1:16
140
1.0
141
16.0
290
     0
  0
SCALE
  5
20F8D
102
{ACAD_REACTORS
330
20F85
102
}
330
20F85
100
AcDbScale
 70
     0
300
1:20
140
1.0
141
20.0
290
     0
  0
SCALE
  5
20F8E
102
{ACAD_REACTORS
330
20F85
102
}
330
20F85
100
AcDbScale
 70
     0
300
1:30
140
1.0
141
30.0
290
     0
  0
SCALE
  5
20F8F
102
{ACAD_REACTORS
330
20F85
102
}
330
20F85
100
AcDbScale
 70
     0
300
1:40
140
1.0
141
40.0
290
     0
  0
SCALE
  5
20F90
102
{ACAD_REACTORS
330
20F85
102
}
330
20F85
100
AcDbScale
 70
     0
300
1:50
140
1.0
141
50.0
290
     0
  0
SCALE
  5
20F91
102
{ACAD_REACTORS
330
20F85
102
}
330
20F85
100
AcDbScale
 70
     0
300
1:100
140
1.0
141
100.0
290
     0
  0
SCALE
  5
20F92
102
{ACAD_REACTORS
330
20F85
102
}
330
20F85
100
AcDbScale
 70
     0
300
2:1
140
2.0
141
1.0
290
     0
  0
SCALE
  5
20F93
102
{ACAD_REACTORS
330
20F85
102
}
330
20F85
100
AcDbScale
 70
     0
300
4:1
140
4.0
141
1.0
290
     0
  0
SCALE
  5
20F94
102
{ACAD_REACTORS
330
20F85
102
}
330
20F85
100
AcDbScale
 70
     0
300
8:1
140
8.0
141
1.0
290
     0
  0
SCALE
  5
20F95
102
{ACAD_REACTORS
330
20F85
102
}
330
20F85
100
AcDbScale
 70
     0
300
10:1
140
10.0
141
1.0
290
     0
  0
SCALE
  5
20F96
102
{ACAD_REACTORS
330
20F85
102
}
330
20F85
100
AcDbScale
 70
     0
300
100:1
140
100.0
141
1.0
290
     0
  0
ACDBSECTIONVIEWSTYLE
  5
20F9A
102
{ACAD_REACTORS
330
20F99
102
}
330
20F99
100
AcDbModelDocViewStyle
 70
     0
  3
Metric50
290
     1
300
Metric50
 90
        0
100
AcDbSectionViewStyle
 70
     0
 71
     0
 90
      102
 71
     1
340
11
 62
   256
 40
5.0
340
0
340
0
 62
   256
 40
5.0
300
I, O, Q, S, X, Z
 40
10.0
 90
        0
 40
2.5
 90
        0
 71
     2
340
16
 90
       25
 62
   256
340
16
 90
       50
 62
   256
 40
5.0
 40
2.5
 40
5.0
 71
     3
340
11
 62
   256
 40
5.0
 90
        0
 40
15.0
 90
        1
300
%<\AcVar ViewSectionStartId>%-%<\AcVar ViewSectionEndId>% (%<\AcVar ViewScale \f "%sn">%)
 71
     4
 62
   256
 62
   257
300
ANSI31
 40
1.0
 90
        0
290
     0
290
     0
 90
        6
 40
0.0
 40
1.570796326794896
 40
0.2617993877991494
 40
1.308996938995747
 40
-0.2617993877991494
 40
1.832595714594046
  0
TABLESTYLE
  5
20EBD
102
{ACAD_XDICTIONARY
360
21226
102
}
102
{ACAD_REACTORS
330
20EBC
102
}
330
20EBC
100
AcDbTableStyle
280
     0
  3
Standard
 70
     0
 71
     0
 40
1.5
 41
1.5
280
     0
281
     0
  7
Standard
140
4.5
170
     2
 62
     0
 63
     7
283
     0
 90
      512
 91
        0
  1

274
    -2
284
     1
 64
     0
275
    -2
285
     1
 65
     0
276
    -2
286
     1
 66
     0
277
    -2
287
     1
 67
     0
278
    -2
288
     1
 68
     0
279
    -2
289
     1
 69
     0
  7
Standard
140
6.0
170
     5
 62
     0
 63
     7
283
     0
 90
      512
 91
        0
  1

274
    -2
284
     1
 64
     0
275
    -2
285
     1
 65
     0
276
    -2
286
     1
 66
     0
277
    -2
287
     1
 67
     0
278
    -2
288
     1
 68
     0
279
    -2
289
     1
 69
     0
  7
Standard
140
4.5
170
     5
 62
     0
 63
     7
283
     0
 90
      512
 91
        0
  1

274
    -2
284
     1
 64
     0
275
    -2
285
     1
 65
     0
276
    -2
286
     1
 66
     0
277
    -2
287
     1
 67
     0
278
    -2
288
     1
 68
     0
279
    -2
289
     1
 69
     0
  0
VISUALSTYLE
  5
20EB1
102
{ACAD_REACTORS
330
20EAB
102
}
330
20EAB
100
AcDbVisualStyle
  2
2dWireframe
 70
     4
177
     3
291
     0
 70
    58
 90
        0
176
     1
 90
        2
176
     1
 90
        0
176
     1
 90
        0
176
     1
 40
0.6
176
     1
 40
30.0
176
     1
 62
     7
420
 16777215
176
     1
 90
        1
176
     1
 90
        4
176
     1
 62
     7
176
     1
 62
   257
176
     1
 90
        1
176
     1
 90
        1
176
     1
 40
1.0
176
     1
 90
        0
176
     1
 62
   257
176
     1
 40
1.0
176
     1
 90
        1
176
     1
 90
        6
176
     1
 90
        2
176
     1
 62
     7
176
     1
 90
        5
176
     1
 90
        0
176
     1
 90
        0
176
     1
290
     0
176
     1
 90
        1
176
     1
 40
0.0
176
     1
 90
        0
176
     1
290
     1
176
     1
290
     1
176
     1
290
     0
176
     1
290
     0
176
     1
290
     0
176
     1
290
     0
176
     1
290
     0
176
     1
290
     0
176
     1
290
     0
176
     1
 90
       50
176
     1
 40
0.0
176
     1
 40
1.0
176
     1
 90
        0
176
     1
 62
    18
420
        0
176
     1
 90
       50
176
     1
 90
        3
176
     1
 62
     5
420
      255
176
     1
290
     0
176
     1
 90
       50
176
     1
 90
       50
176
     1
 90
       50
176
     1
290
     0
176
     1
 90
       50
176
     1
 62
   256
176
     0
 40
1.0
176
     0
 90
        2
176
     1
  1
strokes_ogs.tif
176
     1
290
     0
176
     1
 40
1.0
176
     1
 40
1.0
176
     1
  0
VISUALSTYLE
  5
20EB3
102
{ACAD_REACTORS
330
20EAB
102
}
330
20EAB
100
AcDbVisualStyle
  2
3D Hidden
 70
     6
177
     3
291
     0
 70
    58
 90
        1
176
     1
 90
        2
176
     1
 90
        2
176
     1
 90
        0
176
     1
 40
0.6
176
     1
 40
30.0
176
     1
 62
     7
420
 16777215
176
     1
 90
        2
176
     1
 90
        2
176
     1
 62
     7
176
     1
 62
   257
176
     1
 90
        2
176
     1
 90
        1
176
     1
 40
40.0
176
     1
 90
        0
176
     1
 62
   257
176
     1
 40
1.0
176
     1
 90
        1
176
     1
 90
        6
176
     1
 90
        2
176
     1
 62
     7
176
     1
 90
        3
176
     1
 90
        0
176
     1
 90
        0
176
     1
290
     0
176
     1
 90
        1
176
     1
 40
0.0
176
     1
 90
        0
176
     1
290
     0
176
     1
290
     1
176
     1
290
     1
176
     1
290
     0
176
     1
290
     0
176
     1
290
     0
176
     1
290
     0
176
     1
290
     0
176
     1
290
     0
176
     1
 90
       50
176
     1
 40
0.0
176
     1
 40
1.0
176
     1
 90
        0
176
     1
 62
    18
420
        0
176
     1
 90
       50
176
     1
 90
        3
176
     1
 62
     5
420
      255
176
     1
290
     0
176
     1
 90
       50
176
     1
 90
       50
176
     1
 90
       50
176
     1
290
     0
176
     1
 90
       50
176
     1
 62
   256
176
     0
 40
1.0
176
     0
 90
        2
176
     1
  1
strokes_ogs.tif
176
     1
290
     0
176
     1
 40
1.0
176
     1
 40
1.0
176
     1
  0
VISUALSTYLE
  5
20EB2
102
{ACAD_REACTORS
330
20EAB
102
}
330
20EAB
100
AcDbVisualStyle
  2
3dWireframe
 70
     5
177
     3
291
     0
 70
    58
 90
        0
176
     1
 90
        2
176
     1
 90
        0
176
     1
 90
        0
176
     1
 40
0.6
176
     1
 40
30.0
176
     1
 62
     7
420
 16777215
176
     1
 90
        1
176
     1
 90
        4
176
     1
 62
     7
176
     1
 62
   257
176
     1
 90
        1
176
     1
 90
        1
176
     1
 40
1.0
176
     1
 90
        0
176
     1
 62
   257
176
     1
 40
1.0
176
     1
 90
        1
176
     1
 90
        6
176
     1
 90
        2
176
     1
 62
     7
176
     1
 90
        5
176
     1
 90
        0
176
     1
 90
        0
176
     1
290
     0
176
     1
 90
        1
176
     1
 40
0.0
176
     1
 90
        0
176
     1
290
     0
176
     1
290
     1
176
     1
290
     1
176
     1
290
     0
176
     1
290
     0
176
     1
290
     0
176
     1
290
     0
176
     1
290
     0
176
     1
290
     0
176
     1
 90
       50
176
     1
 40
0.0
176
     1
 40
1.0
176
     1
 90
        0
176
     1
 62
    18
420
        0
176
     1
 90
       50
176
     1
 90
        3
176
     1
 62
     5
420
      255
176
     1
290
     0
176
     1
 90
       50
176
     1
 90
       50
176
     1
 90
       50
176
     1
290
     0
176
     1
 90
       50
176
     1
 62
   256
176
     0
 40
1.0
176
     0
 90
        2
176
     1
  1
strokes_ogs.tif
176
     1
290
     0
176
     1
 40
1.0
176
     1
 40
1.0
176
     1
  0
VISUALSTYLE
  5
20EB0
102
{ACAD_REACTORS
330
20EAB
102
}
330
20EAB
100
AcDbVisualStyle
  2
Basic
 70
     7
177
     3
291
     1
 70
    58
 90
        1
176
     1
 90
        0
176
     1
 90
        1
176
     1
 90
        0
176
     1
 40
0.6
176
     1
 40
30.0
176
     1
 62
     7
420
 16777215
176
     1
 90
        0
176
     1
 90
        4
176
     1
 62
     7
176
     1
 62
   257
176
     1
 90
        1
176
     1
 90
        1
176
     1
 40
1.0
176
     1
 90
        8
176
     1
 62
     7
176
     1
 40
1.0
176
     1
 90
        1
176
     1
 90
        6
176
     1
 90
        2
176
     1
 62
     7
176
     1
 90
        5
176
     1
 90
        0
176
     1
 90
        0
176
     1
290
     0
176
     1
 90
        1
176
     1
 40
0.0
176
     1
 90
        0
176
     1
290
     0
176
     1
290
     1
176
     1
290
     1
176
     1
290
     0
176
     1
290
     0
176
     1
290
     0
176
     1
290
     0
176
     1
290
     0
176
     1
290
     0
176
     1
 90
       50
176
     1
 40
0.0
176
     1
 40
1.0
176
     1
 90
        0
176
     1
 62
    18
420
        0
176
     1
 90
       50
176
     1
 90
        3
176
     1
 62
     5
420
      255
176
     1
290
     0
176
     1
 90
       50
176
     1
 90
       50
176
     1
 90
       50
176
     1
290
     0
176
     1
 90
       50
176
     1
 62
   256
176
     0
 40
1.0
176
     0
 90
        2
176
     1
  1
strokes_ogs.tif
176
     1
290
     0
176
     1
 40
1.0
176
     1
 40
1.0
176
     1
  0
VISUALSTYLE
  5
20EB7
102
{ACAD_REACTORS
330
20EAB
102
}
330
20EAB
100
AcDbVisualStyle
  2
Brighten
 70
    12
177
     3
291
     1
 70
    58
 90
        2
176
     1
 90
        2
176
     1
 90
        0
176
     1
 90
        0
176
     1
 40
0.6
176
     1
 40
30.0
176
     1
 62
     7
420
 16777215
176
     1
 90
        1
176
     1
 90
        4
176
     1
 62
     7
176
     1
 62
   257
176
     1
 90
        1
176
     1
 90
        1
176
     1
 40
1.0
176
     1
 90
        8
176
     1
 62
     7
176
     1
 40
1.0
176
     1
 90
        1
176
     1
 90
        6
176
     1
 90
        2
176
     1
 62
     7
176
     1
 90
        5
176
     1
 90
        0
176
     1
 90
        0
176
     1
290
     0
176
     1
 90
        1
176
     1
 40
50.0
176
     1
 90
        0
176
     1
290
     0
176
     1
290
     1
176
     1
290
     1
176
     1
290
     0
176
     1
290
     0
176
     1
290
     0
176
     1
290
     0
176
     1
290
     0
176
     1
290
     0
176
     1
 90
       50
176
     1
 40
0.0
176
     1
 40
1.0
176
     1
 90
        0
176
     1
 62
    18
420
        0
176
     1
 90
       50
176
     1
 90
        3
176
     1
 62
     5
420
      255
176
     1
290
     0
176
     1
 90
       50
176
     1
 90
       50
176
     1
 90
       50
176
     1
290
     0
176
     1
 90
       50
176
     1
 62
   256
176
     0
 40
1.0
176
     0
 90
        2
176
     1
  1
strokes_ogs.tif
176
     1
290
     0
176
     1
 40
1.0
176
     1
 40
1.0
176
     1
  0
VISUALSTYLE
  5
20EBB
102
{ACAD_REACTORS
330
20EAB
102
}
330
20EAB
100
AcDbVisualStyle
  2
ColorChange
 70
    16
177
     3
291
     1
 70
    58
 90
        2
176
     1
 90
        2
176
     1
 90
        3
176
     1
 90
        0
176
     1
 40
0.6
176
     1
 40
30.0
176
     1
 62
     8
420
  8421504
176
     1
 90
        1
176
     1
 90
        4
176
     1
 62
     7
176
     1
 62
   257
176
     1
 90
        1
176
     1
 90
        1
176
     1
 40
1.0
176
     1
 90
        8
176
     1
 62
     8
420
  8421504
176
     1
 40
1.0
176
     1
 90
        1
176
     1
 90
        6
176
     1
 90
        2
176
     1
 62
     7
176
     1
 90
        5
176
     1
 90
        0
176
     1
 90
        0
176
     1
290
     0
176
     1
 90
        1
176
     1
 40
0.0
176
     1
 90
        0
176
     1
290
     0
176
     1
290
     1
176
     1
290
     1
176
     1
290
     0
176
     1
290
     0
176
     1
290
     0
176
     1
290
     0
176
     1
290
     0
176
     1
290
     0
176
     1
 90
       50
176
     1
 40
0.0
176
     1
 40
1.0
176
     1
 90
        0
176
     1
 62
    18
420
        0
176
     1
 90
       50
176
     1
 90
        3
176
     1
 62
     5
420
      255
176
     1
290
     0
176
     1
 90
       50
176
     1
 90
       50
176
     1
 90
       50
176
     1
290
     0
176
     1
 90
       50
176
     1
 62
   256
176
     0
 40
1.0
176
     0
 90
        2
176
     1
  1
strokes_ogs.tif
176
     1
290
     0
176
     1
 40
1.0
176
     1
 40
1.0
176
     1
  0
VISUALSTYLE
  5
20EB4
102
{ACAD_REACTORS
330
20EAB
102
}
330
20EAB
100
AcDbVisualStyle
  2
Conceptual
 70
     9
177
     3
291
     0
 70
    58
 90
        3
176
     1
 90
        2
176
     1
 90
        0
176
     1
 90
        0
176
     1
 40
0.6
176
     1
 40
30.0
176
     1
 62
     7
420
 16777215
176
     1
 90
        2
176
     1
 90
        2
176
     1
 62
     7
176
     1
 62
   257
176
     1
 90
        1
176
     1
 90
        1
176
     1
 40
40.0
176
     1
 90
        8
176
     1
 62
     7
176
     1
 40
1.0
176
     1
 90
        1
176
     1
 90
        6
176
     1
 90
        2
176
     1
 62
     7
176
     1
 90
        3
176
     1
 90
        0
176
     1
 90
        0
176
     1
290
     0
176
     1
 90
        1
176
     1
 40
0.0
176
     1
 90
        0
176
     1
290
     0
176
     1
290
     1
176
     1
290
     1
176
     1
290
     0
176
     1
290
     0
176
     1
290
     0
176
     1
290
     0
176
     1
290
     0
176
     1
290
     0
176
     1
 90
       50
176
     1
 40
0.0
176
     1
 40
1.0
176
     1
 90
        0
176
     1
 62
    18
420
        0
176
     1
 90
       50
176
     1
 90
        3
176
     1
 62
     5
420
      255
176
     1
290
     0
176
     1
 90
       50
176
     1
 90
       50
176
     1
 90
       50
176
     1
290
     0
176
     1
 90
       50
176
     1
 62
   256
176
     0
 40
1.0
176
     0
 90
        2
176
     1
  1
strokes_ogs.tif
176
     1
290
     0
176
     1
 40
1.0
176
     1
 40
1.0
176
     1
  0
VISUALSTYLE
  5
20EB6
102
{ACAD_REACTORS
330
20EAB
102
}
330
20EAB
100
AcDbVisualStyle
  2
Dim
 70
    11
177
     3
291
     1
 70
    58
 90
        2
176
     1
 90
        2
176
     1
 90
        0
176
     1
 90
        0
176
     1
 40
0.6
176
     1
 40
30.0
176
     1
 62
     7
420
 16777215
176
     1
 90
        1
176
     1
 90
        4
176
     1
 62
     7
176
     1
 62
   257
176
     1
 90
        1
176
     1
 90
        1
176
     1
 40
1.0
176
     1
 90
        8
176
     1
 62
     7
176
     1
 40
1.0
176
     1
 90
        1
176
     1
 90
        6
176
     1
 90
        2
176
     1
 62
     7
176
     1
 90
        5
176
     1
 90
        0
176
     1
 90
        0
176
     1
290
     0
176
     1
 90
        1
176
     1
 40
-50.0
176
     1
 90
        0
176
     1
290
     0
176
     1
290
     1
176
     1
290
     1
176
     1
290
     0
176
     1
290
     0
176
     1
290
     0
176
     1
290
     0
176
     1
290
     0
176
     1
290
     0
176
     1
 90
       50
176
     1
 40
0.0
176
     1
 40
1.0
176
     1
 90
        0
176
     1
 62
    18
420
        0
176
     1
 90
       50
176
     1
 90
        3
176
     1
 62
     5
420
      255
176
     1
290
     0
176
     1
 90
       50
176
     1
 90
       50
176
     1
 90
       50
176
     1
290
     0
176
     1
 90
       50
176
     1
 62
   256
176
     0
 40
1.0
176
     0
 90
        2
176
     1
  1
strokes_ogs.tif
176
     1
290
     0
176
     1
 40
1.0
176
     1
 40
1.0
176
     1
  0
VISUALSTYLE
  5
20F84
102
{ACAD_REACTORS
330
20EAB
102
}
330
20EAB
100
AcDbVisualStyle
  2
EdgeColorOff
 70
    22
177
     3
291
     1
 70
    58
 90
        2
176
     0
 90
        2
176
     0
 90
        0
176
     0
 90
        0
176
     0
 40
0.6
176
     0
 40
30.0
176
     0
 62
     7
420
 16777215
176
     0
 90
        1
176
     0
 90
        4
176
     0
 62
     7
176
     0
 62
   257
176
     0
 90
        1
176
     0
 90
        1
176
     0
 40
1.0
176
     0
 90
        8
176
     2
 62
     7
176
     0
 40
1.0
176
     0
 90
        1
176
     0
 90
        6
176
     0
 90
        2
176
     0
 62
     7
176
     0
 90
        5
176
     0
 90
        0
176
     0
 90
        0
176
     0
290
     0
176
     0
 90
        1
176
     0
 40
0.0
176
     0
 90
        0
176
     0
290
     0
176
     0
290
     1
176
     0
290
     1
176
     0
290
     0
176
     0
290
     0
176
     0
290
     0
176
     0
290
     0
176
     0
290
     0
176
     0
290
     0
176
     0
 90
       50
176
     0
 40
0.0
176
     0
 40
1.0
176
     0
 90
        0
176
     0
 62
    18
420
        0
176
     0
 90
       50
176
     0
 90
        3
176
     0
 62
     5
420
      255
176
     0
290
     0
176
     0
 90
       50
176
     0
 90
       50
176
     0
 90
       50
176
     0
290
     0
176
     0
 90
       50
176
     0
 62
   256
176
     0
 40
1.0
176
     0
 90
        2
176
     0
  1
strokes_ogs.tif
176
     0
290
     0
176
     0
 40
1.0
176
     0
 40
1.0
176
     0
  0
VISUALSTYLE
  5
20EBA
102
{ACAD_REACTORS
330
20EAB
102
}
330
20EAB
100
AcDbVisualStyle
  2
Facepattern
 70
    15
177
     3
291
     1
 70
    58
 90
        2
176
     1
 90
        2
176
     1
 90
        0
176
     1
 90
        0
176
     1
 40
0.6
176
     1
 40
30.0
176
     1
 62
     7
420
 16777215
176
     1
 90
        1
176
     1
 90
        4
176
     1
 62
     7
176
     1
 62
   257
176
     1
 90
        1
176
     1
 90
        1
176
     1
 40
1.0
176
     1
 90
        8
176
     1
 62
     7
176
     1
 40
1.0
176
     1
 90
        1
176
     1
 90
        6
176
     1
 90
        2
176
     1
 62
     7
176
     1
 90
        5
176
     1
 90
        0
176
     1
 90
        0
176
     1
290
     0
176
     1
 90
        1
176
     1
 40
0.0
176
     1
 90
        0
176
     1
290
     0
176
     1
290
     1
176
     1
290
     1
176
     1
290
     0
176
     1
290
     0
176
     1
290
     0
176
     1
290
     0
176
     1
290
     0
176
     1
290
     0
176
     1
 90
       50
176
     1
 40
0.0
176
     1
 40
1.0
176
     1
 90
        0
176
     1
 62
    18
420
        0
176
     1
 90
       50
176
     1
 90
        3
176
     1
 62
     5
420
      255
176
     1
290
     0
176
     1
 90
       50
176
     1
 90
       50
176
     1
 90
       50
176
     1
290
     0
176
     1
 90
       50
176
     1
 62
   256
176
     0
 40
1.0
176
     0
 90
        2
176
     1
  1
strokes_ogs.tif
176
     1
290
     0
176
     1
 40
1.0
176
     1
 40
1.0
176
     1
  0
VISUALSTYLE
  5
20EAC
102
{ACAD_REACTORS
330
20EAB
102
}
330
20EAB
100
AcDbVisualStyle
  2
Flat
 70
     0
177
     3
291
     1
 70
    58
 90
        2
176
     1
 90
        1
176
     1
 90
        1
176
     1
 90
        2
176
     1
 40
0.6
176
     1
 40
30.0
176
     1
 62
     7
420
 16777215
176
     1
 90
        0
176
     1
 90
        4
176
     1
 62
     7
176
     1
 62
   257
176
     1
 90
        1
176
     1
 90
        1
176
     1
 40
1.0
176
     1
 90
        8
176
     1
 62
     7
176
     1
 40
1.0
176
     1
 90
        1
176
     1
 90
        6
176
     1
 90
        2
176
     1
 62
     7
176
     1
 90
        5
176
     1
 90
        0
176
     1
 90
        0
176
     1
290
     0
176
     1
 90
       13
176
     1
 40
0.0
176
     1
 90
        0
176
     1
290
     0
176
     1
290
     1
176
     1
290
     1
176
     1
290
     0
176
     1
290
     0
176
     1
290
     0
176
     1
290
     0
176
     1
290
     0
176
     1
290
     0
176
     1
 90
       50
176
     1
 40
0.0
176
     1
 40
1.0
176
     1
 90
        0
176
     1
 62
    18
420
        0
176
     1
 90
       50
176
     1
 90
        3
176
     1
 62
     5
420
      255
176
     1
290
     0
176
     1
 90
       50
176
     1
 90
       50
176
     1
 90
       50
176
     1
290
     0
176
     1
 90
       50
176
     1
 62
   256
176
     0
 40
1.0
176
     0
 90
        2
176
     1
  1
strokes_ogs.tif
176
     1
290
     0
176
     1
 40
1.0
176
     1
 40
1.0
176
     1
  0
VISUALSTYLE
  5
20EAD
102
{ACAD_REACTORS
330
20EAB
102
}
330
20EAB
100
AcDbVisualStyle
  2
FlatWithEdges
 70
     1
177
     3
291
     1
 70
    58
 90
        2
176
     1
 90
        1
176
     1
 90
        1
176
     1
 90
        2
176
     1
 40
0.6
176
     1
 40
30.0
176
     1
 62
     7
420
 16777215
176
     1
 90
        1
176
     1
 90
        4
176
     1
 62
     7
176
     1
 62
   257
176
     1
 90
        1
176
     1
 90
        1
176
     1
 40
1.0
176
     1
 90
        0
176
     1
 62
   257
176
     1
 40
1.0
176
     1
 90
        1
176
     1
 90
        6
176
     1
 90
        2
176
     1
 62
     7
176
     1
 90
        5
176
     1
 90
        0
176
     1
 90
        0
176
     1
290
     0
176
     1
 90
       13
176
     1
 40
0.0
176
     1
 90
        0
176
     1
290
     0
176
     1
290
     1
176
     1
290
     1
176
     1
290
     0
176
     1
290
     0
176
     1
290
     0
176
     1
290
     0
176
     1
290
     0
176
     1
290
     0
176
     1
 90
       50
176
     1
 40
0.0
176
     1
 40
1.0
176
     1
 90
        0
176
     1
 62
    18
420
        0
176
     1
 90
       50
176
     1
 90
        3
176
     1
 62
     5
420
      255
176
     1
290
     0
176
     1
 90
       50
176
     1
 90
       50
176
     1
 90
       50
176
     1
290
     0
176
     1
 90
       50
176
     1
 62
   256
176
     0
 40
1.0
176
     0
 90
        2
176
     1
  1
strokes_ogs.tif
176
     1
290
     0
176
     1
 40
1.0
176
     1
 40
1.0
176
     1
  0
VISUALSTYLE
  5
20EAE
102
{ACAD_REACTORS
330
20EAB
102
}
330
20EAB
100
AcDbVisualStyle
  2
Gouraud
 70
     2
177
     3
291
     1
 70
    58
 90
        2
176
     1
 90
        2
176
     1
 90
        1
176
     1
 90
        2
176
     1
 40
0.6
176
     1
 40
30.0
176
     1
 62
     7
420
 16777215
176
     1
 90
        0
176
     1
 90
        4
176
     1
 62
     7
176
     1
 62
   257
176
     1
 90
        1
176
     1
 90
        1
176
     1
 40
1.0
176
     1
 90
        0
176
     1
 62
     7
176
     1
 40
1.0
176
     1
 90
        1
176
     1
 90
        6
176
     1
 90
        2
176
     1
 62
     7
176
     1
 90
        5
176
     1
 90
        0
176
     1
 90
        0
176
     1
290
     0
176
     1
 90
       13
176
     1
 40
0.0
176
     1
 90
        0
176
     1
290
     0
176
     1
290
     1
176
     1
290
     1
176
     1
290
     0
176
     1
290
     0
176
     1
290
     0
176
     1
290
     0
176
     1
290
     0
176
     1
290
     0
176
     1
 90
       50
176
     1
 40
0.0
176
     1
 40
1.0
176
     1
 90
        0
176
     1
 62
    18
420
        0
176
     1
 90
       50
176
     1
 90
        3
176
     1
 62
     5
420
      255
176
     1
290
     0
176
     1
 90
       50
176
     1
 90
       50
176
     1
 90
       50
176
     1
290
     0
176
     1
 90
       50
176
     1
 62
   256
176
     0
 40
1.0
176
     0
 90
        2
176
     1
  1
strokes_ogs.tif
176
     1
290
     0
176
     1
 40
1.0
176
     1
 40
1.0
176
     1
  0
VISUALSTYLE
  5
20EAF
102
{ACAD_REACTORS
330
20EAB
102
}
330
20EAB
100
AcDbVisualStyle
  2
GouraudWithEdges
 70
     3
177
     3
291
     1
 70
    58
 90
        2
176
     1
 90
        2
176
     1
 90
        1
176
     1
 90
        2
176
     1
 40
0.6
176
     1
 40
30.0
176
     1
 62
     7
420
 16777215
176
     1
 90
        1
176
     1
 90
        4
176
     1
 62
     7
176
     1
 62
   257
176
     1
 90
        1
176
     1
 90
        1
176
     1
 40
1.0
176
     1
 90
        0
176
     1
 62
   257
176
     1
 40
1.0
176
     1
 90
        1
176
     1
 90
        6
176
     1
 90
        2
176
     1
 62
     7
176
     1
 90
        5
176
     1
 90
        0
176
     1
 90
        0
176
     1
290
     0
176
     1
 90
       13
176
     1
 40
0.0
176
     1
 90
        0
176
     1
290
     0
176
     1
290
     1
176
     1
290
     1
176
     1
290
     0
176
     1
290
     0
176
     1
290
     0
176
     1
290
     0
176
     1
290
     0
176
     1
290
     0
176
     1
 90
       50
176
     1
 40
0.0
176
     1
 40
1.0
176
     1
 90
        0
176
     1
 62
    18
420
        0
176
     1
 90
       50
176
     1
 90
        3
176
     1
 62
     5
420
      255
176
     1
290
     0
176
     1
 90
       50
176
     1
 90
       50
176
     1
 90
       50
176
     1
290
     0
176
     1
 90
       50
176
     1
 62
   256
176
     0
 40
1.0
176
     0
 90
        2
176
     1
  1
strokes_ogs.tif
176
     1
290
     0
176
     1
 40
1.0
176
     1
 40
1.0
176
     1
  0
VISUALSTYLE
  5
20F7C
102
{ACAD_REACTORS
330
20EAB
102
}
330
20EAB
100
AcDbVisualStyle
  2
Hidden
 70
     6
177
     3
291
     0
 70
    58
 90
        1
176
     1
 90
        2
176
     1
 90
        2
176
     1
 90
        0
176
     1
 40
0.6
176
     1
 40
30.0
176
     1
 62
     7
420
 16777215
176
     1
 90
        2
176
     1
 90
        2
176
     1
 62
     7
176
     1
 62
   257
176
     1
 90
        2
176
     1
 90
        1
176
     1
 40
40.0
176
     1
 90
        0
176
     1
 62
   257
176
     1
 40
1.0
176
     1
 90
        1
176
     1
 90
        6
176
     1
 90
        2
176
     1
 62
     7
176
     1
 90
        3
176
     1
 90
        0
176
     1
 90
        0
176
     1
290
     0
176
     1
 90
        1
176
     1
 40
0.0
176
     1
 90
        0
176
     1
290
     0
176
     1
290
     1
176
     1
290
     1
176
     1
290
     0
176
     1
290
     0
176
     1
290
     0
176
     1
290
     0
176
     1
290
     0
176
     1
290
     0
176
     1
 90
       50
176
     1
 40
0.0
176
     1
 40
1.0
176
     1
 90
        0
176
     1
 62
    18
420
        0
176
     1
 90
       50
176
     1
 90
        3
176
     1
 62
     5
420
      255
176
     1
290
     0
176
     1
 90
       50
176
     1
 90
       50
176
     1
 90
       50
176
     1
290
     0
176
     1
 90
       50
176
     1
 62
   256
176
     0
 40
1.0
176
     0
 90
        2
176
     1
  1
strokes_ogs.tif
176
     1
290
     0
176
     1
 40
1.0
176
     1
 40
1.0
176
     1
  0
VISUALSTYLE
  5
20F82
102
{ACAD_REACTORS
330
20EAB
102
}
330
20EAB
100
AcDbVisualStyle
  2
JitterOff
 70
    20
177
     3
291
     1
 70
    58
 90
        2
176
     0
 90
        2
176
     0
 90
        0
176
     0
 90
        0
176
     0
 40
0.6
176
     0
 40
30.0
176
     0
 62
     7
420
 16777215
176
     0
 90
        1
176
     0
 90
        4
176
     0
 62
     7
176
     0
 62
   257
176
     0
 90
        1
176
     0
 90
        1
176
     0
 40
1.0
176
     0
 90
       10
176
     2
 62
     7
176
     0
 40
1.0
176
     0
 90
        1
176
     0
 90
        6
176
     0
 90
        2
176
     0
 62
     7
176
     0
 90
        5
176
     0
 90
        0
176
     0
 90
        0
176
     0
290
     0
176
     0
 90
        1
176
     0
 40
0.0
176
     0
 90
        0
176
     0
290
     0
176
     0
290
     1
176
     0
290
     1
176
     0
290
     0
176
     0
290
     0
176
     0
290
     0
176
     0
290
     0
176
     0
290
     0
176
     0
290
     0
176
     0
 90
       50
176
     0
 40
0.0
176
     0
 40
1.0
176
     0
 90
        0
176
     0
 62
    18
420
        0
176
     0
 90
       50
176
     0
 90
        3
176
     0
 62
     5
420
      255
176
     0
290
     0
176
     0
 90
       50
176
     0
 90
       50
176
     0
 90
       50
176
     0
290
     0
176
     0
 90
       50
176
     0
 62
   256
176
     0
 40
1.0
176
     0
 90
        2
176
     0
  1
strokes_ogs.tif
176
     0
290
     0
176
     0
 40
1.0
176
     0
 40
1.0
176
     0
  0
VISUALSTYLE
  5
20EB9
102
{ACAD_REACTORS
330
20EAB
102
}
330
20EAB
100
AcDbVisualStyle
  2
Linepattern
 70
    14
177
     3
291
     1
 70
    58
 90
        2
176
     1
 90
        2
176
     1
 90
        0
176
     1
 90
        0
176
     1
 40
0.6
176
     1
 40
30.0
176
     1
 62
     7
420
 16777215
176
     1
 90
        1
176
     1
 90
        4
176
     1
 62
     7
176
     1
 62
   257
176
     1
 90
        7
176
     1
 90
        7
176
     1
 40
1.0
176
     1
 90
        8
176
     1
 62
     7
176
     1
 40
1.0
176
     1
 90
        1
176
     1
 90
        6
176
     1
 90
        2
176
     1
 62
     7
176
     1
 90
        5
176
     1
 90
        0
176
     1
 90
        0
176
     1
290
     0
176
     1
 90
        1
176
     1
 40
0.0
176
     1
 90
        0
176
     1
290
     0
176
     1
290
     1
176
     1
290
     1
176
     1
290
     0
176
     1
290
     0
176
     1
290
     0
176
     1
290
     0
176
     1
290
     0
176
     1
290
     0
176
     1
 90
       50
176
     1
 40
0.0
176
     1
 40
1.0
176
     1
 90
        0
176
     1
 62
    18
420
        0
176
     1
 90
       50
176
     1
 90
        3
176
     1
 62
     5
420
      255
176
     1
290
     0
176
     1
 90
       50
176
     1
 90
       50
176
     1
 90
       50
176
     1
290
     0
176
     1
 90
       50
176
     1
 62
   256
176
     0
 40
1.0
176
     0
 90
        2
176
     1
  1
strokes_ogs.tif
176
     1
290
     0
176
     1
 40
1.0
176
     1
 40
1.0
176
     1
  0
VISUALSTYLE
  5
20F83
102
{ACAD_REACTORS
330
20EAB
102
}
330
20EAB
100
AcDbVisualStyle
  2
OverhangOff
 70
    21
177
     3
291
     1
 70
    58
 90
        2
176
     0
 90
        2
176
     0
 90
        0
176
     0
 90
        0
176
     0
 40
0.6
176
     0
 40
30.0
176
     0
 62
     7
420
 16777215
176
     0
 90
        1
176
     0
 90
        4
176
     0
 62
     7
176
     0
 62
   257
176
     0
 90
        1
176
     0
 90
        1
176
     0
 40
1.0
176
     0
 90
        9
176
     2
 62
     7
176
     0
 40
1.0
176
     0
 90
        1
176
     0
 90
        6
176
     0
 90
        2
176
     0
 62
     7
176
     0
 90
        5
176
     0
 90
        0
176
     0
 90
        0
176
     0
290
     0
176
     0
 90
        1
176
     0
 40
0.0
176
     0
 90
        0
176
     0
290
     0
176
     0
290
     1
176
     0
290
     1
176
     0
290
     0
176
     0
290
     0
176
     0
290
     0
176
     0
290
     0
176
     0
290
     0
176
     0
290
     0
176
     0
 90
       50
176
     0
 40
0.0
176
     0
 40
1.0
176
     0
 90
        0
176
     0
 62
    18
420
        0
176
     0
 90
       50
176
     0
 90
        3
176
     0
 62
     5
420
      255
176
     0
290
     0
176
     0
 90
       50
176
     0
 90
       50
176
     0
 90
       50
176
     0
290
     0
176
     0
 90
       50
176
     0
 62
   256
176
     0
 40
1.0
176
     0
 90
        2
176
     0
  1
strokes_ogs.tif
176
     0
290
     0
176
     0
 40
1.0
176
     0
 40
1.0
176
     0
  0
VISUALSTYLE
  5
20EB5
102
{ACAD_REACTORS
330
20EAB
102
}
330
20EAB
100
AcDbVisualStyle
  2
Realistic
 70
     8
177
     3
291
     0
 70
    58
 90
        2
176
     1
 90
        2
176
     1
 90
        0
176
     1
 90
        0
176
     1
 40
0.6
176
     1
 40
30.0
176
     1
 62
     7
420
 16777215
176
     1
 90
        1
176
     1
 90
        0
176
     1
 62
     7
176
     1
 62
   257
176
     1
 90
        1
176
     1
 90
        1
176
     1
 40
1.0
176
     1
 90
        8
176
     1
 62
     8
420
  7895160
176
     1
 40
1.0
176
     1
 90
        1
176
     1
 90
        6
176
     1
 90
        2
176
     1
 62
     7
176
     1
 90
        5
176
     1
 90
        0
176
     1
 90
        0
176
     1
290
     0
176
     1
 90
       13
176
     1
 40
0.0
176
     1
 90
        0
176
     1
290
     0
176
     1
290
     1
176
     1
290
     1
176
     1
290
     0
176
     1
290
     0
176
     1
290
     0
176
     1
290
     0
176
     1
290
     0
176
     1
290
     0
176
     1
 90
       50
176
     1
 40
0.0
176
     1
 40
1.0
176
     1
 90
        0
176
     1
 62
    18
420
        0
176
     1
 90
       50
176
     1
 90
        3
176
     1
 62
     5
420
      255
176
     1
290
     0
176
     1
 90
       50
176
     1
 90
       50
176
     1
 90
       50
176
     1
290
     0
176
     1
 90
       50
176
     1
 62
   256
176
     0
 40
1.0
176
     0
 90
        2
176
     1
  1
strokes_ogs.tif
176
     1
290
     0
176
     1
 40
1.0
176
     1
 40
1.0
176
     1
  0
VISUALSTYLE
  5
20F81
102
{ACAD_REACTORS
330
20EAB
102
}
330
20EAB
100
AcDbVisualStyle
  2
Shaded
 70
    27
177
     3
291
     0
 70
    58
 90
        2
176
     1
 90
        2
176
     1
 90
        1
176
     1
 90
        2
176
     1
 40
0.6
176
     1
 40
30.0
176
     1
 62
     7
420
 16777215
176
     1
 90
        0
176
     1
 90
        4
176
     1
 62
     7
176
     1
 62
   257
176
     1
 90
        1
176
     1
 90
        1
176
     1
 40
1.0
176
     1
 90
        8
176
     1
 62
   257
176
     1
 40
1.0
176
     1
 90
        1
176
     1
 90
        6
176
     1
 90
        2
176
     1
 62
     8
420
  7895160
176
     1
 90
        3
176
     1
 90
        0
176
     1
 90
        0
176
     1
290
     0
176
     1
 90
        5
176
     1
 40
0.0
176
     1
 90
        0
176
     1
290
     0
176
     1
290
     1
176
     1
290
     1
176
     1
290
     0
176
     1
290
     0
176
     1
290
     0
176
     1
290
     0
176
     1
290
     0
176
     1
290
     0
176
     1
 90
       50
176
     1
 40
0.0
176
     1
 40
1.0
176
     1
 90
        0
176
     1
 62
    18
420
        0
176
     1
 90
       50
176
     1
 90
        3
176
     1
 62
     5
420
      255
176
     1
290
     0
176
     1
 90
       50
176
     1
 90
       50
176
     1
 90
       50
176
     1
290
     0
176
     1
 90
       50
176
     1
 62
   256
176
     0
 40
1.0
176
     0
 90
        2
176
     1
  1
strokes_ogs.tif
176
     1
290
     0
176
     1
 40
1.0
176
     1
 40
1.0
176
     1
  0
VISUALSTYLE
  5
20F80
102
{ACAD_REACTORS
330
20EAB
102
}
330
20EAB
100
AcDbVisualStyle
  2
Shaded with edges
 70
    26
177
     3
291
     0
 70
    58
 90
        2
176
     1
 90
        2
176
     1
 90
        1
176
     1
 90
        2
176
     1
 40
0.6
176
     1
 40
30.0
176
     1
 62
     7
420
 16777215
176
     1
 90
        1
176
     1
 90
        2
176
     1
 62
     7
176
     1
 62
   257
176
     1
 90
        2
176
     1
 90
        1
176
     1
 40
1.0
176
     1
 90
        8
176
     1
 62
   257
176
     1
 40
1.0
176
     1
 90
        1
176
     1
 90
        6
176
     1
 90
        2
176
     1
 62
     7
176
     1
 90
        3
176
     1
 90
        0
176
     1
 90
        0
176
     1
290
     0
176
     1
 90
        5
176
     1
 40
0.0
176
     1
 90
        0
176
     1
290
     0
176
     1
290
     1
176
     1
290
     1
176
     1
290
     0
176
     1
290
     0
176
     1
290
     0
176
     1
290
     0
176
     1
290
     0
176
     1
290
     0
176
     1
 90
       50
176
     1
 40
0.0
176
     1
 40
1.0
176
     1
 90
        0
176
     1
 62
    18
420
        0
176
     1
 90
       50
176
     1
 90
        3
176
     1
 62
     5
420
      255
176
     1
290
     0
176
     1
 90
       50
176
     1
 90
       50
176
     1
 90
       50
176
     1
290
     0
176
     1
 90
       50
176
     1
 62
   256
176
     0
 40
1.0
176
     0
 90
        2
176
     1
  1
strokes_ogs.tif
176
     1
290
     0
176
     1
 40
1.0
176
     1
 40
1.0
176
     1
  0
VISUALSTYLE
  5
20F7D
102
{ACAD_REACTORS
330
20EAB
102
}
330
20EAB
100
AcDbVisualStyle
  2
Shades of Gray
 70
    23
177
     3
291
     0
 70
    58
 90
        2
176
     1
 90
        2
176
     1
 90
        3
176
     1
 90
        0
176
     1
 40
0.6
176
     1
 40
30.0
176
     1
 62
     7
420
 16777215
176
     1
 90
        2
176
     1
 90
        2
176
     1
 62
     7
176
     1
 62
     7
176
     1
 90
        1
176
     1
 90
        1
176
     1
 40
40.0
176
     1
 90
        8
176
     1
 62
     7
176
     1
 40
1.0
176
     1
 90
        1
176
     1
 90
        6
176
     1
 90
        2
176
     1
 62
     7
176
     1
 90
        3
176
     1
 90
        0
176
     1
 90
        0
176
     1
290
     0
176
     1
 90
        1
176
     1
 40
0.0
176
     1
 90
        0
176
     1
290
     0
176
     1
290
     1
176
     1
290
     1
176
     1
290
     0
176
     1
290
     0
176
     1
290
     0
176
     1
290
     0
176
     1
290
     0
176
     1
290
     0
176
     1
 90
       50
176
     1
 40
0.0
176
     1
 40
1.0
176
     1
 90
        0
176
     1
 62
    18
420
        0
176
     1
 90
       50
176
     1
 90
        3
176
     1
 62
     5
420
      255
176
     1
290
     0
176
     1
 90
       50
176
     1
 90
       50
176
     1
 90
       50
176
     1
290
     0
176
     1
 90
       50
176
     1
 62
   256
176
     0
 40
1.0
176
     0
 90
        2
176
     1
  1
strokes_ogs.tif
176
     1
290
     0
176
     1
 40
1.0
176
     1
 40
1.0
176
     1
  0
VISUALSTYLE
  5
20F7E
102
{ACAD_REACTORS
330
20EAB
102
}
330
20EAB
100
AcDbVisualStyle
  2
Sketchy
 70
    24
177
     3
291
     0
 70
    58
 90
        1
176
     1
 90
        2
176
     1
 90
        2
176
     1
 90
        0
176
     1
 40
0.6
176
     1
 40
30.0
176
     1
 62
     7
420
 16777215
176
     1
 90
        2
176
     1
 90
        2
176
     1
 62
     7
176
     1
 62
     7
176
     1
 90
        1
176
     1
 90
        1
176
     1
 40
40.0
176
     1
 90
       11
176
     1
 62
     7
176
     1
 40
1.0
176
     1
 90
        1
176
     1
 90
        6
176
     1
 90
        2
176
     1
 62
     7
176
     1
 90
        6
176
     1
 90
        0
176
     1
 90
        0
176
     1
290
     0
176
     1
 90
        1
176
     1
 40
0.0
176
     1
 90
        0
176
     1
290
     0
176
     1
290
     1
176
     1
290
     1
176
     1
290
     0
176
     1
290
     0
176
     1
290
     0
176
     1
290
     0
176
     1
290
     0
176
     1
290
     0
176
     1
 90
       50
176
     1
 40
0.0
176
     1
 40
1.0
176
     1
 90
        0
176
     1
 62
    18
420
        0
176
     1
 90
       50
176
     1
 90
        3
176
     1
 62
     5
420
      255
176
     1
290
     0
176
     1
 90
       50
176
     1
 90
       50
176
     1
 90
       50
176
     1
290
     0
176
     1
 90
       50
176
     1
 62
   256
176
     0
 40
1.0
176
     0
 90
        2
176
     1
  1
strokes_ogs.tif
176
     1
290
     0
176
     1
 40
1.0
176
     1
 40
1.0
176
     1
  0
VISUALSTYLE
  5
20EB8
102
{ACAD_REACTORS
330
20EAB
102
}
330
20EAB
100
AcDbVisualStyle
  2
Thicken
 70
    13
177
     3
291
     1
 70
    58
 90
        2
176
     1
 90
        2
176
     1
 90
        0
176
     1
 90
        0
176
     1
 40
0.6
176
     1
 40
30.0
176
     1
 62
     7
420
 16777215
176
     1
 90
        1
176
     1
 90
        4
176
     1
 62
     7
176
     1
 62
   257
176
     1
 90
        1
176
     1
 90
        1
176
     1
 40
1.0
176
     1
 90
       12
176
     1
 62
     7
176
     1
 40
1.0
176
     1
 90
        1
176
     1
 90
        6
176
     1
 90
        2
176
     1
 62
     7
176
     1
 90
        5
176
     1
 90
        0
176
     1
 90
        0
176
     1
290
     0
176
     1
 90
        1
176
     1
 40
0.0
176
     1
 90
        0
176
     1
290
     0
176
     1
290
     1
176
     1
290
     1
176
     1
290
     0
176
     1
290
     0
176
     1
290
     0
176
     1
290
     0
176
     1
290
     0
176
     1
290
     0
176
     1
 90
       50
176
     1
 40
0.0
176
     1
 40
1.0
176
     1
 90
        0
176
     1
 62
    18
420
        0
176
     1
 90
       50
176
     1
 90
        3
176
     1
 62
     5
420
      255
176
     1
290
     0
176
     1
 90
       50
176
     1
 90
       50
176
     1
 90
       50
176
     1
290
     0
176
     1
 90
       50
176
     1
 62
   256
176
     0
 40
1.0
176
     0
 90
        2
176
     1
  1
strokes_ogs.tif
176
     1
290
     0
176
     1
 40
1.0
176
     1
 40
1.0
176
     1
  0
VISUALSTYLE
  5
20F7B
102
{ACAD_REACTORS
330
20EAB
102
}
330
20EAB
100
AcDbVisualStyle
  2
Wireframe
 70
     5
177
     3
291
     0
 70
    58
 90
        0
176
     1
 90
        2
176
     1
 90
        0
176
     1
 90
        0
176
     1
 40
0.6
176
     1
 40
30.0
176
     1
 62
     7
420
 16777215
176
     1
 90
        1
176
     1
 90
        4
176
     1
 62
     7
176
     1
 62
   257
176
     1
 90
        1
176
     1
 90
        1
176
     1
 40
1.0
176
     1
 90
        0
176
     1
 62
   257
176
     1
 40
1.0
176
     1
 90
        1
176
     1
 90
        6
176
     1
 90
        2
176
     1
 62
     7
176
     1
 90
        3
176
     1
 90
        0
176
     1
 90
        0
176
     1
290
     0
176
     1
 90
        1
176
     1
 40
0.0
176
     1
 90
        0
176
     1
290
     0
176
     1
290
     1
176
     1
290
     1
176
     1
290
     0
176
     1
290
     0
176
     1
290
     0
176
     1
290
     0
176
     1
290
     0
176
     1
290
     0
176
     1
 90
       50
176
     1
 40
0.0
176
     1
 40
1.0
176
     1
 90
        0
176
     1
 62
    18
420
        0
176
     1
 90
       50
176
     1
 90
        3
176
     1
 62
     5
420
      255
176
     1
290
     0
176
     1
 90
       50
176
     1
 90
       50
176
     1
 90
       50
176
     1
290
     0
176
     1
 90
       50
176
     1
 62
   256
176
     0
 40
1.0
176
     0
 90
        2
176
     1
  1
strokes_ogs.tif
176
     1
290
     0
176
     1
 40
1.0
176
     1
 40
1.0
176
     1
  0
VISUALSTYLE
  5
20F7F
102
{ACAD_REACTORS
330
20EAB
102
}
330
20EAB
100
AcDbVisualStyle
  2
X-Ray
 70
    25
177
     3
291
     0
 70
    58
 90
        2
176
     1
 90
        2
176
     1
 90
        1
176
     1
 90
        1
176
     1
 40
0.5
176
     1
 40
30.0
176
     1
 62
     7
420
 16777215
176
     1
 90
        1
176
     1
 90
        0
176
     1
 62
     7
176
     1
 62
   257
176
     1
 90
        1
176
     1
 90
        1
176
     1
 40
1.0
176
     1
 90
        8
176
     1
 62
     7
176
     1
 40
1.0
176
     1
 90
        1
176
     1
 90
        6
176
     1
 90
        2
176
     1
 62
     7
176
     1
 90
        3
176
     1
 90
        0
176
     1
 90
        0
176
     1
290
     0
176
     1
 90
       13
176
     1
 40
0.0
176
     1
 90
        0
176
     1
290
     0
176
     1
290
     1
176
     1
290
     1
176
     1
290
     0
176
     1
290
     0
176
     1
290
     0
176
     1
290
     0
176
     1
290
     0
176
     1
290
     0
176
     1
 90
       50
176
     1
 40
0.0
176
     1
 40
1.0
176
     1
 90
        0
176
     1
 62
    18
420
        0
176
     1
 90
       50
176
     1
 90
        3
176
     1
 62
     5
420
      255
176
     1
290
     0
176
     1
 90
       50
176
     1
 90
       50
176
     1
 90
       50
176
     1
290
     0
176
     1
 90
       50
176
     1
 62
   256
176
     0
 40
1.0
176
     0
 90
        2
176
     1
  1
strokes_ogs.tif
176
     1
290
     0
176
     1
 40
1.0
176
     1
 40
1.0
176
     1
  0
DICTIONARYVAR
  5
20FC1
102
{ACAD_REACTORS
330
5E
102
}
330
5E
100
DictionaryVariables
280
     0
  1
1:1
  0
DICTIONARYVAR
  5
20FBD
102
{ACAD_REACTORS
330
5E
102
}
330
5E
100
DictionaryVariables
280
     0
  1
STANDARD
  0
DICTIONARYVAR
  5
20EC9
102
{ACAD_REACTORS
330
5E
102
}
330
5E
100
DictionaryVariables
280
     0
  1
STANDARD
  0
DICTIONARYVAR
  5
20FBE
102
{ACAD_REACTORS
330
5E
102
}
330
5E
100
DictionaryVariables
280
     0
  1
Metric50
  0
DICTIONARYVAR
  5
20FBF
102
{ACAD_REACTORS
330
5E
102
}
330
5E
100
DictionaryVariables
280
     0
  1
Metric50
  0
DICTIONARYVAR
  5
5F
102
{ACAD_REACTORS
330
5E
102
}
330
5E
100
DictionaryVariables
280
     0
  1
2
  0
DICTIONARYVAR
  5
63
102
{ACAD_REACTORS
330
5E
102
}
330
5E
100
DictionaryVariables
280
     0
  1
1
  0
DICTIONARYVAR
  5
20FC3
102
{ACAD_REACTORS
330
5E
102
}
330
5E
100
DictionaryVariables
280
     0
  1
1
  0
DICTIONARYVAR
  5
20FC4
102
{ACAD_REACTORS
330
5E
102
}
330
5E
100
DictionaryVariables
280
     0
  1
15
  0
DICTIONARYVAR
  5
20FC2
102
{ACAD_REACTORS
330
5E
102
}
330
5E
100
DictionaryVariables
280
     0
  1
0
  0
DICTIONARYVAR
  5
20FC0
102
{ACAD_REACTORS
330
5E
102
}
330
5E
100
DictionaryVariables
280
     0
  1
0
  0
DICTIONARYVAR
  5
1CF
102
{ACAD_REACTORS
330
5E
102
}
330
5E
100
DictionaryVariables
280
     0
  1

  0
XRECORD
  5
1CC5C
102
{ACAD_REACTORS
330
1CC5A
102
}
330
1CC5A
100
AcDbXrecord
280
     1
330
16799
330
16859
330
16989
330
16578
330
163EE
330
16509
330
16214
330
1C614
330
1C913
330
14641
330
14853
330
15E0A
330
13F54
330
158D7
330
14BD9
330
1418A
330
133E5
330
13B26
330
13C20
330
CCEE
  0
ACAD_PROXY_OBJECT
  5
20F68
102
{ACAD_REACTORS
330
20F67
102
}
330
20F67
100
AcDbProxyObject
 90
      499
 91
      508
 71
    27
 97
        1
 70
     0
162
                 0
161
               224
310
00013FFFD0C4040800000000000004402826564C4F2D52202E20302900
 94
        0
  0
DICTIONARY
  5
21226
330
20EBD
100
AcDbDictionary
280
     1
281
     1
  3
ACAD_ROUNDTRIP_2008_TABLESTYLE_CELLSTYLEMAP
360
21227
  0
CELLSTYLEMAP
  5
21227
102
{ACAD_REACTORS
330
21226
102
}
330
21226
100
AcDbCellStyleMap
 90
        3
300
CELLSTYLE
  1
TABLEFORMAT_BEGIN
 90
        5
170
     1
 91
        0
 92
    32768
 62
   257
 93
        1
300
CONTENTFORMAT
  1
CONTENTFORMAT_BEGIN
 90
        0
 91
        0
 92
      512
 93
        0
300

 40
0.0
140
1.0
 94
        5
 62
     0
340
11
144
6.0
309
CONTENTFORMAT_END
171
     1
301
MARGIN
  1
CELLMARGIN_BEGIN
 40
1.5
 40
1.5
 40
1.5
 40
1.5
 40
0.18
 40
0.18
309
CELLMARGIN_END
 94
        6
 95
        1
302
GRIDFORMAT
  1
GRIDFORMAT_BEGIN
 90
        0
 91
        1
 62
     0
 92
       -2
340
0
 93
        0
 40
0.045
309
GRIDFORMAT_END
 95
        2
302
GRIDFORMAT
  1
GRIDFORMAT_BEGIN
 90
        0
 91
        1
 62
     0
 92
       -2
340
0
 93
        0
 40
0.045
309
GRIDFORMAT_END
 95
        4
302
GRIDFORMAT
  1
GRIDFORMAT_BEGIN
 90
        0
 91
        1
 62
     0
 92
       -2
340
0
 93
        0
 40
0.045
309
GRIDFORMAT_END
 95
        8
302
GRIDFORMAT
  1
GRIDFORMAT_BEGIN
 90
        0
 91
        1
 62
     0
 92
       -2
340
0
 93
        0
 40
0.045
309
GRIDFORMAT_END
 95
       16
302
GRIDFORMAT
  1
GRIDFORMAT_BEGIN
 90
        0
 91
        1
 62
     0
 92
       -2
340
0
 93
        0
 40
0.045
309
GRIDFORMAT_END
 95
       32
302
GRIDFORMAT
  1
GRIDFORMAT_BEGIN
 90
        0
 91
        1
 62
     0
 92
       -2
340
0
 93
        0
 40
0.045
309
GRIDFORMAT_END
309
TABLEFORMAT_END
  1
CELLSTYLE_BEGIN
 90
        1
 91
        1
300
_TITLE
309
CELLSTYLE_END
300
CELLSTYLE
  1
TABLEFORMAT_BEGIN
 90
        5
170
     1
 91
        0
 92
        0
 62
   257
 93
        1
300
CONTENTFORMAT
  1
CONTENTFORMAT_BEGIN
 90
        0
 91
        0
 92
      512
 93
        0
300

 40
0.0
140
1.0
 94
        5
 62
     0
340
11
144
4.5
309
CONTENTFORMAT_END
171
     1
301
MARGIN
  1
CELLMARGIN_BEGIN
 40
1.5
 40
1.5
 40
1.5
 40
1.5
 40
0.18
 40
0.18
309
CELLMARGIN_END
 94
        6
 95
        1
302
GRIDFORMAT
  1
GRIDFORMAT_BEGIN
 90
        0
 91
        1
 62
     0
 92
       -2
340
0
 93
        0
 40
0.045
309
GRIDFORMAT_END
 95
        2
302
GRIDFORMAT
  1
GRIDFORMAT_BEGIN
 90
        0
 91
        1
 62
     0
 92
       -2
340
0
 93
        0
 40
0.045
309
GRIDFORMAT_END
 95
        4
302
GRIDFORMAT
  1
GRIDFORMAT_BEGIN
 90
        0
 91
        1
 62
     0
 92
       -2
340
0
 93
        0
 40
0.045
309
GRIDFORMAT_END
 95
        8
302
GRIDFORMAT
  1
GRIDFORMAT_BEGIN
 90
        0
 91
        1
 62
     0
 92
       -2
340
0
 93
        0
 40
0.045
309
GRIDFORMAT_END
 95
       16
302
GRIDFORMAT
  1
GRIDFORMAT_BEGIN
 90
        0
 91
        1
 62
     0
 92
       -2
340
0
 93
        0
 40
0.045
309
GRIDFORMAT_END
 95
       32
302
GRIDFORMAT
  1
GRIDFORMAT_BEGIN
 90
        0
 91
        1
 62
     0
 92
       -2
340
0
 93
        0
 40
0.045
309
GRIDFORMAT_END
309
TABLEFORMAT_END
  1
CELLSTYLE_BEGIN
 90
        2
 91
        1
300
_HEADER
309
CELLSTYLE_END
300
CELLSTYLE
  1
TABLEFORMAT_BEGIN
 90
        5
170
     1
 91
        0
 92
        0
 62
   257
 93
        1
300
CONTENTFORMAT
  1
CONTENTFORMAT_BEGIN
 90
        0
 91
        0
 92
      512
 93
        0
300

 40
0.0
140
1.0
 94
        2
 62
     0
340
11
144
4.5
309
CONTENTFORMAT_END
171
     1
301
MARGIN
  1
CELLMARGIN_BEGIN
 40
1.5
 40
1.5
 40
1.5
 40
1.5
 40
0.18
 40
0.18
309
CELLMARGIN_END
 94
        6
 95
        1
302
GRIDFORMAT
  1
GRIDFORMAT_BEGIN
 90
        0
 91
        1
 62
     0
 92
       -2
340
0
 93
        0
 40
0.045
309
GRIDFORMAT_END
 95
        2
302
GRIDFORMAT
  1
GRIDFORMAT_BEGIN
 90
        0
 91
        1
 62
     0
 92
       -2
340
0
 93
        0
 40
0.045
309
GRIDFORMAT_END
 95
        4
302
GRIDFORMAT
  1
GRIDFORMAT_BEGIN
 90
        0
 91
        1
 62
     0
 92
       -2
340
0
 93
        0
 40
0.045
309
GRIDFORMAT_END
 95
        8
302
GRIDFORMAT
  1
GRIDFORMAT_BEGIN
 90
        0
 91
        1
 62
     0
 92
       -2
340
0
 93
        0
 40
0.045
309
GRIDFORMAT_END
 95
       16
302
GRIDFORMAT
  1
GRIDFORMAT_BEGIN
 90
        0
 91
        1
 62
     0
 92
       -2
340
0
 93
        0
 40
0.045
309
GRIDFORMAT_END
 95
       32
302
GRIDFORMAT
  1
GRIDFORMAT_BEGIN
 90
        0
 91
        1
 62
     0
 92
       -2
340
0
 93
        0
 40
0.045
309
GRIDFORMAT_END
309
TABLEFORMAT_END
  1
CELLSTYLE_BEGIN
 90
        3
 91
        2
300
_DATA
309
CELLSTYLE_END
  0
ENDSEC
  0
SECTION
  2
ACDSDATA
 70
     2
 71
     8
  0
ACDSSCHEMA
 90
        0
  1
AcDb_Thumbnail_Schema
  2
AcDbDs::ID
280
    10
 91
        8
  2
Thumbnail_Data
280
    15
 91
        0
101
ACDSRECORD
 95
        0
 90
        1
  2
AcDbDs::TreatedAsObjectData
280
     1
291
     1
101
ACDSRECORD
 95
        0
 90
        2
  2
AcDbDs::Legacy
280
     1
291
     1
101
ACDSRECORD
  1
AcDbDs::ID
 90
        3
  2
AcDs:Indexable
280
     1
291
     1
101
ACDSRECORD
  1
AcDbDs::ID
 90
        4
  2
AcDbDs::HandleAttribute
280
     7
282
     1
  0
ACDSSCHEMA
 90
        1
  1
AcDbDs::TreatedAsObjectDataSchema
  2
AcDbDs::TreatedAsObjectData
280
     1
 91
        0
  0
ACDSSCHEMA
 90
        2
  1
AcDbDs::LegacySchema
  2
AcDbDs::Legacy
280
     1
 91
        0
  0
ACDSSCHEMA
 90
        3
  1
AcDbDs::IndexedPropertySchema
  2
AcDs:Indexable
280
     1
 91
        0
  0
ACDSSCHEMA
 90
        4
  1
AcDbDs::HandleAttributeSchema
  2
AcDbDs::HandleAttribute
280
     7
 91
        1
284
     1
  0
ACDSRECORD
 90
        0
  2
AcDbDs::ID
280
    10
320
22
  2
Thumbnail_Data
280
    15
 94
     1571
310
89504E470D0A1A0A0000000D494844520000010000000085080300000083A6D68B00000300504C5445212830FFFFFF2128300000000000000000000000000000000000000000000000000000330000660000990000CC0000FF0033000033330033660033990033CC0033FF0066000066330066660066990066CC0066FF0099
310
000099330099660099990099CC0099FF00CC0000CC3300CC6600CC9900CCCC00CCFF00FF0000FF3300FF6600FF9900FFCC00FFFF3300003300333300663300993300CC3300FF3333003333333333663333993333CC3333FF3366003366333366663366993366CC3366FF3399003399333399663399993399CC3399FF33CC00
310
33CC3333CC6633CC9933CCCC33CCFF33FF0033FF3333FF6633FF9933FFCC33FFFF6600006600336600666600996600CC6600FF6633006633336633666633996633CC6633FF6666006666336666666666996666CC6666FF6699006699336699666699996699CC6699FF66CC0066CC3366CC6666CC9966CCCC66CCFF66FF0066
310
FF3366FF6666FF9966FFCC66FFFF9900009900339900669900999900CC9900FF9933009933339933669933999933CC9933FF9966009966339966669966999966CC9966FF9999009999339999669999999999CC9999FF99CC0099CC3399CC6699CC9999CCCC99CCFF99FF0099FF3399FF6699FF9999FFCC99FFFFCC0000CC00
310
33CC0066CC0099CC00CCCC00FFCC3300CC3333CC3366CC3399CC33CCCC33FFCC6600CC6633CC6666CC6699CC66CCCC66FFCC9900CC9933CC9966CC9999CC99CCCC99FFCCCC00CCCC33CCCC66CCCC99CCCCCCCCCCFFCCFF00CCFF33CCFF66CCFF99CCFFCCCCFFFFFF0000FF0033FF0066FF0099FF00CCFF00FFFF3300FF3333
310
FF3366FF3399FF33CCFF33FFFF6600FF6633FF6666FF6699FF66CCFF66FFFF9900FF9933FF9966FF9999FF99CCFF99FFFFCC00FFCC33FFCC66FFCC99FFCCCCFFCCFFFFFF00FFFF33FFFF66FFFF99FFFFCCFFFFFF0000000D0D0D1A1A1A2828283535354343435050505D5D5D6B6B6B787878868686939393A1A1A1AEAEAEBB
310
BBBBC9C9C9D6D6D6E4E4E4F1F1F1FFFFFF0000000000000000000000000000000000000000000000000000000000002E4550F1000002DE4944415478DAED9BDD9AAB300845F342BEFF93EDFB69AB251093686BCF7704F6BA999FCEC5644908A09642082184104208218410420821841042082184104208F925F884980616CC
310
D4981F63C6C032546316FDFC299D80A205A00414B03C990958BF8416A02300AD0015F85173800901BB48482A8C9D0330C87ADB072220EC2950D03FF9F6B11F5FC07BB5D002AA810C02D675BF165C05AC47409A2DF05EAD2901A2E780D75100280BA54D871904D80A10D8B50641053CBAA1572D20655FF7820716F0EC0817B5
310
F6E610482060C1C3C0A32DCE390F9096B02E33F2428F8EC35A07A514B04679C6F56F07BFC480F3C57C9EAF54CB57422CFF730181827928E0EC22C74332F76ACE5D695F02DAAB8D6DAE8341963FB13D9C09289DFB179DB3BCCEB50E03C15B04C8C0FAA074456DEBE751E02C07D4590D0EB39E74FA983537FE72801CE25B3060
310
9208A4D81DE703C702EAFE1F0B1007EB5F8513007571273BDDFC41933996C55327AC1AD84FFFEBDEBC1F5B6FDCBB4D76E716AE3BC339F15FCBC1308B809B0BA8430CFB0D4EF5B6ED00C4DC2753BFBA75AFB0E53C9B0324199EDA42BDA03117FFFE026AA1AB475BC7C9AB3908B0FFC8C9162868931ACA99E99E7B012ADE7F20
310
A0D90EEFB5DF7B4E726D928DDDDD71740414A702CE244123C0A40DC8C5C7ED9360BB79CF97026A6D72881A01F7DF02BADFBF2260B7755404789819E2A711E050C09785FB20078880E25140F95A80A9FDFD46C0B7029A06D15712FC57554496083045A43E051C14423F10507B62FD54AC9752F8BA00340F836E3AF4F68F2FA0
310
8CB640120135E8DD5682D7BA69D4534FA6646904BC6F1CCB0B12292300668A826CA5300EEA80048550990928085F0835C3955640F463B09D2E219380003746AE460086B7C6D208389EAC276886B23E293F69F5733C374F01EAE493D188BC2D9C2802D41D75F5BA740E01E3C49743C0B71F861200FB1C6DFCD3BF53FCCBF362
310
EAC5A91402B2BE28480821841042082184104208218410F2BFF9037F575E570AC62A800000000049454E44AE426082
  0
ENDSEC
  0
EOF
