  0
SECTION
  2
HEADER
  9
$ACADVER
  1
AC1032
  9
$ACADMAINTVER
 90
        4
  9
$DWGCODEPAGE
  3
ANSI_1252
  9
$LASTSAVEDBY
  1
Siqi
  9
$REQUIREDVERSIONS
160
                 0
  9
$INSBASE
 10
0.0
 20
0.0
 30
0.0
  9
$EXTMIN
 10
-38327.2176657067
 20
6487.272623030043
 30
0.0
  9
$EXTMAX
 10
-26033.83666311712
 20
13222.44646343691
 30
0.0
  9
$LIMMIN
 10
0.0
 20
0.0
  9
$LIMMAX
 10
420.0
 20
297.0
  9
$ORTHOMODE
 70
     0
  9
$REGENMODE
 70
     1
  9
$FILLMODE
 70
     1
  9
$QTEXTMODE
 70
     0
  9
$MIRRTEXT
 70
     0
  9
$LTSCALE
 40
1.0
  9
$ATTMODE
 70
     1
  9
$TEXTSIZE
 40
2.5
  9
$TRACEWID
 40
1.0
  9
$TEXTSTYLE
  7
Standard
  9
$CLAYER
  8
0
  9
$CELTYPE
  6
ByLayer
  9
$CECOLOR
 62
   256
  9
$CELTSCALE
 40
1.0
  9
$DISPSILH
 70
     0
  9
$DIMSCALE
 40
1.0
  9
$DIMASZ
 40
15.0
  9
$DIMEXO
 40
1.0
  9
$DIMDLI
 40
3.75
  9
$DIMRND
 40
0.0
  9
$DIMDLE
 40
0.0
  9
$DIMEXE
 40
1.25
  9
$DIMTP
 40
0.0
  9
$DIMTM
 40
0.0
  9
$DIMTXT
 40
35.0
  9
$DIMCEN
 40
0.5
  9
$DIMTSZ
 40
0.0
  9
$DIMTOL
 70
     0
  9
$DIMLIM
 70
     0
  9
$DIMTIH
 70
     0
  9
$DIMTOH
 70
     0
  9
$DIMSE1
 70
     0
  9
$DIMSE2
 70
     0
  9
$DIMTAD
 70
     1
  9
$DIMZIN
 70
     8
  9
$DIMBLK
  1

  9
$DIMASO
 70
     1
  9
$DIMSHO
 70
     1
  9
$DIMPOST
  1

  9
$DIMAPOST
  1

  9
$DIMALT
 70
     0
  9
$DIMALTD
 70
     3
  9
$DIMALTF
 40
0.03937007874016
  9
$DIMLFAC
 40
1.0
  9
$DIMTOFL
 70
     1
  9
$DIMTVP
 40
0.0
  9
$DIMTIX
 70
     0
  9
$DIMSOXD
 70
     0
  9
$DIMSAH
 70
     0
  9
$DIMBLK1
  1

  9
$DIMBLK2
  1

  9
$DIMSTYLE
  2
ISO-25
  9
$DIMCLRD
 70
     0
  9
$DIMCLRE
 70
     0
  9
$DIMCLRT
 70
     0
  9
$DIMTFAC
 40
1.0
  9
$DIMGAP
 40
3.0
  9
$DIMJUST
 70
     0
  9
$DIMSD1
 70
     0
  9
$DIMSD2
 70
     0
  9
$DIMTOLJ
 70
     0
  9
$DIMTZIN
 70
     8
  9
$DIMALTZ
 70
     0
  9
$DIMALTTZ
 70
     0
  9
$DIMUPT
 70
     0
  9
$DIMDEC
 70
     2
  9
$DIMTDEC
 70
     2
  9
$DIMALTU
 70
     2
  9
$DIMALTTD
 70
     3
  9
$DIMTXSTY
  7
Standard
  9
$DIMAUNIT
 70
     0
  9
$DIMADEC
 70
     2
  9
$DIMALTRND
 40
0.0
  9
$DIMAZIN
 70
     0
  9
$DIMDSEP
 70
    44
  9
$DIMATFIT
 70
     3
  9
$DIMFRAC
 70
     0
  9
$DIMLDRBLK
  1

  9
$DIMLUNIT
 70
     2
  9
$DIMLWD
 70
    -2
  9
$DIMLWE
 70
    -2
  9
$DIMTMOVE
 70
     0
  9
$DIMFXL
 40
1.0
  9
$DIMFXLON
 70
     0
  9
$DIMJOGANG
 40
0.7853981633974483
  9
$DIMTFILL
 70
     0
  9
$DIMTFILLCLR
 70
     0
  9
$DIMARCSYM
 70
     0
  9
$DIMLTYPE
  6

  9
$DIMLTEX1
  6

  9
$DIMLTEX2
  6

  9
$DIMTXTDIRECTION
 70
     0
  9
$LUNITS
 70
     2
  9
$LUPREC
 70
     4
  9
$SKETCHINC
 40
1.0
  9
$FILLETRAD
 40
26.2
  9
$AUNITS
 70
     0
  9
$AUPREC
 70
     0
  9
$MENU
  1
.
  9
$ELEVATION
 40
0.0
  9
$PELEVATION
 40
0.0
  9
$THICKNESS
 40
0.0
  9
$LIMCHECK
 70
     0
  9
$CHAMFERA
 40
30.0
  9
$CHAMFERB
 40
30.0
  9
$CHAMFERC
 40
0.0
  9
$CHAMFERD
 40
0.0
  9
$SKPOLY
 70
     0
  9
$TDCREATE
 40
2453649.060439815
  9
$TDUCREATE
 40
2453649.352115521
  9
$TDUPDATE
 40
2457975.518854167
  9
$TDUUPDATE
 40
2457975.810520834
  9
$TDINDWG
 40
3.4442308565
  9
$TDUSRTIMER
 40
3.4442261574
  9
$USRTIMER
 70
     1
  9
$ANGBASE
 50
0.0
  9
$ANGDIR
 70
     0
  9
$PDMODE
 70
     0
  9
$PDSIZE
 40
0.0
  9
$PLINEWID
 40
0.0
  9
$SPLFRAME
 70
     0
  9
$SPLINETYPE
 70
     6
  9
$SPLINESEGS
 70
     8
  9
$HANDSEED
  5
20E69
  9
$SURFTAB1
 70
     6
  9
$SURFTAB2
 70
     6
  9
$SURFTYPE
 70
     6
  9
$SURFU
 70
     6
  9
$SURFV
 70
     6
  9
$UCSBASE
  2

  9
$UCSNAME
  2

  9
$UCSORG
 10
0.0
 20
0.0
 30
0.0
  9
$UCSXDIR
 10
1.0
 20
0.0
 30
0.0
  9
$UCSYDIR
 10
0.0
 20
1.0
 30
0.0
  9
$UCSORTHOREF
  2

  9
$UCSORTHOVIEW
 70
     0
  9
$UCSORGTOP
 10
0.0
 20
0.0
 30
0.0
  9
$UCSORGBOTTOM
 10
0.0
 20
0.0
 30
0.0
  9
$UCSORGLEFT
 10
0.0
 20
0.0
 30
0.0
  9
$UCSORGRIGHT
 10
0.0
 20
0.0
 30
0.0
  9
$UCSORGFRONT
 10
0.0
 20
0.0
 30
0.0
  9
$UCSORGBACK
 10
0.0
 20
0.0
 30
0.0
  9
$PUCSBASE
  2

  9
$PUCSNAME
  2

  9
$PUCSORG
 10
0.0
 20
0.0
 30
0.0
  9
$PUCSXDIR
 10
1.0
 20
0.0
 30
0.0
  9
$PUCSYDIR
 10
0.0
 20
1.0
 30
0.0
  9
$PUCSORTHOREF
  2

  9
$PUCSORTHOVIEW
 70
     0
  9
$PUCSORGTOP
 10
0.0
 20
0.0
 30
0.0
  9
$PUCSORGBOTTOM
 10
0.0
 20
0.0
 30
0.0
  9
$PUCSORGLEFT
 10
0.0
 20
0.0
 30
0.0
  9
$PUCSORGRIGHT
 10
0.0
 20
0.0
 30
0.0
  9
$PUCSORGFRONT
 10
0.0
 20
0.0
 30
0.0
  9
$PUCSORGBACK
 10
0.0
 20
0.0
 30
0.0
  9
$USERI1
 70
     0
  9
$USERI2
 70
     0
  9
$USERI3
 70
     0
  9
$USERI4
 70
     0
  9
$USERI5
 70
     0
  9
$USERR1
 40
0.0
  9
$USERR2
 40
0.0
  9
$USERR3
 40
0.0
  9
$USERR4
 40
0.0
  9
$USERR5
 40
2.5
  9
$WORLDVIEW
 70
     1
  9
$SHADEDGE
 70
     3
  9
$SHADEDIF
 70
    70
  9
$TILEMODE
 70
     1
  9
$MAXACTVP
 70
    64
  9
$PINSBASE
 10
0.0
 20
0.0
 30
0.0
  9
$PLIMCHECK
 70
     0
  9
$PEXTMIN
 10
0.0
 20
0.0
 30
0.0
  9
$PEXTMAX
 10
0.0
 20
0.0
 30
0.0
  9
$PLIMMIN
 10
0.0
 20
0.0
  9
$PLIMMAX
 10
12.0
 20
9.0
  9
$UNITMODE
 70
     0
  9
$VISRETAIN
 70
     1
  9
$PLINEGEN
 70
     0
  9
$PSLTSCALE
 70
     1
  9
$TREEDEPTH
 70
  3020
  9
$CMLSTYLE
  2
Standard
  9
$CMLJUST
 70
     0
  9
$CMLSCALE
 40
20.0
  9
$PROXYGRAPHICS
 70
     1
  9
$MEASUREMENT
 70
     1
  9
$CELWEIGHT
370
    -1
  9
$ENDCAPS
280
     0
  9
$JOINSTYLE
280
     0
  9
$LWDISPLAY
290
     0
  9
$INSUNITS
 70
     4
  9
$HYPERLINKBASE
  1

  9
$STYLESHEET
  1

  9
$XEDIT
290
     1
  9
$CEPSNTYPE
380
     0
  9
$PSTYLEMODE
290
     1
  9
$FINGERPRINTGUID
  2
{FDEAD578-A652-11D2-9A35-0060089B3A3F}
  9
$VERSIONGUID
  2
{F4862FA5-9744-C14F-8475-EDA3696A5D1D}
  9
$EXTNAMES
290
     1
  9
$PSVPSCALE
 40
0.0
  9
$OLESTARTUP
290
     0
  9
$SORTENTS
280
   127
  9
$INDEXCTL
280
     0
  9
$HIDETEXT
280
     1
  9
$XCLIPFRAME
280
     0
  9
$HALOGAP
280
     0
  9
$OBSCOLOR
 70
   257
  9
$OBSLTYPE
280
     0
  9
$INTERSECTIONDISPLAY
280
     0
  9
$INTERSECTIONCOLOR
 70
   257
  9
$DIMASSOC
280
     2
  9
$PROJECTNAME
  1

  9
$CAMERADISPLAY
290
     0
  9
$LENSLENGTH
 40
50.0
  9
$CAMERAHEIGHT
 40
0.0
  9
$STEPSPERSEC
 40
2.0
  9
$STEPSIZE
 40
6.0
  9
$3DDWFPREC
 40
2.0
  9
$PSOLWIDTH
 40
0.25
  9
$PSOLHEIGHT
 40
4.0
  9
$LOFTANG1
 40
1.570796326794896
  9
$LOFTANG2
 40
1.570796326794896
  9
$LOFTMAG1
 40
0.0
  9
$LOFTMAG2
 40
0.0
  9
$LOFTPARAM
 70
     7
  9
$LOFTNORMALS
280
     1
  9
$LATITUDE
 40
37.795
  9
$LONGITUDE
 40
-122.394
  9
$NORTHDIRECTION
 40
0.0
  9
$TIMEZONE
 70
 -8000
  9
$LIGHTGLYPHDISPLAY
280
     1
  9
$TILEMODELIGHTSYNCH
280
     1
  9
$CMATERIAL
347
20B3B
  9
$SOLIDHIST
280
     1
  9
$SHOWHIST
280
     1
  9
$DWFFRAME
280
     2
  9
$DGNFRAME
280
     0
  9
$REALWORLDSCALE
290
     1
  9
$INTERFERECOLOR
 62
     1
  9
$INTERFEREOBJVS
345
20B48
  9
$INTERFEREVPVS
346
20C25
  9
$CSHADOW
280
     0
  9
$SHADOWPLANELOCATION
 40
0.0
  0
ENDSEC
  0
SECTION
  2
CLASSES
  0
CLASS
  1
ACDBDICTIONARYWDFLT
  2
AcDbDictionaryWithDefault
  3
ObjectDBX Classes
 90
        0
 91
        1
280
     0
281
     0
  0
CLASS
  1
ACDBPLACEHOLDER
  2
AcDbPlaceHolder
  3
ObjectDBX Classes
 90
        0
 91
        1
280
     0
281
     0
  0
CLASS
  1
LAYOUT
  2
AcDbLayout
  3
ObjectDBX Classes
 90
        0
 91
        3
280
     0
281
     0
  0
CLASS
  1
DICTIONARYVAR
  2
AcDbDictionaryVar
  3
ObjectDBX Classes
 90
        0
 91
       28
280
     0
281
     0
  0
CLASS
  1
DIMASSOC
  2
AcDbDimAssoc
  3
"AcDbDimAssoc|Product Desc:     AcDim ARX App For Dimension|Company:          Autodesk, Inc.|WEB Address:      www.autodesk.com"
 90
        0
 91
       12
280
     0
281
     0
  0
CLASS
  1
VLO-VL
  2
vlo_VL
  3
VL|AutoLISP based application
 90
      129
 91
        2
280
     0
281
     0
  0
CLASS
  1
MATERIAL
  2
AcDbMaterial
  3
ObjectDBX Classes
 90
     1153
 91
        3
280
     0
281
     0
  0
CLASS
  1
VISUALSTYLE
  2
AcDbVisualStyle
  3
ObjectDBX Classes
 90
     4095
 91
       26
280
     0
281
     0
  0
CLASS
  1
TABLESTYLE
  2
AcDbTableStyle
  3
ObjectDBX Classes
 90
     4095
 91
        1
280
     0
281
     0
  0
CLASS
  1
SCALE
  2
AcDbScale
  3
ObjectDBX Classes
 90
     1153
 91
       17
280
     0
281
     0
  0
CLASS
  1
MLEADERSTYLE
  2
AcDbMLeaderStyle
  3
ACDB_MLEADERSTYLE_CLASS
 90
     4095
 91
        1
280
     0
281
     0
  0
CLASS
  1
ACDBSECTIONVIEWSTYLE
  2
AcDbSectionViewStyle
  3
ObjectDBX Classes
 90
     1025
 91
        1
280
     0
281
     0
  0
CLASS
  1
ACDBDETAILVIEWSTYLE
  2
AcDbDetailViewStyle
  3
ObjectDBX Classes
 90
     1025
 91
        1
280
     0
281
     0
  0
CLASS
  1
CELLSTYLEMAP
  2
AcDbCellStyleMap
  3
ObjectDBX Classes
 90
     1152
 91
        1
280
     0
281
     0
  0
ENDSEC
  0
SECTION
  2
TABLES
  0
TABLE
  2
VPORT
  5
8
330
0
100
AcDbSymbolTable
 70
     1
  0
VPORT
  5
20B39
330
8
100
AcDbSymbolTableRecord
100
AcDbViewportTableRecord
  2
*Active
 70
     0
 10
0.0
 20
0.0
 11
1.0
 21
1.0
 12
-37181.4890217048
 22
7249.539105048175
 13
0.0
 23
0.0
 14
10.0
 24
10.0
 15
10.0
 25
10.0
 16
0.0
 26
0.0
 36
1.0
 17
0.0
 27
0.0
 37
0.0
 40
882.5865348394108
 41
1.913595933926302
 42
50.0
 43
0.0
 44
0.0
 50
0.0
 51
0.0
 71
     0
 72
  1000
 73
     1
 74
     3
 75
     0
 76
     0
 77
     0
 78
     0
281
     0
 65
     1
110
0.0
120
0.0
130
0.0
111
1.0
121
0.0
131
0.0
112
0.0
122
1.0
132
0.0
 79
     0
146
0.0
348
20B44
 60
     3
 61
     5
292
     1
282
     1
141
0.0
142
0.0
 63
   250
421
  3355443
1001
ACAD_NAV_VCDISPLAY
1070
     3
  0
ENDTAB
  0
TABLE
  2
LTYPE
  5
5
330
0
100
AcDbSymbolTable
 70
     4
  0
LTYPE
  5
14
330
5
100
AcDbSymbolTableRecord
100
AcDbLinetypeTableRecord
  2
ByBlock
 70
     0
  3

 72
    65
 73
     0
 40
0.0
  0
LTYPE
  5
15
330
5
100
AcDbSymbolTableRecord
100
AcDbLinetypeTableRecord
  2
ByLayer
 70
     0
  3

 72
    65
 73
     0
 40
0.0
  0
LTYPE
  5
16
330
5
100
AcDbSymbolTableRecord
100
AcDbLinetypeTableRecord
  2
Continuous
 70
     0
  3
Solid line
 72
    65
 73
     0
 40
0.0
  0
LTYPE
  5
5BBC
330
5
100
AcDbSymbolTableRecord
100
AcDbLinetypeTableRecord
  2
CENTER
 70
     0
  3
Center ____ _ ____ _ ____ _ ____ _ ____ _ ____
 72
    65
 73
     4
 40
50.8
 49
31.75
 74
     0
 49
-6.349999999999999
 74
     0
 49
6.349999999999999
 74
     0
 49
-6.349999999999999
 74
     0
  0
LTYPE
  5
6D14
330
5
100
AcDbSymbolTableRecord
100
AcDbLinetypeTableRecord
  2
ACAD_ISO02W100
 70
     0
  3
ISO dash __ __ __ __ __ __ __ __ __ __ __ __ __
 72
    65
 73
     2
 40
15.0
 49
12.0
 74
     0
 49
-3.0
 74
     0
  0
ENDTAB
  0
TABLE
  2
LAYER
  5
2
102
{ACAD_XDICTIONARY
360
1F494
102
}
330
0
100
AcDbSymbolTable
 70
     7
  0
LAYER
  5
10
102
{ACAD_XDICTIONARY
360
20E38
102
}
330
2
100
AcDbSymbolTableRecord
100
AcDbLayerTableRecord
  2
0
 70
     0
 62
     7
  6
Continuous
370
    25
390
F
347
20B3D
348
0
  0
LAYER
  5
84
102
{ACAD_XDICTIONARY
360
20E3A
102
}
330
2
100
AcDbSymbolTableRecord
100
AcDbLayerTableRecord
  2
base
 70
     0
 62
     4
  6
Continuous
370
    40
390
F
347
20B3D
348
0
  0
LAYER
  5
1DA
330
2
100
AcDbSymbolTableRecord
100
AcDbLayerTableRecord
  2
Defpoints
 70
     0
 62
     7
  6
Continuous
290
     0
370
    -3
390
F
347
20B3D
348
0
  0
LAYER
  5
2D93
102
{ACAD_XDICTIONARY
360
20E3C
102
}
330
2
100
AcDbSymbolTableRecord
100
AcDbLayerTableRecord
  2
DIM
 70
     0
 62
     7
  6
Continuous
370
    13
390
F
347
20B3D
348
0
  0
LAYER
  5
5E45
102
{ACAD_XDICTIONARY
360
20E3E
102
}
330
2
100
AcDbSymbolTableRecord
100
AcDbLayerTableRecord
  2
DIMJ
 70
     0
 62
   221
  6
Continuous
370
    15
390
F
347
20B3D
348
0
  0
LAYER
  5
640C
102
{ACAD_XDICTIONARY
360
20E40
102
}
330
2
100
AcDbSymbolTableRecord
100
AcDbLayerTableRecord
  2
上模DIM
 70
     0
 62
     7
  6
Continuous
370
    20
390
F
347
20B3D
348
0
1001
AcadStringInfo
1000
MIFCodePage
1070
     5
  0
LAYER
  5
1E460
102
{ACAD_XDICTIONARY
360
20E42
102
}
330
2
100
AcDbSymbolTableRecord
100
AcDbLayerTableRecord
  2
DEFAULT
 70
     0
 62
     7
  6
Continuous
370
    -3
390
F
347
20B3D
348
0
  0
ENDTAB
  0
TABLE
  2
STYLE
  5
3
330
0
100
AcDbSymbolTable
 70
     2
  0
STYLE
  5
11
330
3
100
AcDbSymbolTableRecord
100
AcDbTextStyleTableRecord
  2
Standard
 70
     0
 40
0.0
 41
1.0
 50
0.0
 71
     0
 42
2.5
  3
txt
  4

  0
STYLE
  5
1E461
330
3
100
AcDbSymbolTableRecord
100
AcDbTextStyleTableRecord
  2
arial_ttf
 70
     0
 40
0.0
 41
1.0
 50
0.0
 71
     0
 42
0.2
  3
arial.ttf
  4

1001
ACAD
1000
Arial
1071
    34306
  0
ENDTAB
  0
TABLE
  2
VIEW
  5
6
330
0
100
AcDbSymbolTable
 70
     1
  0
ENDTAB
  0
TABLE
  2
UCS
  5
7
330
0
100
AcDbSymbolTable
 70
     0
  0
ENDTAB
  0
TABLE
  2
APPID
  5
9
330
0
100
AcDbSymbolTable
 70
     6
  0
APPID
  5
12
330
9
100
AcDbSymbolTableRecord
100
AcDbRegAppTableRecord
  2
ACAD
 70
     0
  0
APPID
  5
5388
330
9
100
AcDbSymbolTableRecord
100
AcDbRegAppTableRecord
  2
DCO15
 70
     0
  0
APPID
  5
20C48
330
9
100
AcDbSymbolTableRecord
100
AcDbRegAppTableRecord
  2
AcadStringInfo
 70
     0
  0
APPID
  5
20C4F
330
9
100
AcDbSymbolTableRecord
100
AcDbRegAppTableRecord
  2
AcadAnnoMonitorAlertIconDisabled
 70
     0
  0
APPID
  5
20C50
330
9
100
AcDbSymbolTableRecord
100
AcDbRegAppTableRecord
  2
ACAD_EXEMPT_FROM_CAD_STANDARDS
 70
     0
  0
APPID
  5
20E4B
330
9
100
AcDbSymbolTableRecord
100
AcDbRegAppTableRecord
  2
ACAD_NAV_VCDISPLAY
 70
     0
  0
ENDTAB
  0
TABLE
  2
DIMSTYLE
  5
A
330
0
100
AcDbSymbolTable
 70
     1
100
AcDbDimStyleTable
 71
     1
340
27
  0
DIMSTYLE
105
27
102
{ACAD_REACTORS
330
1C6D1
330
1C6D0
330
1C6CD
330
1C6CA
330
1C6C7
330
1C692
330
1C691
330
1C690
330
1C68F
330
1C66A
330
1C667
330
1C664
330
1C65F
330
1C65C
330
1C655
330
1C837
330
1C6DD
330
1C6E0
102
}
330
A
100
AcDbSymbolTableRecord
100
AcDbDimStyleTableRecord
  2
ISO-25
 70
     0
 41
2.0
 42
1.0
 43
3.75
 44
1.25
 73
     0
 74
     0
 77
     1
 78
     8
140
3.0
141
2.5
143
0.03937007874016
147
5.0
171
     3
172
     1
271
     2
272
     2
274
     3
278
    44
283
     0
284
     8
340
11
  0
ENDTAB
  0
TABLE
  2
BLOCK_RECORD
  5
1
330
0
100
AcDbSymbolTable
 70
   334
  0
BLOCK_RECORD
  5
1F
330
1
100
AcDbSymbolTableRecord
100
AcDbBlockTableRecord
  2
*Model_Space
340
22
 70
     0
280
     1
281
     0
  0
BLOCK_RECORD
  5
50
330
1
100
AcDbSymbolTableRecord
100
AcDbBlockTableRecord
  2
*Paper_Space
340
51
 70
     0
280
     1
281
     0
  0
BLOCK_RECORD
  5
55
330
1
100
AcDbSymbolTableRecord
100
AcDbBlockTableRecord
  2
*Paper_Space0
340
56
 70
     0
280
     1
281
     0
  0
BLOCK_RECORD
  5
1C6E8
330
1
100
AcDbSymbolTableRecord
100
AcDbBlockTableRecord
  2
*D53
340
0
 70
     0
280
     1
281
     0
  0
BLOCK_RECORD
  5
1C708
330
1
100
AcDbSymbolTableRecord
100
AcDbBlockTableRecord
  2
*D54
340
0
 70
     0
280
     1
281
     0
  0
BLOCK_RECORD
  5
1C711
330
1
100
AcDbSymbolTableRecord
100
AcDbBlockTableRecord
  2
*D55
340
0
 70
     0
280
     1
281
     0
  0
BLOCK_RECORD
  5
1C71D
330
1
100
AcDbSymbolTableRecord
100
AcDbBlockTableRecord
  2
*D56
340
0
 70
     0
280
     1
281
     0
  0
BLOCK_RECORD
  5
1C729
330
1
100
AcDbSymbolTableRecord
100
AcDbBlockTableRecord
  2
*D57
340
0
 70
     0
280
     1
281
     0
  0
BLOCK_RECORD
  5
1C735
330
1
100
AcDbSymbolTableRecord
100
AcDbBlockTableRecord
  2
*D58
340
0
 70
     0
280
     1
281
     0
  0
BLOCK_RECORD
  5
1C741
330
1
100
AcDbSymbolTableRecord
100
AcDbBlockTableRecord
  2
*D59
340
0
 70
     0
280
     1
281
     0
  0
BLOCK_RECORD
  5
1C74D
330
1
100
AcDbSymbolTableRecord
100
AcDbBlockTableRecord
  2
*D60
340
0
 70
     0
280
     1
281
     0
  0
BLOCK_RECORD
  5
1C759
330
1
100
AcDbSymbolTableRecord
100
AcDbBlockTableRecord
  2
*D61
340
0
 70
     0
280
     1
281
     0
  0
BLOCK_RECORD
  5
1C770
330
1
100
AcDbSymbolTableRecord
100
AcDbBlockTableRecord
  2
*D62
340
0
 70
     0
280
     1
281
     0
  0
BLOCK_RECORD
  5
1C77C
330
1
100
AcDbSymbolTableRecord
100
AcDbBlockTableRecord
  2
*D63
340
0
 70
     0
280
     1
281
     0
  0
BLOCK_RECORD
  5
1C7D4
330
1
100
AcDbSymbolTableRecord
100
AcDbBlockTableRecord
  2
*D64
340
0
 70
     0
280
     1
281
     0
  0
BLOCK_RECORD
  5
1C7E0
330
1
100
AcDbSymbolTableRecord
100
AcDbBlockTableRecord
  2
*D65
340
0
 70
     0
280
     1
281
     0
  0
BLOCK_RECORD
  5
1C7EC
330
1
100
AcDbSymbolTableRecord
100
AcDbBlockTableRecord
  2
*D66
340
0
 70
     0
280
     1
281
     0
  0
BLOCK_RECORD
  5
1C7F8
330
1
100
AcDbSymbolTableRecord
100
AcDbBlockTableRecord
  2
*D67
340
0
 70
     0
280
     1
281
     0
  0
BLOCK_RECORD
  5
1C806
330
1
100
AcDbSymbolTableRecord
100
AcDbBlockTableRecord
  2
*D68
340
0
 70
     0
280
     1
281
     0
  0
BLOCK_RECORD
  5
1C814
330
1
100
AcDbSymbolTableRecord
100
AcDbBlockTableRecord
  2
*D69
340
0
 70
     0
280
     1
281
     0
  0
BLOCK_RECORD
  5
1C838
330
1
100
AcDbSymbolTableRecord
100
AcDbBlockTableRecord
  2
*D70
340
0
 70
     0
280
     1
281
     0
  0
BLOCK_RECORD
  5
1E42D
330
1
100
AcDbSymbolTableRecord
100
AcDbBlockTableRecord
  2
SE13
340
0
102
{BLKREFS
331
1E6CF
331
1E7D4
102
}
 70
     0
280
     1
281
     0
  0
ENDTAB
  0
ENDSEC
  0
SECTION
  2
BLOCKS
  0
BLOCK
  5
20
330
1F
100
AcDbEntity
  8
0
100
AcDbBlockBegin
  2
*Model_Space
 70
     0
 10
0.0
 20
0.0
 30
0.0
  3
*Model_Space
  1

  0
ENDBLK
  5
21
330
1F
100
AcDbEntity
  8
0
100
AcDbBlockEnd
  0
BLOCK
  5
52
330
50
100
AcDbEntity
 67
     1
  8
0
100
AcDbBlockBegin
  2
*Paper_Space
 70
     0
 10
0.0
 20
0.0
 30
0.0
  3
*Paper_Space
  1

  0
ENDBLK
  5
53
330
50
100
AcDbEntity
 67
     1
  8
0
100
AcDbBlockEnd
  0
BLOCK
  5
57
330
55
100
AcDbEntity
 67
     1
  8
0
100
AcDbBlockBegin
  2
*Paper_Space0
 70
     0
 10
0.0
 20
0.0
 30
0.0
  3
*Paper_Space0
  1

  0
ENDBLK
  5
58
330
55
100
AcDbEntity
 67
     1
  8
0
100
AcDbBlockEnd
  0
BLOCK
  5
1C6F4
330
1C6E8
100
AcDbEntity
  8
0
100
AcDbBlockBegin
  2
*D53
 70
     1
 10
0.0
 20
0.0
 30
0.0
  3
*D53
  1

  0
LINE
  5
20D7E
330
1C6E8
100
AcDbEntity
  8
DIM
 62
     0
440
 16777216
370
    -2
100
AcDbLine
 10
-37454.43837919679
 20
7531.7724668419
 30
0.0
 11
-37454.43837919679
 21
7494.483528124736
 31
0.0
  0
LINE
  5
20D7F
330
1C6E8
100
AcDbEntity
  8
DIM
 62
     0
440
 16777216
370
    -2
100
AcDbLine
 10
-37428.4383791968
 20
7531.129486482027
 30
0.0
 11
-37428.4383791968
 21
7494.483528124736
 31
0.0
  0
LINE
  5
20D80
330
1C6E8
100
AcDbEntity
  8
DIM
 62
     0
440
 16777216
370
    -2
100
AcDbLine
 10
-37418.43837919679
 20
7495.733528124737
 30
0.0
 11
-37408.43837919679
 21
7495.733528124737
 31
0.0
  0
LINE
  5
20D81
330
1C6E8
100
AcDbEntity
  8
DIM
 62
     0
440
 16777216
370
    -2
100
AcDbLine
 10
-37464.43837919679
 20
7495.733528124737
 30
0.0
 11
-37587.10504586345
 21
7495.733528124737
 31
0.0
  0
LINE
  5
20D82
330
1C6E8
100
AcDbEntity
  8
DIM
 62
     0
440
 16777216
370
    -2
100
AcDbLine
 10
-37428.4383791968
 20
7495.733528124737
 30
0.0
 11
-37454.43837919679
 21
7495.733528124737
 31
0.0
  0
SOLID
  5
20D83
330
1C6E8
100
AcDbEntity
  8
DIM
 62
     0
440
 16777216
100
AcDbTrace
 10
-37418.43837919679
 20
7497.400194791403
 30
0.0
 11
-37418.43837919679
 21
7494.066861458069
 31
0.0
 12
-37428.4383791968
 22
7495.733528124737
 32
0.0
 13
-37428.4383791968
 23
7495.733528124737
 33
0.0
  0
SOLID
  5
20D84
330
1C6E8
100
AcDbEntity
  8
DIM
 62
     0
440
 16777216
100
AcDbTrace
 10
-37464.43837919679
 20
7497.400194791403
 30
0.0
 11
-37464.43837919679
 21
7494.066861458069
 31
0.0
 12
-37454.43837919679
 22
7495.733528124737
 32
0.0
 13
-37454.43837919679
 23
7495.733528124737
 33
0.0
  0
MTEXT
  5
20D85
330
1C6E8
100
AcDbEntity
  8
DIM
 62
     0
440
 16777216
100
AcDbMText
 10
-37530.77171253012
 20
7508.733528124736
 30
0.0
 40
20.0
 41
0.0
 46
0.0
 71
     5
 72
     1
  1
26{\Ftxt|c134; [1"]}
 73
     1
 44
1.0
  0
POINT
  5
20D86
330
1C6E8
100
AcDbEntity
  8
Defpoints
 62
     0
440
 16777216
100
AcDbPoint
 10
-37454.43837919679
 20
7532.772466841901
 30
0.0
  0
POINT
  5
20D87
330
1C6E8
100
AcDbEntity
  8
Defpoints
 62
     0
440
 16777216
100
AcDbPoint
 10
-37428.4383791968
 20
7532.129486482027
 30
0.0
  0
POINT
  5
20D88
330
1C6E8
100
AcDbEntity
  8
Defpoints
 62
     0
440
 16777216
100
AcDbPoint
 10
-37428.4383791968
 20
7495.733528124737
 30
0.0
  0
ENDBLK
  5
1C6F5
330
1C6E8
100
AcDbEntity
  8
0
100
AcDbBlockEnd
  0
BLOCK
  5
1C70F
330
1C708
100
AcDbEntity
  8
0
100
AcDbBlockBegin
  2
*D54
 70
     1
 10
0.0
 20
0.0
 30
0.0
  3
*D54
  1

  0
LINE
  5
20CCC
330
1C708
100
AcDbEntity
  8
DIM
 62
     0
440
 16777216
370
    -2
100
AcDbLine
 10
-38103.64759831641
 20
8158.22519688241
 30
0.0
 11
-37996.45380496902
 21
8002.159179508645
 31
0.0
  0
MTEXT
  5
20CCD
330
1C708
100
AcDbEntity
  8
DIM
 62
     0
440
 16777216
100
AcDbMText
 10
-38042.16572316144
 20
8091.673787141223
 30
0.0
 40
20.0
 41
0.0
 46
0.0
 71
     5
 72
     1
  1
4-R52{\Ftxt|c134; [2"]}
 11
0.5661644014826841
 21
-0.8242923452839738
 31
0.0
 73
     1
 44
1.0
  0
LINE
  5
20CCE
330
1C708
100
AcDbEntity
  8
DIM
 62
     0
440
 16777216
370
    -2
100
AcDbLine
 10
-37961.23837919677
 20
7950.88819563195
 30
0.0
 11
-37990.7921609542
 21
7993.916256055806
 31
0.0
  0
SOLID
  5
20CCF
330
1C708
100
AcDbEntity
  8
DIM
 62
     0
440
 16777216
100
AcDbTrace
 10
-37995.07998439355
 20
8003.102786844449
 30
0.0
 11
-37997.8276255445
 21
8001.215572172839
 31
0.0
 12
-37990.7921609542
 22
7993.916256055806
 32
0.0
 13
-37990.7921609542
 23
7993.916256055806
 33
0.0
  0
POINT
  5
20CD0
330
1C708
100
AcDbEntity
  8
Defpoints
 62
     0
440
 16777216
100
AcDbPoint
 10
-37990.7921609542
 20
7993.916256055806
 30
0.0
  0
POINT
  5
20CD1
330
1C708
100
AcDbEntity
  8
Defpoints
 62
     0
440
 16777216
100
AcDbPoint
 10
-37961.23837919677
 20
7950.88819563195
 30
0.0
  0
ENDBLK
  5
1C710
330
1C708
100
AcDbEntity
  8
0
100
AcDbBlockEnd
  0
BLOCK
  5
1C71B
330
1C711
100
AcDbEntity
  8
0
100
AcDbBlockBegin
  2
*D55
 70
     1
 10
0.0
 20
0.0
 30
0.0
  3
*D55
  1

  0
LINE
  5
20DB6
330
1C711
100
AcDbEntity
  8
DIM
 62
     0
440
 16777216
370
    -2
100
AcDbLine
 10
-37987.43837919678
 20
7596.288195631959
 30
0.0
 11
-37987.43837919678
 21
7428.106491290542
 31
0.0
  0
LINE
  5
20DB7
330
1C711
100
AcDbEntity
  8
DIM
 62
     0
440
 16777216
370
    -2
100
AcDbLine
 10
-37249.43837919679
 20
7596.288195631959
 30
0.0
 11
-37249.43837919679
 21
7428.106491290542
 31
0.0
  0
LINE
  5
20DB8
330
1C711
100
AcDbEntity
  8
DIM
 62
     0
440
 16777216
370
    -2
100
AcDbLine
 10
-37977.43837919679
 20
7429.356491290542
 30
0.0
 11
-37259.43837919678
 21
7429.356491290542
 31
0.0
  0
SOLID
  5
20DB9
330
1C711
100
AcDbEntity
  8
DIM
 62
     0
440
 16777216
100
AcDbTrace
 10
-37977.43837919679
 20
7431.023157957209
 30
0.0
 11
-37977.43837919679
 21
7427.689824623875
 31
0.0
 12
-37987.43837919678
 22
7429.356491290542
 32
0.0
 13
-37987.43837919678
 23
7429.356491290542
 33
0.0
  0
SOLID
  5
20DBA
330
1C711
100
AcDbEntity
  8
DIM
 62
     0
440
 16777216
100
AcDbTrace
 10
-37259.43837919678
 20
7431.023157957209
 30
0.0
 11
-37259.43837919678
 21
7427.689824623875
 31
0.0
 12
-37249.43837919679
 22
7429.356491290542
 32
0.0
 13
-37249.43837919679
 23
7429.356491290542
 33
0.0
  0
MTEXT
  5
20DBB
330
1C711
100
AcDbEntity
  8
DIM
 62
     0
440
 16777216
100
AcDbMText
 10
-37618.43837919679
 20
7442.356491290542
 30
0.0
 40
20.0
 41
0.0
 46
0.0
 71
     5
 72
     1
  1
738{\Ftxt|c134; [29"]}
 73
     1
 44
1.0
  0
POINT
  5
20DBC
330
1C711
100
AcDbEntity
  8
Defpoints
 62
     0
440
 16777216
100
AcDbPoint
 10
-37987.43837919678
 20
7597.28819563196
 30
0.0
  0
POINT
  5
20DBD
330
1C711
100
AcDbEntity
  8
Defpoints
 62
     0
440
 16777216
100
AcDbPoint
 10
-37249.43837919679
 20
7597.28819563196
 30
0.0
  0
POINT
  5
20DBE
330
1C711
100
AcDbEntity
  8
Defpoints
 62
     0
440
 16777216
100
AcDbPoint
 10
-37249.43837919679
 20
7429.356491290542
 30
0.0
  0
ENDBLK
  5
1C71C
330
1C711
100
AcDbEntity
  8
0
100
AcDbBlockEnd
  0
BLOCK
  5
1C727
330
1C71D
100
AcDbEntity
  8
0
100
AcDbBlockBegin
  2
*D56
 70
     1
 10
0.0
 20
0.0
 30
0.0
  3
*D56
  1

  0
LINE
  5
20CDB
330
1C71D
100
AcDbEntity
  8
DIM
 62
     0
440
 16777216
370
    -2
100
AcDbLine
 10
-37274.6383791968
 20
7571.088195631962
 30
0.0
 11
-37143.77675511294
 21
7571.088195631962
 31
0.0
  0
LINE
  5
20CDC
330
1C71D
100
AcDbEntity
  8
DIM
 62
     0
440
 16777216
370
    -2
100
AcDbLine
 10
-37274.6383791968
 20
7977.088195631961
 30
0.0
 11
-37143.77675511294
 21
7977.088195631961
 31
0.0
  0
LINE
  5
20CDD
330
1C71D
100
AcDbEntity
  8
DIM
 62
     0
440
 16777216
370
    -2
100
AcDbLine
 10
-37145.02675511294
 20
7581.088195631963
 30
0.0
 11
-37145.02675511294
 21
7967.08819563196
 31
0.0
  0
SOLID
  5
20CDE
330
1C71D
100
AcDbEntity
  8
DIM
 62
     0
440
 16777216
100
AcDbTrace
 10
-37146.6934217796
 20
7581.088195631963
 30
0.0
 11
-37143.36008844628
 21
7581.088195631963
 31
0.0
 12
-37145.02675511294
 22
7571.088195631962
 32
0.0
 13
-37145.02675511294
 23
7571.088195631962
 33
0.0
  0
SOLID
  5
20CDF
330
1C71D
100
AcDbEntity
  8
DIM
 62
     0
440
 16777216
100
AcDbTrace
 10
-37146.6934217796
 20
7967.08819563196
 30
0.0
 11
-37143.36008844628
 21
7967.08819563196
 31
0.0
 12
-37145.02675511294
 22
7977.088195631961
 32
0.0
 13
-37145.02675511294
 23
7977.088195631961
 33
0.0
  0
MTEXT
  5
20CE0
330
1C71D
100
AcDbEntity
  8
DIM
 62
     0
440
 16777216
100
AcDbMText
 10
-37158.02675511293
 20
7774.088195631971
 30
0.0
 40
20.0
 41
0.0
 46
0.0
 71
     5
 72
     1
  1
406{\Ftxt|c134; [16"]}
 11
0.0000000000000001
 21
1.0
 31
0.0
 73
     1
 44
1.0
  0
POINT
  5
20CE1
330
1C71D
100
AcDbEntity
  8
Defpoints
 62
     0
440
 16777216
100
AcDbPoint
 10
-37275.6383791968
 20
7571.088195631962
 30
0.0
  0
POINT
  5
20CE2
330
1C71D
100
AcDbEntity
  8
Defpoints
 62
     0
440
 16777216
100
AcDbPoint
 10
-37275.6383791968
 20
7977.088195631961
 30
0.0
  0
POINT
  5
20CE3
330
1C71D
100
AcDbEntity
  8
Defpoints
 62
     0
440
 16777216
100
AcDbPoint
 10
-37145.02675511294
 20
7977.088195631961
 30
0.0
  0
ENDBLK
  5
1C728
330
1C71D
100
AcDbEntity
  8
0
100
AcDbBlockEnd
  0
BLOCK
  5
1C733
330
1C729
100
AcDbEntity
  8
0
100
AcDbBlockBegin
  2
*D57
 70
     1
 10
0.0
 20
0.0
 30
0.0
  3
*D57
  1

  0
LINE
  5
20DC8
330
1C729
100
AcDbEntity
  8
DIM
 62
     0
440
 16777216
370
    -2
100
AcDbLine
 10
-38014.93837919679
 20
7596.288195631949
 30
0.0
 11
-38014.93837919679
 21
7366.381121148617
 31
0.0
  0
LINE
  5
20DC9
330
1C729
100
AcDbEntity
  8
DIM
 62
     0
440
 16777216
370
    -2
100
AcDbLine
 10
-37221.93837919679
 20
7596.288195631951
 30
0.0
 11
-37221.93837919679
 21
7366.381121148617
 31
0.0
  0
LINE
  5
20DCA
330
1C729
100
AcDbEntity
  8
DIM
 62
     0
440
 16777216
370
    -2
100
AcDbLine
 10
-38004.93837919679
 20
7367.631121148618
 30
0.0
 11
-37231.93837919679
 21
7367.631121148618
 31
0.0
  0
SOLID
  5
20DCB
330
1C729
100
AcDbEntity
  8
DIM
 62
     0
440
 16777216
100
AcDbTrace
 10
-38004.93837919679
 20
7369.297787815284
 30
0.0
 11
-38004.93837919679
 21
7365.96445448195
 31
0.0
 12
-38014.93837919679
 22
7367.631121148618
 32
0.0
 13
-38014.93837919679
 23
7367.631121148618
 33
0.0
  0
SOLID
  5
20DCC
330
1C729
100
AcDbEntity
  8
DIM
 62
     0
440
 16777216
100
AcDbTrace
 10
-37231.93837919679
 20
7369.297787815284
 30
0.0
 11
-37231.93837919679
 21
7365.96445448195
 31
0.0
 12
-37221.93837919679
 22
7367.631121148618
 32
0.0
 13
-37221.93837919679
 23
7367.631121148618
 33
0.0
  0
MTEXT
  5
20DCD
330
1C729
100
AcDbEntity
  8
DIM
 62
     0
440
 16777216
100
AcDbMText
 10
-37618.43837919679
 20
7380.631121148617
 30
0.0
 40
20.0
 41
0.0
 46
0.0
 71
     5
 72
     1
  1
793{\Ftxt|c134; [31"]}
 73
     1
 44
1.0
  0
POINT
  5
20DCE
330
1C729
100
AcDbEntity
  8
Defpoints
 62
     0
440
 16777216
100
AcDbPoint
 10
-38014.93837919679
 20
7597.28819563195
 30
0.0
  0
POINT
  5
20DCF
330
1C729
100
AcDbEntity
  8
Defpoints
 62
     0
440
 16777216
100
AcDbPoint
 10
-37221.93837919679
 20
7597.288195631951
 30
0.0
  0
POINT
  5
20DD0
330
1C729
100
AcDbEntity
  8
Defpoints
 62
     0
440
 16777216
100
AcDbPoint
 10
-37221.93837919679
 20
7367.631121148618
 30
0.0
  0
ENDBLK
  5
1C734
330
1C729
100
AcDbEntity
  8
0
100
AcDbBlockEnd
  0
BLOCK
  5
1C73F
330
1C735
100
AcDbEntity
  8
0
100
AcDbBlockBegin
  2
*D58
 70
     1
 10
0.0
 20
0.0
 30
0.0
  3
*D58
  1

  0
LINE
  5
20CED
330
1C735
100
AcDbEntity
  8
DIM
 62
     0
440
 16777216
370
    -2
100
AcDbLine
 10
-37274.6383791968
 20
7543.588195631961
 30
0.0
 11
-37085.86082326328
 21
7543.588195631961
 31
0.0
  0
LINE
  5
20CEE
330
1C735
100
AcDbEntity
  8
DIM
 62
     0
440
 16777216
370
    -2
100
AcDbLine
 10
-37274.6383791968
 20
8004.588195631956
 30
0.0
 11
-37085.86082326328
 21
8004.588195631956
 31
0.0
  0
LINE
  5
20CEF
330
1C735
100
AcDbEntity
  8
DIM
 62
     0
440
 16777216
370
    -2
100
AcDbLine
 10
-37087.11082326328
 20
7553.588195631961
 30
0.0
 11
-37087.11082326328
 21
7994.588195631957
 31
0.0
  0
SOLID
  5
20CF0
330
1C735
100
AcDbEntity
  8
DIM
 62
     0
440
 16777216
100
AcDbTrace
 10
-37088.77748992995
 20
7553.588195631961
 30
0.0
 11
-37085.44415659662
 21
7553.588195631961
 31
0.0
 12
-37087.11082326328
 22
7543.588195631961
 32
0.0
 13
-37087.11082326328
 23
7543.588195631961
 33
0.0
  0
SOLID
  5
20CF1
330
1C735
100
AcDbEntity
  8
DIM
 62
     0
440
 16777216
100
AcDbTrace
 10
-37088.77748992995
 20
7994.588195631957
 30
0.0
 11
-37085.44415659662
 21
7994.588195631957
 31
0.0
 12
-37087.11082326328
 22
8004.588195631956
 32
0.0
 13
-37087.11082326328
 23
8004.588195631956
 33
0.0
  0
MTEXT
  5
20CF2
330
1C735
100
AcDbEntity
  8
DIM
 62
     0
440
 16777216
100
AcDbMText
 10
-37100.11082326328
 20
7774.088195631967
 30
0.0
 40
20.0
 41
0.0
 46
0.0
 71
     5
 72
     1
  1
461{\Ftxt|c134; [18.15"]}
 11
0.0000000000000001
 21
1.0
 31
0.0
 73
     1
 44
1.0
  0
POINT
  5
20CF3
330
1C735
100
AcDbEntity
  8
Defpoints
 62
     0
440
 16777216
100
AcDbPoint
 10
-37275.6383791968
 20
7543.588195631961
 30
0.0
  0
POINT
  5
20CF4
330
1C735
100
AcDbEntity
  8
Defpoints
 62
     0
440
 16777216
100
AcDbPoint
 10
-37275.6383791968
 20
8004.588195631956
 30
0.0
  0
POINT
  5
20CF5
330
1C735
100
AcDbEntity
  8
Defpoints
 62
     0
440
 16777216
100
AcDbPoint
 10
-37087.11082326328
 20
8004.588195631956
 30
0.0
  0
ENDBLK
  5
1C740
330
1C735
100
AcDbEntity
  8
0
100
AcDbBlockEnd
  0
BLOCK
  5
1C74B
330
1C741
100
AcDbEntity
  8
0
100
AcDbBlockBegin
  2
*D59
 70
     1
 10
0.0
 20
0.0
 30
0.0
  3
*D59
  1

  0
LINE
  5
20D60
330
1C741
100
AcDbEntity
  8
DIM
 62
     0
440
 16777216
370
    -2
100
AcDbLine
 10
-37396.9383791968
 20
7849.088195631956
 30
0.0
 11
-37517.1300130935
 21
7849.088195631956
 31
0.0
  0
LINE
  5
20D61
330
1C741
100
AcDbEntity
  8
DIM
 62
     0
440
 16777216
370
    -2
100
AcDbLine
 10
-37339.9383791968
 20
7774.088195631957
 30
0.0
 11
-37517.1300130935
 21
7774.088195631957
 31
0.0
  0
LINE
  5
20D62
330
1C741
100
AcDbEntity
  8
DIM
 62
     0
440
 16777216
370
    -2
100
AcDbLine
 10
-37515.8800130935
 20
7839.088195631958
 30
0.0
 11
-37515.8800130935
 21
7784.088195631958
 31
0.0
  0
SOLID
  5
20D63
330
1C741
100
AcDbEntity
  8
DIM
 62
     0
440
 16777216
100
AcDbTrace
 10
-37517.54667976016
 20
7839.088195631958
 30
0.0
 11
-37514.21334642683
 21
7839.088195631958
 31
0.0
 12
-37515.8800130935
 22
7849.088195631956
 32
0.0
 13
-37515.8800130935
 23
7849.088195631956
 33
0.0
  0
SOLID
  5
20D64
330
1C741
100
AcDbEntity
  8
DIM
 62
     0
440
 16777216
100
AcDbTrace
 10
-37517.54667976016
 20
7784.088195631958
 30
0.0
 11
-37514.21334642683
 21
7784.088195631958
 31
0.0
 12
-37515.8800130935
 22
7774.088195631957
 32
0.0
 13
-37515.8800130935
 23
7774.088195631957
 33
0.0
  0
MTEXT
  5
20D65
330
1C741
100
AcDbEntity
  8
DIM
 62
     0
440
 16777216
100
AcDbMText
 10
-37545.54667976016
 20
7839.088195631958
 30
0.0
 40
20.0
 41
17.85246922877559
 46
0.0
 71
     5
 72
     1
  1
75{\Ftxt|c134; [2.95"]}
 11
0.0000000000000001
 21
1.0
 31
0.0
 73
     1
 44
1.0
  0
POINT
  5
20D66
330
1C741
100
AcDbEntity
  8
Defpoints
 62
     0
440
 16777216
100
AcDbPoint
 10
-37395.9383791968
 20
7849.088195631956
 30
0.0
  0
POINT
  5
20D67
330
1C741
100
AcDbEntity
  8
Defpoints
 62
     0
440
 16777216
100
AcDbPoint
 10
-37338.9383791968
 20
7774.088195631957
 30
0.0
  0
POINT
  5
20D68
330
1C741
100
AcDbEntity
  8
Defpoints
 62
     0
440
 16777216
100
AcDbPoint
 10
-37515.8800130935
 20
7774.088195631957
 30
0.0
  0
ENDBLK
  5
1C74C
330
1C741
100
AcDbEntity
  8
0
100
AcDbBlockEnd
  0
BLOCK
  5
1C757
330
1C74D
100
AcDbEntity
  8
0
100
AcDbBlockBegin
  2
*D60
 70
     1
 10
0.0
 20
0.0
 30
0.0
  3
*D60
  1

  0
LINE
  5
20D57
330
1C74D
100
AcDbEntity
  8
DIM
 62
     0
440
 16777216
370
    -2
100
AcDbLine
 10
-37781.9383791968
 20
7849.088195631956
 30
0.0
 11
-37845.6724940624
 21
7849.088195631956
 31
0.0
  0
LINE
  5
20D58
330
1C74D
100
AcDbEntity
  8
DIM
 62
     0
440
 16777216
370
    -2
100
AcDbLine
 10
-37721.9383791968
 20
7774.088195631957
 30
0.0
 11
-37845.6724940624
 21
7774.088195631957
 31
0.0
  0
LINE
  5
20D59
330
1C74D
100
AcDbEntity
  8
DIM
 62
     0
440
 16777216
370
    -2
100
AcDbLine
 10
-37844.4224940624
 20
7839.088195631958
 30
0.0
 11
-37844.4224940624
 21
7784.088195631958
 31
0.0
  0
SOLID
  5
20D5A
330
1C74D
100
AcDbEntity
  8
DIM
 62
     0
440
 16777216
100
AcDbTrace
 10
-37846.08916072906
 20
7839.088195631958
 30
0.0
 11
-37842.75582739573
 21
7839.088195631958
 31
0.0
 12
-37844.4224940624
 22
7849.088195631956
 32
0.0
 13
-37844.4224940624
 23
7849.088195631956
 33
0.0
  0
SOLID
  5
20D5B
330
1C74D
100
AcDbEntity
  8
DIM
 62
     0
440
 16777216
100
AcDbTrace
 10
-37846.08916072906
 20
7784.088195631958
 30
0.0
 11
-37842.75582739573
 21
7784.088195631958
 31
0.0
 12
-37844.4224940624
 22
7774.088195631957
 32
0.0
 13
-37844.4224940624
 23
7774.088195631957
 33
0.0
  0
MTEXT
  5
20D5C
330
1C74D
100
AcDbEntity
  8
DIM
 62
     0
440
 16777216
100
AcDbMText
 10
-37874.08916072906
 20
7839.088195631956
 30
0.0
 40
20.0
 41
39.2754762305558
 46
0.0
 71
     5
 72
     1
  1
75{\Ftxt|c134; [2.95"]}
 11
0.0000000000000001
 21
1.0
 31
0.0
 73
     1
 44
1.0
  0
POINT
  5
20D5D
330
1C74D
100
AcDbEntity
  8
Defpoints
 62
     0
440
 16777216
100
AcDbPoint
 10
-37780.9383791968
 20
7849.088195631956
 30
0.0
  0
POINT
  5
20D5E
330
1C74D
100
AcDbEntity
  8
Defpoints
 62
     0
440
 16777216
100
AcDbPoint
 10
-37720.9383791968
 20
7774.088195631957
 30
0.0
  0
POINT
  5
20D5F
330
1C74D
100
AcDbEntity
  8
Defpoints
 62
     0
440
 16777216
100
AcDbPoint
 10
-37844.4224940624
 20
7774.088195631957
 30
0.0
  0
ENDBLK
  5
1C758
330
1C74D
100
AcDbEntity
  8
0
100
AcDbBlockEnd
  0
BLOCK
  5
1C763
330
1C759
100
AcDbEntity
  8
0
100
AcDbBlockBegin
  2
*D61
 70
     1
 10
0.0
 20
0.0
 30
0.0
  3
*D61
  1

  0
LINE
  5
20CBD
330
1C759
100
AcDbEntity
  8
DIM
 62
     0
440
 16777216
370
    -2
100
AcDbLine
 10
-37220.9383791968
 20
8450.554835262535
 30
0.0
 11
-37134.64836164995
 21
8450.554835262535
 31
0.0
  0
LINE
  5
20CBE
330
1C759
100
AcDbEntity
  8
DIM
 62
     0
440
 16777216
370
    -2
100
AcDbLine
 10
-37277.93837919681
 20
8298.554835262534
 30
0.0
 11
-37134.64836164995
 21
8298.554835262534
 31
0.0
  0
LINE
  5
20CBF
330
1C759
100
AcDbEntity
  8
DIM
 62
     0
440
 16777216
370
    -2
100
AcDbLine
 10
-37135.89836164995
 20
8435.554835262534
 30
0.0
 11
-37135.89836164995
 21
8313.554835262534
 31
0.0
  0
SOLID
  5
20CC0
330
1C759
100
AcDbEntity
  8
DIM
 62
     0
440
 16777216
100
AcDbTrace
 10
-37138.39836164995
 20
8435.554835262534
 30
0.0
 11
-37133.39836164995
 21
8435.554835262534
 31
0.0
 12
-37135.89836164995
 22
8450.554835262535
 32
0.0
 13
-37135.89836164995
 23
8450.554835262535
 33
0.0
  0
SOLID
  5
20CC1
330
1C759
100
AcDbEntity
  8
DIM
 62
     0
440
 16777216
100
AcDbTrace
 10
-37138.39836164995
 20
8313.554835262534
 30
0.0
 11
-37133.39836164995
 21
8313.554835262534
 31
0.0
 12
-37135.89836164995
 22
8298.554835262534
 32
0.0
 13
-37135.89836164995
 23
8298.554835262534
 33
0.0
  0
MTEXT
  5
20CC2
330
1C759
100
AcDbEntity
  8
DIM
 62
     0
440
 16777216
100
AcDbMText
 10
-37185.56502831661
 20
8374.554835262543
 30
0.0
 40
35.0
 41
16.06726623314171
 46
0.0
 71
     5
 72
     1
  1
152{\Ftxt|c134; [6"]}
 11
0.0000000000000001
 21
1.0
 31
0.0
 73
     1
 44
1.0
  0
POINT
  5
20CC3
330
1C759
100
AcDbEntity
  8
Defpoints
 62
     0
440
 16777216
100
AcDbPoint
 10
-37221.9383791968
 20
8450.554835262535
 30
0.0
  0
POINT
  5
20CC4
330
1C759
100
AcDbEntity
  8
Defpoints
 62
     0
440
 16777216
100
AcDbPoint
 10
-37278.93837919681
 20
8298.554835262534
 30
0.0
  0
POINT
  5
20CC5
330
1C759
100
AcDbEntity
  8
Defpoints
 62
     0
440
 16777216
100
AcDbPoint
 10
-37135.89836164995
 20
8298.554835262534
 30
0.0
  0
ENDBLK
  5
1C764
330
1C759
100
AcDbEntity
  8
0
100
AcDbBlockEnd
  0
BLOCK
  5
1C77A
330
1C770
100
AcDbEntity
  8
0
100
AcDbBlockBegin
  2
*D62
 70
     1
 10
0.0
 20
0.0
 30
0.0
  3
*D62
  1

  0
LINE
  5
20DA4
330
1C770
100
AcDbEntity
  8
DIM
 62
     0
440
 16777216
370
    -2
100
AcDbLine
 10
-37454.43837919679
 20
7596.288195631956
 30
0.0
 11
-37454.43837919679
 21
7469.256738051845
 31
0.0
  0
LINE
  5
20DA5
330
1C770
100
AcDbEntity
  8
DIM
 62
     0
440
 16777216
370
    -2
100
AcDbLine
 10
-37987.43837919678
 20
7596.288195631953
 30
0.0
 11
-37987.43837919678
 21
7469.256738051845
 31
0.0
  0
LINE
  5
20DA6
330
1C770
100
AcDbEntity
  8
DIM
 62
     0
440
 16777216
370
    -2
100
AcDbLine
 10
-37464.43837919679
 20
7470.506738051845
 30
0.0
 11
-37977.43837919679
 21
7470.506738051845
 31
0.0
  0
SOLID
  5
20DA7
330
1C770
100
AcDbEntity
  8
DIM
 62
     0
440
 16777216
100
AcDbTrace
 10
-37464.43837919679
 20
7472.173404718512
 30
0.0
 11
-37464.43837919679
 21
7468.840071385177
 31
0.0
 12
-37454.43837919679
 22
7470.506738051845
 32
0.0
 13
-37454.43837919679
 23
7470.506738051845
 33
0.0
  0
SOLID
  5
20DA8
330
1C770
100
AcDbEntity
  8
DIM
 62
     0
440
 16777216
100
AcDbTrace
 10
-37977.43837919679
 20
7472.173404718512
 30
0.0
 11
-37977.43837919679
 21
7468.840071385177
 31
0.0
 12
-37987.43837919678
 22
7470.506738051845
 32
0.0
 13
-37987.43837919678
 23
7470.506738051845
 33
0.0
  0
MTEXT
  5
20DA9
330
1C770
100
AcDbEntity
  8
DIM
 62
     0
440
 16777216
100
AcDbMText
 10
-37720.93837919678
 20
7483.506738051845
 30
0.0
 40
20.0
 41
0.0
 46
0.0
 71
     5
 72
     1
  1
533{\Ftxt|c134; [21"]}
 73
     1
 44
1.0
  0
POINT
  5
20DAA
330
1C770
100
AcDbEntity
  8
Defpoints
 62
     0
440
 16777216
100
AcDbPoint
 10
-37454.43837919679
 20
7597.288195631957
 30
0.0
  0
POINT
  5
20DAB
330
1C770
100
AcDbEntity
  8
Defpoints
 62
     0
440
 16777216
100
AcDbPoint
 10
-37987.43837919678
 20
7597.288195631954
 30
0.0
  0
POINT
  5
20DAC
330
1C770
100
AcDbEntity
  8
Defpoints
 62
     0
440
 16777216
100
AcDbPoint
 10
-37987.43837919678
 20
7470.506738051845
 30
0.0
  0
ENDBLK
  5
1C77B
330
1C770
100
AcDbEntity
  8
0
100
AcDbBlockEnd
  0
BLOCK
  5
1C786
330
1C77C
100
AcDbEntity
  8
0
100
AcDbBlockBegin
  2
*D63
 70
     1
 10
0.0
 20
0.0
 30
0.0
  3
*D63
  1

  0
LINE
  5
20D92
330
1C77C
100
AcDbEntity
  8
DIM
 62
     0
440
 16777216
370
    -2
100
AcDbLine
 10
-37249.43837919679
 20
7596.288195631953
 30
0.0
 11
-37249.43837919679
 21
7467.970777332098
 31
0.0
  0
LINE
  5
20D93
330
1C77C
100
AcDbEntity
  8
DIM
 62
     0
440
 16777216
370
    -2
100
AcDbLine
 10
-37428.4383791968
 20
7596.288195631955
 30
0.0
 11
-37428.4383791968
 21
7467.970777332098
 31
0.0
  0
LINE
  5
20D94
330
1C77C
100
AcDbEntity
  8
DIM
 62
     0
440
 16777216
370
    -2
100
AcDbLine
 10
-37259.43837919678
 20
7469.220777332099
 30
0.0
 11
-37418.43837919679
 21
7469.220777332099
 31
0.0
  0
SOLID
  5
20D95
330
1C77C
100
AcDbEntity
  8
DIM
 62
     0
440
 16777216
100
AcDbTrace
 10
-37259.43837919678
 20
7470.887443998766
 30
0.0
 11
-37259.43837919678
 21
7467.554110665432
 31
0.0
 12
-37249.43837919679
 22
7469.220777332099
 32
0.0
 13
-37249.43837919679
 23
7469.220777332099
 33
0.0
  0
SOLID
  5
20D96
330
1C77C
100
AcDbEntity
  8
DIM
 62
     0
440
 16777216
100
AcDbTrace
 10
-37418.43837919679
 20
7470.887443998766
 30
0.0
 11
-37418.43837919679
 21
7467.554110665432
 31
0.0
 12
-37428.4383791968
 22
7469.220777332099
 32
0.0
 13
-37428.4383791968
 23
7469.220777332099
 33
0.0
  0
MTEXT
  5
20D97
330
1C77C
100
AcDbEntity
  8
DIM
 62
     0
440
 16777216
100
AcDbMText
 10
-37338.93837919679
 20
7482.220777332099
 30
0.0
 40
20.0
 41
0.0
 46
0.0
 71
     5
 72
     1
  1
{\Ftxt|c134;179 [7"]}
 73
     1
 44
1.0
  0
POINT
  5
20D98
330
1C77C
100
AcDbEntity
  8
Defpoints
 62
     0
440
 16777216
100
AcDbPoint
 10
-37249.43837919679
 20
7597.288195631954
 30
0.0
  0
POINT
  5
20D99
330
1C77C
100
AcDbEntity
  8
Defpoints
 62
     0
440
 16777216
100
AcDbPoint
 10
-37428.4383791968
 20
7597.288195631955
 30
0.0
  0
POINT
  5
20D9A
330
1C77C
100
AcDbEntity
  8
Defpoints
 62
     0
440
 16777216
100
AcDbPoint
 10
-37428.4383791968
 20
7469.220777332099
 30
0.0
  0
ENDBLK
  5
1C787
330
1C77C
100
AcDbEntity
  8
0
100
AcDbBlockEnd
  0
BLOCK
  5
1C7DE
330
1C7D4
100
AcDbEntity
  8
0
100
AcDbBlockBegin
  2
*D64
 70
     1
 10
0.0
 20
0.0
 30
0.0
  3
*D64
  1

  0
LINE
  5
20E03
330
1C7D4
100
AcDbEntity
  8
DIM
 62
     0
440
 16777216
370
    -2
100
AcDbLine
 10
-37441.54934670089
 20
7082.786048352132
 30
0.0
 11
-37441.54934670089
 21
6999.935749654291
 31
0.0
  0
LINE
  5
20E04
330
1C7D4
100
AcDbEntity
  8
DIM
 62
     0
440
 16777216
370
    -2
100
AcDbLine
 10
-37159.54934670089
 20
7082.786048352132
 30
0.0
 11
-37159.54934670089
 21
6999.935749654291
 31
0.0
  0
LINE
  5
20E05
330
1C7D4
100
AcDbEntity
  8
DIM
 62
     0
440
 16777216
370
    -2
100
AcDbLine
 10
-37426.54934670089
 20
7001.185749654291
 30
0.0
 11
-37174.54934670089
 21
7001.185749654291
 31
0.0
  0
SOLID
  5
20E06
330
1C7D4
100
AcDbEntity
  8
DIM
 62
     0
440
 16777216
100
AcDbTrace
 10
-37426.54934670089
 20
7003.685749654292
 30
0.0
 11
-37426.54934670089
 21
6998.685749654292
 31
0.0
 12
-37441.54934670089
 22
7001.185749654291
 32
0.0
 13
-37441.54934670089
 23
7001.185749654291
 33
0.0
  0
SOLID
  5
20E07
330
1C7D4
100
AcDbEntity
  8
DIM
 62
     0
440
 16777216
100
AcDbTrace
 10
-37174.54934670089
 20
7003.685749654292
 30
0.0
 11
-37174.54934670089
 21
6998.685749654292
 31
0.0
 12
-37159.54934670089
 22
7001.185749654291
 32
0.0
 13
-37159.54934670089
 23
7001.185749654291
 33
0.0
  0
MTEXT
  5
20E08
330
1C7D4
100
AcDbEntity
  8
DIM
 62
     0
440
 16777216
100
AcDbMText
 10
-37300.54934670089
 20
7019.185749654292
 30
0.0
 40
30.0
 41
0.0
 46
0.0
 71
     5
 72
     1
  1
%%C90{\Ftxt|c134; [3.5"]}
 73
     1
 44
1.0
  0
POINT
  5
20E09
330
1C7D4
100
AcDbEntity
  8
Defpoints
 62
     0
440
 16777216
100
AcDbPoint
 10
-37441.54934670089
 20
7083.786048352132
 30
0.0
  0
POINT
  5
20E0A
330
1C7D4
100
AcDbEntity
  8
Defpoints
 62
     0
440
 16777216
100
AcDbPoint
 10
-37159.54934670089
 20
7083.786048352132
 30
0.0
  0
POINT
  5
20E0B
330
1C7D4
100
AcDbEntity
  8
Defpoints
 62
     0
440
 16777216
100
AcDbPoint
 10
-37159.54934670089
 20
7001.185749654291
 30
0.0
  0
ENDBLK
  5
1C7DF
330
1C7D4
100
AcDbEntity
  8
0
100
AcDbBlockEnd
  0
BLOCK
  5
1C7EA
330
1C7E0
100
AcDbEntity
  8
0
100
AcDbBlockBegin
  2
*D65
 70
     1
 10
0.0
 20
0.0
 30
0.0
  3
*D65
  1

  0
LINE
  5
20DF1
330
1C7E0
100
AcDbEntity
  8
DIM
 62
     0
440
 16777216
370
    -2
100
AcDbLine
 10
-37471.54934670087
 20
7093.786048352132
 30
0.0
 11
-37471.54934670087
 21
7143.388664821728
 31
0.0
  0
LINE
  5
20DF2
330
1C7E0
100
AcDbEntity
  8
DIM
 62
     0
440
 16777216
370
    -2
100
AcDbLine
 10
-37129.54934670092
 20
7093.786048352129
 30
0.0
 11
-37129.54934670092
 21
7143.388664821728
 31
0.0
  0
LINE
  5
20DF3
330
1C7E0
100
AcDbEntity
  8
DIM
 62
     0
440
 16777216
370
    -2
100
AcDbLine
 10
-37456.54934670087
 20
7142.138664821728
 30
0.0
 11
-37144.54934670091
 21
7142.138664821728
 31
0.0
  0
SOLID
  5
20DF4
330
1C7E0
100
AcDbEntity
  8
DIM
 62
     0
440
 16777216
100
AcDbTrace
 10
-37456.54934670087
 20
7144.638664821728
 30
0.0
 11
-37456.54934670087
 21
7139.638664821728
 31
0.0
 12
-37471.54934670087
 22
7142.138664821728
 32
0.0
 13
-37471.54934670087
 23
7142.138664821728
 33
0.0
  0
SOLID
  5
20DF5
330
1C7E0
100
AcDbEntity
  8
DIM
 62
     0
440
 16777216
100
AcDbTrace
 10
-37144.54934670091
 20
7144.638664821728
 30
0.0
 11
-37144.54934670091
 21
7139.638664821728
 31
0.0
 12
-37129.54934670092
 22
7142.138664821728
 32
0.0
 13
-37129.54934670092
 23
7142.138664821728
 33
0.0
  0
MTEXT
  5
20DF6
330
1C7E0
100
AcDbEntity
  8
DIM
 62
     0
440
 16777216
100
AcDbMText
 10
-37300.54934670089
 20
7160.138664821727
 30
0.0
 40
30.0
 41
0.0
 46
0.0
 71
     5
 72
     1
  1
%%C114{\Ftxt|c134; [4.5"]}
 73
     1
 44
1.0
  0
POINT
  5
20DF7
330
1C7E0
100
AcDbEntity
  8
Defpoints
 62
     0
440
 16777216
100
AcDbPoint
 10
-37471.54934670087
 20
7092.786048352131
 30
0.0
  0
POINT
  5
20DF8
330
1C7E0
100
AcDbEntity
  8
Defpoints
 62
     0
440
 16777216
100
AcDbPoint
 10
-37129.54934670092
 20
7092.786048352128
 30
0.0
  0
POINT
  5
20DF9
330
1C7E0
100
AcDbEntity
  8
Defpoints
 62
     0
440
 16777216
100
AcDbPoint
 10
-37129.54934670092
 20
7142.138664821728
 30
0.0
  0
ENDBLK
  5
1C7EB
330
1C7E0
100
AcDbEntity
  8
0
100
AcDbBlockEnd
  0
BLOCK
  5
1C7F6
330
1C7EC
100
AcDbEntity
  8
0
100
AcDbBlockBegin
  2
*D66
 70
     1
 10
0.0
 20
0.0
 30
0.0
  3
*D66
  1

  0
LINE
  5
20DDF
330
1C7EC
100
AcDbEntity
  8
DIM
 62
     0
440
 16777216
370
    -2
100
AcDbLine
 10
-37480.54934670066
 20
7102.786048352124
 30
0.0
 11
-37480.54934670066
 21
7205.856593373098
 31
0.0
  0
LINE
  5
20DE0
330
1C7EC
100
AcDbEntity
  8
DIM
 62
     0
440
 16777216
370
    -2
100
AcDbLine
 10
-37120.54934670089
 20
7102.786048352133
 30
0.0
 11
-37120.54934670089
 21
7205.856593373098
 31
0.0
  0
LINE
  5
20DE1
330
1C7EC
100
AcDbEntity
  8
DIM
 62
     0
440
 16777216
370
    -2
100
AcDbLine
 10
-37465.54934670066
 20
7204.606593373099
 30
0.0
 11
-37135.5493467009
 21
7204.606593373099
 31
0.0
  0
SOLID
  5
20DE2
330
1C7EC
100
AcDbEntity
  8
DIM
 62
     0
440
 16777216
100
AcDbTrace
 10
-37465.54934670066
 20
7207.106593373097
 30
0.0
 11
-37465.54934670066
 21
7202.106593373098
 31
0.0
 12
-37480.54934670066
 22
7204.606593373099
 32
0.0
 13
-37480.54934670066
 23
7204.606593373099
 33
0.0
  0
SOLID
  5
20DE3
330
1C7EC
100
AcDbEntity
  8
DIM
 62
     0
440
 16777216
100
AcDbTrace
 10
-37135.5493467009
 20
7207.106593373097
 30
0.0
 11
-37135.5493467009
 21
7202.106593373098
 31
0.0
 12
-37120.54934670089
 22
7204.606593373099
 32
0.0
 13
-37120.54934670089
 23
7204.606593373099
 33
0.0
  0
MTEXT
  5
20DE4
330
1C7EC
100
AcDbEntity
  8
DIM
 62
     0
440
 16777216
100
AcDbMText
 10
-37300.54934670078
 20
7222.606593373098
 30
0.0
 40
30.0
 41
0.0
 46
0.0
 71
     5
 72
     1
  1
%%C120{\Ftxt|c134; [4.7"]}
 73
     1
 44
1.0
  0
POINT
  5
20DE5
330
1C7EC
100
AcDbEntity
  8
Defpoints
 62
     0
440
 16777216
100
AcDbPoint
 10
-37480.54934670066
 20
7101.786048352123
 30
0.0
  0
POINT
  5
20DE6
330
1C7EC
100
AcDbEntity
  8
Defpoints
 62
     0
440
 16777216
100
AcDbPoint
 10
-37120.54934670089
 20
7101.786048352131
 30
0.0
  0
POINT
  5
20DE7
330
1C7EC
100
AcDbEntity
  8
Defpoints
 62
     0
440
 16777216
100
AcDbPoint
 10
-37120.54934670089
 20
7204.606593373099
 30
0.0
  0
ENDBLK
  5
1C7F7
330
1C7EC
100
AcDbEntity
  8
0
100
AcDbBlockEnd
  0
BLOCK
  5
1C804
330
1C7F8
100
AcDbEntity
  8
0
100
AcDbBlockBegin
  2
*D67
 70
     1
 10
0.0
 20
0.0
 30
0.0
  3
*D67
  1

  0
LINE
  5
20E2D
330
1C7F8
100
AcDbEntity
  8
DIM
 62
     0
440
 16777216
370
    -2
100
AcDbLine
 10
-37479.54934670068
 20
7101.786048352128
 30
0.0
 11
-37478.8023196615
 21
7101.786048352128
 31
0.0
  0
LINE
  5
20E2E
330
1C7F8
100
AcDbEntity
  8
DIM
 62
     0
440
 16777216
370
    -2
100
AcDbLine
 10
-37472.5493467009
 20
7092.78604835214
 30
0.0
 11
-37481.3023196615
 21
7092.78604835214
 31
0.0
  0
LINE
  5
20E2F
330
1C7F8
100
AcDbEntity
  8
DIM
 62
     0
440
 16777216
370
    -2
100
AcDbLine
 10
-37480.0523196615
 20
7116.786048352127
 30
0.0
 11
-37480.0523196615
 21
7131.786048352127
 31
0.0
  0
LINE
  5
20E30
330
1C7F8
100
AcDbEntity
  8
DIM
 62
     0
440
 16777216
370
    -2
100
AcDbLine
 10
-37480.0523196615
 20
7077.786048352139
 30
0.0
 11
-37480.0523196615
 21
6886.786048352139
 31
0.0
  0
LINE
  5
20E31
330
1C7F8
100
AcDbEntity
  8
DIM
 62
     0
440
 16777216
370
    -2
100
AcDbLine
 10
-37480.0523196615
 20
7101.786048352128
 30
0.0
 11
-37480.0523196615
 21
7092.78604835214
 31
0.0
  0
SOLID
  5
20E32
330
1C7F8
100
AcDbEntity
  8
DIM
 62
     0
440
 16777216
100
AcDbTrace
 10
-37482.5523196615
 20
7116.786048352127
 30
0.0
 11
-37477.5523196615
 21
7116.786048352127
 31
0.0
 12
-37480.0523196615
 22
7101.786048352128
 32
0.0
 13
-37480.0523196615
 23
7101.786048352128
 33
0.0
  0
SOLID
  5
20E33
330
1C7F8
100
AcDbEntity
  8
DIM
 62
     0
440
 16777216
100
AcDbTrace
 10
-37482.5523196615
 20
7077.786048352139
 30
0.0
 11
-37477.5523196615
 21
7077.786048352139
 31
0.0
 12
-37480.0523196615
 22
7092.78604835214
 32
0.0
 13
-37480.0523196615
 23
7092.78604835214
 33
0.0
  0
MTEXT
  5
20E34
330
1C7F8
100
AcDbEntity
  8
DIM
 62
     0
440
 16777216
100
AcDbMText
 10
-37498.05231966149
 20
6974.786048352149
 30
0.0
 40
30.0
 41
0.0
 46
0.0
 71
     5
 72
     1
  1
3{\Ftxt|c134; [.12"]}
 11
0.0000000000000001
 21
1.0
 31
0.0
 73
     1
 44
1.0
  0
POINT
  5
20E35
330
1C7F8
100
AcDbEntity
  8
Defpoints
 62
     0
440
 16777216
100
AcDbPoint
 10
-37480.54934670068
 20
7101.786048352128
 30
0.0
  0
POINT
  5
20E36
330
1C7F8
100
AcDbEntity
  8
Defpoints
 62
     0
440
 16777216
100
AcDbPoint
 10
-37471.54934670089
 20
7092.78604835214
 30
0.0
  0
POINT
  5
20E37
330
1C7F8
100
AcDbEntity
  8
Defpoints
 62
     0
440
 16777216
100
AcDbPoint
 10
-37480.0523196615
 20
7092.78604835214
 30
0.0
  0
ENDBLK
  5
1C805
330
1C7F8
100
AcDbEntity
  8
0
100
AcDbBlockEnd
  0
BLOCK
  5
1C812
330
1C806
100
AcDbEntity
  8
0
100
AcDbBlockBegin
  2
*D68
 70
     1
 10
0.0
 20
0.0
 30
0.0
  3
*D68
  1

  0
LINE
  5
20E17
330
1C806
100
AcDbEntity
  8
DIM
 62
     0
440
 16777216
370
    -2
100
AcDbLine
 10
-37481.54934670067
 20
7101.786048352128
 30
0.0
 11
-37517.42620835507
 21
7101.786048352128
 31
0.0
  0
LINE
  5
20E18
330
1C806
100
AcDbEntity
  8
DIM
 62
     0
440
 16777216
370
    -2
100
AcDbLine
 10
-37442.54934670091
 20
7083.786048352135
 30
0.0
 11
-37517.42620835507
 21
7083.786048352135
 31
0.0
  0
LINE
  5
20E19
330
1C806
100
AcDbEntity
  8
DIM
 62
     0
440
 16777216
370
    -2
100
AcDbLine
 10
-37516.17620835506
 20
7116.786048352127
 30
0.0
 11
-37516.17620835506
 21
7131.786048352127
 31
0.0
  0
LINE
  5
20E1A
330
1C806
100
AcDbEntity
  8
DIM
 62
     0
440
 16777216
370
    -2
100
AcDbLine
 10
-37516.17620835506
 20
7068.786048352136
 30
0.0
 11
-37516.17620835506
 21
6867.786048352136
 31
0.0
  0
LINE
  5
20E1B
330
1C806
100
AcDbEntity
  8
DIM
 62
     0
440
 16777216
370
    -2
100
AcDbLine
 10
-37516.17620835506
 20
7101.786048352128
 30
0.0
 11
-37516.17620835506
 21
7083.786048352135
 31
0.0
  0
SOLID
  5
20E1C
330
1C806
100
AcDbEntity
  8
DIM
 62
     0
440
 16777216
100
AcDbTrace
 10
-37518.67620835506
 20
7116.786048352127
 30
0.0
 11
-37513.67620835507
 21
7116.786048352127
 31
0.0
 12
-37516.17620835506
 22
7101.786048352128
 32
0.0
 13
-37516.17620835506
 23
7101.786048352128
 33
0.0
  0
SOLID
  5
20E1D
330
1C806
100
AcDbEntity
  8
DIM
 62
     0
440
 16777216
100
AcDbTrace
 10
-37518.67620835506
 20
7068.786048352136
 30
0.0
 11
-37513.67620835507
 21
7068.786048352136
 31
0.0
 12
-37516.17620835506
 22
7083.786048352135
 32
0.0
 13
-37516.17620835506
 23
7083.786048352135
 33
0.0
  0
MTEXT
  5
20E1E
330
1C806
100
AcDbEntity
  8
DIM
 62
     0
440
 16777216
100
AcDbMText
 10
-37534.17620835506
 20
6960.786048352145
 30
0.0
 40
30.0
 41
0.0
 46
0.0
 71
     5
 72
     1
  1
6{\Ftxt|c134; [.24"]}
 11
0.0000000000000001
 21
1.0
 31
0.0
 73
     1
 44
1.0
  0
POINT
  5
20E1F
330
1C806
100
AcDbEntity
  8
Defpoints
 62
     0
440
 16777216
100
AcDbPoint
 10
-37480.54934670068
 20
7101.786048352128
 30
0.0
  0
POINT
  5
20E20
330
1C806
100
AcDbEntity
  8
Defpoints
 62
     0
440
 16777216
100
AcDbPoint
 10
-37441.54934670091
 20
7083.786048352135
 30
0.0
  0
POINT
  5
20E21
330
1C806
100
AcDbEntity
  8
Defpoints
 62
     0
440
 16777216
100
AcDbPoint
 10
-37516.17620835506
 20
7083.786048352135
 30
0.0
  0
ENDBLK
  5
1C813
330
1C806
100
AcDbEntity
  8
0
100
AcDbBlockEnd
  0
BLOCK
  5
1C81E
330
1C814
100
AcDbEntity
  8
0
100
AcDbBlockBegin
  2
*D69
 70
     1
 10
0.0
 20
0.0
 30
0.0
  3
*D69
  1

  0
LINE
  5
20C66
330
1C814
100
AcDbEntity
  8
DIM
 62
     0
440
 16777216
370
    -2
100
AcDbLine
 10
-38015.9383791968
 20
8450.554835262535
 30
0.0
 11
-38120.95508211593
 21
8450.554835262535
 31
0.0
  0
LINE
  5
20C67
330
1C814
100
AcDbEntity
  8
DIM
 62
     0
440
 16777216
370
    -2
100
AcDbLine
 10
-37781.9383791968
 20
8222.554835262533
 30
0.0
 11
-38120.95508211593
 21
8222.554835262533
 31
0.0
  0
LINE
  5
20C68
330
1C814
100
AcDbEntity
  8
DIM
 62
     0
440
 16777216
370
    -2
100
AcDbLine
 10
-38119.70508211593
 20
8435.554835262534
 30
0.0
 11
-38119.70508211593
 21
8237.554835262534
 31
0.0
  0
MTEXT
  5
20C69
330
1C814
100
AcDbEntity
  8
DIM
 62
     0
440
 16777216
100
AcDbMText
 10
-38140.20508211591
 20
8339.382592097594
 30
0.0
 40
35.0
 41
0.0
 46
0.0
 71
     5
 72
     1
  1
228{\Ftxt|c134; [9"]}
 11
0.0000000000000001
 21
1.0
 31
0.0
 73
     1
 44
1.0
  0
SOLID
  5
20C6A
330
1C814
100
AcDbEntity
  8
DIM
 62
     0
440
 16777216
100
AcDbTrace
 10
-38122.20508211593
 20
8435.554835262534
 30
0.0
 11
-38117.20508211593
 21
8435.554835262534
 31
0.0
 12
-38119.70508211593
 22
8450.554835262535
 32
0.0
 13
-38119.70508211593
 23
8450.554835262535
 33
0.0
  0
SOLID
  5
20C6B
330
1C814
100
AcDbEntity
  8
DIM
 62
     0
440
 16777216
100
AcDbTrace
 10
-38122.20508211593
 20
8237.554835262534
 30
0.0
 11
-38117.20508211593
 21
8237.554835262534
 31
0.0
 12
-38119.70508211593
 22
8222.554835262533
 32
0.0
 13
-38119.70508211593
 23
8222.554835262533
 33
0.0
  0
POINT
  5
20C6C
330
1C814
100
AcDbEntity
  8
Defpoints
 62
     0
440
 16777216
100
AcDbPoint
 10
-38014.9383791968
 20
8450.554835262535
 30
0.0
  0
POINT
  5
20C6D
330
1C814
100
AcDbEntity
  8
Defpoints
 62
     0
440
 16777216
100
AcDbPoint
 10
-37780.9383791968
 20
8222.554835262533
 30
0.0
  0
POINT
  5
20C6E
330
1C814
100
AcDbEntity
  8
Defpoints
 62
     0
440
 16777216
100
AcDbPoint
 10
-38119.70508211593
 20
8222.554835262533
 30
0.0
  0
ENDBLK
  5
1C81F
330
1C814
100
AcDbEntity
  8
0
100
AcDbBlockEnd
  0
BLOCK
  5
1C83E
330
1C838
100
AcDbEntity
  8
0
100
AcDbBlockBegin
  2
*D70
 70
     1
 10
0.0
 20
0.0
 30
0.0
  3
*D70
  1

  0
LINE
  5
20DD1
330
1C838
100
AcDbEntity
  8
DIM
 62
     0
440
 16777216
370
    -2
100
AcDbLine
 10
-37835.25859254441
 20
7671.177950368471
 30
0.0
 11
-37975.21217271795
 21
7589.092276243182
 31
0.0
  0
MTEXT
  5
20DD2
330
1C838
100
AcDbEntity
  8
DIM
 62
     0
440
 16777216
100
AcDbMText
 10
-37899.05336141019
 20
7648.832065367613
 30
0.0
 40
20.0
 41
0.0
 46
0.0
 71
     5
 72
     1
  1
R25{\Ftxt|c134; [1"]}
 11
0.8625798469864641
 21
0.5059209499247968
 31
0.0
 73
     1
 44
1.0
  0
SOLID
  5
20DD3
330
1C838
100
AcDbEntity
  8
DIM
 62
     0
440
 16777216
100
AcDbTrace
 10
-37976.05537430116
 20
7590.529909321495
 30
0.0
 11
-37974.36897113473
 21
7587.654643164869
 31
0.0
 12
-37983.83797118781
 22
7584.033066743934
 32
0.0
 13
-37983.83797118781
 23
7584.033066743934
 33
0.0
  0
POINT
  5
20DD4
330
1C838
100
AcDbEntity
  8
Defpoints
 62
     0
440
 16777216
100
AcDbPoint
 10
-37983.83797118781
 20
7584.033066743934
 30
0.0
  0
POINT
  5
20DD5
330
1C838
100
AcDbEntity
  8
Defpoints
 62
     0
440
 16777216
100
AcDbPoint
 10
-37961.23837919677
 20
7597.28819563196
 30
0.0
  0
ENDBLK
  5
1C83F
330
1C838
100
AcDbEntity
  8
0
100
AcDbBlockEnd
  0
BLOCK
  5
1E42E
330
1E42D
100
AcDbEntity
  8
DEFAULT
 62
     1
 48
0.0
370
     0
100
AcDbBlockBegin
  2
SE13
 70
     0
 10
0.0
 20
0.0
 30
0.0
  3
SE13
  1

  0
TEXT
  5
1E42F
330
1E42D
100
AcDbEntity
  8
0
  6
Continuous
 62
   136
370
     0
100
AcDbText
 10
531.075280003713
 20
16.1647734594651
 30
0.0
 40
3.5
  1
 
  7
arial_ttf
 11
531.075280003713
 21
19.6647734594651
 31
0.0
100
AcDbText
 73
     3
  0
ENDBLK
  5
1E430
330
1E42D
100
AcDbEntity
  8
0
 62
   136
370
     0
100
AcDbBlockEnd
  0
ENDSEC
  0
SECTION
  2
ENTITIES
  0
MTEXT
  5
1A5DB
330
1F
100
AcDbEntity
  8
上模DIM
100
AcDbMText
 10
-22531.31646852871
 20
-9379.328789916719
 30
0.0
 40
35.0
 41
0.0
 46
0.0
 71
     1
 72
     1
  1

 73
     1
 44
1.0
  0
LWPOLYLINE
  5
1C5FA
102
{ACAD_REACTORS
330
1C6CC
102
}
330
1F
100
AcDbEntity
  8
base
 62
     0
100
AcDbPolyline
 90
        8
 70
     1
 43
0.0
 10
-37402.23837919679
 20
7977.088195631951
 42
0.4142135623730341
 10
-37428.4383791968
 20
7950.888195631953
 10
-37428.4383791968
 20
7597.288195631955
 42
0.4142135623730747
 10
-37402.23837919679
 20
7571.088195631957
 10
-37275.63837919678
 20
7571.088195631955
 42
0.4142135623731053
 10
-37249.43837919679
 20
7597.288195631954
 10
-37249.43837919679
 20
7950.888195631953
 42
0.4142135623730951
 10
-37275.63837919678
 20
7977.088195631954
  0
ARC
  5
1C5FB
330
1F
100
AcDbEntity
  8
base
 62
     0
100
AcDbCircle
 10
-37950.95391771493
 20
8255.001691112415
 30
0.0
 40
26.2
100
AcDbArc
 50
183.0000000000011
 51
267.500000000034
  0
ARC
  5
1C5FC
330
1F
100
AcDbEntity
  8
base
 62
     0
100
AcDbCircle
 10
-37490.92284067867
 20
8255.001691112415
 30
0.0
 40
26.2
100
AcDbArc
 50
272.4999999999659
 51
356.9999999999988
  0
ARC
  5
1C5FD
330
1F
100
AcDbEntity
  8
base
 62
     0
100
AcDbCircle
 10
-37490.92284067867
 20
8255.001691112415
 30
0.0
 40
25.0
100
AcDbArc
 50
272.4999999999659
 51
356.9999999999988
  0
ARC
  5
1C5FE
330
1F
100
AcDbEntity
  8
base
 62
     0
100
AcDbCircle
 10
-37950.95391771493
 20
8255.001691112415
 30
0.0
 40
25.0
100
AcDbArc
 50
183.0000000000011
 51
267.500000000034
  0
LINE
  5
1C5FF
330
1F
100
AcDbEntity
  8
base
 62
     0
100
AcDbLine
 10
-37480.63837919678
 20
7571.088195631957
 30
0.0
 11
-37961.23837919679
 21
7571.088195631957
 31
0.0
  0
ARC
  5
1C600
102
{ACAD_REACTORS
330
1C6CF
102
}
330
1F
100
AcDbEntity
  8
base
 62
     0
100
AcDbCircle
 10
-37480.63837919678
 20
7597.288195631957
 30
0.0
 40
26.19999999999709
100
AcDbArc
 50
270.0
 51
0.0
  0
LINE
  5
1C601
330
1F
100
AcDbEntity
  8
base
 62
     0
100
AcDbLine
 10
-37454.43837919679
 20
7950.888195631954
 30
0.0
 11
-37454.43837919679
 21
7597.288195631954
 31
0.0
  0
ARC
  5
1C602
330
1F
100
AcDbEntity
  8
base
 62
     0
100
AcDbCircle
 10
-37480.63837919678
 20
7950.888195631953
 30
0.0
 40
26.20000000000073
100
AcDbArc
 50
0.0
 51
90.0
  0
LINE
  5
1C603
330
1F
100
AcDbEntity
  8
base
 62
     0
100
AcDbLine
 10
-37961.23837919679
 20
7977.088195631954
 30
0.0
 11
-37480.63837919678
 21
7977.088195631954
 31
0.0
  0
ARC
  5
1C604
330
1F
100
AcDbEntity
  8
base
 62
     0
100
AcDbCircle
 10
-37961.23837919679
 20
7950.888195631953
 30
0.0
 40
26.20000000000073
100
AcDbArc
 50
90.0
 51
180.0
  0
LINE
  5
1C605
102
{ACAD_REACTORS
330
1C6CF
102
}
330
1F
100
AcDbEntity
  8
base
 62
     0
100
AcDbLine
 10
-37987.43837919678
 20
7597.288195631954
 30
0.0
 11
-37987.43837919678
 21
7950.888195631954
 31
0.0
  0
ARC
  5
1C606
330
1F
100
AcDbEntity
  8
base
 62
     0
100
AcDbCircle
 10
-37961.23837919679
 20
7597.288195631958
 30
0.0
 40
26.20000000000028
100
AcDbArc
 50
180.0
 51
270.0
  0
LINE
  5
1C611
330
1F
100
AcDbEntity
  8
base
 62
     0
100
AcDbLine
 10
-37489.83235599453
 20
8230.025485572866
 30
0.0
 11
-37660.93837919687
 21
8222.554835262526
 31
0.0
  0
LINE
  5
1C612
330
1F
100
AcDbEntity
  8
base
 62
     0
100
AcDbLine
 10
-37489.78001272969
 20
8228.826627706967
 30
0.0
 11
-37660.41982560547
 21
8221.37633257908
 31
0.0
  0
LINE
  5
1C613
330
1F
100
AcDbEntity
  8
base
 62
     0
100
AcDbLine
 10
-37673.93837919679
 20
8216.554835262531
 30
0.0
 11
-37663.9383791968
 21
8219.554835262531
 31
0.0
  0
LINE
  5
1C614
330
1F
100
AcDbEntity
  8
base
 62
     0
100
AcDbLine
 10
-37663.93837919679
 20
8219.554835262531
 30
0.0
 11
-37660.93837919679
 21
8222.554835262529
 31
0.0
  0
LINE
  5
1C615
330
1F
100
AcDbEntity
  8
base
 62
     0
100
AcDbLine
 10
-37663.30377991997
 20
8218.492378264507
 30
0.0
 11
-37660.41982560547
 21
8221.376332579014
 31
0.0
  0
LINE
  5
1C616
330
1F
100
AcDbEntity
  8
base
 62
     0
100
AcDbLine
 10
-37673.76225659323
 20
8215.354835262528
 30
0.0
 11
-37663.30377991997
 21
8218.492378264507
 31
0.0
  0
LINE
  5
1C617
330
1F
100
AcDbEntity
  8
base
 62
     0
100
AcDbLine
 10
-37454.69992840409
 20
8445.564179087503
 30
0.0
 11
-37464.75874686809
 21
8253.630489058849
 31
0.0
  0
LINE
  5
1C618
330
1F
100
AcDbEntity
  8
base
 62
     0
100
AcDbLine
 10
-37455.89828384579
 20
8445.626982234996
 30
0.0
 11
-37465.9571023098
 21
8253.693292206341
 31
0.0
  0
LINE
  5
1C619
330
1F
100
AcDbEntity
  8
base
 62
     0
100
AcDbLine
 10
-37768.11450180035
 20
8215.354835262528
 30
0.0
 11
-37778.57297847361
 21
8218.492378264507
 31
0.0
  0
LINE
  5
1C61A
330
1F
100
AcDbEntity
  8
base
 62
     0
100
AcDbLine
 10
-37778.57297847361
 20
8218.492378264507
 30
0.0
 11
-37781.45693278812
 21
8221.376332579014
 31
0.0
  0
LINE
  5
1C61B
330
1F
100
AcDbEntity
  8
base
 62
     0
100
AcDbLine
 10
-37777.93837919678
 20
8219.554835262531
 30
0.0
 11
-37780.93837919679
 21
8222.554835262529
 31
0.0
  0
LINE
  5
1C61C
330
1F
100
AcDbEntity
  8
base
 62
     0
100
AcDbLine
 10
-37767.93837919679
 20
8216.554835262531
 30
0.0
 11
-37777.93837919678
 21
8219.554835262531
 31
0.0
  0
LINE
  5
1C61D
330
1F
100
AcDbEntity
  8
base
 62
     0
100
AcDbLine
 10
-37767.93837919679
 20
8216.554835262531
 30
0.0
 11
-37673.93837919679
 21
8216.554835262531
 31
0.0
  0
LINE
  5
1C61E
330
1F
100
AcDbEntity
  8
base
 62
     0
100
AcDbLine
 10
-37768.11450180035
 20
8215.354835262528
 30
0.0
 11
-37673.76225659323
 21
8215.35483526253
 31
0.0
  0
LINE
  5
1C61F
330
1F
100
AcDbEntity
  8
base
 62
     0
100
AcDbLine
 10
-37777.93837919678
 20
8219.554835262531
 30
0.0
 11
-37663.93837919679
 21
8219.554835262531
 31
0.0
  0
LINE
  5
1C620
330
1F
100
AcDbEntity
  8
base
 62
     0
100
AcDbLine
 10
-37952.09674566389
 20
8228.82662770697
 30
0.0
 11
-37781.45693278811
 21
8221.37633257908
 31
0.0
  0
LINE
  5
1C621
330
1F
100
AcDbEntity
  8
base
 62
     0
100
AcDbLine
 10
-37952.04440239906
 20
8230.025485572866
 30
0.0
 11
-37780.93837919672
 21
8222.554835262526
 31
0.0
  0
LINE
  5
1C622
102
{ACAD_REACTORS
330
1C657
102
}
330
1F
100
AcDbEntity
  8
base
 62
     0
100
AcDbLine
 10
-37780.93837919679
 20
8222.554835262529
 30
0.0
 11
-37660.93837919679
 21
8222.554835262529
 31
0.0
  0
LINE
  5
1C623
330
1F
100
AcDbEntity
  8
base
 62
     0
100
AcDbLine
 10
-37433.93543547163
 20
8449.35483526253
 30
0.0
 11
-37450.70541026506
 21
8449.35483526253
 31
0.0
  0
ARC
  5
1C624
330
1F
100
AcDbEntity
  8
base
 62
     0
100
AcDbCircle
 10
-37450.70541026506
 20
8445.354835262529
 30
0.0
 40
4.0
100
AcDbArc
 50
90.0
 51
176.9999999999988
  0
ARC
  5
1C625
330
1F
100
AcDbEntity
  8
base
 62
     0
100
AcDbCircle
 10
-37450.70541026506
 20
8445.354835262529
 30
0.0
 40
5.2
100
AcDbArc
 50
90.0
 51
176.9999999999988
  0
LINE
  5
1C626
330
1F
100
AcDbEntity
  8
base
 62
     0
100
AcDbLine
 10
-37450.70541026506
 20
8449.35483526253
 30
0.0
 11
-37432.17134812851
 21
8449.35483526253
 31
0.0
  0
ARC
  5
1C627
330
1F
100
AcDbEntity
  8
base
 62
     0
100
AcDbCircle
 10
-37991.17134812851
 20
8445.354835262529
 30
0.0
 40
5.2
100
AcDbArc
 50
3.000000000001162
 51
90.0
  0
ARC
  5
1C628
330
1F
100
AcDbEntity
  8
base
 62
     0
100
AcDbCircle
 10
-37991.17134812851
 20
8445.354835262529
 30
0.0
 40
4.0
100
AcDbArc
 50
3.000000000001162
 51
90.0
  0
LINE
  5
1C629
330
1F
100
AcDbEntity
  8
base
 62
     0
100
AcDbLine
 10
-37985.97847454778
 20
8445.626982234996
 30
0.0
 11
-37975.91965608379
 21
8253.693292206341
 31
0.0
  0
LINE
  5
1C62A
330
1F
100
AcDbEntity
  8
base
 62
     0
100
AcDbLine
 10
-37987.17682998949
 20
8445.564179087503
 30
0.0
 11
-37977.1180115255
 21
8253.630489058849
 31
0.0
  0
LINE
  5
1C62D
330
1F
100
AcDbEntity
  8
base
 62
     0
100
AcDbLine
 10
-38014.93837919679
 20
8449.35483526253
 30
0.0
 11
-37991.17134812851
 21
8449.35483526253
 31
0.0
  0
LINE
  5
1C62E
102
{ACAD_REACTORS
330
1C657
102
}
330
1F
100
AcDbEntity
  8
base
 62
     0
100
AcDbLine
 10
-38014.93837919679
 20
8450.554835262529
 30
0.0
 11
-37245.70541026506
 21
8450.554835262529
 31
0.0
  0
CIRCLE
  5
1C62F
330
1F
100
AcDbEntity
  8
base
 62
     0
100
AcDbCircle
 10
-37720.93837919678
 20
7849.088195631954
 30
0.0
 40
47.0
  0
CIRCLE
  5
1C630
330
1F
100
AcDbEntity
  8
base
 62
     0
100
AcDbCircle
 10
-37720.93837919678
 20
7849.088195631954
 30
0.0
 40
57.0
  0
CIRCLE
  5
1C631
330
1F
100
AcDbEntity
  8
base
 62
     0
100
AcDbCircle
 10
-37720.93837919678
 20
7849.088195631954
 30
0.0
 40
60.0
  0
CIRCLE
  5
1C632
330
1F
100
AcDbEntity
  8
base
 62
     0
100
AcDbCircle
 10
-37338.93837919679
 20
7849.088195631953
 30
0.0
 40
60.0
  0
CIRCLE
  5
1C633
102
{ACAD_REACTORS
330
1C6E2
102
}
330
1F
100
AcDbEntity
  8
base
 62
     0
100
AcDbCircle
 10
-37338.93837919679
 20
7849.088195631953
 30
0.0
 40
57.0
  0
CIRCLE
  5
1C634
330
1F
100
AcDbEntity
  8
base
 62
     0
100
AcDbCircle
 10
-37338.93837919679
 20
7849.088195631953
 30
0.0
 40
47.0
  0
LINE
  5
1C635
330
1F
100
AcDbEntity
  8
base
 62
     0
100
AcDbLine
 10
-37221.93837919679
 20
8449.35483526253
 30
0.0
 11
-37245.5744102832
 21
8449.35483526253
 31
0.0
  0
LINE
  5
1C638
102
{ACAD_REACTORS
330
1C6D3
102
}
330
1F
100
AcDbEntity
  8
base
 62
     0
100
AcDbLine
 10
-37245.70541026506
 20
8450.554835262529
 30
0.0
 11
-37221.93837919679
 21
8450.554835262529
 31
0.0
  0
LINE
  5
1C639
330
1F
100
AcDbEntity
  8
base
 62
     0
100
AcDbLine
 10
-37428.30371881048
 20
8445.459543055759
 30
0.0
 11
-37425.09415582186
 21
8322.891277503385
 31
0.0
  0
LINE
  5
1C63A
330
1F
100
AcDbEntity
  8
base
 62
     0
100
AcDbLine
 10
-37249.57303958309
 20
8445.459543055759
 30
0.0
 11
-37252.78260257173
 21
8322.891277503389
 31
0.0
  0
LINE
  5
1C63B
330
1F
100
AcDbEntity
  8
base
 62
     0
100
AcDbLine
 10
-37427.10413002052
 20
8445.490955393731
 30
0.0
 11
-37423.8945670319
 21
8322.922689841355
 31
0.0
  0
LINE
  5
1C63C
330
1F
100
AcDbEntity
  8
base
 62
     0
100
AcDbLine
 10
-37250.77262837306
 20
8445.490955393731
 30
0.0
 11
-37253.98219136169
 21
8322.922689841359
 31
0.0
  0
LINE
  5
1C63D
102
{ACAD_REACTORS
330
1C6D3
102
}
330
1F
100
AcDbEntity
  8
base
 62
     0
100
AcDbLine
 10
-37398.93837919678
 20
8298.55483526253
 30
0.0
 11
-37278.93837919679
 21
8298.55483526253
 31
0.0
  0
LINE
  5
1C63E
330
1F
100
AcDbEntity
  8
base
 62
     0
100
AcDbLine
 10
-37399.99361859166
 20
8298.600908009504
 30
0.0
 11
-37398.93837919671
 21
8298.554835262526
 31
0.0
  0
LINE
  5
1C63F
330
1F
100
AcDbEntity
  8
base
 62
     0
100
AcDbLine
 10
-37400.0459618565
 20
8297.402050143606
 30
0.0
 11
-37399.45693278812
 21
8297.376332579078
 31
0.0
  0
LINE
  5
1C640
330
1F
100
AcDbEntity
  8
base
 62
     0
100
AcDbLine
 10
-37395.93837919679
 20
8295.55483526253
 30
0.0
 11
-37281.9383791968
 21
8295.55483526253
 31
0.0
  0
LINE
  5
1C641
330
1F
100
AcDbEntity
  8
base
 62
     0
100
AcDbLine
 10
-37386.11450180036
 20
8291.354835262529
 30
0.0
 11
-37291.76225659323
 21
8291.354835262531
 31
0.0
  0
LINE
  5
1C642
330
1F
100
AcDbEntity
  8
base
 62
     0
100
AcDbLine
 10
-37385.93837919679
 20
8292.55483526253
 30
0.0
 11
-37291.9383791968
 21
8292.55483526253
 31
0.0
  0
LINE
  5
1C643
330
1F
100
AcDbEntity
  8
base
 62
     0
100
AcDbLine
 10
-37385.93837919679
 20
8292.55483526253
 30
0.0
 11
-37395.93837919679
 21
8295.55483526253
 31
0.0
  0
LINE
  5
1C644
330
1F
100
AcDbEntity
  8
base
 62
     0
100
AcDbLine
 10
-37395.93837919679
 20
8295.55483526253
 30
0.0
 11
-37398.93837919678
 21
8298.55483526253
 31
0.0
  0
LINE
  5
1C645
330
1F
100
AcDbEntity
  8
base
 62
     0
100
AcDbLine
 10
-37396.57297847362
 20
8294.492378264507
 30
0.0
 11
-37399.45693278812
 21
8297.376332579013
 31
0.0
  0
LINE
  5
1C646
330
1F
100
AcDbEntity
  8
base
 62
     0
100
AcDbLine
 10
-37386.11450180036
 20
8291.354835262529
 30
0.0
 11
-37396.57297847362
 21
8294.492378264507
 31
0.0
  0
LINE
  5
1C647
330
1F
100
AcDbEntity
  8
base
 62
     0
100
AcDbLine
 10
-37291.76225659323
 20
8291.354835262529
 30
0.0
 11
-37281.30377991997
 21
8294.492378264507
 31
0.0
  0
LINE
  5
1C648
330
1F
100
AcDbEntity
  8
base
 62
     0
100
AcDbLine
 10
-37281.30377991997
 20
8294.492378264507
 30
0.0
 11
-37278.41982560547
 21
8297.376332579013
 31
0.0
  0
LINE
  5
1C649
330
1F
100
AcDbEntity
  8
base
 62
     0
100
AcDbLine
 10
-37281.9383791968
 20
8295.55483526253
 30
0.0
 11
-37278.9383791968
 21
8298.55483526253
 31
0.0
  0
LINE
  5
1C64A
330
1F
100
AcDbEntity
  8
base
 62
     0
100
AcDbLine
 10
-37291.93837919679
 20
8292.55483526253
 30
0.0
 11
-37281.9383791968
 21
8295.55483526253
 31
0.0
  0
LINE
  5
1C64B
330
1F
100
AcDbEntity
  8
base
 62
     0
100
AcDbLine
 10
-37277.83079653709
 20
8297.402050143604
 30
0.0
 11
-37278.41982560547
 21
8297.376332579078
 31
0.0
  0
LINE
  5
1C64C
330
1F
100
AcDbEntity
  8
base
 62
     0
100
AcDbLine
 10
-37277.88313980193
 20
8298.600908009504
 30
0.0
 11
-37278.93837919687
 21
8298.554835262526
 31
0.0
  0
ARC
  5
1C64D
330
1F
100
AcDbEntity
  8
base
 62
     0
100
AcDbCircle
 10
-37398.90313390753
 20
8323.577113549045
 30
0.0
 40
25.0
100
AcDbArc
 50
181.4999999999819
 51
267.500000000034
  0
ARC
  5
1C64E
330
1F
100
AcDbEntity
  8
base
 62
     0
100
AcDbCircle
 10
-37398.90313390753
 20
8323.577113549045
 30
0.0
 40
26.2
100
AcDbArc
 50
181.4999999999819
 51
267.500000000034
  0
ARC
  5
1C64F
330
1F
100
AcDbEntity
  8
base
 62
     0
100
AcDbCircle
 10
-37278.97362448606
 20
8323.577113549051
 30
0.0
 40
25.0
100
AcDbArc
 50
272.4999999999661
 51
358.5000000000104
  0
ARC
  5
1C650
330
1F
100
AcDbEntity
  8
base
 62
     0
100
AcDbCircle
 10
-37278.97362448606
 20
8323.577113549051
 30
0.0
 40
26.2
100
AcDbArc
 50
272.4999999999661
 51
358.5000000000104
  0
ARC
  5
1C651
330
1F
100
AcDbEntity
  8
base
 62
     0
100
AcDbCircle
 10
-37432.30234811037
 20
8445.354835262529
 30
0.0
 40
4.0
100
AcDbArc
 50
1.499999999992638
 51
90.0
  0
ARC
  5
1C652
330
1F
100
AcDbEntity
  8
base
 62
     0
100
AcDbCircle
 10
-37432.30234811037
 20
8445.354835262529
 30
0.0
 40
5.2
100
AcDbArc
 50
1.499999999992638
 51
90.0
  0
ARC
  5
1C653
330
1F
100
AcDbEntity
  8
base
 62
     0
100
AcDbCircle
 10
-37245.5744102832
 20
8445.354835262529
 30
0.0
 40
4.0
100
AcDbArc
 50
90.0
 51
178.4999999999993
  0
ARC
  5
1C654
330
1F
100
AcDbEntity
  8
base
 62
     0
100
AcDbCircle
 10
-37245.5744102832
 20
8445.354835262529
 30
0.0
 40
5.2
100
AcDbArc
 50
90.0
 51
178.4999999999993
  0
DIMENSION
  5
1C655
102
{ACAD_XDICTIONARY
360
1C656
102
}
102
{ACAD_REACTORS
330
1C657
102
}
330
1F
100
AcDbEntity
  8
DIM
 62
     0
100
AcDbDimension
280
     0
  2
*D69
 10
-38119.70508211593
 20
8222.554835262533
 30
0.0
 11
-38140.20508211591
 21
8339.382592097594
 31
0.0
 70
   160
  1
<>{\Ftxt|c134; [9"]}
 71
     5
 42
228.0
 73
     0
 74
     0
 75
     0
  3
ISO-25
100
AcDbAlignedDimension
 13
-38014.93837919679
 23
8450.554835262529
 33
0.0
 14
-37780.93837919679
 24
8222.554835262529
 34
0.0
 50
90.0
100
AcDbRotatedDimension
1001
ACAD
1000
DSTYLE
1002
{
1070
    41
1040
15.0
1070
   140
1040
35.0
1070
   141
1040
0.5
1070
   147
1040
3.0
1070
   179
1070
     2
1070
   279
1070
     2
1002
}
  0
HATCH
  5
1C658
330
1F
100
AcDbEntity
  8
DIM
 62
     0
100
AcDbHatch
 10
0.0
 20
0.0
 30
0.0
210
0.0
220
0.0
230
1.0
  2
ANSI31
 70
     0
 71
     0
 91
        1
 92
        5
 93
        9
 72
     4
 94
        3
 73
     0
 74
     0
 95
        8
 96
        4
 40
74.34298461611231
 40
74.34298461611231
 40
74.34298461611231
 40
74.34298461611231
 40
80.41618379829504
 40
80.41618379830707
 40
80.41618379830707
 40
80.41618379830707
 10
-37069.52699488111
 20
7100.410302675403
 10
-37069.34497418045
 20
7101.61892960039
 10
-37069.17698155649
 20
7102.827480244339
 10
-37069.05136259517
 20
7104.034498896081
 97
        0
 72
     1
 10
-37069.05136259517
 20
7104.034498896076
 11
-37120.54934670089
 21
7101.786048352133
 72
     1
 10
-37120.54934670089
 20
7101.786048352133
 11
-37129.5493467009
 21
7092.786048352137
 72
     1
 10
-37129.5493467009
 20
7092.786048352137
 11
-37159.54934670087
 21
7083.786048352137
 72
     1
 10
-37159.54934670087
 20
7083.786048352137
 11
-37159.54934670087
 21
7080.186048352135
 72
     1
 10
-37159.54934670087
 20
7080.186048352135
 11
-37159.02097889017
 21
7080.186048352136
 72
     1
 10
-37159.02097889018
 20
7080.186048352136
 11
-37127.64554887042
 21
7089.598677358065
 72
     1
 10
-37127.64554887042
 20
7089.598677358065
 11
-37118.9936859267
 21
7098.250540301791
 72
     1
 10
-37118.9936859267
 20
7098.250540301791
 11
-37069.52699488112
 21
7100.410302675403
 97
        0
 75
     0
 76
     1
 52
0.0
 41
1.799999999999999
 77
     0
 78
     1
 53
45.0
 43
-22176.21176841031
 44
2626.647918023081
 45
-4.041115254481117
 46
4.041115254481117
 79
     0
 47
1.35300702239431
 98
        1
 10
-37116.69510845975
 20
7099.699706659144
  0
HATCH
  5
1C659
330
1F
100
AcDbEntity
  8
DIM
 62
     0
100
AcDbHatch
 10
0.0
 20
0.0
 30
0.0
210
0.0
220
0.0
230
1.0
  2
ANSI31
 70
     0
 71
     0
 91
        1
 92
        5
 93
        9
 72
     1
 10
-37471.54934670088
 20
7092.786048352134
 11
-37480.54934670088
 21
7101.786048352133
 72
     1
 10
-37480.54934670088
 20
7101.786048352133
 11
-37532.04733080657
 21
7104.034498896076
 72
     4
 94
        3
 73
     0
 74
     0
 95
        8
 96
        4
 40
74.34298461611231
 40
74.34298461611231
 40
74.34298461611231
 40
74.34298461612434
 40
80.41618379830707
 40
80.41618379830707
 40
80.41618379830707
 40
80.41618379830707
 10
-37532.04733080658
 20
7104.034498896081
 10
-37531.92171184527
 20
7102.827480244339
 10
-37531.75371922131
 20
7101.61892960039
 10
-37531.57169852064
 20
7100.410302675403
 97
        0
 72
     1
 10
-37531.57169852064
 20
7100.410302675403
 11
-37482.10500747507
 21
7098.250540301788
 72
     1
 10
-37482.10500747507
 20
7098.250540301788
 11
-37473.45314453135
 21
7089.598677358065
 72
     1
 10
-37473.45314453135
 20
7089.598677358065
 11
-37442.07771451157
 21
7080.186048352129
 72
     1
 10
-37442.07771451157
 20
7080.186048352129
 11
-37441.54934670088
 21
7080.186048352128
 72
     1
 10
-37441.54934670088
 20
7080.186048352128
 11
-37441.54934670089
 21
7083.786048352132
 72
     1
 10
-37441.54934670089
 20
7083.786048352132
 11
-37471.54934670088
 21
7092.786048352134
 97
        0
 75
     0
 76
     1
 52
0.0
 41
1.799999999999999
 77
     0
 78
     1
 53
45.0
 43
-22176.21176841031
 44
2626.647918023081
 45
-4.041115254481117
 46
4.041115254481117
 79
     0
 47
1.35300702239431
 98
        1
 10
-37458.68671807619
 20
7087.523122567548
  0
LINE
  5
1C65A
330
1F
100
AcDbEntity
  8
DIM
 62
     0
100
AcDbLine
 10
-37159.54934670087
 20
7083.786048352132
 30
0.0
 11
-37159.54934670087
 21
7080.186048352129
 31
0.0
  0
LINE
  5
1C65B
330
1F
100
AcDbEntity
  8
DIM
 62
     0
100
AcDbLine
 10
-37441.54934670089
 20
7083.786048352132
 30
0.0
 11
-37441.54934670088
 21
7080.186048352129
 31
0.0
  0
DIMENSION
  5
1C65C
102
{ACAD_XDICTIONARY
360
1C65D
102
}
102
{ACAD_REACTORS
330
1C65E
102
}
330
1F
100
AcDbEntity
  8
DIM
 62
     0
100
AcDbDimension
280
     0
  2
*D68
 10
-37516.17620835506
 20
7083.786048352135
 30
0.0
 11
-37516.17620835506
 21
6960.786048352145
 31
0.0
 70
   160
  1
6{\Ftxt|c134; [.24"]}
 71
     5
 42
17.99999999999181
 73
     0
 74
     0
 75
     0
  3
ISO-25
100
AcDbAlignedDimension
 13
-37480.54934670066
 23
7101.786048352123
 33
0.0
 14
-37441.54934670089
 24
7083.786048352132
 34
0.0
 50
90.0
100
AcDbRotatedDimension
1001
ACAD
1000
DSTYLE
1002
{
1070
    41
1040
15.0
1070
   140
1040
30.0
1070
   141
1040
0.5
1070
   147
1040
3.0
1070
   179
1070
     2
1002
}
  0
DIMENSION
  5
1C65F
102
{ACAD_XDICTIONARY
360
1C660
102
}
102
{ACAD_REACTORS
330
1C661
102
}
330
1F
100
AcDbEntity
  8
DIM
 62
     0
100
AcDbDimension
280
     0
  2
*D67
 10
-37480.0523196615
 20
7092.78604835214
 30
0.0
 11
-37480.05231966149
 21
6974.786048352149
 31
0.0
 70
   160
  1
3{\Ftxt|c134; [.12"]}
 71
     5
 42
8.999999999987267
 73
     0
 74
     0
 75
     0
  3
ISO-25
100
AcDbAlignedDimension
 13
-37480.54934670066
 23
7101.786048352123
 33
0.0
 14
-37471.54934670088
 24
7092.786048352137
 34
0.0
 50
90.0
100
AcDbRotatedDimension
1001
ACAD
1000
DSTYLE
1002
{
1070
    41
1040
15.0
1070
   140
1040
30.0
1070
   141
1040
0.5
1070
   147
1040
3.0
1070
   179
1070
     2
1002
}
  0
SPLINE
  5
1C662
330
1F
100
AcDbEntity
  8
DIM
 62
     0
100
AcDbSpline
210
0.0
220
0.0
230
1.0
 70
  1064
 71
     3
 72
    10
 73
     6
 74
     4
 42
0.000000001
 43
0.0000000001
 44
0.0000000001
 40
0.0
 40
0.0
 40
0.0
 40
0.0
 40
44.60579076967425
 40
58.76969174849827
 40
85.09401078878486
 40
85.09401078878486
 40
85.09401078878486
 40
85.09401078878486
 10
-37077.13723962005
 20
7147.901287733723
 30
0.0
 10
-37072.3254403945
 20
7133.355545717352
 30
0.0
 10
-37065.98572637168
 20
7114.191021116289
 30
0.0
 10
-37072.76549679014
 20
7085.865263703382
 30
0.0
 10
-37067.62020550457
 20
7072.897137100236
 30
0.0
 10
-37064.27487964701
 20
7064.465620429587
 30
0.0
 11
-37077.13723962005
 21
7147.901287733723
 31
0.0
 11
-37069.05136259518
 21
7104.034498896076
 31
0.0
 11
-37070.77217315292
 21
7089.975519489223
 31
0.0
 11
-37064.27487964701
 21
7064.465620429587
 31
0.0
  0
SPLINE
  5
1C663
330
1F
100
AcDbEntity
  8
DIM
 62
     0
100
AcDbSpline
210
0.0
220
0.0
230
1.0
 70
  1064
 71
     3
 72
    10
 73
     6
 74
     4
 42
0.000000001
 43
0.0000000001
 44
0.0000000001
 40
0.0
 40
0.0
 40
0.0
 40
0.0
 40
44.60579076967425
 40
58.76969174849827
 40
85.09401078878486
 40
85.09401078878486
 40
85.09401078878486
 40
85.09401078878486
 10
-37523.9614537817
 20
7147.901287733723
 30
0.0
 10
-37528.77325300726
 20
7133.355545717352
 30
0.0
 10
-37535.11296703007
 20
7114.191021116289
 30
0.0
 10
-37528.33319661163
 20
7085.865263703382
 30
0.0
 10
-37533.47848789719
 20
7072.897137100236
 30
0.0
 10
-37536.82381375475
 20
7064.465620429587
 30
0.0
 11
-37523.9614537817
 21
7147.901287733723
 31
0.0
 11
-37532.04733080657
 21
7104.034498896076
 31
0.0
 11
-37530.32652024884
 21
7089.975519489223
 31
0.0
 11
-37536.82381375475
 21
7064.465620429587
 31
0.0
  0
DIMENSION
  5
1C664
102
{ACAD_XDICTIONARY
360
1C665
102
}
102
{ACAD_REACTORS
330
1C666
102
}
330
1F
100
AcDbEntity
  8
DIM
 62
     0
100
AcDbDimension
280
     0
  2
*D66
 10
-37120.54934670089
 20
7204.606593373099
 30
0.0
 11
-37300.54934670078
 21
7222.606593373098
 31
0.0
 70
    32
  1
%%C120{\Ftxt|c134; [4.7"]}
 71
     5
 42
359.9999999997672
 73
     0
 74
     0
 75
     0
  3
ISO-25
100
AcDbAlignedDimension
 13
-37480.54934670066
 23
7101.786048352123
 33
0.0
 14
-37120.54934670089
 24
7101.786048352131
 34
0.0
100
AcDbRotatedDimension
1001
ACAD
1000
DSTYLE
1002
{
1070
    41
1040
15.0
1070
   140
1040
30.0
1070
   141
1040
0.5
1070
   147
1040
3.0
1070
   179
1070
     2
1002
}
  0
DIMENSION
  5
1C667
102
{ACAD_XDICTIONARY
360
1C668
102
}
102
{ACAD_REACTORS
330
1C669
102
}
330
1F
100
AcDbEntity
  8
DIM
 62
     0
100
AcDbDimension
280
     0
  2
*D65
 10
-37129.54934670092
 20
7142.138664821728
 30
0.0
 11
-37300.54934670089
 21
7160.138664821727
 31
0.0
 70
    32
  1
%%C114{\Ftxt|c134; [4.5"]}
 71
     5
 42
341.9999999999491
 73
     0
 74
     0
 75
     0
  3
ISO-25
100
AcDbAlignedDimension
 13
-37471.54934670087
 23
7092.786048352131
 33
0.0
 14
-37129.54934670092
 24
7092.786048352128
 34
0.0
100
AcDbRotatedDimension
1001
ACAD
1000
DSTYLE
1002
{
1070
    41
1040
15.0
1070
   140
1040
30.0
1070
   141
1040
0.5
1070
   147
1040
3.0
1070
   179
1070
     2
1002
}
  0
DIMENSION
  5
1C66A
102
{ACAD_XDICTIONARY
360
1C66B
102
}
102
{ACAD_REACTORS
330
1C66C
102
}
330
1F
100
AcDbEntity
  8
DIM
 62
     0
100
AcDbDimension
280
     0
  2
*D64
 10
-37159.54934670089
 20
7001.185749654291
 30
0.0
 11
-37300.54934670089
 21
7019.185749654292
 31
0.0
 70
    32
  1
%%C90{\Ftxt|c134; [3.5"]}
 71
     5
 42
281.9999999999927
 73
     0
 74
     0
 75
     0
  3
ISO-25
100
AcDbAlignedDimension
 13
-37441.54934670089
 23
7083.786048352132
 33
0.0
 14
-37159.54934670089
 24
7083.786048352132
 34
0.0
100
AcDbRotatedDimension
1001
ACAD
1000
DSTYLE
1002
{
1070
    41
1040
15.0
1070
   140
1040
30.0
1070
   141
1040
0.5
1070
   147
1040
3.0
1070
   179
1070
     2
1002
}
  0
LINE
  5
1C66D
102
{ACAD_REACTORS
330
1C666
102
}
330
1F
100
AcDbEntity
  8
base
 62
     0
100
AcDbLine
 10
-37480.54934670088
 20
7101.786048352131
 30
0.0
 11
-37120.54934670089
 21
7101.786048352131
 31
0.0
  0
LINE
  5
1C66E
330
1F
100
AcDbEntity
  8
DIM
  6
CENTER
 62
     0
100
AcDbLine
 10
-37300.54934670088
 20
7128.112290433911
 30
0.0
 11
-37300.54934670088
 21
7059.718070123096
 31
0.0
  0
LINE
  5
1C66F
102
{ACAD_REACTORS
330
1C666
330
1C661
330
1C65E
102
}
330
1F
100
AcDbEntity
  8
base
 62
     0
100
AcDbLine
 10
-37532.04733080657
 20
7104.034498896076
 30
0.0
 11
-37480.54934670066
 21
7101.786048352123
 31
0.0
  0
LINE
  5
1C670
330
1F
100
AcDbEntity
  8
base
 62
     0
100
AcDbLine
 10
-37532.05428623629
 20
7100.431372910104
 30
0.0
 11
-37482.10500747485
 21
7098.250540301781
 31
0.0
  0
LINE
  5
1C671
102
{ACAD_REACTORS
330
1C669
102
}
330
1F
100
AcDbEntity
  8
base
 62
     0
100
AcDbLine
 10
-37471.54934670087
 20
7092.786048352131
 30
0.0
 11
-37129.5493467009
 21
7092.786048352128
 31
0.0
  0
LINE
  5
1C672
330
1F
100
AcDbEntity
  8
base
 62
     0
100
AcDbLine
 10
-37442.07771451157
 20
7080.186048352129
 30
0.0
 11
-37159.0209788902
 21
7080.186048352135
 31
0.0
  0
LINE
  5
1C673
102
{ACAD_REACTORS
330
1C66C
330
1C65E
102
}
330
1F
100
AcDbEntity
  8
base
 62
     0
100
AcDbLine
 10
-37441.54934670089
 20
7083.786048352132
 30
0.0
 11
-37159.54934670089
 21
7083.786048352132
 31
0.0
  0
LINE
  5
1C674
102
{ACAD_REACTORS
330
1C661
102
}
330
1F
100
AcDbEntity
  8
base
 62
     0
100
AcDbLine
 10
-37441.54934670089
 20
7083.786048352132
 30
0.0
 11
-37471.54934670087
 21
7092.786048352131
 31
0.0
  0
LINE
  5
1C675
102
{ACAD_REACTORS
330
1C661
102
}
330
1F
100
AcDbEntity
  8
base
 62
     0
100
AcDbLine
 10
-37471.54934670088
 20
7092.786048352131
 30
0.0
 11
-37480.54934670088
 21
7101.786048352131
 31
0.0
  0
LINE
  5
1C676
330
1F
100
AcDbEntity
  8
base
 62
     0
100
AcDbLine
 10
-37473.45314453135
 20
7089.598677358063
 30
0.0
 11
-37482.10500747486
 21
7098.250540301581
 31
0.0
  0
LINE
  5
1C677
330
1F
100
AcDbEntity
  8
base
 62
     0
100
AcDbLine
 10
-37442.07771451157
 20
7080.186048352129
 30
0.0
 11
-37473.45314453135
 21
7089.598677358063
 31
0.0
  0
LINE
  5
1C678
330
1F
100
AcDbEntity
  8
base
 62
     0
100
AcDbLine
 10
-37159.0209788902
 20
7080.186048352129
 30
0.0
 11
-37127.64554887042
 21
7089.598677358063
 31
0.0
  0
LINE
  5
1C679
330
1F
100
AcDbEntity
  8
base
 62
     0
100
AcDbLine
 10
-37127.64554887042
 20
7089.598677358063
 30
0.0
 11
-37118.99368592691
 21
7098.250540301581
 31
0.0
  0
LINE
  5
1C67A
330
1F
100
AcDbEntity
  8
base
 62
     0
100
AcDbLine
 10
-37129.5493467009
 20
7092.786048352131
 30
0.0
 11
-37120.54934670089
 21
7101.786048352131
 31
0.0
  0
LINE
  5
1C67B
102
{ACAD_REACTORS
330
1C669
102
}
330
1F
100
AcDbEntity
  8
base
 62
     0
100
AcDbLine
 10
-37159.54934670089
 20
7083.786048352132
 30
0.0
 11
-37129.54934670091
 21
7092.786048352131
 31
0.0
  0
LINE
  5
1C67C
330
1F
100
AcDbEntity
  8
base
 62
     0
100
AcDbLine
 10
-37069.04440716545
 20
7100.431372910104
 30
0.0
 11
-37118.99368592692
 21
7098.250540301781
 31
0.0
  0
LINE
  5
1C67D
330
1F
100
AcDbEntity
  8
base
 62
     0
100
AcDbLine
 10
-37069.05136259517
 20
7104.034498896076
 30
0.0
 11
-37120.54934670111
 21
7101.786048352123
 31
0.0
  0
DIMENSION
  5
1C68F
330
1F
100
AcDbEntity
  8
DIM
 62
     0
100
AcDbDimension
280
     0
  2
*D58
 10
-37087.11082326328
 20
8004.588195631956
 30
0.0
 11
-37100.11082326328
 21
7774.088195631967
 31
0.0
 70
    32
  1
<>{\Ftxt|c134; [18.15"]}
 71
     5
 42
460.9999999999955
 73
     0
 74
     0
 75
     0
  3
ISO-25
100
AcDbAlignedDimension
 13
-37275.63837919678
 23
7543.588195631958
 33
0.0
 14
-37275.63837919678
 24
8004.588195631953
 34
0.0
 50
90.0
100
AcDbRotatedDimension
1001
ACAD
1000
DSTYLE
1002
{
1070
    41
1040
10.0
1070
   140
1040
20.0
1070
   141
1040
0.5
1070
   147
1040
3.0
1070
   179
1070
     2
1002
}
  0
DIMENSION
  5
1C690
330
1F
100
AcDbEntity
  8
DIM
 62
     0
100
AcDbDimension
280
     0
  2
*D57
 10
-37221.93837919679
 20
7367.631121148618
 30
0.0
 11
-37618.43837919679
 21
7380.631121148617
 31
0.0
 70
    32
  1
<>{\Ftxt|c134; [31"]}
 71
     5
 42
793.0
 73
     0
 74
     0
 75
     0
  3
ISO-25
100
AcDbAlignedDimension
 13
-38014.93837919679
 23
7597.28819563195
 33
0.0
 14
-37221.93837919679
 24
7597.288195631951
 34
0.0
100
AcDbRotatedDimension
1001
ACAD
1000
DSTYLE
1002
{
1070
    41
1040
10.0
1070
   140
1040
20.0
1070
   141
1040
0.5
1070
   147
1040
3.0
1070
   179
1070
     2
1002
}
  0
DIMENSION
  5
1C691
330
1F
100
AcDbEntity
  8
DIM
 62
     0
100
AcDbDimension
280
     0
  2
*D56
 10
-37145.02675511294
 20
7977.088195631961
 30
0.0
 11
-37158.02675511293
 21
7774.088195631971
 31
0.0
 70
    32
  1
<>{\Ftxt|c134; [16"]}
 71
     5
 42
405.9999999999981
 73
     0
 74
     0
 75
     0
  3
ISO-25
100
AcDbAlignedDimension
 13
-37275.63837919678
 23
7571.08819563196
 33
0.0
 14
-37275.63837919678
 24
7977.088195631957
 34
0.0
 50
90.0
100
AcDbRotatedDimension
1001
ACAD
1000
DSTYLE
1002
{
1070
    41
1040
10.0
1070
   140
1040
20.0
1070
   141
1040
0.5
1070
   147
1040
3.0
1070
   179
1070
     2
1002
}
  0
DIMENSION
  5
1C692
330
1F
100
AcDbEntity
  8
DIM
 62
     0
100
AcDbDimension
280
     0
  2
*D55
 10
-37249.43837919679
 20
7429.356491290542
 30
0.0
 11
-37618.43837919679
 21
7442.356491290542
 31
0.0
 70
    32
  1
<>{\Ftxt|c134; [29"]}
 71
     5
 42
738.0
 73
     0
 74
     0
 75
     0
  3
ISO-25
100
AcDbAlignedDimension
 13
-37987.43837919678
 23
7597.28819563196
 33
0.0
 14
-37249.43837919679
 24
7597.28819563196
 34
0.0
100
AcDbRotatedDimension
1001
ACAD
1000
DSTYLE
1002
{
1070
    41
1040
10.0
1070
   140
1040
20.0
1070
   141
1040
0.5
1070
   147
1040
3.0
1070
   179
1070
     2
1002
}
  0
DIMENSION
  5
1C6C7
330
1F
100
AcDbEntity
  8
DIM
 62
     0
100
AcDbDimension
280
     0
  2
*D54
 10
-37961.23837919677
 20
7950.88819563195
 30
0.0
 11
-38042.16572316144
 21
8091.673787141223
 31
0.0
 70
    36
  1
4-R52{\Ftxt|c134; [2"]}
 71
     5
 42
52.20000000004074
 73
     0
 74
     0
 75
     0
  3
ISO-25
100
AcDbRadialDimension
 15
-37990.7921609542
 25
7993.916256055806
 35
0.0
 40
0.0
1001
ACAD
1000
DSTYLE
1002
{
1070
    41
1040
10.0
1070
   140
1040
20.0
1070
   141
1040
0.5
1070
   147
1040
3.0
1070
   179
1070
     2
1070
   288
1070
     1
1002
}
  0
DIMENSION
  5
1C6CA
102
{ACAD_XDICTIONARY
360
1C6CB
102
}
102
{ACAD_REACTORS
330
1C6CC
102
}
330
1F
100
AcDbEntity
  8
DIM
 62
     0
100
AcDbDimension
280
     0
  2
*D63
 10
-37428.4383791968
 20
7469.220777332099
 30
0.0
 11
-37338.93837919679
 21
7482.220777332099
 31
0.0
 70
    32
  1
{\Ftxt|c134;179 [7"]}
 71
     5
 42
179.0000000000073
 73
     0
 74
     0
 75
     0
  3
ISO-25
100
AcDbAlignedDimension
 13
-37249.43837919679
 23
7597.288195631954
 33
0.0
 14
-37428.4383791968
 24
7597.288195631955
 34
0.0
100
AcDbRotatedDimension
1001
ACAD
1000
DSTYLE
1002
{
1070
    41
1040
10.0
1070
   140
1040
20.0
1070
   141
1040
0.5
1070
   147
1040
3.0
1070
   179
1070
     2
1002
}
  0
DIMENSION
  5
1C6CD
102
{ACAD_XDICTIONARY
360
1C6CE
102
}
102
{ACAD_REACTORS
330
1C6CF
102
}
330
1F
100
AcDbEntity
  8
DIM
 62
     0
100
AcDbDimension
280
     0
  2
*D62
 10
-37987.43837919678
 20
7470.506738051845
 30
0.0
 11
-37720.93837919678
 21
7483.506738051845
 31
0.0
 70
    32
  1
<>{\Ftxt|c134; [21"]}
 71
     5
 42
533.0
 73
     0
 74
     0
 75
     0
  3
ISO-25
100
AcDbAlignedDimension
 13
-37454.43837919679
 23
7597.288195631957
 33
0.0
 14
-37987.43837919678
 24
7597.288195631954
 34
0.0
100
AcDbRotatedDimension
1001
ACAD
1000
DSTYLE
1002
{
1070
    41
1040
10.0
1070
   140
1040
20.0
1070
   141
1040
0.5
1070
   147
1040
3.0
1070
   179
1070
     2
1002
}
  0
DIMENSION
  5
1C6D0
330
1F
100
AcDbEntity
  8
DIM
 62
     0
100
AcDbDimension
280
     0
  2
*D53
 10
-37428.4383791968
 20
7495.733528124737
 30
0.0
 11
-37530.77171253012
 21
7495.733528124737
 31
0.0
 70
   160
  1
<>{\Ftxt|c134; [1"]}
 71
     5
 42
25.99999999999273
 73
     0
 74
     0
 75
     0
  3
ISO-25
100
AcDbAlignedDimension
 13
-37454.43837919679
 23
7532.772466841901
 33
0.0
 14
-37428.4383791968
 24
7532.129486482027
 34
0.0
100
AcDbRotatedDimension
1001
ACAD
1000
DSTYLE
1002
{
1070
    41
1040
10.0
1070
   140
1040
20.0
1070
   141
1040
0.5
1070
   147
1040
3.0
1070
   179
1070
     2
1002
}
  0
DIMENSION
  5
1C6D1
102
{ACAD_XDICTIONARY
360
1C6D2
102
}
102
{ACAD_REACTORS
330
1C6D3
102
}
330
1F
100
AcDbEntity
  8
DIM
 62
     0
100
AcDbDimension
280
     0
  2
*D61
 10
-37135.89836164995
 20
8298.554835262534
 30
0.0
 11
-37185.56502831661
 21
8374.554835262543
 31
0.0
 70
    32
  1
<>{\Ftxt|c134; [6"]}
 71
     5
 42
152.0
 73
     0
 74
     0
 75
     0
  3
ISO-25
100
AcDbAlignedDimension
 13
-37221.93837919679
 23
8450.554835262529
 33
0.0
 14
-37278.93837919679
 24
8298.55483526253
 34
0.0
 50
90.0
100
AcDbRotatedDimension
1001
ACAD
1000
DSTYLE
1002
{
1070
    41
1040
15.0
1070
   140
1040
35.0
1070
   141
1040
0.5
1070
   147
1040
3.0
1070
   179
1070
     2
1002
}
  0
LINE
  5
1C6D7
102
{ACAD_REACTORS
330
1C6E2
330
1C6DF
102
}
330
1F
100
AcDbEntity
  8
DIM
  6
CENTER
 62
     0
100
AcDbLine
 10
-37223.43837919678
 20
7774.088195631954
 30
0.0
 11
-38013.43837919679
 21
7774.088195631954
 31
0.0
  0
LINE
  5
1C6D9
102
{ACAD_REACTORS
330
1C6DF
102
}
330
1F
100
AcDbEntity
  8
DIM
  6
CENTER
 62
     0
100
AcDbLine
 10
-37720.93837919678
 20
7977.088195631954
 30
0.0
 11
-37720.93837919678
 21
7571.088195631957
 31
0.0
  0
LINE
  5
1C6DA
102
{ACAD_REACTORS
330
1C6E2
102
}
330
1F
100
AcDbEntity
  8
DIM
  6
CENTER
 62
     0
100
AcDbLine
 10
-37338.93837919679
 20
7977.088195631954
 30
0.0
 11
-37338.93837919679
 21
7571.088195631955
 31
0.0
  0
LINE
  5
1C6DB
102
{ACAD_REACTORS
330
1C6E2
102
}
330
1F
100
AcDbEntity
  8
DIM
  6
CENTER
 62
     0
100
AcDbLine
 10
-37278.93837919679
 20
7849.088195631954
 30
0.0
 11
-37398.93837919678
 21
7849.088195631954
 31
0.0
  0
LINE
  5
1C6DC
102
{ACAD_REACTORS
330
1C6DF
102
}
330
1F
100
AcDbEntity
  8
DIM
  6
CENTER
 62
     0
100
AcDbLine
 10
-37660.93837919679
 20
7849.088195631954
 30
0.0
 11
-37780.93837919679
 21
7849.088195631954
 31
0.0
  0
DIMENSION
  5
1C6DD
102
{ACAD_XDICTIONARY
360
1C6DE
102
}
102
{ACAD_REACTORS
330
1C6DF
102
}
330
1F
100
AcDbEntity
  8
DIM
 62
     0
100
AcDbDimension
280
     0
  2
*D60
 10
-37844.4224940624
 20
7774.088195631957
 30
0.0
 11
-37844.42249406239
 21
7839.088195631956
 31
0.0
 70
   160
  1
<>{\Ftxt|c134; [2.95"]}
 71
     5
 42
75.0
 73
     0
 74
     0
 75
     0
  3
ISO-25
100
AcDbAlignedDimension
 13
-37780.93837919679
 23
7849.088195631954
 33
0.0
 14
-37720.93837919678
 24
7774.088195631954
 34
0.0
 50
90.0
100
AcDbRotatedDimension
1001
ACAD
1000
DSTYLE
1002
{
1070
    41
1040
10.0
1070
   140
1040
20.0
1070
   141
1040
0.5
1070
   147
1040
3.0
1070
   179
1070
     2
1070
   288
1070
     1
1002
}
  0
DIMENSION
  5
1C6E0
102
{ACAD_XDICTIONARY
360
1C6E1
102
}
102
{ACAD_REACTORS
330
1C6E2
102
}
330
1F
100
AcDbEntity
  8
DIM
 62
     0
100
AcDbDimension
280
     0
  2
*D59
 10
-37515.8800130935
 20
7774.088195631957
 30
0.0
 11
-37515.88001309349
 21
7839.088195631958
 31
0.0
 70
   160
  1
<>{\Ftxt|c134; [2.95"]}
 71
     5
 42
75.0
 73
     0
 74
     0
 75
     0
  3
ISO-25
100
AcDbAlignedDimension
 13
-37395.93837919679
 23
7849.088195631954
 33
0.0
 14
-37338.93837919679
 24
7774.088195631954
 34
0.0
 50
90.0
100
AcDbRotatedDimension
1001
ACAD
1000
DSTYLE
1002
{
1070
    41
1040
10.0
1070
   140
1040
20.0
1070
   141
1040
0.5
1070
   147
1040
3.0
1070
   179
1070
     2
1070
   288
1070
     1
1002
}
  0
CIRCLE
  5
1C6E3
330
1F
100
AcDbEntity
  8
DIM
 62
     0
100
AcDbCircle
 10
-37720.93837919678
 20
8215.354835262528
 30
0.0
 40
90.17050546526661
  0
LEADER
  5
1C6E4
330
1F
100
AcDbEntity
  8
DIM
 62
     0
100
AcDbLeader
  3
ISO-25
 73
     0
 74
     0
 75
     1
 40
35.0
 41
11.66666666666666
 76
     3
 10
-37675.63001056354
 20
8171.694903343917
 30
0.0
 10
-37635.10525567305
 20
8143.467724359682
 30
0.0
 10
-37620.10525567305
 20
8143.467724359682
 30
0.0
340
1C6E5
213
0.0
223
-17.5
233
0.0
1001
ACAD
1000
DSTYLE
1002
{
1070
    77
1070
     0
1070
    41
1040
15.0
1070
   140
1040
35.0
1070
   141
1040
0.5
1070
   147
1040
3.0
1070
   179
1070
     2
1002
}
  0
MTEXT
  5
1C6E5
102
{ACAD_REACTORS
330
1C6E4
102
}
330
1F
100
AcDbEntity
  8
DIM
 62
     0
100
AcDbMText
 10
-37617.10525567305
 20
8160.967724359682
 30
0.0
 40
35.0
 41
0.0
 46
0.0
 71
     1
 72
     1
  1
I
 73
     1
 44
1.0
  0
LINE
  5
1C6E6
330
1F
100
AcDbEntity
  8
DIM
  6
CENTER
 62
     0
100
AcDbLine
 10
-37338.93837919679
 20
8360.502412622377
 30
0.0
 11
-37338.93837919679
 21
8232.704031205576
 31
0.0
  0
LINE
  5
1C6E7
330
1F
100
AcDbEntity
  8
DIM
  6
CENTER
 62
     0
100
AcDbLine
 10
-37720.93837919678
 20
8259.002412622377
 30
0.0
 11
-37720.93837919678
 21
8157.502412622379
 31
0.0
  0
ARC
  5
1C82F
330
1F
100
AcDbEntity
  8
base
 62
     0
100
AcDbCircle
 10
-37275.63837919678
 20
7950.888195631954
 30
0.0
 40
53.6999999999989
100
AcDbArc
 50
0.0
 51
90.0
  0
LINE
  5
1C830
330
1F
100
AcDbEntity
  8
base
 62
     0
100
AcDbLine
 10
-37961.23837919679
 20
8004.588195631955
 30
0.0
 11
-37275.63837919678
 21
8004.588195631953
 31
0.0
  0
LINE
  5
1C831
330
1F
100
AcDbEntity
  8
base
 62
     0
100
AcDbLine
 10
-37221.93837919679
 20
7950.888195631954
 30
0.0
 11
-37221.93837919679
 21
7597.288195631951
 31
0.0
  0
ARC
  5
1C832
330
1F
100
AcDbEntity
  8
base
 62
     0
100
AcDbCircle
 10
-37961.23837919679
 20
7950.888195631953
 30
0.0
 40
53.70000000000072
100
AcDbArc
 50
90.0
 51
180.0
  0
LINE
  5
1C833
330
1F
100
AcDbEntity
  8
base
 62
     0
100
AcDbLine
 10
-38014.93837919679
 20
7597.28819563195
 30
0.0
 11
-38014.93837919679
 21
7950.888195631955
 31
0.0
  0
ARC
  5
1C834
330
1F
100
AcDbEntity
  8
base
 62
     0
100
AcDbCircle
 10
-37961.23837919679
 20
7597.288195631958
 30
0.0
 40
53.70000000000027
100
AcDbArc
 50
180.0
 51
270.0
  0
LINE
  5
1C835
330
1F
100
AcDbEntity
  8
base
 62
     0
100
AcDbLine
 10
-37275.63837919678
 20
7543.588195631958
 30
0.0
 11
-37961.23837919678
 21
7543.588195631958
 31
0.0
  0
ARC
  5
1C836
330
1F
100
AcDbEntity
  8
base
 62
     0
100
AcDbCircle
 10
-37275.63837919678
 20
7597.288195631957
 30
0.0
 40
53.70000000000072
100
AcDbArc
 50
270.0
 51
359.999999999994
  0
DIMENSION
  5
1C837
330
1F
100
AcDbEntity
  8
DIM
 62
     0
100
AcDbDimension
280
     0
  2
*D70
 10
-37961.23837919677
 20
7597.28819563196
 30
0.0
 11
-37892.47638906117
 21
7637.61852735679
 31
0.0
 70
   164
  1
R25{\Ftxt|c134; [1"]}
 71
     5
 42
26.19999999999345
 73
     0
 74
     0
 75
     0
  3
ISO-25
100
AcDbRadialDimension
 15
-37983.83797118781
 25
7584.033066743934
 35
0.0
 40
0.0
1001
ACAD
1000
DSTYLE
1002
{
1070
    41
1040
10.0
1070
   140
1040
20.0
1070
   141
1040
0.5
1070
   147
1040
3.0
1070
   179
1070
     2
1070
   288
1070
     1
1002
}
  0
LINE
  5
1CCD5
330
1F
100
AcDbEntity
  8
base
 62
     0
100
AcDbLine
 10
-38014.93837919679
 20
8450.554835262529
 30
0.0
 11
-38014.93837919679
 21
8449.35483526253
 31
0.0
  0
LINE
  5
1CCDF
330
1F
100
AcDbEntity
  8
base
 62
     0
100
AcDbLine
 10
-37221.93837919679
 20
8450.554835262529
 30
0.0
 11
-37221.93837919679
 21
8449.35483526253
 31
0.0
  0
INSERT
  5
1E6CF
330
1F
100
AcDbEntity
  8
0
 62
     0
 48
0.0
100
AcDbBlockReference
  2
SE13
 10
-27031.9080616362
 20
13192.55806472559
 30
0.0
 41
1.451520000000527
 42
1.451520000000527
 43
1.451520000000527
  0
INSERT
  5
1E7D4
330
1F
100
AcDbEntity
  8
0
 62
     0
 48
0.0
100
AcDbBlockReference
  2
SE13
 10
-26961.24252706166
 20
12495.74898335939
 30
0.0
 41
1.741824000000633
 42
1.741823999999542
 43
1.741824000000633
  0
ENDSEC
  0
SECTION
  2
OBJECTS
  0
DICTIONARY
  5
C
330
0
100
AcDbDictionary
281
     1
  3
ACAD_CIP_PREVIOUS_PRODUCT_INFO
350
20C4E
  3
ACAD_COLOR
350
6B
  3
ACAD_DETAILVIEWSTYLE
350
20C45
  3
ACAD_GROUP
350
D
  3
ACAD_LAYOUT
350
1A
  3
ACAD_MATERIAL
350
6A
  3
ACAD_MLEADERSTYLE
350
20C41
  3
ACAD_MLINESTYLE
350
17
  3
ACAD_PLOTSETTINGS
350
19
  3
ACAD_PLOTSTYLENAME
350
E
  3
ACAD_SCALELIST
350
20C2F
  3
ACAD_SECTIONVIEWSTYLE
350
20C43
  3
ACAD_TABLESTYLE
350
20B4F
  3
ACAD_VISUALSTYLE
350
20B3E
  3
AcadDim
350
1A5DE
  3
ACDB_RECOMPOSE_DATA
350
20E68
  3
AcDbVariableDictionary
350
5E
  3
ASE_INDEX_DICTIONARY
350
1EA7E
  3
lxx_dict
350
1FD25
  0
DICTIONARY
  5
1F494
330
2
100
AcDbDictionary
280
     1
281
     1
  3
ACAD_LAYERSTATES
360
1F495
  0
DICTIONARY
  5
20E38
330
10
100
AcDbDictionary
280
     1
281
     1
  3
ADSK_XREC_LAYER_RECONCILED
360
20E39
  0
DICTIONARY
  5
20E3A
330
84
100
AcDbDictionary
280
     1
281
     1
  3
ADSK_XREC_LAYER_RECONCILED
360
20E3B
  0
DICTIONARY
  5
20E3C
330
2D93
100
AcDbDictionary
280
     1
281
     1
  3
ADSK_XREC_LAYER_RECONCILED
360
20E3D
  0
DICTIONARY
  5
20E3E
330
5E45
100
AcDbDictionary
280
     1
281
     1
  3
ADSK_XREC_LAYER_RECONCILED
360
20E3F
  0
DICTIONARY
  5
20E40
330
640C
100
AcDbDictionary
280
     1
281
     1
  3
ADSK_XREC_LAYER_RECONCILED
360
20E41
  0
DICTIONARY
  5
20E42
330
1E460
100
AcDbDictionary
280
     1
281
     1
  3
ADSK_XREC_LAYER_RECONCILED
360
20E43
  0
DICTIONARY
  5
1C656
330
1C655
100
AcDbDictionary
280
     1
281
     1
  3
ACAD_DIMASSOC
360
1C657
  0
DICTIONARY
  5
1C65D
330
1C65C
100
AcDbDictionary
280
     1
281
     1
  3
ACAD_DIMASSOC
360
1C65E
  0
DICTIONARY
  5
1C660
330
1C65F
100
AcDbDictionary
280
     1
281
     1
  3
ACAD_DIMASSOC
360
1C661
  0
DICTIONARY
  5
1C665
330
1C664
100
AcDbDictionary
280
     1
281
     1
  3
ACAD_DIMASSOC
360
1C666
  0
DICTIONARY
  5
1C668
330
1C667
100
AcDbDictionary
280
     1
281
     1
  3
ACAD_DIMASSOC
360
1C669
  0
DICTIONARY
  5
1C66B
330
1C66A
100
AcDbDictionary
280
     1
281
     1
  3
ACAD_DIMASSOC
360
1C66C
  0
DICTIONARY
  5
1C6CB
330
1C6CA
100
AcDbDictionary
280
     1
281
     1
  3
ACAD_DIMASSOC
360
1C6CC
  0
DICTIONARY
  5
1C6CE
330
1C6CD
100
AcDbDictionary
280
     1
281
     1
  3
ACAD_DIMASSOC
360
1C6CF
  0
DICTIONARY
  5
1C6D2
330
1C6D1
100
AcDbDictionary
280
     1
281
     1
  3
ACAD_DIMASSOC
360
1C6D3
  0
DICTIONARY
  5
1C6DE
330
1C6DD
100
AcDbDictionary
280
     1
281
     1
  3
ACAD_DIMASSOC
360
1C6DF
  0
DICTIONARY
  5
1C6E1
330
1C6E0
100
AcDbDictionary
280
     1
281
     1
  3
ACAD_DIMASSOC
360
1C6E2
  0
XRECORD
  5
20C4E
102
{ACAD_REACTORS
330
C
102
}
330
C
100
AcDbXrecord
280
     1
300
ACDLT
300
2018
300

  0
DICTIONARY
  5
6B
102
{ACAD_REACTORS
330
C
102
}
330
C
100
AcDbDictionary
281
     1
  0
DICTIONARY
  5
20C45
102
{ACAD_REACTORS
330
C
102
}
330
C
100
AcDbDictionary
281
     1
  3
Metric50
350
20C46
  0
DICTIONARY
  5
D
102
{ACAD_REACTORS
330
C
102
}
330
C
100
AcDbDictionary
281
     1
  0
DICTIONARY
  5
1A
102
{ACAD_REACTORS
330
C
102
}
330
C
100
AcDbDictionary
281
     1
  3
Layout1
350
51
  3
Layout2
350
56
  3
Model
350
22
  0
DICTIONARY
  5
6A
102
{ACAD_REACTORS
330
C
102
}
330
C
100
AcDbDictionary
281
     1
  3
ByBlock
350
20B3C
  3
ByLayer
350
20B3B
  3
Global
350
20B3D
  0
DICTIONARY
  5
20C41
102
{ACAD_REACTORS
330
C
102
}
330
C
100
AcDbDictionary
281
     1
  3
Standard
350
20C42
  0
DICTIONARY
  5
17
102
{ACAD_REACTORS
330
C
102
}
330
C
100
AcDbDictionary
281
     1
  3
Standard
350
18
  0
DICTIONARY
  5
19
102
{ACAD_REACTORS
330
C
102
}
330
C
100
AcDbDictionary
281
     1
  0
ACDBDICTIONARYWDFLT
  5
E
102
{ACAD_REACTORS
330
C
102
}
330
C
100
AcDbDictionary
281
     1
  3
Normal
350
F
100
AcDbDictionaryWithDefault
340
F
  0
DICTIONARY
  5
20C2F
102
{ACAD_REACTORS
330
C
102
}
330
C
100
AcDbDictionary
281
     1
  3
A0
350
20C30
  3
A1
350
20C31
  3
A2
350
20C32
  3
A3
350
20C33
  3
A4
350
20C34
  3
A5
350
20C35
  3
A6
350
20C36
  3
A7
350
20C37
  3
A8
350
20C38
  3
A9
350
20C39
  3
B0
350
20C3A
  3
B1
350
20C3B
  3
B2
350
20C3C
  3
B3
350
20C3D
  3
B4
350
20C3E
  3
B5
350
20C3F
  3
B6
350
20C40
  0
DICTIONARY
  5
20C43
102
{ACAD_REACTORS
330
C
102
}
330
C
100
AcDbDictionary
281
     1
  3
Metric50
350
20C44
  0
DICTIONARY
  5
20B4F
102
{ACAD_REACTORS
330
C
102
}
330
C
100
AcDbDictionary
281
     1
  3
Standard
350
20B50
  0
DICTIONARY
  5
20B3E
102
{ACAD_REACTORS
330
C
102
}
330
C
100
AcDbDictionary
281
     1
  3
2dWireframe
350
20B44
  3
3D Hidden
350
20B46
  3
3dWireframe
350
20B45
  3
Basic
350
20B43
  3
Brighten
350
20B4A
  3
ColorChange
350
20B4E
  3
Conceptual
350
20B47
  3
Dim
350
20B49
  3
EdgeColorOff
350
20C2E
  3
Facepattern
350
20B4D
  3
Flat
350
20B3F
  3
FlatWithEdges
350
20B40
  3
Gouraud
350
20B41
  3
GouraudWithEdges
350
20B42
  3
Hidden
350
20C26
  3
JitterOff
350
20C2C
  3
Linepattern
350
20B4C
  3
OverhangOff
350
20C2D
  3
Realistic
350
20B48
  3
Shaded
350
20C2B
  3
Shaded with edges
350
20C2A
  3
Shades of Gray
350
20C27
  3
Sketchy
350
20C28
  3
Thicken
350
20B4B
  3
Wireframe
350
20C25
  3
X-Ray
350
20C29
  0
XRECORD
  5
1A5DE
102
{ACAD_REACTORS
330
C
102
}
330
C
100
AcDbXrecord
280
     1
 90
   990106
  3

 60
     0
 61
     0
 62
     1
 63
     3
 64
     0
 65
     0
 66
     0
 67
     3
 68
     1
 69
     0
 70
     0
 71
     0
 72
     0
 40
0.0
170
     0
340
0
  0
XRECORD
  5
20E68
102
{ACAD_REACTORS
330
C
102
}
330
C
100
AcDbXrecord
280
     1
 90
        1
330
1C655
330
20B50
  0
DICTIONARY
  5
5E
102
{ACAD_REACTORS
330
C
102
}
330
C
100
AcDbDictionary
281
     1
  3
CANNOSCALE
350
20E62
  3
CMLEADERSTYLE
350
20E5E
  3
CTABLESTYLE
350
20B6C
  3
CVIEWDETAILSTYLE
350
20E5F
  3
CVIEWSECTIONSTYLE
350
20E60
  3
DIMASSOC
350
5F
  3
HIDETEXT
350
63
  3
LAYEREVAL
350
20E64
  3
LAYERNOTIFY
350
20E65
  3
LIGHTINGUNITS
350
20E63
  3
MSLTSCALE
350
20E61
  3
PROJECTNAME
350
1CF
  0
DICTIONARY
  5
1EA7E
102
{ACAD_REACTORS
330
C
102
}
330
C
100
AcDbDictionary
281
     1
  3
ASEBlockHierarchyIndexRecord
350
1EA7F
1001
DCO15
1040
1648295473.875
  0
DICTIONARY
  5
1FD25
102
{ACAD_REACTORS
330
C
102
}
330
C
100
AcDbDictionary
281
     1
  3
lxx_dimth
350
1FD26
  0
DICTIONARY
  5
1F495
102
{ACAD_REACTORS
330
1F494
102
}
330
1F494
100
AcDbDictionary
281
     1
  0
XRECORD
  5
20E39
102
{ACAD_REACTORS
330
20E38
102
}
330
20E38
100
AcDbXrecord
280
     1
290
     1
  0
XRECORD
  5
20E3B
102
{ACAD_REACTORS
330
20E3A
102
}
330
20E3A
100
AcDbXrecord
280
     1
290
     1
  0
XRECORD
  5
20E3D
102
{ACAD_REACTORS
330
20E3C
102
}
330
20E3C
100
AcDbXrecord
280
     1
290
     1
  0
XRECORD
  5
20E3F
102
{ACAD_REACTORS
330
20E3E
102
}
330
20E3E
100
AcDbXrecord
280
     1
290
     1
  0
XRECORD
  5
20E41
102
{ACAD_REACTORS
330
20E40
102
}
330
20E40
100
AcDbXrecord
280
     1
290
     1
  0
XRECORD
  5
20E43
102
{ACAD_REACTORS
330
20E42
102
}
330
20E42
100
AcDbXrecord
280
     1
290
     1
  0
DIMASSOC
  5
1C657
102
{ACAD_REACTORS
330
1C656
102
}
330
1C656
100
AcDbDimAssoc
330
1C655
 90
        3
 70
     0
 71
     0
  1
AcDbOsnapPointRef
 72
    13
331
1C62E
 73
     2
 91
        0
 40
0.0
 10
0.0
 20
0.0
 30
2.000000000000000E+50
 75
     0
  1
AcDbOsnapPointRef
 72
    13
331
1C622
 73
     2
 91
        0
 40
0.0
 10
0.0
 20
0.0
 30
2.000000000000000E+50
 75
     0
  0
DIMASSOC
  5
1C65E
102
{ACAD_REACTORS
330
1C65D
102
}
330
1C65D
100
AcDbDimAssoc
330
1C65C
 90
        3
 70
     0
 71
     0
  1
AcDbOsnapPointRef
 72
     1
331
1C66F
 73
     2
 91
        0
 40
1.0
 10
0.0
 20
0.0
 30
2.000000000000000E+50
 75
     0
  1
AcDbOsnapPointRef
 72
    13
331
1C673
 73
     2
 91
        0
 40
0.0
 10
0.0
 20
0.0
 30
2.000000000000000E+50
 75
     0
  0
DIMASSOC
  5
1C661
102
{ACAD_REACTORS
330
1C660
102
}
330
1C660
100
AcDbDimAssoc
330
1C65F
 90
        3
 70
     0
 71
     0
  1
AcDbOsnapPointRef
 72
     1
331
1C66F
 73
     2
 91
        0
 40
1.0
 10
0.0
 20
0.0
 30
2.000000000000000E+50
 75
     0
  1
AcDbOsnapPointRef
 72
     6
331
1C674
 73
     2
 91
        0
 40
1.0
 10
0.0
 20
0.0
 30
0.0
332
1C675
 74
     2
 92
        0
 75
     0
  0
DIMASSOC
  5
1C666
102
{ACAD_REACTORS
330
1C665
102
}
330
1C665
100
AcDbDimAssoc
330
1C664
 90
        3
 70
     0
 71
     0
  1
AcDbOsnapPointRef
 72
     1
331
1C66F
 73
     2
 91
        0
 40
1.0
 10
0.0
 20
0.0
 30
2.000000000000000E+50
 75
     0
  1
AcDbOsnapPointRef
 72
     1
331
1C66D
 73
     2
 91
        0
 40
1.0
 10
0.0
 20
0.0
 30
2.000000000000000E+50
 75
     0
  0
DIMASSOC
  5
1C669
102
{ACAD_REACTORS
330
1C668
102
}
330
1C668
100
AcDbDimAssoc
330
1C667
 90
        3
 70
     0
 71
     0
  1
AcDbOsnapPointRef
 72
    13
331
1C671
 73
     2
 91
        0
 40
0.0
 10
0.0
 20
0.0
 30
2.000000000000000E+50
 75
     0
  1
AcDbOsnapPointRef
 72
     6
331
1C671
 73
     2
 91
        0
 40
0.9999999999999426
 10
0.0
 20
0.0
 30
0.0
332
1C67B
 74
     2
 92
        0
 75
     0
  0
DIMASSOC
  5
1C66C
102
{ACAD_REACTORS
330
1C66B
102
}
330
1C66B
100
AcDbDimAssoc
330
1C66A
 90
        3
 70
     0
 71
     0
  1
AcDbOsnapPointRef
 72
    13
331
1C673
 73
     2
 91
        0
 40
0.0
 10
0.0
 20
0.0
 30
2.000000000000000E+50
 75
     0
  1
AcDbOsnapPointRef
 72
     1
331
1C673
 73
     2
 91
        0
 40
1.0
 10
0.0
 20
0.0
 30
2.000000000000000E+50
 75
     0
  0
DIMASSOC
  5
1C6CC
102
{ACAD_REACTORS
330
1C6CB
102
}
330
1C6CB
100
AcDbDimAssoc
330
1C6CA
 90
        3
 70
     0
 71
     0
  1
AcDbOsnapPointRef
 72
    13
331
1C5FA
 73
     2
 91
        6
 40
0.0
 10
0.0
 20
0.0
 30
2.000000000000000E+50
 75
     0
  1
AcDbOsnapPointRef
 72
     1
331
1C5FA
 73
     2
 91
        2
 40
1.0
 10
0.0
 20
0.0
 30
2.000000000000000E+50
 75
     0
  0
DIMASSOC
  5
1C6CF
102
{ACAD_REACTORS
330
1C6CE
102
}
330
1C6CE
100
AcDbDimAssoc
330
1C6CD
 90
        3
 70
     0
 71
     0
  1
AcDbOsnapPointRef
 72
     1
331
1C600
 73
     2
 91
        0
 40
6.283185307179586
 10
0.0
 20
0.0
 30
2.000000000000000E+50
 75
     0
  1
AcDbOsnapPointRef
 72
    13
331
1C605
 73
     2
 91
        0
 40
0.0
 10
0.0
 20
0.0
 30
2.000000000000000E+50
 75
     0
  0
DIMASSOC
  5
1C6D3
102
{ACAD_REACTORS
330
1C6D2
102
}
330
1C6D2
100
AcDbDimAssoc
330
1C6D1
 90
        3
 70
     0
 71
     0
  1
AcDbOsnapPointRef
 72
     1
331
1C638
 73
     2
 91
        0
 40
1.0
 10
0.0
 20
0.0
 30
2.000000000000000E+50
 75
     0
  1
AcDbOsnapPointRef
 72
     1
331
1C63D
 73
     2
 91
        0
 40
1.0
 10
0.0
 20
0.0
 30
2.000000000000000E+50
 75
     0
  0
DIMASSOC
  5
1C6DF
102
{ACAD_REACTORS
330
1C6DE
102
}
330
1C6DE
100
AcDbDimAssoc
330
1C6DD
 90
        3
 70
     0
 71
     0
  1
AcDbOsnapPointRef
 72
     1
331
1C6DC
 73
     2
 91
        0
 40
1.0
 10
0.0
 20
0.0
 30
2.000000000000000E+50
 75
     0
  1
AcDbOsnapPointRef
 72
     6
331
1C6D9
 73
     2
 91
        0
 40
0.5000000000000045
 10
0.0
 20
0.0
 30
0.0
332
1C6D7
 74
     2
 92
        0
 75
     0
  0
DIMASSOC
  5
1C6E2
102
{ACAD_REACTORS
330
1C6E1
102
}
330
1C6E1
100
AcDbDimAssoc
330
1C6E0
 90
        3
 70
     0
 71
     0
  1
AcDbOsnapPointRef
 72
     6
331
1C6DB
 73
     2
 91
        0
 40
0.975
 10
0.0
 20
0.0
 30
0.0
332
1C633
 74
     2
 92
        0
 75
     0
  1
AcDbOsnapPointRef
 72
     6
331
1C6DA
 73
     2
 91
        0
 40
0.5000000000000023
 10
0.0
 20
0.0
 30
0.0
332
1C6D7
 74
     2
 92
        0
 75
     0
  0
ACDBDETAILVIEWSTYLE
  5
20C46
102
{ACAD_REACTORS
330
20C45
102
}
330
20C45
100
AcDbModelDocViewStyle
 70
     0
  3
Metric50
290
     1
300
Metric50
 90
        0
100
AcDbDetailViewStyle
 70
     0
 71
     0
 90
        3
 71
     1
340
11
 62
   256
 40
5.0
340
0
 62
   256
 40
5.0
300

 40
0.0
280
     1
 71
     2
340
16
 90
       25
 62
   256
 71
     3
340
11
 62
   256
 40
5.0
 90
        0
 40
15.0
 90
        1
300
%<\AcVar ViewDetailId>% (%<\AcVar ViewScale \f "%sn">%)
 71
     4
340
16
 90
       25
 62
   256
340
16
 90
       25
 62
   256
280
     0
  0
LAYOUT
  5
51
102
{ACAD_REACTORS
330
1A
102
}
330
1A
100
AcDbPlotSettings
  1

  2
None
  4

  6

 40
0.0
 41
0.0
 42
0.0
 43
0.0
 44
0.0
 45
0.0
 46
0.0
 47
0.0
 48
0.0
 49
0.0
140
0.0
141
0.0
142
1.0
143
1.0
 70
   688
 72
     0
 73
     0
 74
     5
  7

 75
    16
147
1.0
 76
     0
 77
     2
 78
   300
148
0.0
149
0.0
100
AcDbLayout
  1
Layout1
 70
     1
 71
     1
 10
0.0
 20
0.0
 11
12.0
 21
9.0
 12
0.0
 22
0.0
 32
0.0
 14
0.0
 24
0.0
 34
0.0
 15
0.0
 25
0.0
 35
0.0
146
0.0
 13
0.0
 23
0.0
 33
0.0
 16
1.0
 26
0.0
 36
0.0
 17
0.0
 27
1.0
 37
0.0
 76
     0
330
50
  0
LAYOUT
  5
56
102
{ACAD_REACTORS
330
1A
102
}
330
1A
100
AcDbPlotSettings
  1

  2
None
  4

  6

 40
0.0
 41
0.0
 42
0.0
 43
0.0
 44
0.0
 45
0.0
 46
0.0
 47
0.0
 48
0.0
 49
0.0
140
0.0
141
0.0
142
1.0
143
1.0
 70
   688
 72
     0
 73
     0
 74
     5
  7

 75
    16
147
1.0
 76
     0
 77
     2
 78
   300
148
0.0
149
0.0
100
AcDbLayout
  1
Layout2
 70
     1
 71
     2
 10
0.0
 20
0.0
 11
12.0
 21
9.0
 12
0.0
 22
0.0
 32
0.0
 14
0.0
 24
0.0
 34
0.0
 15
0.0
 25
0.0
 35
0.0
146
0.0
 13
0.0
 23
0.0
 33
0.0
 16
1.0
 26
0.0
 36
0.0
 17
0.0
 27
1.0
 37
0.0
 76
     0
330
55
  0
LAYOUT
  5
22
102
{ACAD_REACTORS
330
1A
102
}
330
1A
100
AcDbPlotSettings
  1

  2
Canon iP1100 series
  4
A4
  6

 40
4.180416584014892
 41
5.789089679718017
 42
4.180404663085937
 43
3.757080078125
 44
209.9733276367187
 45
296.9259948730469
 46
8.599999999999999
 47
0.0
 48
-24303.39226526643
 49
4062.240038397398
140
-22871.38146008102
141
6293.850785564431
142
1.0
143
7.765370259629159
 70
 11956
 72
     1
 73
     0
 74
     4
  7

 75
     0
147
0.1287768601580829
 76
     0
 77
     2
 78
   300
148
24303.39226526643
149
-4062.240038397398
100
AcDbLayout
  1
Model
 70
     1
 71
     0
 10
0.0
 20
0.0
 11
12.0
 21
9.0
 12
0.0
 22
0.0
 32
0.0
 14
0.0
 24
0.0
 34
0.0
 15
0.0
 25
0.0
 35
0.0
146
0.0
 13
0.0
 23
0.0
 33
0.0
 16
1.0
 26
0.0
 36
0.0
 17
0.0
 27
1.0
 37
0.0
 76
     0
330
1F
331
20B39
  0
MATERIAL
  5
20B3C
102
{ACAD_REACTORS
330
6A
102
}
330
6A
100
AcDbMaterial
  1
ByBlock
 73
     1
 78
     1
172
     1
176
     1
270
     1
274
     1
 94
       63
  0
MATERIAL
  5
20B3B
102
{ACAD_REACTORS
330
6A
102
}
330
6A
100
AcDbMaterial
  1
ByLayer
 73
     1
 78
     1
172
     1
176
     1
270
     1
274
     1
 94
       63
  0
MATERIAL
  5
20B3D
102
{ACAD_REACTORS
330
6A
102
}
330
6A
100
AcDbMaterial
  1
Global
 73
     1
 78
     1
172
     1
176
     1
270
     1
274
     1
 94
       63
  0
MLEADERSTYLE
  5
20C42
102
{ACAD_REACTORS
330
20C41
102
}
330
20C41
100
AcDbMLeaderStyle
179
     2
170
     2
171
     1
172
     0
 90
        2
 40
0.0
 41
0.0
173
     1
 91
-1056964608
340
14
 92
       -2
290
     1
 42
2.0
291
     1
 43
0.36
  3
Standard
 44
4.0
300

342
11
174
     1
178
     6
175
     1
176
     0
 93
-1056964608
 45
4.0
292
     0
297
     0
 46
4.0
 94
-1056964608
 47
1.0
 49
1.0
140
1.0
293
     1
141
0.0
294
     1
177
     0
142
1.0
295
     1
296
     0
143
0.125
271
     0
272
     9
273
     9
298
     1
  0
MLINESTYLE
  5
18
102
{ACAD_REACTORS
330
17
102
}
330
17
100
AcDbMlineStyle
  2
STANDARD
 70
     0
  3

 62
   256
 51
90.0
 52
90.0
 71
     2
 49
0.5
 62
   256
  6
BYLAYER
 49
-0.5
 62
   256
  6
BYLAYER
  0
ACDBPLACEHOLDER
  5
F
102
{ACAD_REACTORS
330
E
102
}
330
E
  0
SCALE
  5
20C30
102
{ACAD_REACTORS
330
20C2F
102
}
330
20C2F
100
AcDbScale
 70
     0
300
1:1
140
1.0
141
1.0
290
     1
  0
SCALE
  5
20C31
102
{ACAD_REACTORS
330
20C2F
102
}
330
20C2F
100
AcDbScale
 70
     0
300
1:2
140
1.0
141
2.0
290
     0
  0
SCALE
  5
20C32
102
{ACAD_REACTORS
330
20C2F
102
}
330
20C2F
100
AcDbScale
 70
     0
300
1:4
140
1.0
141
4.0
290
     0
  0
SCALE
  5
20C33
102
{ACAD_REACTORS
330
20C2F
102
}
330
20C2F
100
AcDbScale
 70
     0
300
1:5
140
1.0
141
5.0
290
     0
  0
SCALE
  5
20C34
102
{ACAD_REACTORS
330
20C2F
102
}
330
20C2F
100
AcDbScale
 70
     0
300
1:8
140
1.0
141
8.0
290
     0
  0
SCALE
  5
20C35
102
{ACAD_REACTORS
330
20C2F
102
}
330
20C2F
100
AcDbScale
 70
     0
300
1:10
140
1.0
141
10.0
290
     0
  0
SCALE
  5
20C36
102
{ACAD_REACTORS
330
20C2F
102
}
330
20C2F
100
AcDbScale
 70
     0
300
1:16
140
1.0
141
16.0
290
     0
  0
SCALE
  5
20C37
102
{ACAD_REACTORS
330
20C2F
102
}
330
20C2F
100
AcDbScale
 70
     0
300
1:20
140
1.0
141
20.0
290
     0
  0
SCALE
  5
20C38
102
{ACAD_REACTORS
330
20C2F
102
}
330
20C2F
100
AcDbScale
 70
     0
300
1:30
140
1.0
141
30.0
290
     0
  0
SCALE
  5
20C39
102
{ACAD_REACTORS
330
20C2F
102
}
330
20C2F
100
AcDbScale
 70
     0
300
1:40
140
1.0
141
40.0
290
     0
  0
SCALE
  5
20C3A
102
{ACAD_REACTORS
330
20C2F
102
}
330
20C2F
100
AcDbScale
 70
     0
300
1:50
140
1.0
141
50.0
290
     0
  0
SCALE
  5
20C3B
102
{ACAD_REACTORS
330
20C2F
102
}
330
20C2F
100
AcDbScale
 70
     0
300
1:100
140
1.0
141
100.0
290
     0
  0
SCALE
  5
20C3C
102
{ACAD_REACTORS
330
20C2F
102
}
330
20C2F
100
AcDbScale
 70
     0
300
2:1
140
2.0
141
1.0
290
     0
  0
SCALE
  5
20C3D
102
{ACAD_REACTORS
330
20C2F
102
}
330
20C2F
100
AcDbScale
 70
     0
300
4:1
140
4.0
141
1.0
290
     0
  0
SCALE
  5
20C3E
102
{ACAD_REACTORS
330
20C2F
102
}
330
20C2F
100
AcDbScale
 70
     0
300
8:1
140
8.0
141
1.0
290
     0
  0
SCALE
  5
20C3F
102
{ACAD_REACTORS
330
20C2F
102
}
330
20C2F
100
AcDbScale
 70
     0
300
10:1
140
10.0
141
1.0
290
     0
  0
SCALE
  5
20C40
102
{ACAD_REACTORS
330
20C2F
102
}
330
20C2F
100
AcDbScale
 70
     0
300
100:1
140
100.0
141
1.0
290
     0
  0
ACDBSECTIONVIEWSTYLE
  5
20C44
102
{ACAD_REACTORS
330
20C43
102
}
330
20C43
100
AcDbModelDocViewStyle
 70
     0
  3
Metric50
290
     1
300
Metric50
 90
        0
100
AcDbSectionViewStyle
 70
     0
 71
     0
 90
      102
 71
     1
340
11
 62
   256
 40
5.0
340
0
340
0
 62
   256
 40
5.0
300
I, O, Q, S, X, Z
 40
10.0
 90
        0
 40
2.5
 90
        0
 71
     2
340
16
 90
       25
 62
   256
340
16
 90
       50
 62
   256
 40
5.0
 40
2.5
 40
5.0
 71
     3
340
11
 62
   256
 40
5.0
 90
        0
 40
15.0
 90
        1
300
%<\AcVar ViewSectionStartId>%-%<\AcVar ViewSectionEndId>% (%<\AcVar ViewScale \f "%sn">%)
 71
     4
 62
   256
 62
   257
300
ANSI31
 40
1.0
 90
        0
290
     0
290
     0
 90
        6
 40
0.0
 40
1.570796326794896
 40
0.2617993877991494
 40
1.308996938995747
 40
-0.2617993877991494
 40
1.832595714594046
  0
TABLESTYLE
  5
20B50
102
{ACAD_XDICTIONARY
360
20E66
102
}
102
{ACAD_REACTORS
330
20B4F
102
}
330
20B4F
100
AcDbTableStyle
280
     0
  3
Standard
 70
     0
 71
     0
 40
1.5
 41
1.5
280
     0
281
     0
  7
Standard
140
4.5
170
     2
 62
     0
 63
     7
283
     0
 90
      512
 91
        0
  1

274
    -2
284
     1
 64
     0
275
    -2
285
     1
 65
     0
276
    -2
286
     1
 66
     0
277
    -2
287
     1
 67
     0
278
    -2
288
     1
 68
     0
279
    -2
289
     1
 69
     0
  7
Standard
140
6.0
170
     5
 62
     0
 63
     7
283
     0
 90
      512
 91
        0
  1

274
    -2
284
     1
 64
     0
275
    -2
285
     1
 65
     0
276
    -2
286
     1
 66
     0
277
    -2
287
     1
 67
     0
278
    -2
288
     1
 68
     0
279
    -2
289
     1
 69
     0
  7
Standard
140
4.5
170
     5
 62
     0
 63
     7
283
     0
 90
      512
 91
        0
  1

274
    -2
284
     1
 64
     0
275
    -2
285
     1
 65
     0
276
    -2
286
     1
 66
     0
277
    -2
287
     1
 67
     0
278
    -2
288
     1
 68
     0
279
    -2
289
     1
 69
     0
  0
VISUALSTYLE
  5
20B44
102
{ACAD_REACTORS
330
20B3E
102
}
330
20B3E
100
AcDbVisualStyle
  2
2dWireframe
 70
     4
177
     3
291
     0
 70
    58
 90
        0
176
     1
 90
        2
176
     1
 90
        0
176
     1
 90
        0
176
     1
 40
0.6
176
     1
 40
30.0
176
     1
 62
     7
420
 16777215
176
     1
 90
        1
176
     1
 90
        4
176
     1
 62
     7
176
     1
 62
   257
176
     1
 90
        1
176
     1
 90
        1
176
     1
 40
1.0
176
     1
 90
        0
176
     1
 62
   257
176
     1
 40
1.0
176
     1
 90
        1
176
     1
 90
        6
176
     1
 90
        2
176
     1
 62
     7
176
     1
 90
        5
176
     1
 90
        0
176
     1
 90
        0
176
     1
290
     0
176
     1
 90
        1
176
     1
 40
0.0
176
     1
 90
        0
176
     1
290
     1
176
     1
290
     1
176
     1
290
     0
176
     1
290
     0
176
     1
290
     0
176
     1
290
     0
176
     1
290
     0
176
     1
290
     0
176
     1
290
     0
176
     1
 90
       50
176
     1
 40
0.0
176
     1
 40
1.0
176
     1
 90
        0
176
     1
 62
    18
420
        0
176
     1
 90
       50
176
     1
 90
        3
176
     1
 62
     5
420
      255
176
     1
290
     0
176
     1
 90
       50
176
     1
 90
       50
176
     1
 90
       50
176
     1
290
     0
176
     1
 90
       50
176
     1
 62
   256
176
     0
 40
1.0
176
     0
 90
        2
176
     1
  1
strokes_ogs.tif
176
     1
290
     0
176
     1
 40
1.0
176
     1
 40
1.0
176
     1
  0
VISUALSTYLE
  5
20B46
102
{ACAD_REACTORS
330
20B3E
102
}
330
20B3E
100
AcDbVisualStyle
  2
3D Hidden
 70
     6
177
     3
291
     0
 70
    58
 90
        1
176
     1
 90
        2
176
     1
 90
        2
176
     1
 90
        0
176
     1
 40
0.6
176
     1
 40
30.0
176
     1
 62
     7
420
 16777215
176
     1
 90
        2
176
     1
 90
        2
176
     1
 62
     7
176
     1
 62
   257
176
     1
 90
        2
176
     1
 90
        1
176
     1
 40
40.0
176
     1
 90
        0
176
     1
 62
   257
176
     1
 40
1.0
176
     1
 90
        1
176
     1
 90
        6
176
     1
 90
        2
176
     1
 62
     7
176
     1
 90
        3
176
     1
 90
        0
176
     1
 90
        0
176
     1
290
     0
176
     1
 90
        1
176
     1
 40
0.0
176
     1
 90
        0
176
     1
290
     0
176
     1
290
     1
176
     1
290
     1
176
     1
290
     0
176
     1
290
     0
176
     1
290
     0
176
     1
290
     0
176
     1
290
     0
176
     1
290
     0
176
     1
 90
       50
176
     1
 40
0.0
176
     1
 40
1.0
176
     1
 90
        0
176
     1
 62
    18
420
        0
176
     1
 90
       50
176
     1
 90
        3
176
     1
 62
     5
420
      255
176
     1
290
     0
176
     1
 90
       50
176
     1
 90
       50
176
     1
 90
       50
176
     1
290
     0
176
     1
 90
       50
176
     1
 62
   256
176
     0
 40
1.0
176
     0
 90
        2
176
     1
  1
strokes_ogs.tif
176
     1
290
     0
176
     1
 40
1.0
176
     1
 40
1.0
176
     1
  0
VISUALSTYLE
  5
20B45
102
{ACAD_REACTORS
330
20B3E
102
}
330
20B3E
100
AcDbVisualStyle
  2
3dWireframe
 70
     5
177
     3
291
     0
 70
    58
 90
        0
176
     1
 90
        2
176
     1
 90
        0
176
     1
 90
        0
176
     1
 40
0.6
176
     1
 40
30.0
176
     1
 62
     7
420
 16777215
176
     1
 90
        1
176
     1
 90
        4
176
     1
 62
     7
176
     1
 62
   257
176
     1
 90
        1
176
     1
 90
        1
176
     1
 40
1.0
176
     1
 90
        0
176
     1
 62
   257
176
     1
 40
1.0
176
     1
 90
        1
176
     1
 90
        6
176
     1
 90
        2
176
     1
 62
     7
176
     1
 90
        5
176
     1
 90
        0
176
     1
 90
        0
176
     1
290
     0
176
     1
 90
        1
176
     1
 40
0.0
176
     1
 90
        0
176
     1
290
     0
176
     1
290
     1
176
     1
290
     1
176
     1
290
     0
176
     1
290
     0
176
     1
290
     0
176
     1
290
     0
176
     1
290
     0
176
     1
290
     0
176
     1
 90
       50
176
     1
 40
0.0
176
     1
 40
1.0
176
     1
 90
        0
176
     1
 62
    18
420
        0
176
     1
 90
       50
176
     1
 90
        3
176
     1
 62
     5
420
      255
176
     1
290
     0
176
     1
 90
       50
176
     1
 90
       50
176
     1
 90
       50
176
     1
290
     0
176
     1
 90
       50
176
     1
 62
   256
176
     0
 40
1.0
176
     0
 90
        2
176
     1
  1
strokes_ogs.tif
176
     1
290
     0
176
     1
 40
1.0
176
     1
 40
1.0
176
     1
  0
VISUALSTYLE
  5
20B43
102
{ACAD_REACTORS
330
20B3E
102
}
330
20B3E
100
AcDbVisualStyle
  2
Basic
 70
     7
177
     3
291
     1
 70
    58
 90
        1
176
     1
 90
        0
176
     1
 90
        1
176
     1
 90
        0
176
     1
 40
0.6
176
     1
 40
30.0
176
     1
 62
     7
420
 16777215
176
     1
 90
        0
176
     1
 90
        4
176
     1
 62
     7
176
     1
 62
   257
176
     1
 90
        1
176
     1
 90
        1
176
     1
 40
1.0
176
     1
 90
        8
176
     1
 62
     7
176
     1
 40
1.0
176
     1
 90
        1
176
     1
 90
        6
176
     1
 90
        2
176
     1
 62
     7
176
     1
 90
        5
176
     1
 90
        0
176
     1
 90
        0
176
     1
290
     0
176
     1
 90
        1
176
     1
 40
0.0
176
     1
 90
        0
176
     1
290
     0
176
     1
290
     1
176
     1
290
     1
176
     1
290
     0
176
     1
290
     0
176
     1
290
     0
176
     1
290
     0
176
     1
290
     0
176
     1
290
     0
176
     1
 90
       50
176
     1
 40
0.0
176
     1
 40
1.0
176
     1
 90
        0
176
     1
 62
    18
420
        0
176
     1
 90
       50
176
     1
 90
        3
176
     1
 62
     5
420
      255
176
     1
290
     0
176
     1
 90
       50
176
     1
 90
       50
176
     1
 90
       50
176
     1
290
     0
176
     1
 90
       50
176
     1
 62
   256
176
     0
 40
1.0
176
     0
 90
        2
176
     1
  1
strokes_ogs.tif
176
     1
290
     0
176
     1
 40
1.0
176
     1
 40
1.0
176
     1
  0
VISUALSTYLE
  5
20B4A
102
{ACAD_REACTORS
330
20B3E
102
}
330
20B3E
100
AcDbVisualStyle
  2
Brighten
 70
    12
177
     3
291
     1
 70
    58
 90
        2
176
     1
 90
        2
176
     1
 90
        0
176
     1
 90
        0
176
     1
 40
0.6
176
     1
 40
30.0
176
     1
 62
     7
420
 16777215
176
     1
 90
        1
176
     1
 90
        4
176
     1
 62
     7
176
     1
 62
   257
176
     1
 90
        1
176
     1
 90
        1
176
     1
 40
1.0
176
     1
 90
        8
176
     1
 62
     7
176
     1
 40
1.0
176
     1
 90
        1
176
     1
 90
        6
176
     1
 90
        2
176
     1
 62
     7
176
     1
 90
        5
176
     1
 90
        0
176
     1
 90
        0
176
     1
290
     0
176
     1
 90
        1
176
     1
 40
50.0
176
     1
 90
        0
176
     1
290
     0
176
     1
290
     1
176
     1
290
     1
176
     1
290
     0
176
     1
290
     0
176
     1
290
     0
176
     1
290
     0
176
     1
290
     0
176
     1
290
     0
176
     1
 90
       50
176
     1
 40
0.0
176
     1
 40
1.0
176
     1
 90
        0
176
     1
 62
    18
420
        0
176
     1
 90
       50
176
     1
 90
        3
176
     1
 62
     5
420
      255
176
     1
290
     0
176
     1
 90
       50
176
     1
 90
       50
176
     1
 90
       50
176
     1
290
     0
176
     1
 90
       50
176
     1
 62
   256
176
     0
 40
1.0
176
     0
 90
        2
176
     1
  1
strokes_ogs.tif
176
     1
290
     0
176
     1
 40
1.0
176
     1
 40
1.0
176
     1
  0
VISUALSTYLE
  5
20B4E
102
{ACAD_REACTORS
330
20B3E
102
}
330
20B3E
100
AcDbVisualStyle
  2
ColorChange
 70
    16
177
     3
291
     1
 70
    58
 90
        2
176
     1
 90
        2
176
     1
 90
        3
176
     1
 90
        0
176
     1
 40
0.6
176
     1
 40
30.0
176
     1
 62
     8
420
  8421504
176
     1
 90
        1
176
     1
 90
        4
176
     1
 62
     7
176
     1
 62
   257
176
     1
 90
        1
176
     1
 90
        1
176
     1
 40
1.0
176
     1
 90
        8
176
     1
 62
     8
420
  8421504
176
     1
 40
1.0
176
     1
 90
        1
176
     1
 90
        6
176
     1
 90
        2
176
     1
 62
     7
176
     1
 90
        5
176
     1
 90
        0
176
     1
 90
        0
176
     1
290
     0
176
     1
 90
        1
176
     1
 40
0.0
176
     1
 90
        0
176
     1
290
     0
176
     1
290
     1
176
     1
290
     1
176
     1
290
     0
176
     1
290
     0
176
     1
290
     0
176
     1
290
     0
176
     1
290
     0
176
     1
290
     0
176
     1
 90
       50
176
     1
 40
0.0
176
     1
 40
1.0
176
     1
 90
        0
176
     1
 62
    18
420
        0
176
     1
 90
       50
176
     1
 90
        3
176
     1
 62
     5
420
      255
176
     1
290
     0
176
     1
 90
       50
176
     1
 90
       50
176
     1
 90
       50
176
     1
290
     0
176
     1
 90
       50
176
     1
 62
   256
176
     0
 40
1.0
176
     0
 90
        2
176
     1
  1
strokes_ogs.tif
176
     1
290
     0
176
     1
 40
1.0
176
     1
 40
1.0
176
     1
  0
VISUALSTYLE
  5
20B47
102
{ACAD_REACTORS
330
20B3E
102
}
330
20B3E
100
AcDbVisualStyle
  2
Conceptual
 70
     9
177
     3
291
     0
 70
    58
 90
        3
176
     1
 90
        2
176
     1
 90
        0
176
     1
 90
        0
176
     1
 40
0.6
176
     1
 40
30.0
176
     1
 62
     7
420
 16777215
176
     1
 90
        2
176
     1
 90
        2
176
     1
 62
     7
176
     1
 62
   257
176
     1
 90
        1
176
     1
 90
        1
176
     1
 40
40.0
176
     1
 90
        8
176
     1
 62
     7
176
     1
 40
1.0
176
     1
 90
        1
176
     1
 90
        6
176
     1
 90
        2
176
     1
 62
     7
176
     1
 90
        3
176
     1
 90
        0
176
     1
 90
        0
176
     1
290
     0
176
     1
 90
        1
176
     1
 40
0.0
176
     1
 90
        0
176
     1
290
     0
176
     1
290
     1
176
     1
290
     1
176
     1
290
     0
176
     1
290
     0
176
     1
290
     0
176
     1
290
     0
176
     1
290
     0
176
     1
290
     0
176
     1
 90
       50
176
     1
 40
0.0
176
     1
 40
1.0
176
     1
 90
        0
176
     1
 62
    18
420
        0
176
     1
 90
       50
176
     1
 90
        3
176
     1
 62
     5
420
      255
176
     1
290
     0
176
     1
 90
       50
176
     1
 90
       50
176
     1
 90
       50
176
     1
290
     0
176
     1
 90
       50
176
     1
 62
   256
176
     0
 40
1.0
176
     0
 90
        2
176
     1
  1
strokes_ogs.tif
176
     1
290
     0
176
     1
 40
1.0
176
     1
 40
1.0
176
     1
  0
VISUALSTYLE
  5
20B49
102
{ACAD_REACTORS
330
20B3E
102
}
330
20B3E
100
AcDbVisualStyle
  2
Dim
 70
    11
177
     3
291
     1
 70
    58
 90
        2
176
     1
 90
        2
176
     1
 90
        0
176
     1
 90
        0
176
     1
 40
0.6
176
     1
 40
30.0
176
     1
 62
     7
420
 16777215
176
     1
 90
        1
176
     1
 90
        4
176
     1
 62
     7
176
     1
 62
   257
176
     1
 90
        1
176
     1
 90
        1
176
     1
 40
1.0
176
     1
 90
        8
176
     1
 62
     7
176
     1
 40
1.0
176
     1
 90
        1
176
     1
 90
        6
176
     1
 90
        2
176
     1
 62
     7
176
     1
 90
        5
176
     1
 90
        0
176
     1
 90
        0
176
     1
290
     0
176
     1
 90
        1
176
     1
 40
-50.0
176
     1
 90
        0
176
     1
290
     0
176
     1
290
     1
176
     1
290
     1
176
     1
290
     0
176
     1
290
     0
176
     1
290
     0
176
     1
290
     0
176
     1
290
     0
176
     1
290
     0
176
     1
 90
       50
176
     1
 40
0.0
176
     1
 40
1.0
176
     1
 90
        0
176
     1
 62
    18
420
        0
176
     1
 90
       50
176
     1
 90
        3
176
     1
 62
     5
420
      255
176
     1
290
     0
176
     1
 90
       50
176
     1
 90
       50
176
     1
 90
       50
176
     1
290
     0
176
     1
 90
       50
176
     1
 62
   256
176
     0
 40
1.0
176
     0
 90
        2
176
     1
  1
strokes_ogs.tif
176
     1
290
     0
176
     1
 40
1.0
176
     1
 40
1.0
176
     1
  0
VISUALSTYLE
  5
20C2E
102
{ACAD_REACTORS
330
20B3E
102
}
330
20B3E
100
AcDbVisualStyle
  2
EdgeColorOff
 70
    22
177
     3
291
     1
 70
    58
 90
        2
176
     0
 90
        2
176
     0
 90
        0
176
     0
 90
        0
176
     0
 40
0.6
176
     0
 40
30.0
176
     0
 62
     7
420
 16777215
176
     0
 90
        1
176
     0
 90
        4
176
     0
 62
     7
176
     0
 62
   257
176
     0
 90
        1
176
     0
 90
        1
176
     0
 40
1.0
176
     0
 90
        8
176
     2
 62
     7
176
     0
 40
1.0
176
     0
 90
        1
176
     0
 90
        6
176
     0
 90
        2
176
     0
 62
     7
176
     0
 90
        5
176
     0
 90
        0
176
     0
 90
        0
176
     0
290
     0
176
     0
 90
        1
176
     0
 40
0.0
176
     0
 90
        0
176
     0
290
     0
176
     0
290
     1
176
     0
290
     1
176
     0
290
     0
176
     0
290
     0
176
     0
290
     0
176
     0
290
     0
176
     0
290
     0
176
     0
290
     0
176
     0
 90
       50
176
     0
 40
0.0
176
     0
 40
1.0
176
     0
 90
        0
176
     0
 62
    18
420
        0
176
     0
 90
       50
176
     0
 90
        3
176
     0
 62
     5
420
      255
176
     0
290
     0
176
     0
 90
       50
176
     0
 90
       50
176
     0
 90
       50
176
     0
290
     0
176
     0
 90
       50
176
     0
 62
   256
176
     0
 40
1.0
176
     0
 90
        2
176
     0
  1
strokes_ogs.tif
176
     0
290
     0
176
     0
 40
1.0
176
     0
 40
1.0
176
     0
  0
VISUALSTYLE
  5
20B4D
102
{ACAD_REACTORS
330
20B3E
102
}
330
20B3E
100
AcDbVisualStyle
  2
Facepattern
 70
    15
177
     3
291
     1
 70
    58
 90
        2
176
     1
 90
        2
176
     1
 90
        0
176
     1
 90
        0
176
     1
 40
0.6
176
     1
 40
30.0
176
     1
 62
     7
420
 16777215
176
     1
 90
        1
176
     1
 90
        4
176
     1
 62
     7
176
     1
 62
   257
176
     1
 90
        1
176
     1
 90
        1
176
     1
 40
1.0
176
     1
 90
        8
176
     1
 62
     7
176
     1
 40
1.0
176
     1
 90
        1
176
     1
 90
        6
176
     1
 90
        2
176
     1
 62
     7
176
     1
 90
        5
176
     1
 90
        0
176
     1
 90
        0
176
     1
290
     0
176
     1
 90
        1
176
     1
 40
0.0
176
     1
 90
        0
176
     1
290
     0
176
     1
290
     1
176
     1
290
     1
176
     1
290
     0
176
     1
290
     0
176
     1
290
     0
176
     1
290
     0
176
     1
290
     0
176
     1
290
     0
176
     1
 90
       50
176
     1
 40
0.0
176
     1
 40
1.0
176
     1
 90
        0
176
     1
 62
    18
420
        0
176
     1
 90
       50
176
     1
 90
        3
176
     1
 62
     5
420
      255
176
     1
290
     0
176
     1
 90
       50
176
     1
 90
       50
176
     1
 90
       50
176
     1
290
     0
176
     1
 90
       50
176
     1
 62
   256
176
     0
 40
1.0
176
     0
 90
        2
176
     1
  1
strokes_ogs.tif
176
     1
290
     0
176
     1
 40
1.0
176
     1
 40
1.0
176
     1
  0
VISUALSTYLE
  5
20B3F
102
{ACAD_REACTORS
330
20B3E
102
}
330
20B3E
100
AcDbVisualStyle
  2
Flat
 70
     0
177
     3
291
     1
 70
    58
 90
        2
176
     1
 90
        1
176
     1
 90
        1
176
     1
 90
        2
176
     1
 40
0.6
176
     1
 40
30.0
176
     1
 62
     7
420
 16777215
176
     1
 90
        0
176
     1
 90
        4
176
     1
 62
     7
176
     1
 62
   257
176
     1
 90
        1
176
     1
 90
        1
176
     1
 40
1.0
176
     1
 90
        8
176
     1
 62
     7
176
     1
 40
1.0
176
     1
 90
        1
176
     1
 90
        6
176
     1
 90
        2
176
     1
 62
     7
176
     1
 90
        5
176
     1
 90
        0
176
     1
 90
        0
176
     1
290
     0
176
     1
 90
       13
176
     1
 40
0.0
176
     1
 90
        0
176
     1
290
     0
176
     1
290
     1
176
     1
290
     1
176
     1
290
     0
176
     1
290
     0
176
     1
290
     0
176
     1
290
     0
176
     1
290
     0
176
     1
290
     0
176
     1
 90
       50
176
     1
 40
0.0
176
     1
 40
1.0
176
     1
 90
        0
176
     1
 62
    18
420
        0
176
     1
 90
       50
176
     1
 90
        3
176
     1
 62
     5
420
      255
176
     1
290
     0
176
     1
 90
       50
176
     1
 90
       50
176
     1
 90
       50
176
     1
290
     0
176
     1
 90
       50
176
     1
 62
   256
176
     0
 40
1.0
176
     0
 90
        2
176
     1
  1
strokes_ogs.tif
176
     1
290
     0
176
     1
 40
1.0
176
     1
 40
1.0
176
     1
  0
VISUALSTYLE
  5
20B40
102
{ACAD_REACTORS
330
20B3E
102
}
330
20B3E
100
AcDbVisualStyle
  2
FlatWithEdges
 70
     1
177
     3
291
     1
 70
    58
 90
        2
176
     1
 90
        1
176
     1
 90
        1
176
     1
 90
        2
176
     1
 40
0.6
176
     1
 40
30.0
176
     1
 62
     7
420
 16777215
176
     1
 90
        1
176
     1
 90
        4
176
     1
 62
     7
176
     1
 62
   257
176
     1
 90
        1
176
     1
 90
        1
176
     1
 40
1.0
176
     1
 90
        0
176
     1
 62
   257
176
     1
 40
1.0
176
     1
 90
        1
176
     1
 90
        6
176
     1
 90
        2
176
     1
 62
     7
176
     1
 90
        5
176
     1
 90
        0
176
     1
 90
        0
176
     1
290
     0
176
     1
 90
       13
176
     1
 40
0.0
176
     1
 90
        0
176
     1
290
     0
176
     1
290
     1
176
     1
290
     1
176
     1
290
     0
176
     1
290
     0
176
     1
290
     0
176
     1
290
     0
176
     1
290
     0
176
     1
290
     0
176
     1
 90
       50
176
     1
 40
0.0
176
     1
 40
1.0
176
     1
 90
        0
176
     1
 62
    18
420
        0
176
     1
 90
       50
176
     1
 90
        3
176
     1
 62
     5
420
      255
176
     1
290
     0
176
     1
 90
       50
176
     1
 90
       50
176
     1
 90
       50
176
     1
290
     0
176
     1
 90
       50
176
     1
 62
   256
176
     0
 40
1.0
176
     0
 90
        2
176
     1
  1
strokes_ogs.tif
176
     1
290
     0
176
     1
 40
1.0
176
     1
 40
1.0
176
     1
  0
VISUALSTYLE
  5
20B41
102
{ACAD_REACTORS
330
20B3E
102
}
330
20B3E
100
AcDbVisualStyle
  2
Gouraud
 70
     2
177
     3
291
     1
 70
    58
 90
        2
176
     1
 90
        2
176
     1
 90
        1
176
     1
 90
        2
176
     1
 40
0.6
176
     1
 40
30.0
176
     1
 62
     7
420
 16777215
176
     1
 90
        0
176
     1
 90
        4
176
     1
 62
     7
176
     1
 62
   257
176
     1
 90
        1
176
     1
 90
        1
176
     1
 40
1.0
176
     1
 90
        0
176
     1
 62
     7
176
     1
 40
1.0
176
     1
 90
        1
176
     1
 90
        6
176
     1
 90
        2
176
     1
 62
     7
176
     1
 90
        5
176
     1
 90
        0
176
     1
 90
        0
176
     1
290
     0
176
     1
 90
       13
176
     1
 40
0.0
176
     1
 90
        0
176
     1
290
     0
176
     1
290
     1
176
     1
290
     1
176
     1
290
     0
176
     1
290
     0
176
     1
290
     0
176
     1
290
     0
176
     1
290
     0
176
     1
290
     0
176
     1
 90
       50
176
     1
 40
0.0
176
     1
 40
1.0
176
     1
 90
        0
176
     1
 62
    18
420
        0
176
     1
 90
       50
176
     1
 90
        3
176
     1
 62
     5
420
      255
176
     1
290
     0
176
     1
 90
       50
176
     1
 90
       50
176
     1
 90
       50
176
     1
290
     0
176
     1
 90
       50
176
     1
 62
   256
176
     0
 40
1.0
176
     0
 90
        2
176
     1
  1
strokes_ogs.tif
176
     1
290
     0
176
     1
 40
1.0
176
     1
 40
1.0
176
     1
  0
VISUALSTYLE
  5
20B42
102
{ACAD_REACTORS
330
20B3E
102
}
330
20B3E
100
AcDbVisualStyle
  2
GouraudWithEdges
 70
     3
177
     3
291
     1
 70
    58
 90
        2
176
     1
 90
        2
176
     1
 90
        1
176
     1
 90
        2
176
     1
 40
0.6
176
     1
 40
30.0
176
     1
 62
     7
420
 16777215
176
     1
 90
        1
176
     1
 90
        4
176
     1
 62
     7
176
     1
 62
   257
176
     1
 90
        1
176
     1
 90
        1
176
     1
 40
1.0
176
     1
 90
        0
176
     1
 62
   257
176
     1
 40
1.0
176
     1
 90
        1
176
     1
 90
        6
176
     1
 90
        2
176
     1
 62
     7
176
     1
 90
        5
176
     1
 90
        0
176
     1
 90
        0
176
     1
290
     0
176
     1
 90
       13
176
     1
 40
0.0
176
     1
 90
        0
176
     1
290
     0
176
     1
290
     1
176
     1
290
     1
176
     1
290
     0
176
     1
290
     0
176
     1
290
     0
176
     1
290
     0
176
     1
290
     0
176
     1
290
     0
176
     1
 90
       50
176
     1
 40
0.0
176
     1
 40
1.0
176
     1
 90
        0
176
     1
 62
    18
420
        0
176
     1
 90
       50
176
     1
 90
        3
176
     1
 62
     5
420
      255
176
     1
290
     0
176
     1
 90
       50
176
     1
 90
       50
176
     1
 90
       50
176
     1
290
     0
176
     1
 90
       50
176
     1
 62
   256
176
     0
 40
1.0
176
     0
 90
        2
176
     1
  1
strokes_ogs.tif
176
     1
290
     0
176
     1
 40
1.0
176
     1
 40
1.0
176
     1
  0
VISUALSTYLE
  5
20C26
102
{ACAD_REACTORS
330
20B3E
102
}
330
20B3E
100
AcDbVisualStyle
  2
Hidden
 70
     6
177
     3
291
     0
 70
    58
 90
        1
176
     1
 90
        2
176
     1
 90
        2
176
     1
 90
        0
176
     1
 40
0.6
176
     1
 40
30.0
176
     1
 62
     7
420
 16777215
176
     1
 90
        2
176
     1
 90
        2
176
     1
 62
     7
176
     1
 62
   257
176
     1
 90
        2
176
     1
 90
        1
176
     1
 40
40.0
176
     1
 90
        0
176
     1
 62
   257
176
     1
 40
1.0
176
     1
 90
        1
176
     1
 90
        6
176
     1
 90
        2
176
     1
 62
     7
176
     1
 90
        3
176
     1
 90
        0
176
     1
 90
        0
176
     1
290
     0
176
     1
 90
        1
176
     1
 40
0.0
176
     1
 90
        0
176
     1
290
     0
176
     1
290
     1
176
     1
290
     1
176
     1
290
     0
176
     1
290
     0
176
     1
290
     0
176
     1
290
     0
176
     1
290
     0
176
     1
290
     0
176
     1
 90
       50
176
     1
 40
0.0
176
     1
 40
1.0
176
     1
 90
        0
176
     1
 62
    18
420
        0
176
     1
 90
       50
176
     1
 90
        3
176
     1
 62
     5
420
      255
176
     1
290
     0
176
     1
 90
       50
176
     1
 90
       50
176
     1
 90
       50
176
     1
290
     0
176
     1
 90
       50
176
     1
 62
   256
176
     0
 40
1.0
176
     0
 90
        2
176
     1
  1
strokes_ogs.tif
176
     1
290
     0
176
     1
 40
1.0
176
     1
 40
1.0
176
     1
  0
VISUALSTYLE
  5
20C2C
102
{ACAD_REACTORS
330
20B3E
102
}
330
20B3E
100
AcDbVisualStyle
  2
JitterOff
 70
    20
177
     3
291
     1
 70
    58
 90
        2
176
     0
 90
        2
176
     0
 90
        0
176
     0
 90
        0
176
     0
 40
0.6
176
     0
 40
30.0
176
     0
 62
     7
420
 16777215
176
     0
 90
        1
176
     0
 90
        4
176
     0
 62
     7
176
     0
 62
   257
176
     0
 90
        1
176
     0
 90
        1
176
     0
 40
1.0
176
     0
 90
       10
176
     2
 62
     7
176
     0
 40
1.0
176
     0
 90
        1
176
     0
 90
        6
176
     0
 90
        2
176
     0
 62
     7
176
     0
 90
        5
176
     0
 90
        0
176
     0
 90
        0
176
     0
290
     0
176
     0
 90
        1
176
     0
 40
0.0
176
     0
 90
        0
176
     0
290
     0
176
     0
290
     1
176
     0
290
     1
176
     0
290
     0
176
     0
290
     0
176
     0
290
     0
176
     0
290
     0
176
     0
290
     0
176
     0
290
     0
176
     0
 90
       50
176
     0
 40
0.0
176
     0
 40
1.0
176
     0
 90
        0
176
     0
 62
    18
420
        0
176
     0
 90
       50
176
     0
 90
        3
176
     0
 62
     5
420
      255
176
     0
290
     0
176
     0
 90
       50
176
     0
 90
       50
176
     0
 90
       50
176
     0
290
     0
176
     0
 90
       50
176
     0
 62
   256
176
     0
 40
1.0
176
     0
 90
        2
176
     0
  1
strokes_ogs.tif
176
     0
290
     0
176
     0
 40
1.0
176
     0
 40
1.0
176
     0
  0
VISUALSTYLE
  5
20B4C
102
{ACAD_REACTORS
330
20B3E
102
}
330
20B3E
100
AcDbVisualStyle
  2
Linepattern
 70
    14
177
     3
291
     1
 70
    58
 90
        2
176
     1
 90
        2
176
     1
 90
        0
176
     1
 90
        0
176
     1
 40
0.6
176
     1
 40
30.0
176
     1
 62
     7
420
 16777215
176
     1
 90
        1
176
     1
 90
        4
176
     1
 62
     7
176
     1
 62
   257
176
     1
 90
        7
176
     1
 90
        7
176
     1
 40
1.0
176
     1
 90
        8
176
     1
 62
     7
176
     1
 40
1.0
176
     1
 90
        1
176
     1
 90
        6
176
     1
 90
        2
176
     1
 62
     7
176
     1
 90
        5
176
     1
 90
        0
176
     1
 90
        0
176
     1
290
     0
176
     1
 90
        1
176
     1
 40
0.0
176
     1
 90
        0
176
     1
290
     0
176
     1
290
     1
176
     1
290
     1
176
     1
290
     0
176
     1
290
     0
176
     1
290
     0
176
     1
290
     0
176
     1
290
     0
176
     1
290
     0
176
     1
 90
       50
176
     1
 40
0.0
176
     1
 40
1.0
176
     1
 90
        0
176
     1
 62
    18
420
        0
176
     1
 90
       50
176
     1
 90
        3
176
     1
 62
     5
420
      255
176
     1
290
     0
176
     1
 90
       50
176
     1
 90
       50
176
     1
 90
       50
176
     1
290
     0
176
     1
 90
       50
176
     1
 62
   256
176
     0
 40
1.0
176
     0
 90
        2
176
     1
  1
strokes_ogs.tif
176
     1
290
     0
176
     1
 40
1.0
176
     1
 40
1.0
176
     1
  0
VISUALSTYLE
  5
20C2D
102
{ACAD_REACTORS
330
20B3E
102
}
330
20B3E
100
AcDbVisualStyle
  2
OverhangOff
 70
    21
177
     3
291
     1
 70
    58
 90
        2
176
     0
 90
        2
176
     0
 90
        0
176
     0
 90
        0
176
     0
 40
0.6
176
     0
 40
30.0
176
     0
 62
     7
420
 16777215
176
     0
 90
        1
176
     0
 90
        4
176
     0
 62
     7
176
     0
 62
   257
176
     0
 90
        1
176
     0
 90
        1
176
     0
 40
1.0
176
     0
 90
        9
176
     2
 62
     7
176
     0
 40
1.0
176
     0
 90
        1
176
     0
 90
        6
176
     0
 90
        2
176
     0
 62
     7
176
     0
 90
        5
176
     0
 90
        0
176
     0
 90
        0
176
     0
290
     0
176
     0
 90
        1
176
     0
 40
0.0
176
     0
 90
        0
176
     0
290
     0
176
     0
290
     1
176
     0
290
     1
176
     0
290
     0
176
     0
290
     0
176
     0
290
     0
176
     0
290
     0
176
     0
290
     0
176
     0
290
     0
176
     0
 90
       50
176
     0
 40
0.0
176
     0
 40
1.0
176
     0
 90
        0
176
     0
 62
    18
420
        0
176
     0
 90
       50
176
     0
 90
        3
176
     0
 62
     5
420
      255
176
     0
290
     0
176
     0
 90
       50
176
     0
 90
       50
176
     0
 90
       50
176
     0
290
     0
176
     0
 90
       50
176
     0
 62
   256
176
     0
 40
1.0
176
     0
 90
        2
176
     0
  1
strokes_ogs.tif
176
     0
290
     0
176
     0
 40
1.0
176
     0
 40
1.0
176
     0
  0
VISUALSTYLE
  5
20B48
102
{ACAD_REACTORS
330
20B3E
102
}
330
20B3E
100
AcDbVisualStyle
  2
Realistic
 70
     8
177
     3
291
     0
 70
    58
 90
        2
176
     1
 90
        2
176
     1
 90
        0
176
     1
 90
        0
176
     1
 40
0.6
176
     1
 40
30.0
176
     1
 62
     7
420
 16777215
176
     1
 90
        1
176
     1
 90
        0
176
     1
 62
     7
176
     1
 62
   257
176
     1
 90
        1
176
     1
 90
        1
176
     1
 40
1.0
176
     1
 90
        8
176
     1
 62
     8
420
  7895160
176
     1
 40
1.0
176
     1
 90
        1
176
     1
 90
        6
176
     1
 90
        2
176
     1
 62
     7
176
     1
 90
        5
176
     1
 90
        0
176
     1
 90
        0
176
     1
290
     0
176
     1
 90
       13
176
     1
 40
0.0
176
     1
 90
        0
176
     1
290
     0
176
     1
290
     1
176
     1
290
     1
176
     1
290
     0
176
     1
290
     0
176
     1
290
     0
176
     1
290
     0
176
     1
290
     0
176
     1
290
     0
176
     1
 90
       50
176
     1
 40
0.0
176
     1
 40
1.0
176
     1
 90
        0
176
     1
 62
    18
420
        0
176
     1
 90
       50
176
     1
 90
        3
176
     1
 62
     5
420
      255
176
     1
290
     0
176
     1
 90
       50
176
     1
 90
       50
176
     1
 90
       50
176
     1
290
     0
176
     1
 90
       50
176
     1
 62
   256
176
     0
 40
1.0
176
     0
 90
        2
176
     1
  1
strokes_ogs.tif
176
     1
290
     0
176
     1
 40
1.0
176
     1
 40
1.0
176
     1
  0
VISUALSTYLE
  5
20C2B
102
{ACAD_REACTORS
330
20B3E
102
}
330
20B3E
100
AcDbVisualStyle
  2
Shaded
 70
    27
177
     3
291
     0
 70
    58
 90
        2
176
     1
 90
        2
176
     1
 90
        1
176
     1
 90
        2
176
     1
 40
0.6
176
     1
 40
30.0
176
     1
 62
     7
420
 16777215
176
     1
 90
        0
176
     1
 90
        4
176
     1
 62
     7
176
     1
 62
   257
176
     1
 90
        1
176
     1
 90
        1
176
     1
 40
1.0
176
     1
 90
        8
176
     1
 62
   257
176
     1
 40
1.0
176
     1
 90
        1
176
     1
 90
        6
176
     1
 90
        2
176
     1
 62
     8
420
  7895160
176
     1
 90
        3
176
     1
 90
        0
176
     1
 90
        0
176
     1
290
     0
176
     1
 90
        5
176
     1
 40
0.0
176
     1
 90
        0
176
     1
290
     0
176
     1
290
     1
176
     1
290
     1
176
     1
290
     0
176
     1
290
     0
176
     1
290
     0
176
     1
290
     0
176
     1
290
     0
176
     1
290
     0
176
     1
 90
       50
176
     1
 40
0.0
176
     1
 40
1.0
176
     1
 90
        0
176
     1
 62
    18
420
        0
176
     1
 90
       50
176
     1
 90
        3
176
     1
 62
     5
420
      255
176
     1
290
     0
176
     1
 90
       50
176
     1
 90
       50
176
     1
 90
       50
176
     1
290
     0
176
     1
 90
       50
176
     1
 62
   256
176
     0
 40
1.0
176
     0
 90
        2
176
     1
  1
strokes_ogs.tif
176
     1
290
     0
176
     1
 40
1.0
176
     1
 40
1.0
176
     1
  0
VISUALSTYLE
  5
20C2A
102
{ACAD_REACTORS
330
20B3E
102
}
330
20B3E
100
AcDbVisualStyle
  2
Shaded with edges
 70
    26
177
     3
291
     0
 70
    58
 90
        2
176
     1
 90
        2
176
     1
 90
        1
176
     1
 90
        2
176
     1
 40
0.6
176
     1
 40
30.0
176
     1
 62
     7
420
 16777215
176
     1
 90
        1
176
     1
 90
        2
176
     1
 62
     7
176
     1
 62
   257
176
     1
 90
        2
176
     1
 90
        1
176
     1
 40
1.0
176
     1
 90
        8
176
     1
 62
   257
176
     1
 40
1.0
176
     1
 90
        1
176
     1
 90
        6
176
     1
 90
        2
176
     1
 62
     7
176
     1
 90
        3
176
     1
 90
        0
176
     1
 90
        0
176
     1
290
     0
176
     1
 90
        5
176
     1
 40
0.0
176
     1
 90
        0
176
     1
290
     0
176
     1
290
     1
176
     1
290
     1
176
     1
290
     0
176
     1
290
     0
176
     1
290
     0
176
     1
290
     0
176
     1
290
     0
176
     1
290
     0
176
     1
 90
       50
176
     1
 40
0.0
176
     1
 40
1.0
176
     1
 90
        0
176
     1
 62
    18
420
        0
176
     1
 90
       50
176
     1
 90
        3
176
     1
 62
     5
420
      255
176
     1
290
     0
176
     1
 90
       50
176
     1
 90
       50
176
     1
 90
       50
176
     1
290
     0
176
     1
 90
       50
176
     1
 62
   256
176
     0
 40
1.0
176
     0
 90
        2
176
     1
  1
strokes_ogs.tif
176
     1
290
     0
176
     1
 40
1.0
176
     1
 40
1.0
176
     1
  0
VISUALSTYLE
  5
20C27
102
{ACAD_REACTORS
330
20B3E
102
}
330
20B3E
100
AcDbVisualStyle
  2
Shades of Gray
 70
    23
177
     3
291
     0
 70
    58
 90
        2
176
     1
 90
        2
176
     1
 90
        3
176
     1
 90
        0
176
     1
 40
0.6
176
     1
 40
30.0
176
     1
 62
     7
420
 16777215
176
     1
 90
        2
176
     1
 90
        2
176
     1
 62
     7
176
     1
 62
     7
176
     1
 90
        1
176
     1
 90
        1
176
     1
 40
40.0
176
     1
 90
        8
176
     1
 62
     7
176
     1
 40
1.0
176
     1
 90
        1
176
     1
 90
        6
176
     1
 90
        2
176
     1
 62
     7
176
     1
 90
        3
176
     1
 90
        0
176
     1
 90
        0
176
     1
290
     0
176
     1
 90
        1
176
     1
 40
0.0
176
     1
 90
        0
176
     1
290
     0
176
     1
290
     1
176
     1
290
     1
176
     1
290
     0
176
     1
290
     0
176
     1
290
     0
176
     1
290
     0
176
     1
290
     0
176
     1
290
     0
176
     1
 90
       50
176
     1
 40
0.0
176
     1
 40
1.0
176
     1
 90
        0
176
     1
 62
    18
420
        0
176
     1
 90
       50
176
     1
 90
        3
176
     1
 62
     5
420
      255
176
     1
290
     0
176
     1
 90
       50
176
     1
 90
       50
176
     1
 90
       50
176
     1
290
     0
176
     1
 90
       50
176
     1
 62
   256
176
     0
 40
1.0
176
     0
 90
        2
176
     1
  1
strokes_ogs.tif
176
     1
290
     0
176
     1
 40
1.0
176
     1
 40
1.0
176
     1
  0
VISUALSTYLE
  5
20C28
102
{ACAD_REACTORS
330
20B3E
102
}
330
20B3E
100
AcDbVisualStyle
  2
Sketchy
 70
    24
177
     3
291
     0
 70
    58
 90
        1
176
     1
 90
        2
176
     1
 90
        2
176
     1
 90
        0
176
     1
 40
0.6
176
     1
 40
30.0
176
     1
 62
     7
420
 16777215
176
     1
 90
        2
176
     1
 90
        2
176
     1
 62
     7
176
     1
 62
     7
176
     1
 90
        1
176
     1
 90
        1
176
     1
 40
40.0
176
     1
 90
       11
176
     1
 62
     7
176
     1
 40
1.0
176
     1
 90
        1
176
     1
 90
        6
176
     1
 90
        2
176
     1
 62
     7
176
     1
 90
        6
176
     1
 90
        0
176
     1
 90
        0
176
     1
290
     0
176
     1
 90
        1
176
     1
 40
0.0
176
     1
 90
        0
176
     1
290
     0
176
     1
290
     1
176
     1
290
     1
176
     1
290
     0
176
     1
290
     0
176
     1
290
     0
176
     1
290
     0
176
     1
290
     0
176
     1
290
     0
176
     1
 90
       50
176
     1
 40
0.0
176
     1
 40
1.0
176
     1
 90
        0
176
     1
 62
    18
420
        0
176
     1
 90
       50
176
     1
 90
        3
176
     1
 62
     5
420
      255
176
     1
290
     0
176
     1
 90
       50
176
     1
 90
       50
176
     1
 90
       50
176
     1
290
     0
176
     1
 90
       50
176
     1
 62
   256
176
     0
 40
1.0
176
     0
 90
        2
176
     1
  1
strokes_ogs.tif
176
     1
290
     0
176
     1
 40
1.0
176
     1
 40
1.0
176
     1
  0
VISUALSTYLE
  5
20B4B
102
{ACAD_REACTORS
330
20B3E
102
}
330
20B3E
100
AcDbVisualStyle
  2
Thicken
 70
    13
177
     3
291
     1
 70
    58
 90
        2
176
     1
 90
        2
176
     1
 90
        0
176
     1
 90
        0
176
     1
 40
0.6
176
     1
 40
30.0
176
     1
 62
     7
420
 16777215
176
     1
 90
        1
176
     1
 90
        4
176
     1
 62
     7
176
     1
 62
   257
176
     1
 90
        1
176
     1
 90
        1
176
     1
 40
1.0
176
     1
 90
       12
176
     1
 62
     7
176
     1
 40
1.0
176
     1
 90
        1
176
     1
 90
        6
176
     1
 90
        2
176
     1
 62
     7
176
     1
 90
        5
176
     1
 90
        0
176
     1
 90
        0
176
     1
290
     0
176
     1
 90
        1
176
     1
 40
0.0
176
     1
 90
        0
176
     1
290
     0
176
     1
290
     1
176
     1
290
     1
176
     1
290
     0
176
     1
290
     0
176
     1
290
     0
176
     1
290
     0
176
     1
290
     0
176
     1
290
     0
176
     1
 90
       50
176
     1
 40
0.0
176
     1
 40
1.0
176
     1
 90
        0
176
     1
 62
    18
420
        0
176
     1
 90
       50
176
     1
 90
        3
176
     1
 62
     5
420
      255
176
     1
290
     0
176
     1
 90
       50
176
     1
 90
       50
176
     1
 90
       50
176
     1
290
     0
176
     1
 90
       50
176
     1
 62
   256
176
     0
 40
1.0
176
     0
 90
        2
176
     1
  1
strokes_ogs.tif
176
     1
290
     0
176
     1
 40
1.0
176
     1
 40
1.0
176
     1
  0
VISUALSTYLE
  5
20C25
102
{ACAD_REACTORS
330
20B3E
102
}
330
20B3E
100
AcDbVisualStyle
  2
Wireframe
 70
     5
177
     3
291
     0
 70
    58
 90
        0
176
     1
 90
        2
176
     1
 90
        0
176
     1
 90
        0
176
     1
 40
0.6
176
     1
 40
30.0
176
     1
 62
     7
420
 16777215
176
     1
 90
        1
176
     1
 90
        4
176
     1
 62
     7
176
     1
 62
   257
176
     1
 90
        1
176
     1
 90
        1
176
     1
 40
1.0
176
     1
 90
        0
176
     1
 62
   257
176
     1
 40
1.0
176
     1
 90
        1
176
     1
 90
        6
176
     1
 90
        2
176
     1
 62
     7
176
     1
 90
        3
176
     1
 90
        0
176
     1
 90
        0
176
     1
290
     0
176
     1
 90
        1
176
     1
 40
0.0
176
     1
 90
        0
176
     1
290
     0
176
     1
290
     1
176
     1
290
     1
176
     1
290
     0
176
     1
290
     0
176
     1
290
     0
176
     1
290
     0
176
     1
290
     0
176
     1
290
     0
176
     1
 90
       50
176
     1
 40
0.0
176
     1
 40
1.0
176
     1
 90
        0
176
     1
 62
    18
420
        0
176
     1
 90
       50
176
     1
 90
        3
176
     1
 62
     5
420
      255
176
     1
290
     0
176
     1
 90
       50
176
     1
 90
       50
176
     1
 90
       50
176
     1
290
     0
176
     1
 90
       50
176
     1
 62
   256
176
     0
 40
1.0
176
     0
 90
        2
176
     1
  1
strokes_ogs.tif
176
     1
290
     0
176
     1
 40
1.0
176
     1
 40
1.0
176
     1
  0
VISUALSTYLE
  5
20C29
102
{ACAD_REACTORS
330
20B3E
102
}
330
20B3E
100
AcDbVisualStyle
  2
X-Ray
 70
    25
177
     3
291
     0
 70
    58
 90
        2
176
     1
 90
        2
176
     1
 90
        1
176
     1
 90
        1
176
     1
 40
0.5
176
     1
 40
30.0
176
     1
 62
     7
420
 16777215
176
     1
 90
        1
176
     1
 90
        0
176
     1
 62
     7
176
     1
 62
   257
176
     1
 90
        1
176
     1
 90
        1
176
     1
 40
1.0
176
     1
 90
        8
176
     1
 62
     7
176
     1
 40
1.0
176
     1
 90
        1
176
     1
 90
        6
176
     1
 90
        2
176
     1
 62
     7
176
     1
 90
        3
176
     1
 90
        0
176
     1
 90
        0
176
     1
290
     0
176
     1
 90
       13
176
     1
 40
0.0
176
     1
 90
        0
176
     1
290
     0
176
     1
290
     1
176
     1
290
     1
176
     1
290
     0
176
     1
290
     0
176
     1
290
     0
176
     1
290
     0
176
     1
290
     0
176
     1
290
     0
176
     1
 90
       50
176
     1
 40
0.0
176
     1
 40
1.0
176
     1
 90
        0
176
     1
 62
    18
420
        0
176
     1
 90
       50
176
     1
 90
        3
176
     1
 62
     5
420
      255
176
     1
290
     0
176
     1
 90
       50
176
     1
 90
       50
176
     1
 90
       50
176
     1
290
     0
176
     1
 90
       50
176
     1
 62
   256
176
     0
 40
1.0
176
     0
 90
        2
176
     1
  1
strokes_ogs.tif
176
     1
290
     0
176
     1
 40
1.0
176
     1
 40
1.0
176
     1
  0
DICTIONARYVAR
  5
20E62
102
{ACAD_REACTORS
330
5E
102
}
330
5E
100
DictionaryVariables
280
     0
  1
1:1
  0
DICTIONARYVAR
  5
20E5E
102
{ACAD_REACTORS
330
5E
102
}
330
5E
100
DictionaryVariables
280
     0
  1
STANDARD
  0
DICTIONARYVAR
  5
20B6C
102
{ACAD_REACTORS
330
5E
102
}
330
5E
100
DictionaryVariables
280
     0
  1
STANDARD
  0
DICTIONARYVAR
  5
20E5F
102
{ACAD_REACTORS
330
5E
102
}
330
5E
100
DictionaryVariables
280
     0
  1
Metric50
  0
DICTIONARYVAR
  5
20E60
102
{ACAD_REACTORS
330
5E
102
}
330
5E
100
DictionaryVariables
280
     0
  1
Metric50
  0
DICTIONARYVAR
  5
5F
102
{ACAD_REACTORS
330
5E
102
}
330
5E
100
DictionaryVariables
280
     0
  1
2
  0
DICTIONARYVAR
  5
63
102
{ACAD_REACTORS
330
5E
102
}
330
5E
100
DictionaryVariables
280
     0
  1
1
  0
DICTIONARYVAR
  5
20E64
102
{ACAD_REACTORS
330
5E
102
}
330
5E
100
DictionaryVariables
280
     0
  1
1
  0
DICTIONARYVAR
  5
20E65
102
{ACAD_REACTORS
330
5E
102
}
330
5E
100
DictionaryVariables
280
     0
  1
15
  0
DICTIONARYVAR
  5
20E63
102
{ACAD_REACTORS
330
5E
102
}
330
5E
100
DictionaryVariables
280
     0
  1
0
  0
DICTIONARYVAR
  5
20E61
102
{ACAD_REACTORS
330
5E
102
}
330
5E
100
DictionaryVariables
280
     0
  1
0
  0
DICTIONARYVAR
  5
1CF
102
{ACAD_REACTORS
330
5E
102
}
330
5E
100
DictionaryVariables
280
     0
  1

  0
XRECORD
  5
1EA7F
102
{ACAD_REACTORS
330
1EA7E
102
}
330
1EA7E
100
AcDbXrecord
280
     1
330
1E6CF
330
1E7D4
  0
ACAD_PROXY_OBJECT
  5
1FD26
102
{ACAD_REACTORS
330
1FD25
102
}
330
1FD25
100
AcDbProxyObject
 90
      499
 91
      505
 71
    27
 97
        1
 70
     0
162
                 0
161
               224
310
00013FFFD0C4040800000000000004402826564C4F2D52202E20302900
 94
        0
  0
DICTIONARY
  5
20E66
330
20B50
100
AcDbDictionary
280
     1
281
     1
  3
ACAD_ROUNDTRIP_2008_TABLESTYLE_CELLSTYLEMAP
360
20E67
  0
CELLSTYLEMAP
  5
20E67
102
{ACAD_REACTORS
330
20E66
102
}
330
20E66
100
AcDbCellStyleMap
 90
        3
300
CELLSTYLE
  1
TABLEFORMAT_BEGIN
 90
        5
170
     1
 91
        0
 92
    32768
 62
   257
 93
        1
300
CONTENTFORMAT
  1
CONTENTFORMAT_BEGIN
 90
        0
 91
        0
 92
      512
 93
        0
300

 40
0.0
140
1.0
 94
        5
 62
     0
340
11
144
6.0
309
CONTENTFORMAT_END
171
     1
301
MARGIN
  1
CELLMARGIN_BEGIN
 40
1.5
 40
1.5
 40
1.5
 40
1.5
 40
0.18
 40
0.18
309
CELLMARGIN_END
 94
        6
 95
        1
302
GRIDFORMAT
  1
GRIDFORMAT_BEGIN
 90
        0
 91
        1
 62
     0
 92
       -2
340
0
 93
        0
 40
0.045
309
GRIDFORMAT_END
 95
        2
302
GRIDFORMAT
  1
GRIDFORMAT_BEGIN
 90
        0
 91
        1
 62
     0
 92
       -2
340
0
 93
        0
 40
0.045
309
GRIDFORMAT_END
 95
        4
302
GRIDFORMAT
  1
GRIDFORMAT_BEGIN
 90
        0
 91
        1
 62
     0
 92
       -2
340
0
 93
        0
 40
0.045
309
GRIDFORMAT_END
 95
        8
302
GRIDFORMAT
  1
GRIDFORMAT_BEGIN
 90
        0
 91
        1
 62
     0
 92
       -2
340
0
 93
        0
 40
0.045
309
GRIDFORMAT_END
 95
       16
302
GRIDFORMAT
  1
GRIDFORMAT_BEGIN
 90
        0
 91
        1
 62
     0
 92
       -2
340
0
 93
        0
 40
0.045
309
GRIDFORMAT_END
 95
       32
302
GRIDFORMAT
  1
GRIDFORMAT_BEGIN
 90
        0
 91
        1
 62
     0
 92
       -2
340
0
 93
        0
 40
0.045
309
GRIDFORMAT_END
309
TABLEFORMAT_END
  1
CELLSTYLE_BEGIN
 90
        1
 91
        1
300
_TITLE
309
CELLSTYLE_END
300
CELLSTYLE
  1
TABLEFORMAT_BEGIN
 90
        5
170
     1
 91
        0
 92
        0
 62
   257
 93
        1
300
CONTENTFORMAT
  1
CONTENTFORMAT_BEGIN
 90
        0
 91
        0
 92
      512
 93
        0
300

 40
0.0
140
1.0
 94
        5
 62
     0
340
11
144
4.5
309
CONTENTFORMAT_END
171
     1
301
MARGIN
  1
CELLMARGIN_BEGIN
 40
1.5
 40
1.5
 40
1.5
 40
1.5
 40
0.18
 40
0.18
309
CELLMARGIN_END
 94
        6
 95
        1
302
GRIDFORMAT
  1
GRIDFORMAT_BEGIN
 90
        0
 91
        1
 62
     0
 92
       -2
340
0
 93
        0
 40
0.045
309
GRIDFORMAT_END
 95
        2
302
GRIDFORMAT
  1
GRIDFORMAT_BEGIN
 90
        0
 91
        1
 62
     0
 92
       -2
340
0
 93
        0
 40
0.045
309
GRIDFORMAT_END
 95
        4
302
GRIDFORMAT
  1
GRIDFORMAT_BEGIN
 90
        0
 91
        1
 62
     0
 92
       -2
340
0
 93
        0
 40
0.045
309
GRIDFORMAT_END
 95
        8
302
GRIDFORMAT
  1
GRIDFORMAT_BEGIN
 90
        0
 91
        1
 62
     0
 92
       -2
340
0
 93
        0
 40
0.045
309
GRIDFORMAT_END
 95
       16
302
GRIDFORMAT
  1
GRIDFORMAT_BEGIN
 90
        0
 91
        1
 62
     0
 92
       -2
340
0
 93
        0
 40
0.045
309
GRIDFORMAT_END
 95
       32
302
GRIDFORMAT
  1
GRIDFORMAT_BEGIN
 90
        0
 91
        1
 62
     0
 92
       -2
340
0
 93
        0
 40
0.045
309
GRIDFORMAT_END
309
TABLEFORMAT_END
  1
CELLSTYLE_BEGIN
 90
        2
 91
        1
300
_HEADER
309
CELLSTYLE_END
300
CELLSTYLE
  1
TABLEFORMAT_BEGIN
 90
        5
170
     1
 91
        0
 92
        0
 62
   257
 93
        1
300
CONTENTFORMAT
  1
CONTENTFORMAT_BEGIN
 90
        0
 91
        0
 92
      512
 93
        0
300

 40
0.0
140
1.0
 94
        2
 62
     0
340
11
144
4.5
309
CONTENTFORMAT_END
171
     1
301
MARGIN
  1
CELLMARGIN_BEGIN
 40
1.5
 40
1.5
 40
1.5
 40
1.5
 40
0.18
 40
0.18
309
CELLMARGIN_END
 94
        6
 95
        1
302
GRIDFORMAT
  1
GRIDFORMAT_BEGIN
 90
        0
 91
        1
 62
     0
 92
       -2
340
0
 93
        0
 40
0.045
309
GRIDFORMAT_END
 95
        2
302
GRIDFORMAT
  1
GRIDFORMAT_BEGIN
 90
        0
 91
        1
 62
     0
 92
       -2
340
0
 93
        0
 40
0.045
309
GRIDFORMAT_END
 95
        4
302
GRIDFORMAT
  1
GRIDFORMAT_BEGIN
 90
        0
 91
        1
 62
     0
 92
       -2
340
0
 93
        0
 40
0.045
309
GRIDFORMAT_END
 95
        8
302
GRIDFORMAT
  1
GRIDFORMAT_BEGIN
 90
        0
 91
        1
 62
     0
 92
       -2
340
0
 93
        0
 40
0.045
309
GRIDFORMAT_END
 95
       16
302
GRIDFORMAT
  1
GRIDFORMAT_BEGIN
 90
        0
 91
        1
 62
     0
 92
       -2
340
0
 93
        0
 40
0.045
309
GRIDFORMAT_END
 95
       32
302
GRIDFORMAT
  1
GRIDFORMAT_BEGIN
 90
        0
 91
        1
 62
     0
 92
       -2
340
0
 93
        0
 40
0.045
309
GRIDFORMAT_END
309
TABLEFORMAT_END
  1
CELLSTYLE_BEGIN
 90
        3
 91
        2
300
_DATA
309
CELLSTYLE_END
  0
ENDSEC
  0
SECTION
  2
ACDSDATA
 70
     2
 71
     8
  0
ACDSSCHEMA
 90
        0
  1
AcDb_Thumbnail_Schema
  2
AcDbDs::ID
280
    10
 91
        8
  2
Thumbnail_Data
280
    15
 91
        0
101
ACDSRECORD
 95
        0
 90
        1
  2
AcDbDs::TreatedAsObjectData
280
     1
291
     1
101
ACDSRECORD
 95
        0
 90
        2
  2
AcDbDs::Legacy
280
     1
291
     1
101
ACDSRECORD
  1
AcDbDs::ID
 90
        3
  2
AcDs:Indexable
280
     1
291
     1
101
ACDSRECORD
  1
AcDbDs::ID
 90
        4
  2
AcDbDs::HandleAttribute
280
     7
282
     1
  0
ACDSSCHEMA
 90
        1
  1
AcDbDs::TreatedAsObjectDataSchema
  2
AcDbDs::TreatedAsObjectData
280
     1
 91
        0
  0
ACDSSCHEMA
 90
        2
  1
AcDbDs::LegacySchema
  2
AcDbDs::Legacy
280
     1
 91
        0
  0
ACDSSCHEMA
 90
        3
  1
AcDbDs::IndexedPropertySchema
  2
AcDs:Indexable
280
     1
 91
        0
  0
ACDSSCHEMA
 90
        4
  1
AcDbDs::HandleAttributeSchema
  2
AcDbDs::HandleAttribute
280
     7
 91
        1
284
     1
  0
ACDSRECORD
 90
        0
  2
AcDbDs::ID
280
    10
320
22
  2
Thumbnail_Data
280
    15
 94
     1651
310
89504E470D0A1A0A0000000D494844520000010000000085080300000083A6D68B00000300504C5445212830FFFFFF2128300000000000000000000000000000000000000000000000000000330000660000990000CC0000FF0033000033330033660033990033CC0033FF0066000066330066660066990066CC0066FF0099
310
000099330099660099990099CC0099FF00CC0000CC3300CC6600CC9900CCCC00CCFF00FF0000FF3300FF6600FF9900FFCC00FFFF3300003300333300663300993300CC3300FF3333003333333333663333993333CC3333FF3366003366333366663366993366CC3366FF3399003399333399663399993399CC3399FF33CC00
310
33CC3333CC6633CC9933CCCC33CCFF33FF0033FF3333FF6633FF9933FFCC33FFFF6600006600336600666600996600CC6600FF6633006633336633666633996633CC6633FF6666006666336666666666996666CC6666FF6699006699336699666699996699CC6699FF66CC0066CC3366CC6666CC9966CCCC66CCFF66FF0066
310
FF3366FF6666FF9966FFCC66FFFF9900009900339900669900999900CC9900FF9933009933339933669933999933CC9933FF9966009966339966669966999966CC9966FF9999009999339999669999999999CC9999FF99CC0099CC3399CC6699CC9999CCCC99CCFF99FF0099FF3399FF6699FF9999FFCC99FFFFCC0000CC00
310
33CC0066CC0099CC00CCCC00FFCC3300CC3333CC3366CC3399CC33CCCC33FFCC6600CC6633CC6666CC6699CC66CCCC66FFCC9900CC9933CC9966CC9999CC99CCCC99FFCCCC00CCCC33CCCC66CCCC99CCCCCCCCCCFFCCFF00CCFF33CCFF66CCFF99CCFFCCCCFFFFFF0000FF0033FF0066FF0099FF00CCFF00FFFF3300FF3333
310
FF3366FF3399FF33CCFF33FFFF6600FF6633FF6666FF6699FF66CCFF66FFFF9900FF9933FF9966FF9999FF99CCFF99FFFFCC00FFCC33FFCC66FFCC99FFCCCCFFCCFFFFFF00FFFF33FFFF66FFFF99FFFFCCFFFFFF0000000D0D0D1A1A1A2828283535354343435050505D5D5D6B6B6B787878868686939393A1A1A1AEAEAEBB
310
BBBBC9C9C9D6D6D6E4E4E4F1F1F1FFFFFF0000000000000000000000000000000000000000000000000000000000002E4550F10000032E4944415478DAED9CDB72C3200C44F5FFFFBBEF9DFA0208708C6D9C80B4DBA6E924F6C43E114212171181AC8F42687A498E4EC5F199F9DBCBFFF897FC407500F5AB7913C0FFD33800
310
966BC19701C83000B0FE007E012CBF7E2DA0FEF5FB0080DD238BB8048095003E1C6B19C0D2F7418EBB63DB00D648E46334621AC0D6F3E1EC58EB16207E01C8792C6EDD029A8EB50900D29489355E2050F044F1F66000D07C6CCB5128723B946F0F0300524FFDEE0240B071D4CEAC241A4300905E4D00D9A3728F8302E8A514
310
40FB29BFF401B8E4DDBBF40268AEC27D0540F75ADC49935A538E71004877041F01E030E1FC6951144368948AD0DB4DE057D64E0004F0C6D5049FBED553E010C0564A0DE329CE0064E98F3700377AB5C900A8201F0DA5D33217105D729D0F40A898602B9E9CA40FB1CA14C69991B8CBD9006CB70F55CC6805901C0FA966CA43
310
007821A46DC898ED0642E37D2401F4BB9A9A995FCCA727B700C4E00F49C7E80940D6295C3722FBBD405BDD741C007E3E960008800008E0E19554027EB951D19ED902B6BA5F8C849A47976D00D8673FC49955B70C691C008E06810E00F8F9548AA2288AA2288AA2288AA2288A7A57717910C2EA6489C3B132566DB0FBDD23CC
310
AD42289B27EBE94E16AA5BF8FA112CA00E207D320C402DA1D3F306AD02405C8ABC377484D744AD99DAA759C358DB9F7AA0A483EBFFE269044000230328968FA8D985A2F66B31082099668FB4D35761916D00710D510200C102E006400C0344FD2FC600A06C02B90FD0417209002600DC0A830CA4064FF68534020067004000
310
1E0080001E00989980B5F983B72CE0FE6D0FB790E4491338FC1E716C3A62C2073C37FBA95B40BA2BDF855D6961A42E90AE8E760B0059AEE70A80F4B180B983805B79AD1100C1FF3905A04A20A247C2544D14C9D8B0A5E151C4729FB208A42361480BC597B6B29CA40DA01807DFAB3D9A8A60CCED54FA84021A80641650F96B
310
AB17D000D21DB6922690198A956F7F1F0CBF9C1B9BE90244650168F71D62C706C4F29C97A65E005E574422CB06FD0280DF2600B8F601593AECF3FE7D3B41F1EE04BD03C82A42748204E0BB1DF8B500B009F8CD05920DA65C67837E1DA07B00E0EE5014455114455113E90FC060A775B69687CE0000000049454E44AE426082
  0
ENDSEC
  0
EOF
