  0
SECTION
  2
HEADER
  9
$ACADVER
  1
AC1032
  9
$ACADMAINTVER
 90
        4
  9
$DWGCODEPAGE
  3
ANSI_1252
  9
$LASTSAVEDBY
  1
Siqi
  9
$REQUIREDVERSIONS
160
                 0
  9
$INSBASE
 10
0.0
 20
0.0
 30
0.0
  9
$EXTMIN
 10
-34710.5834489056
 20
-25949.57759067372
 30
0.0
  9
$EXTMAX
 10
-33253.3401323927
 20
-23678.05620072239
 30
0.0
  9
$LIMMIN
 10
0.0
 20
0.0
  9
$LIMMAX
 10
420.0
 20
297.0
  9
$ORTHOMODE
 70
     0
  9
$REGENMODE
 70
     1
  9
$FILLMODE
 70
     1
  9
$QTEXTMODE
 70
     0
  9
$MIRRTEXT
 70
     0
  9
$LTSCALE
 40
1.0
  9
$ATTMODE
 70
     1
  9
$TEXTSIZE
 40
2.5
  9
$TRACEWID
 40
1.0
  9
$TEXTSTYLE
  7
Standard
  9
$CLAYER
  8
0
  9
$CELTYPE
  6
ByLayer
  9
$CECOLOR
 62
   256
  9
$CELTSCALE
 40
1.0
  9
$DISPSILH
 70
     0
  9
$DIMSCALE
 40
2.0
  9
$DIMASZ
 40
15.0
  9
$DIMEXO
 40
4.0
  9
$DIMDLI
 40
5.0
  9
$DIMRND
 40
0.0
  9
$DIMDLE
 40
0.0
  9
$DIMEXE
 40
1.25
  9
$DIMTP
 40
0.0
  9
$DIMTM
 40
0.0
  9
$DIMTXT
 40
15.0
  9
$DIMCEN
 40
0.0
  9
$DIMTSZ
 40
0.0
  9
$DIMTOL
 70
     0
  9
$DIMLIM
 70
     0
  9
$DIMTIH
 70
     0
  9
$DIMTOH
 70
     0
  9
$DIMSE1
 70
     0
  9
$DIMSE2
 70
     0
  9
$DIMTAD
 70
     1
  9
$DIMZIN
 70
     9
  9
$DIMBLK
  1

  9
$DIMASO
 70
     1
  9
$DIMSHO
 70
     1
  9
$DIMPOST
  1

  9
$DIMAPOST
  1

  9
$DIMALT
 70
     0
  9
$DIMALTD
 70
     2
  9
$DIMALTF
 40
25.4
  9
$DIMLFAC
 40
1.0
  9
$DIMTOFL
 70
     1
  9
$DIMTVP
 40
0.0
  9
$DIMTIX
 70
     0
  9
$DIMSOXD
 70
     0
  9
$DIMSAH
 70
     0
  9
$DIMBLK1
  1

  9
$DIMBLK2
  1

  9
$DIMSTYLE
  2
usally
  9
$DIMCLRD
 70
     0
  9
$DIMCLRE
 70
     0
  9
$DIMCLRT
 70
     0
  9
$DIMTFAC
 40
1.0
  9
$DIMGAP
 40
5.0
  9
$DIMJUST
 70
     0
  9
$DIMSD1
 70
     0
  9
$DIMSD2
 70
     0
  9
$DIMTOLJ
 70
     1
  9
$DIMTZIN
 70
     0
  9
$DIMALTZ
 70
     0
  9
$DIMALTTZ
 70
     0
  9
$DIMUPT
 70
     0
  9
$DIMDEC
 70
     2
  9
$DIMTDEC
 70
     2
  9
$DIMALTU
 70
     2
  9
$DIMALTTD
 70
     2
  9
$DIMTXSTY
  7
Standard
  9
$DIMAUNIT
 70
     0
  9
$DIMADEC
 70
     2
  9
$DIMALTRND
 40
0.0
  9
$DIMAZIN
 70
     2
  9
$DIMDSEP
 70
    46
  9
$DIMATFIT
 70
     3
  9
$DIMFRAC
 70
     0
  9
$DIMLDRBLK
  1

  9
$DIMLUNIT
 70
     2
  9
$DIMLWD
 70
    -2
  9
$DIMLWE
 70
    -2
  9
$DIMTMOVE
 70
     0
  9
$DIMFXL
 40
1.0
  9
$DIMFXLON
 70
     0
  9
$DIMJOGANG
 40
1.570796326794896
  9
$DIMTFILL
 70
     0
  9
$DIMTFILLCLR
 70
     0
  9
$DIMARCSYM
 70
     1
  9
$DIMLTYPE
  6
ByLayer
  9
$DIMLTEX1
  6
ByLayer
  9
$DIMLTEX2
  6
ByLayer
  9
$DIMTXTDIRECTION
 70
     0
  9
$LUNITS
 70
     2
  9
$LUPREC
 70
     4
  9
$SKETCHINC
 40
1.0
  9
$FILLETRAD
 40
1.199999999999999
  9
$AUNITS
 70
     0
  9
$AUPREC
 70
     0
  9
$MENU
  1
.
  9
$ELEVATION
 40
0.0
  9
$PELEVATION
 40
0.0
  9
$THICKNESS
 40
0.0
  9
$LIMCHECK
 70
     0
  9
$CHAMFERA
 40
0.0
  9
$CHAMFERB
 40
0.0
  9
$CHAMFERC
 40
0.0
  9
$CHAMFERD
 40
0.0
  9
$SKPOLY
 70
     0
  9
$TDCREATE
 40
2457470.941273148
  9
$TDUCREATE
 40
2457471.232940891
  9
$TDUPDATE
 40
2457977.700231481
  9
$TDUUPDATE
 40
2457977.991898149
  9
$TDINDWG
 40
8.7438093634
  9
$TDUSRTIMER
 40
8.7438090046
  9
$USRTIMER
 70
     1
  9
$ANGBASE
 50
0.0
  9
$ANGDIR
 70
     0
  9
$PDMODE
 70
     0
  9
$PDSIZE
 40
0.0
  9
$PLINEWID
 40
0.0
  9
$SPLFRAME
 70
     0
  9
$SPLINETYPE
 70
     6
  9
$SPLINESEGS
 70
     8
  9
$HANDSEED
  5
156735
  9
$SURFTAB1
 70
     6
  9
$SURFTAB2
 70
     6
  9
$SURFTYPE
 70
     6
  9
$SURFU
 70
     6
  9
$SURFV
 70
     6
  9
$UCSBASE
  2

  9
$UCSNAME
  2

  9
$UCSORG
 10
0.0
 20
0.0
 30
0.0
  9
$UCSXDIR
 10
1.0
 20
0.0
 30
0.0
  9
$UCSYDIR
 10
0.0
 20
1.0
 30
0.0
  9
$UCSORTHOREF
  2

  9
$UCSORTHOVIEW
 70
     0
  9
$UCSORGTOP
 10
0.0
 20
0.0
 30
0.0
  9
$UCSORGBOTTOM
 10
0.0
 20
0.0
 30
0.0
  9
$UCSORGLEFT
 10
0.0
 20
0.0
 30
0.0
  9
$UCSORGRIGHT
 10
0.0
 20
0.0
 30
0.0
  9
$UCSORGFRONT
 10
0.0
 20
0.0
 30
0.0
  9
$UCSORGBACK
 10
0.0
 20
0.0
 30
0.0
  9
$PUCSBASE
  2

  9
$PUCSNAME
  2

  9
$PUCSORG
 10
0.0
 20
0.0
 30
0.0
  9
$PUCSXDIR
 10
1.0
 20
0.0
 30
0.0
  9
$PUCSYDIR
 10
0.0
 20
1.0
 30
0.0
  9
$PUCSORTHOREF
  2

  9
$PUCSORTHOVIEW
 70
     0
  9
$PUCSORGTOP
 10
0.0
 20
0.0
 30
0.0
  9
$PUCSORGBOTTOM
 10
0.0
 20
0.0
 30
0.0
  9
$PUCSORGLEFT
 10
0.0
 20
0.0
 30
0.0
  9
$PUCSORGRIGHT
 10
0.0
 20
0.0
 30
0.0
  9
$PUCSORGFRONT
 10
0.0
 20
0.0
 30
0.0
  9
$PUCSORGBACK
 10
0.0
 20
0.0
 30
0.0
  9
$USERI1
 70
     0
  9
$USERI2
 70
     0
  9
$USERI3
 70
     0
  9
$USERI4
 70
     0
  9
$USERI5
 70
     0
  9
$USERR1
 40
0.0
  9
$USERR2
 40
0.0
  9
$USERR3
 40
0.0
  9
$USERR4
 40
0.0
  9
$USERR5
 40
0.0
  9
$WORLDVIEW
 70
     1
  9
$SHADEDGE
 70
     3
  9
$SHADEDIF
 70
    70
  9
$TILEMODE
 70
     1
  9
$MAXACTVP
 70
    64
  9
$PINSBASE
 10
0.0
 20
0.0
 30
0.0
  9
$PLIMCHECK
 70
     0
  9
$PEXTMIN
 10
25.69999999999999
 20
19.5
 30
0.0
  9
$PEXTMAX
 10
231.3
 20
175.5
 30
0.0
  9
$PLIMMIN
 10
-20.0
 20
-7.5
  9
$PLIMMAX
 10
277.0
 20
202.5
  9
$UNITMODE
 70
     0
  9
$VISRETAIN
 70
     1
  9
$PLINEGEN
 70
     0
  9
$PSLTSCALE
 70
     1
  9
$TREEDEPTH
 70
  3020
  9
$CMLSTYLE
  2
Standard
  9
$CMLJUST
 70
     0
  9
$CMLSCALE
 40
20.0
  9
$PROXYGRAPHICS
 70
     1
  9
$MEASUREMENT
 70
     1
  9
$CELWEIGHT
370
    -1
  9
$ENDCAPS
280
     0
  9
$JOINSTYLE
280
     0
  9
$LWDISPLAY
290
     0
  9
$INSUNITS
 70
     4
  9
$HYPERLINKBASE
  1

  9
$STYLESHEET
  1
monochrome.ctb
  9
$XEDIT
290
     1
  9
$CEPSNTYPE
380
     0
  9
$PSTYLEMODE
290
     1
  9
$FINGERPRINTGUID
  2
{3D7552CE-04F5-42AE-B631-97F6AB82B6FE}
  9
$VERSIONGUID
  2
{12E175CF-767B-9246-A879-746585D40B9B}
  9
$EXTNAMES
290
     1
  9
$PSVPSCALE
 40
0.0
  9
$OLESTARTUP
290
     0
  9
$SORTENTS
280
   127
  9
$INDEXCTL
280
     0
  9
$HIDETEXT
280
     1
  9
$XCLIPFRAME
280
     2
  9
$HALOGAP
280
     0
  9
$OBSCOLOR
 70
   257
  9
$OBSLTYPE
280
     0
  9
$INTERSECTIONDISPLAY
280
     0
  9
$INTERSECTIONCOLOR
 70
   257
  9
$DIMASSOC
280
     2
  9
$PROJECTNAME
  1

  9
$CAMERADISPLAY
290
     0
  9
$LENSLENGTH
 40
50.0
  9
$CAMERAHEIGHT
 40
0.0
  9
$STEPSPERSEC
 40
2.0
  9
$STEPSIZE
 40
6.0
  9
$3DDWFPREC
 40
2.0
  9
$PSOLWIDTH
 40
0.25
  9
$PSOLHEIGHT
 40
4.0
  9
$LOFTANG1
 40
1.570796326794896
  9
$LOFTANG2
 40
1.570796326794896
  9
$LOFTMAG1
 40
0.0
  9
$LOFTMAG2
 40
0.0
  9
$LOFTPARAM
 70
     7
  9
$LOFTNORMALS
280
     1
  9
$LATITUDE
 40
37.795
  9
$LONGITUDE
 40
-122.394
  9
$NORTHDIRECTION
 40
0.0
  9
$TIMEZONE
 70
 -8000
  9
$LIGHTGLYPHDISPLAY
280
     1
  9
$TILEMODELIGHTSYNCH
280
     1
  9
$CMATERIAL
347
DE15
  9
$SOLIDHIST
280
     0
  9
$SHOWHIST
280
     1
  9
$DWFFRAME
280
     2
  9
$DGNFRAME
280
     0
  9
$REALWORLDSCALE
290
     1
  9
$INTERFERECOLOR
 62
     1
  9
$INTERFEREOBJVS
345
DE22
  9
$INTERFEREVPVS
346
67F3C
  9
$CSHADOW
280
     0
  9
$SHADOWPLANELOCATION
 40
0.0
  0
ENDSEC
  0
SECTION
  2
CLASSES
  0
CLASS
  1
ACDBDICTIONARYWDFLT
  2
AcDbDictionaryWithDefault
  3
ObjectDBX Classes
 90
        0
 91
        1
280
     0
281
     0
  0
CLASS
  1
ACDBPLACEHOLDER
  2
AcDbPlaceHolder
  3
ObjectDBX Classes
 90
        0
 91
        1
280
     0
281
     0
  0
CLASS
  1
LAYOUT
  2
AcDbLayout
  3
ObjectDBX Classes
 90
        0
 91
        3
280
     0
281
     0
  0
CLASS
  1
DICTIONARYVAR
  2
AcDbDictionaryVar
  3
ObjectDBX Classes
 90
        0
 91
       14
280
     0
281
     0
  0
CLASS
  1
DIMASSOC
  2
AcDbDimAssoc
  3
"AcDbDimAssoc|Product Desc:     AcDim ARX App For Dimension|Company:          Autodesk, Inc.|WEB Address:      www.autodesk.com"
 90
        0
 91
       14
280
     0
281
     0
  0
CLASS
  1
MATERIAL
  2
AcDbMaterial
  3
ObjectDBX Classes
 90
     1153
 91
        3
280
     0
281
     0
  0
CLASS
  1
VISUALSTYLE
  2
AcDbVisualStyle
  3
ObjectDBX Classes
 90
     4095
 91
       26
280
     0
281
     0
  0
CLASS
  1
TABLESTYLE
  2
AcDbTableStyle
  3
ObjectDBX Classes
 90
     4095
 91
        6
280
     0
281
     0
  0
CLASS
  1
SORTENTSTABLE
  2
AcDbSortentsTable
  3
ObjectDBX Classes
 90
        0
 91
        3
280
     0
281
     0
  0
CLASS
  1
ARC_DIMENSION
  2
AcDbArcDimension
  3
ObjectDBX Classes
 90
     1025
 91
        0
280
     0
281
     1
  0
CLASS
  1
EXACXREFPANELOBJECT
  2
ExAcXREFPanelObject
  3
EXAC_ESW
 90
     1025
 91
        0
280
     0
281
     0
  0
CLASS
  1
NPOCOLLECTION
  2
AcDbImpNonPersistentObjectsCollection
  3
ObjectDBX Classes
 90
     1153
 91
        0
280
     0
281
     0
  0
CLASS
  1
ACAD_TABLE
  2
AcDbTable
  3
ObjectDBX Classes
 90
     1025
 91
        0
280
     0
281
     1
  0
CLASS
  1
SCALE
  2
AcDbScale
  3
ObjectDBX Classes
 90
     1153
 91
       99
280
     0
281
     0
  0
CLASS
  1
MLEADERSTYLE
  2
AcDbMLeaderStyle
  3
ACDB_MLEADERSTYLE_CLASS
 90
     4095
 91
        3
280
     0
281
     0
  0
CLASS
  1
CELLSTYLEMAP
  2
AcDbCellStyleMap
  3
ObjectDBX Classes
 90
     1152
 91
       24
280
     0
281
     0
  0
CLASS
  1
TABLECONTENT
  2
AcDbTableContent
  3
ObjectDBX Classes
 90
     1152
 91
        0
280
     0
281
     0
  0
CLASS
  1
TABLEGEOMETRY
  2
AcDbTableGeometry
  3
ObjectDBX Classes
 90
     1152
 91
        0
280
     0
281
     0
  0
CLASS
  1
IMAGE
  2
AcDbRasterImage
  3
ISM
 90
     2175
 91
        0
280
     0
281
     1
  0
CLASS
  1
IMAGEDEF_REACTOR
  2
AcDbRasterImageDefReactor
  3
ISM
 90
        1
 91
        0
280
     0
281
     0
  0
CLASS
  1
IMAGEDEF
  2
AcDbRasterImageDef
  3
ISM
 90
        0
 91
        1
280
     0
281
     0
  0
CLASS
  1
RASTERVARIABLES
  2
AcDbRasterVariables
  3
ISM
 90
        0
 91
        1
280
     0
281
     0
  0
CLASS
  1
ACDBSECTIONVIEWSTYLE
  2
AcDbSectionViewStyle
  3
ObjectDBX Classes
 90
     1025
 91
        1
280
     0
281
     0
  0
CLASS
  1
ACDBDETAILVIEWSTYLE
  2
AcDbDetailViewStyle
  3
ObjectDBX Classes
 90
     1025
 91
        1
280
     0
281
     0
  0
ENDSEC
  0
SECTION
  2
TABLES
  0
TABLE
  2
VPORT
  5
8
102
{ACAD_XDICTIONARY
360
E0C7
102
}
330
0
100
AcDbSymbolTable
 70
     1
  0
VPORT
  5
DE13
330
8
100
AcDbSymbolTableRecord
100
AcDbViewportTableRecord
  2
*Active
 70
     0
 10
0.0
 20
0.0
 11
1.0
 21
1.0
 12
-34113.28338958471
 22
-24780.31024299424
 13
0.0
 23
0.0
 14
10.0
 24
10.0
 15
10.0
 25
10.0
 16
0.0
 26
0.0
 36
1.0
 17
0.0
 27
0.0
 37
0.0
 40
1640.253461733901
 41
1.913595933926302
 42
50.0
 43
0.0
 44
0.0
 50
0.0
 51
0.0
 71
     0
 72
 20000
 73
     1
 74
     3
 75
     0
 76
     0
 77
     0
 78
     1
281
     0
 65
     1
110
0.0
120
0.0
130
0.0
111
1.0
121
0.0
131
0.0
112
0.0
122
1.0
132
0.0
 79
     0
146
0.0
348
DE1E
 60
     3
 61
     5
292
     1
282
     1
141
0.0
142
0.0
 63
   250
421
  3355443
1001
ACAD_NAV_VCDISPLAY
1070
     3
  0
ENDTAB
  0
TABLE
  2
LTYPE
  5
5
330
0
100
AcDbSymbolTable
 70
    15
  0
LTYPE
  5
14
330
5
100
AcDbSymbolTableRecord
100
AcDbLinetypeTableRecord
  2
ByBlock
 70
     0
  3

 72
    65
 73
     0
 40
0.0
  0
LTYPE
  5
15
330
5
100
AcDbSymbolTableRecord
100
AcDbLinetypeTableRecord
  2
ByLayer
 70
     0
  3

 72
    65
 73
     0
 40
0.0
  0
LTYPE
  5
16
330
5
100
AcDbSymbolTableRecord
100
AcDbLinetypeTableRecord
  2
Continuous
 70
     0
  3
Solid line
 72
    65
 73
     0
 40
0.0
  0
LTYPE
  5
56D2
330
5
100
AcDbSymbolTableRecord
100
AcDbLinetypeTableRecord
  2
ACAD_ISO02W100
 70
     0
  3
ISO dash __ __ __ __ __ __ __ __ __ __ __ __ __
 72
    65
 73
     2
 40
15.0
 49
12.0
 74
     0
 49
-3.0
 74
     0
  0
LTYPE
  5
56D4
330
5
100
AcDbSymbolTableRecord
100
AcDbLinetypeTableRecord
  2
ACAD_ISO04W100
 70
     0
  3
ISO long-dash dot ____ . ____ . ____ . ____ . _
 72
    65
 73
     4
 40
30.0
 49
24.0
 74
     0
 49
-3.0
 74
     0
 49
0.0
 74
     0
 49
-3.0
 74
     0
  0
LTYPE
  5
56D5
330
5
100
AcDbSymbolTableRecord
100
AcDbLinetypeTableRecord
  2
ACAD_ISO05W100
 70
     0
  3
ISO long-dash double-dot ____ .. ____ .. ____ .
 72
    65
 73
     6
 40
33.0
 49
24.0
 74
     0
 49
-3.0
 74
     0
 49
0.0
 74
     0
 49
-3.0
 74
     0
 49
0.0
 74
     0
 49
-3.0
 74
     0
  0
LTYPE
  5
56F5
330
5
100
AcDbSymbolTableRecord
100
AcDbLinetypeTableRecord
  2
HIDDEN
 70
     0
  3
Hidden __ __ __ __ __ __ __ __ __ __ __ __ __ _
 72
    65
 73
     2
 40
9.524999999999998
 49
6.349999999999999
 74
     0
 49
-3.174999999999999
 74
     0
  0
LTYPE
  5
56F9
330
5
100
AcDbSymbolTableRecord
100
AcDbLinetypeTableRecord
  2
PHANTOM
 70
     0
  3
Phantom ______  __  __  ______  __  __  ______
 72
    65
 73
     6
 40
63.5
 49
31.75
 74
     0
 49
-6.349999999999999
 74
     0
 49
6.349999999999999
 74
     0
 49
-6.349999999999999
 74
     0
 49
6.349999999999999
 74
     0
 49
-6.349999999999999
 74
     0
  0
LTYPE
  5
12A5B4
330
5
100
AcDbSymbolTableRecord
100
AcDbLinetypeTableRecord
  2
CENTER2
 70
     0
  3
Center (.5x) ___ _ ___ _ ___ _ ___ _ ___ _ ___
 72
    65
 73
     4
 40
28.575
 49
19.05
 74
     0
 49
-3.174999999999999
 74
     0
 49
3.174999999999999
 74
     0
 49
-3.174999999999999
 74
     0
  0
LTYPE
  5
12A5B5
330
5
100
AcDbSymbolTableRecord
100
AcDbLinetypeTableRecord
  2
CENTERX2
 70
     0
  3
Center (2x) ________  __  ________  __  _____
 72
    65
 73
     4
 40
101.6
 49
63.5
 74
     0
 49
-12.7
 74
     0
 49
12.7
 74
     0
 49
-12.7
 74
     0
  0
LTYPE
  5
12BFA7
330
5
100
AcDbSymbolTableRecord
100
AcDbLinetypeTableRecord
  2
CENTER
 70
     0
  3
Center ____ _ ____ _ ____ _ ____ _ ____ _ ____
 72
    65
 73
     4
 40
50.8
 49
31.75
 74
     0
 49
-6.349999999999999
 74
     0
 49
6.349999999999999
 74
     0
 49
-6.349999999999999
 74
     0
  0
LTYPE
  5
1336CB
330
5
100
AcDbSymbolTableRecord
100
AcDbLinetypeTableRecord
  2
点画线
 70
     0
  3
点画线: ____ . ____ . ____ . ____ . ____ . ____
 72
    65
 73
     4
 40
18.0
 49
12.0
 74
     0
 49
-2.0
 74
     0
 49
2.0
 74
     0
 49
-2.0
 74
     0
1001
AcadStringInfo
1000
MIFCodePage
1070
     5
  0
LTYPE
  5
13E08E
330
5
100
AcDbSymbolTableRecord
100
AcDbLinetypeTableRecord
  2
DASHED2
 70
     0
  3
Dashed (.5x) _ _ _ _ _ _ _ _ _ _ _ _ _ _ _ _ _
 72
    65
 73
     2
 40
9.524999999999998
 49
6.349999999999999
 74
     0
 49
-3.174999999999999
 74
     0
  0
LTYPE
  5
14484F
330
5
100
AcDbSymbolTableRecord
100
AcDbLinetypeTableRecord
  2
DASHEDX2
 70
     0
  3
Dashed (2x) ____  ____  ____  ____  ____  ___
 72
    65
 73
     2
 40
38.1
 49
25.4
 74
     0
 49
-12.7
 74
     0
  0
LTYPE
  5
144850
330
5
100
AcDbSymbolTableRecord
100
AcDbLinetypeTableRecord
  2
ACAD_ISO14W100
 70
     0
  3
ISO dash triple-dot __ . . . __ . . . __ . . . _
 72
    65
 73
     8
 40
24.0
 49
12.0
 74
     0
 49
-3.0
 74
     0
 49
0.0
 74
     0
 49
-3.0
 74
     0
 49
0.0
 74
     0
 49
-3.0
 74
     0
 49
0.0
 74
     0
 49
-3.0
 74
     0
  0
ENDTAB
  0
TABLE
  2
LAYER
  5
2
102
{ACAD_XDICTIONARY
360
DFEA
102
}
330
0
100
AcDbSymbolTable
 70
    24
  0
LAYER
  5
10
102
{ACAD_XDICTIONARY
360
12B71D
102
}
330
2
100
AcDbSymbolTableRecord
100
AcDbLayerTableRecord
  2
0
 70
     0
 62
     7
  6
Continuous
370
    -3
390
F
347
DE17
348
0
  0
LAYER
  5
95
330
2
100
AcDbSymbolTableRecord
100
AcDbLayerTableRecord
  2
Defpoints
 70
     0
 62
     7
  6
Continuous
290
     0
370
    -3
390
F
347
DE17
348
0
  0
LAYER
  5
DFE7
102
{ACAD_XDICTIONARY
360
12B71F
102
}
330
2
100
AcDbSymbolTableRecord
100
AcDbLayerTableRecord
  2
粗实线
 70
     0
 62
     7
  6
Continuous
370
    30
390
F
347
DE17
348
0
1001
AcAecLayerStandard
1000

1000

1001
AcadStringInfo
1000
MIFCodePage
1070
     5
  0
LAYER
  5
E3EE
102
{ACAD_XDICTIONARY
360
12B721
102
}
330
2
100
AcDbSymbolTableRecord
100
AcDbLayerTableRecord
  2
base
 70
     0
 62
     4
  6
Continuous
370
    40
390
F
347
DE17
348
0
  0
LAYER
  5
F118
102
{ACAD_XDICTIONARY
360
F119
102
}
330
2
100
AcDbSymbolTableRecord
100
AcDbLayerTableRecord
  2
中心
 70
     0
 62
     1
  6
ACAD_ISO04W100
370
    18
390
F
347
DE17
348
0
1001
AcadStringInfo
1000
MIFCodePage
1070
     5
  0
LAYER
  5
13D0C
102
{ACAD_XDICTIONARY
360
13D0D
102
}
330
2
100
AcDbSymbolTableRecord
100
AcDbLayerTableRecord
  2
标注
 70
     0
 62
     6
  6
Continuous
370
    13
390
F
347
DE17
348
0
1001
AcadStringInfo
1000
MIFCodePage
1070
     5
  0
LAYER
  5
16711
102
{ACAD_XDICTIONARY
360
16712
102
}
330
2
100
AcDbSymbolTableRecord
100
AcDbLayerTableRecord
  2
双点划线
 70
     0
 62
   243
  6
ACAD_ISO05W100
370
    13
390
F
347
DE17
348
0
1001
AcadStringInfo
1000
MIFCodePage
1070
     5
  0
LAYER
  5
44A7B
102
{ACAD_XDICTIONARY
360
12B726
102
}
330
2
100
AcDbSymbolTableRecord
100
AcDbLayerTableRecord
  2
虚线
 70
     0
 62
     5
  6
ACAD_ISO02W100
370
    13
390
F
347
DE17
348
0
1001
AcadStringInfo
1000
MIFCodePage
1070
     5
  0
LAYER
  5
122222
102
{ACAD_XDICTIONARY
360
122223
102
}
330
2
100
AcDbSymbolTableRecord
100
AcDbLayerTableRecord
  2
PL
 70
     0
 62
     7
  6
Continuous
290
     0
370
    -3
390
F
347
DE17
348
0
1001
AcAecLayerStandard
1000

1000

  0
LAYER
  5
127472
102
{ACAD_XDICTIONARY
360
12B729
102
}
330
2
100
AcDbSymbolTableRecord
100
AcDbLayerTableRecord
  2
细实线
 70
     0
 62
     7
  6
Continuous
370
    13
390
F
347
DE17
348
0
1001
AcAecLayerStandard
1000

1000

1001
AcadStringInfo
1000
MIFCodePage
1070
     5
  0
LAYER
  5
12A5B6
102
{ACAD_XDICTIONARY
360
12A5B7
102
}
330
2
100
AcDbSymbolTableRecord
100
AcDbLayerTableRecord
  2
中心线
 70
     0
 62
     1
  6
CENTER2
370
    -3
390
F
347
DE17
348
0
1001
AcAecLayerStandard
1000

1000

1001
AcadStringInfo
1000
MIFCodePage
1070
     5
  0
LAYER
  5
12A5B8
102
{ACAD_XDICTIONARY
360
12A5B9
102
}
330
2
100
AcDbSymbolTableRecord
100
AcDbLayerTableRecord
  2
标注线
 70
     0
 62
     6
  6
Continuous
370
    -3
390
F
347
DE17
348
0
1001
AcAecLayerStandard
1000

1000

1001
AcadStringInfo
1000
MIFCodePage
1070
     5
  0
LAYER
  5
12A5BA
102
{ACAD_XDICTIONARY
360
12A5BB
102
}
330
2
100
AcDbSymbolTableRecord
100
AcDbLayerTableRecord
  2
cs
 70
     0
 62
     7
  6
Continuous
370
    -3
390
F
347
DE17
348
0
  0
LAYER
  5
12A5BC
102
{ACAD_XDICTIONARY
360
12A5BD
102
}
330
2
100
AcDbSymbolTableRecord
100
AcDbLayerTableRecord
  2
粗实
 70
     0
 62
     7
  6
Continuous
370
    25
390
F
347
DE17
348
0
1001
AcadStringInfo
1000
MIFCodePage
1070
     5
  0
LAYER
  5
12A5BE
102
{ACAD_XDICTIONARY
360
12A5BF
102
}
330
2
100
AcDbSymbolTableRecord
100
AcDbLayerTableRecord
  2
DIMJ
 70
     0
 62
   221
  6
Continuous
370
    15
390
F
347
DE17
348
0
  0
LAYER
  5
12A5C0
102
{ACAD_XDICTIONARY
360
12A5C1
102
}
330
2
100
AcDbSymbolTableRecord
100
AcDbLayerTableRecord
  2
CEN
 70
     0
 62
    14
  6
CENTERX2
370
    15
390
F
347
DE17
348
0
  0
LAYER
  5
12A5C2
102
{ACAD_XDICTIONARY
360
12A5C3
102
}
330
2
100
AcDbSymbolTableRecord
100
AcDbLayerTableRecord
  2
图框
 70
     0
 62
   243
  6
Continuous
370
    20
390
F
347
DE17
348
0
1001
AcadStringInfo
1000
MIFCodePage
1070
     5
  0
LAYER
  5
12A5C4
102
{ACAD_XDICTIONARY
360
12A5C5
102
}
330
2
100
AcDbSymbolTableRecord
100
AcDbLayerTableRecord
  2
图层2
 70
     0
 62
     7
  6
Continuous
290
     0
370
    -3
390
F
347
DE17
348
0
1001
AcAecLayerStandard
1000

1000

1001
AcadStringInfo
1000
MIFCodePage
1070
     5
  0
LAYER
  5
12BFA8
330
2
100
AcDbSymbolTableRecord
100
AcDbLayerTableRecord
  2
solid
 70
     0
 62
     8
  6
Continuous
370
    13
390
F
347
DE17
348
0
  0
LAYER
  5
12BFA9
330
2
100
AcDbSymbolTableRecord
100
AcDbLayerTableRecord
  2
上凹模垫板
 70
     0
 62
     4
  6
Continuous
370
    25
390
F
347
DE17
348
0
1001
AcAecLayerStandard
1000

1000

1001
AcadStringInfo
1000
MIFCodePage
1070
     5
  0
LAYER
  5
1382B0
330
2
100
AcDbSymbolTableRecord
100
AcDbLayerTableRecord
  2
layer9
 70
     0
 62
   210
  6
Continuous
370
    -3
390
F
347
DE17
348
0
  0
LAYER
  5
141550
102
{ACAD_XDICTIONARY
360
141551
102
}
330
2
100
AcDbSymbolTableRecord
100
AcDbLayerTableRecord
  2
WHITE
 70
     0
 62
     7
  6
Continuous
370
    -3
390
F
347
DE17
348
0
  0
LAYER
  5
141553
330
2
100
AcDbSymbolTableRecord
100
AcDbLayerTableRecord
  2
layer 1
 70
     0
 62
     7
  6
Continuous
370
    -3
390
F
347
DE17
348
0
  0
LAYER
  5
14A0DE
330
2
100
AcDbSymbolTableRecord
100
AcDbLayerTableRecord
  2
1粗线
 70
     0
 62
     7
  6
Continuous
370
    30
390
F
347
DE17
348
0
1001
AcadStringInfo
1000
MIFCodePage
1070
     5
  0
ENDTAB
  0
TABLE
  2
STYLE
  5
3
330
0
100
AcDbSymbolTable
 70
     7
  0
STYLE
  5
11
330
3
100
AcDbSymbolTableRecord
100
AcDbTextStyleTableRecord
  2
Standard
 70
     0
 40
0.0
 41
1.0
 50
0.0
 71
     0
 42
2.5
  3

  4

1001
ACAD
1000
SimSun
1071
    34306
  0
STYLE
  5
476C
330
3
100
AcDbSymbolTableRecord
100
AcDbTextStyleTableRecord
  2

 70
     1
 40
0.0
 41
1.0
 50
0.0
 71
     0
 42
2.5
  3
ltypeshp.shx
  4

  0
STYLE
  5
210CF
330
3
100
AcDbSymbolTableRecord
100
AcDbTextStyleTableRecord
  2
机械
 70
     0
 40
0.0
 41
0.667
 50
0.0
 71
     0
 42
0.0
  3

  4

1001
ACAD
1000
FangSong_GB2312
1071
       34
1001
AcadStringInfo
1000
MIFCodePage
1070
     5
  0
STYLE
  5
12B80C
330
3
100
AcDbSymbolTableRecord
100
AcDbTextStyleTableRecord
  2
Standard-30
 70
     0
 40
30.0
 41
1.0
 50
0.0
 71
     0
 42
30.0
  3

  4

1001
ACAD
1000
FangSong_GB2312
1071
    34353
  0
STYLE
  5
1382B1
330
3
100
AcDbSymbolTableRecord
100
AcDbTextStyleTableRecord
  2
中文字体
 70
     0
 40
0.0
 41
1.0
 50
0.0
 71
     0
 42
3.0
  3

  4

1001
ACAD
1000
SimSun
1071
    34306
1001
AcadStringInfo
1000
MIFCodePage
1070
     5
  0
STYLE
  5
13D57A
330
3
100
AcDbSymbolTableRecord
100
AcDbTextStyleTableRecord
  2
E
 70
     0
 40
0.0
 41
0.5
 50
10.0
 71
     0
 42
487.4658494385039
  3
simfang.ttf
  4

1001
ACAD
1000
FangSong
1071
    34353
  0
STYLE
  5
141554
330
3
100
AcDbSymbolTableRecord
100
AcDbTextStyleTableRecord
  2
中文
 70
     0
 40
0.0
 41
1.0
 50
0.0
 71
     0
 42
8.0
  3

  4

1001
ACAD
1000
SimSun
1071
    34306
1001
AcadStringInfo
1000
MIFCodePage
1070
     5
  0
ENDTAB
  0
TABLE
  2
VIEW
  5
6
330
0
100
AcDbSymbolTable
 70
     0
  0
ENDTAB
  0
TABLE
  2
UCS
  5
7
330
0
100
AcDbSymbolTable
 70
     0
  0
ENDTAB
  0
TABLE
  2
APPID
  5
9
330
0
100
AcDbSymbolTable
 70
    28
  0
APPID
  5
12
330
9
100
AcDbSymbolTableRecord
100
AcDbRegAppTableRecord
  2
ACAD
 70
     0
  0
APPID
  5
DFD5
330
9
100
AcDbSymbolTableRecord
100
AcDbRegAppTableRecord
  2
ACAD_EXEMPT_FROM_CAD_STANDARDS
 70
     0
  0
APPID
  5
DFE5
330
9
100
AcDbSymbolTableRecord
100
AcDbRegAppTableRecord
  2
AcAecLayerStandard
 70
     0
  0
APPID
  5
F11E
330
9
100
AcDbSymbolTableRecord
100
AcDbRegAppTableRecord
  2
ACAD_DSTYLE_DIMJAG
 70
     0
  0
APPID
  5
F11F
330
9
100
AcDbSymbolTableRecord
100
AcDbRegAppTableRecord
  2
ACAD_DSTYLE_DIMTALN
 70
     0
  0
APPID
  5
F120
330
9
100
AcDbSymbolTableRecord
100
AcDbRegAppTableRecord
  2
ACAD_PSEXT
 70
     0
  0
APPID
  5
2E705
330
9
100
AcDbSymbolTableRecord
100
AcDbRegAppTableRecord
  2
DCO15
 70
     0
  0
APPID
  5
6261A
330
9
100
AcDbSymbolTableRecord
100
AcDbRegAppTableRecord
  2
ACAD_DSTYLE_DIMBREAK
 70
     0
  0
APPID
  5
6261B
330
9
100
AcDbSymbolTableRecord
100
AcDbRegAppTableRecord
  2
ACAD_DSTYLE_DIMJOGGED_JOGANGLE_SYMBOL
 70
     0
  0
APPID
  5
6261C
330
9
100
AcDbSymbolTableRecord
100
AcDbRegAppTableRecord
  2
AcDbBlockRepETag
 70
     0
  0
APPID
  5
6261D
330
9
100
AcDbSymbolTableRecord
100
AcDbRegAppTableRecord
  2
ACAD_DSTYLE_DIMRADIAL_EXTENSION
 70
     0
  0
APPID
  5
67F3A
330
9
100
AcDbSymbolTableRecord
100
AcDbRegAppTableRecord
  2
ACAD_NAV_VCDISPLAY
 70
     0
  0
APPID
  5
67F3B
330
9
100
AcDbSymbolTableRecord
100
AcDbRegAppTableRecord
  2
AcadStringInfo
 70
     0
  0
APPID
  5
ACBC8
330
9
100
AcDbSymbolTableRecord
100
AcDbRegAppTableRecord
  2
AVE_RENDER
 70
     0
  0
APPID
  5
ACBC9
330
9
100
AcDbSymbolTableRecord
100
AcDbRegAppTableRecord
  2
AVE_ENTITY_MATERIAL
 70
     0
  0
APPID
  5
ACBD6
330
9
100
AcDbSymbolTableRecord
100
AcDbRegAppTableRecord
  2
AVE_FINISH
 70
     0
  0
APPID
  5
ACBD7
330
9
100
AcDbSymbolTableRecord
100
AcDbRegAppTableRecord
  2
AVE_MATERIAL
 70
     0
  0
APPID
  5
ACBD8
330
9
100
AcDbSymbolTableRecord
100
AcDbRegAppTableRecord
  2
AVE_GLOBAL
 70
     0
  0
APPID
  5
BB6FC
330
9
100
AcDbSymbolTableRecord
100
AcDbRegAppTableRecord
  2
AcadAnnotative
 70
     0
  0
APPID
  5
C0D85
330
9
100
AcDbSymbolTableRecord
100
AcDbRegAppTableRecord
  2
ACAD_DSTYLE_DIMARC_LENGTH_SYMBOL
 70
     0
  0
APPID
  5
CBAA8
330
9
100
AcDbSymbolTableRecord
100
AcDbRegAppTableRecord
  2
ACAD_DSTYLE_DIMEXT_LENGTH
 70
     0
  0
APPID
  5
E99CD
330
9
100
AcDbSymbolTableRecord
100
AcDbRegAppTableRecord
  2
ACAD_DSTYLE_DIMEXT_ENABLED
 70
     0
  0
APPID
  5
1221F8
330
9
100
AcDbSymbolTableRecord
100
AcDbRegAppTableRecord
  2
AcDbDynamicBlockGUID
 70
     0
  0
APPID
  5
12A04C
330
9
100
AcDbSymbolTableRecord
100
AcDbRegAppTableRecord
  2
ACAD_MLEADERVER
 70
     0
  0
APPID
  5
13AD2C
330
9
100
AcDbSymbolTableRecord
100
AcDbRegAppTableRecord
  2
ACAD_DSTYLE_DIM_LINETYPE
 70
     0
  0
APPID
  5
13AD2D
330
9
100
AcDbSymbolTableRecord
100
AcDbRegAppTableRecord
  2
ACAD_DSTYLE_DIM_EXT1_LINETYPE
 70
     0
  0
APPID
  5
13AD2E
330
9
100
AcDbSymbolTableRecord
100
AcDbRegAppTableRecord
  2
ACAD_DSTYLE_DIM_EXT2_LINETYPE
 70
     0
  0
APPID
  5
1565FC
330
9
100
AcDbSymbolTableRecord
100
AcDbRegAppTableRecord
  2
AcadAnnoMonitorAlertIconDisabled
 70
     0
  0
ENDTAB
  0
TABLE
  2
DIMSTYLE
  5
A
330
0
100
AcDbSymbolTable
 70
    25
100
AcDbDimStyleTable
 71
     5
340
126F09
340
27
340
12BFAB
340
1382B3
340
1306FC
  0
DIMSTYLE
105
27
102
{ACAD_REACTORS
330
156297
330
156287
330
1562DF
330
1562F5
102
}
330
A
100
AcDbSymbolTableRecord
100
AcDbDimStyleTableRecord
  2
ISO-25
 70
     0
 40
5.0
 41
10.0
 42
5.0
 43
2.0
 44
5.0
 45
0.001
 73
     0
 77
     1
 78
     8
140
15.0
141
0.0
143
0.03937007874016
147
6.0
171
     3
172
     1
176
   256
177
   256
178
   256
179
     1
271
     2
272
     2
274
     3
283
     0
284
     8
340
11
  0
DIMSTYLE
105
E6F3
330
A
100
AcDbSymbolTableRecord
100
AcDbDimStyleTableRecord
  2
Standard
 70
     0
 41
25.0
 42
5.0
 43
2.0
 44
5.0
 73
     0
 77
     2
 78
    12
 79
     3
140
25.0
141
0.0
147
8.0
179
     2
271
     2
272
     2
340
11
  0
DIMSTYLE
105
126304
330
A
100
AcDbSymbolTableRecord
100
AcDbDimStyleTableRecord
  2
AM_ISO
 70
     0
  3
\X
  4
"
 41
10.0
 42
4.0
 43
10.0
 44
7.0
 47
0.1
 48
0.1
 73
     0
 74
     0
 77
     1
 78
     8
 79
     2
 90
     1
140
14.0
141
0.0
143
0.0393701
146
0.71
147
1.5
170
     1
171
     4
172
     1
176
   256
177
   256
178
   256
271
     2
272
     2
273
     7
274
     4
283
     0
284
     8
340
11
371
    -1
372
    -1
1001
ACAD_DSTYLE_DIMJAG
1070
   388
1040
1.5
1001
ACAD_DSTYLE_DIMTALN
1070
   392
1070
     0
  0
DIMSTYLE
105
126E8E
330
A
100
AcDbSymbolTableRecord
100
AcDbDimStyleTableRecord
  2
Annotative
 70
     0
 40
0.0
 41
2.5
 42
0.625
 43
3.75
 44
1.25
 73
     0
 74
     0
 77
     1
 78
     8
140
2.5
141
2.5
143
0.03937007874016
147
0.625
171
     3
172
     1
271
     2
272
     2
274
     3
278
    44
283
     0
284
     8
340
11
1001
AcadAnnotative
1000
AnnotativeData
1002
{
1070
     1
1070
     1
1002
}
1001
ACAD_DSTYLE_DIMJAG
1070
   388
1040
1.5
1001
ACAD_DSTYLE_DIMTALN
1070
   392
1070
     0
  0
DIMSTYLE
105
126F09
102
{ACAD_REACTORS
330
155AAE
330
155B87
330
155AE5
330
155AE2
330
155AB5
330
155B0D
330
155AB2
330
155B0A
330
1561EA
330
1561EC
330
1561ED
330
1561EE
330
1561F5
102
}
330
A
100
AcDbSymbolTableRecord
100
AcDbDimStyleTableRecord
  2
usally
 70
     0
 40
2.0
 41
15.0
 42
4.0
 43
5.0
 44
1.25
 73
     0
 74
     0
 77
     1
 78
     9
 79
     2
140
15.0
141
0.0
147
5.0
172
     1
179
     2
271
     2
272
     2
340
11
  0
DIMSTYLE
105
12B80D
330
A
100
AcDbSymbolTableRecord
100
AcDbDimStyleTableRecord
  2
ISO-25 30
 70
     0
 41
25.0
 42
5.0
 43
2.0
 44
5.0
 45
0.001
 73
     0
 77
     1
 78
     8
140
30.0
141
4.0
143
0.03937007874016
147
6.0
171
     3
172
     1
176
     6
177
     6
178
     6
179
     1
271
     2
272
     2
274
     3
283
     0
284
     8
340
11
  0
DIMSTYLE
105
12BB30
330
A
100
AcDbSymbolTableRecord
100
AcDbDimStyleTableRecord
  2
机械
 70
     0
 41
4.0
 42
0.0
 44
2.0
 46
6.0
 73
     0
 74
     0
 77
     1
 78
     8
 79
     2
140
3.5
141
0.0
147
0.625
172
     1
179
     2
271
     1
272
     3
340
210CF
1001
AcadStringInfo
1000
MIFCodePage
1070
     5
  0
DIMSTYLE
105
12BFAA
330
A
100
AcDbSymbolTableRecord
100
AcDbDimStyleTableRecord
  2
4
 70
     0
 40
4.0
 41
1.7
 42
1.0
 43
0.5
 44
1.0
 73
     0
 74
     0
 77
     1
 78
     8
140
2.2
141
1.0
143
0.03937007874016
147
0.625
171
     3
172
     1
176
   251
177
   252
271
     1
272
     1
274
     3
283
     0
284
     8
340
11
341
12BB73
342
12BB73
1001
ACAD_DSTYLE_DIMJAG
1070
   388
1040
1.5
1001
ACAD_DSTYLE_DIMTALN
1070
   392
1070
     0
  0
DIMSTYLE
105
12BFAB
330
A
100
AcDbSymbolTableRecord
100
AcDbDimStyleTableRecord
  2
5
 70
     0
 40
5.0
 41
1.7
 42
1.0
 43
0.5
 44
1.0
 73
     0
 77
     1
 78
     8
 79
     2
140
2.2
141
1.0
143
0.03937007874016
147
0.625
171
     3
172
     1
176
   251
177
   251
179
     2
271
     2
272
     2
274
     3
283
     0
284
     8
340
11
341
12BB79
371
    13
372
    13
1001
ACAD_DSTYLE_DIMJAG
1070
   388
1040
1.5
1001
ACAD_DSTYLE_DIMTALN
1070
   392
1070
     0
  0
DIMSTYLE
105
12BFAC
330
A
100
AcDbSymbolTableRecord
100
AcDbDimStyleTableRecord
  2
仿宋
 70
     0
 41
2.0
 42
0.5
 43
3.75
 44
0.5
 73
     0
 77
     1
 78
     8
140
4.0
141
2.5
143
0.03937007874016
147
0.5
171
     3
172
     1
179
     1
271
     1
272
     1
274
     3
283
     0
284
     8
340
11
1001
AcadStringInfo
1000
MIFCodePage
1070
     5
  0
DIMSTYLE
105
1306FB
330
A
100
AcDbSymbolTableRecord
100
AcDbDimStyleTableRecord
  2
副本 (2)ISO-25
 70
     0
 41
1.0
 42
0.625
 43
3.75
 44
1.25
 45
0.001
 73
     0
 74
     0
 77
     1
 78
     8
140
7.0
141
0.0
143
0.03937007874016
147
2.0
171
     3
172
     1
179
     1
271
     2
272
     2
274
     3
278
    44
283
     0
284
     8
340
11
1001
AcadStringInfo
1000
MIFCodePage
1070
     5
  0
DIMSTYLE
105
1306FC
330
A
100
AcDbSymbolTableRecord
100
AcDbDimStyleTableRecord
  2
副本 ISO-25
 70
     0
 41
14.0
 42
3.0
 43
3.75
 44
1.25
 45
0.001
 73
     0
 74
     0
 77
     1
 78
     8
140
20.0
141
0.0
143
0.03937007874016
147
6.0
171
     3
172
     1
176
   256
177
   256
178
   256
179
     1
271
     2
272
     2
274
     3
283
     0
284
     8
340
11
1001
AcadStringInfo
1000
MIFCodePage
1070
     5
  0
DIMSTYLE
105
1382B2
330
A
100
AcDbSymbolTableRecord
100
AcDbDimStyleTableRecord
  2
1-8
 70
     0
 40
11.0
 41
2.0
 42
1.5
 43
5.0
 44
1.0
 50
90.0
 73
     0
 74
     0
 77
     1
 78
     8
 79
     2
140
2.299999999999999
141
0.1
147
0.33
172
     1
176
   104
177
   104
178
   200
179
     1
271
     1
272
     1
283
     0
284
     8
340
1382B1
345
15
346
15
347
15
371
    13
372
    13
1001
ACAD_DSTYLE_DIMBREAK
1070
   391
1040
3.75
1001
ACAD_DSTYLE_DIMJAG
1070
   388
1040
1.5
1001
ACAD_DSTYLE_DIMTALN
1070
   392
1070
     0
1001
ACAD_DSTYLE_DIMJOGGED_JOGANGLE_SYMBOL
1070
   384
1040
1.570796326794896
  0
DIMSTYLE
105
1382B3
330
A
100
AcDbSymbolTableRecord
100
AcDbDimStyleTableRecord
  2
8
 70
     0
 40
8.0
 41
1.5
 42
0.5
 43
0.5
 44
0.5
 50
90.0
 73
     0
 74
     0
 77
     1
 78
     9
 79
     2
140
2.5
141
0.0
143
0.03937007874016
147
0.5
171
     3
172
     1
175
     1
176
   256
177
   256
178
     7
179
     1
271
     1
272
     1
274
     3
279
     1
283
     0
284
     8
288
     1
340
11
371
    -1
372
    -1
1001
ACAD_DSTYLE_DIMJOGGED_JOGANGLE_SYMBOL
1070
   384
1040
1.570796326794896
  0
DIMSTYLE
105
13D57B
330
A
100
AcDbSymbolTableRecord
100
AcDbDimStyleTableRecord
  2
标准
 70
     0
 40
0.5
 41
17.0
 42
0.0
 44
6.0
 46
8.0
 73
     0
 74
     0
 77
     1
 79
     2
140
20.0
141
0.0
147
4.0
271
     2
272
     3
340
210CF
341
210C0
1001
AcadStringInfo
1000
MIFCodePage
1070
     5
  0
DIMSTYLE
105
13D57C
330
A
100
AcDbSymbolTableRecord
100
AcDbDimStyleTableRecord
  2
副本 5
 70
     0
 40
5.0
 41
3.0
 42
1.0
 43
0.5
 44
1.0
 73
     0
 74
     0
 77
     1
 78
     8
 79
     2
140
4.0
141
1.0
143
0.03937007874016
147
0.625
171
     3
172
     1
176
   251
177
   251
179
     2
271
     2
272
     2
274
     3
283
     0
284
     8
340
11
341
12BB79
371
    13
372
    13
1001
AcadStringInfo
1000
MIFCodePage
1070
     5
  0
DIMSTYLE
105
13D57D
102
{ACAD_REACTORS
330
13D590
330
13D592
330
13D593
330
13D594
330
13D59B
102
}
330
A
100
AcDbSymbolTableRecord
100
AcDbDimStyleTableRecord
  2
ISO-25$0
 70
     0
 41
1.0
 42
1.0
 43
5.5
 44
1.0
 46
1.0
 50
90.0
 73
     0
 74
     0
 77
     1
 78
     8
140
2.7
141
1.0
143
0.03937007874016
147
1.0
171
     3
172
     1
176
   256
177
   256
271
     1
272
     1
274
     3
283
     0
284
     8
289
     0
340
13D57A
341
13D52F
342
13D534
371
    -1
372
    -1
1001
ACAD_DSTYLE_DIMJOGGED_JOGANGLE_SYMBOL
1070
   384
1040
1.570796326794896
  0
DIMSTYLE
105
144851
330
A
100
AcDbSymbolTableRecord
100
AcDbDimStyleTableRecord
  2
1-8$3
 70
     0
 40
11.0
 41
2.0
 42
1.5
 43
5.0
 44
1.0
 50
90.0
 73
     0
 77
     1
 78
     8
 79
     2
140
2.299999999999999
141
0.1
147
0.33
172
     1
176
   104
177
   104
178
   200
179
     1
271
     1
272
     1
283
     0
284
     8
340
1382B1
345
15
346
15
347
15
371
    13
372
    13
1001
ACAD_DSTYLE_DIMJOGGED_JOGANGLE_SYMBOL
1070
   384
1040
1.570796326794896
  0
DIMSTYLE
105
149B16
330
A
100
AcDbSymbolTableRecord
100
AcDbDimStyleTableRecord
  2
ISO-25-01
 70
     0
 41
20.0
 42
2.0
 43
0.1
 44
2.0
 45
0.001
 73
     0
 74
     0
 77
     1
 78
     8
140
25.0
141
4.0
143
0.03937007874016
147
6.0
171
     3
172
     1
176
   256
177
   256
178
   256
179
     1
271
     2
272
     2
274
     3
283
     0
284
     8
340
11
  0
DIMSTYLE
105
149B17
330
A
100
AcDbSymbolTableRecord
100
AcDbDimStyleTableRecord
  2
ISO-25圆 20
 70
     0
 41
15.0
 42
5.0
 43
2.0
 44
5.0
 45
0.001
 73
     0
 74
     0
 77
     1
 78
     8
140
20.0
141
4.0
143
0.03937007874016
147
6.0
171
     3
172
     1
176
     6
177
     6
178
     6
179
     1
271
     2
272
     2
274
     3
283
     0
284
     8
340
11
1001
AcadStringInfo
1000
MIFCodePage
1070
     5
  0
DIMSTYLE
105
14B25E
330
A
100
AcDbSymbolTableRecord
100
AcDbDimStyleTableRecord
  2
ISO-25圆 30
 70
     0
 41
25.0
 42
5.0
 43
2.0
 44
5.0
 45
0.001
 73
     0
 74
     0
 77
     1
 78
     8
140
30.0
141
4.0
143
0.03937007874016
147
6.0
171
     3
172
     1
176
     6
177
     6
178
     6
179
     1
271
     2
272
     2
274
     3
283
     0
284
     8
340
11
1001
AcadStringInfo
1000
MIFCodePage
1070
     5
  0
DIMSTYLE
105
14B25F
330
A
100
AcDbSymbolTableRecord
100
AcDbDimStyleTableRecord
  2
ISO-25 15
 70
     0
 41
15.0
 42
5.0
 43
2.0
 44
5.0
 45
0.001
 73
     0
 77
     1
 78
     8
140
20.0
141
4.0
143
0.03937007874016
147
6.0
171
     3
172
     1
176
     6
177
     6
178
     6
179
     1
271
     2
272
     2
274
     3
283
     0
284
     8
340
11
  0
DIMSTYLE
105
14B260
330
A
100
AcDbSymbolTableRecord
100
AcDbDimStyleTableRecord
  2
ISO-25圆 40
 70
     0
 41
35.0
 42
5.0
 43
2.0
 44
5.0
 45
0.001
 73
     0
 74
     0
 77
     1
 78
     8
140
40.0
141
4.0
143
0.03937007874016
147
6.0
171
     3
172
     1
176
     6
177
     6
178
     6
179
     1
271
     2
272
     2
274
     3
283
     0
284
     8
340
11
1001
AcadStringInfo
1000
MIFCodePage
1070
     5
  0
DIMSTYLE
105
14F275
330
A
100
AcDbSymbolTableRecord
100
AcDbDimStyleTableRecord
  2
123
 70
     0
 41
16.0
 42
3.0
 43
2.0
 44
3.0
 73
     0
 77
     1
 78
    12
 79
     3
140
19.0
141
4.0
147
4.0
179
     1
340
11
  0
ENDTAB
  0
TABLE
  2
BLOCK_RECORD
  5
1
330
0
100
AcDbSymbolTable
 70
   130
  0
BLOCK_RECORD
  5
1F
102
{ACAD_XDICTIONARY
360
DE63
102
}
330
1
100
AcDbSymbolTableRecord
100
AcDbBlockTableRecord
  2
*Model_Space
340
22
 70
     0
280
     1
281
     0
  0
BLOCK_RECORD
  5
55
330
1
100
AcDbSymbolTableRecord
100
AcDbBlockTableRecord
  2
*Paper_Space
340
56
 70
     0
280
     1
281
     0
  0
BLOCK_RECORD
  5
50
330
1
100
AcDbSymbolTableRecord
100
AcDbBlockTableRecord
  2
*Paper_Space0
340
51
 70
     0
280
     1
281
     0
  0
BLOCK_RECORD
  5
210C0
330
1
100
AcDbSymbolTableRecord
100
AcDbBlockTableRecord
  2
_NONE
340
0
 70
     0
280
     1
281
     0
  0
BLOCK_RECORD
  5
295AE
330
1
100
AcDbSymbolTableRecord
100
AcDbBlockTableRecord
  2
t
340
0
310
2800000020000000200000000100080000000000000400000000000000000000000000000000000000000000000080000080000000808000800000008000800080800000C0C0C000C0DCC000F0CAA6000020400000206000002080000020A0000020C0000020E00000400000004020000040400000406000004080000040A0
310
000040C0000040E00000600000006020000060400000606000006080000060A0000060C0000060E00000800000008020000080400000806000008080000080A0000080C0000080E00000A0000000A0200000A0400000A0600000A0800000A0A00000A0C00000A0E00000C0000000C0200000C0400000C0600000C0800000C0
310
A00000C0C00000C0E00000E0000000E0200000E0400000E0600000E0800000E0A00000E0C00000E0E00040000000400020004000400040006000400080004000A0004000C0004000E00040200000402020004020400040206000402080004020A0004020C0004020E000404000004040200040404000404060004040800040
310
40A0004040C0004040E00040600000406020004060400040606000406080004060A0004060C0004060E00040800000408020004080400040806000408080004080A0004080C0004080E00040A0000040A0200040A0400040A0600040A0800040A0A00040A0C00040A0E00040C0000040C0200040C0400040C0600040C08000
310
40C0A00040C0C00040C0E00040E0000040E0200040E0400040E0600040E0800040E0A00040E0C00040E0E00080000000800020008000400080006000800080008000A0008000C0008000E00080200000802020008020400080206000802080008020A0008020C0008020E00080400000804020008040400080406000804080
310
008040A0008040C0008040E00080600000806020008060400080606000806080008060A0008060C0008060E00080800000808020008080400080806000808080008080A0008080C0008080E00080A0000080A0200080A0400080A0600080A0800080A0A00080A0C00080A0E00080C0000080C0200080C0400080C0600080C0
310
800080C0A00080C0C00080C0E00080E0000080E0200080E0400080E0600080E0800080E0A00080E0C00080E0E000C0000000C0002000C0004000C0006000C0008000C000A000C000C000C000E000C0200000C0202000C0204000C0206000C0208000C020A000C020C000C020E000C0400000C0402000C0404000C0406000C0
310
408000C040A000C040C000C040E000C0600000C0602000C0604000C0606000C0608000C060A000C060C000C060E000C0800000C0802000C0804000C0806000C0808000C080A000C080C000C080E000C0A00000C0A02000C0A04000C0A06000C0A08000C0A0A000C0A0C000C0A0E000C0C00000C0C02000C0C04000C0C06000
310
C0C08000C0C0A000F0FBFF00A4A0A000808080000000FF0000FF000000FFFF00FF000000FF00FF00FFFF0000FFFFFF0000000000000000000000000000000000000000000000000000000000000000000000000000000000000000000000000000000000000000000000000000000000000000000000000000000000000000
310
000000000000000000000000000000000000000000000000000000000000000000F900000000000000000000000000000000000000000000000000000000000000F900000000000000000000000000000000000000000000000000000000000000F90000000000000000000000000000000000000000000000000000000000
310
0000F900000000000000000000000000000000000000000000000000000000000000F900000000000000000000000000000000000000FFFFFFFFFFFFFFFFFFFFFFFFF9FFFFFFFFFFFFFFFFFFFFFF00000000000000FFFFFFFFFFFFFFFFFFFFFFFFFFF9FFFFFFFFFFFFFFFFFFFFFFFF000000000000FF000000000000000000
310
000000F9000000000000000000000000FF00000000FF00000000000000000000000000F9000000000000000000000000FF00000000FF00000000000000000000000000F9000000000000000000000000FF00000000FF00000000000000000000000000F9000000000000000000000000FF00000000FF000000000000000000
310
00000000F9000000000000000000000000FF00000000FF00000000000000000000000000F9000000000000000000000000FF00000000FF00000000000000000000000000F9000000000000000000000000FF00000000FF00000000000000000000000000F9000000000000000000000000FF00000000FF0000000000000000
310
0000000000F9000000000000000000000000FF00000000FF00000000000000000000000000F9000000000000000000000000FF00000000FF00000000000000000000000000F9000000000000000000000000FF00000000FF00000000000000000000000000F9000000000000000000000000FF000000FFFF00000000000000
310
000000000000F9000000000000000000000000FFFF0000000000000000000000000000000000F900000000000000000000000000000000000000000000000000000000000000F900000000000000000000000000000000000000000000000000000000000000F9000000000000000000000000000000000000000000000000
310
00000000000000F900000000000000000000000000000000000000000000000000000000000000F900000000000000000000000000000000000000000000000000000000000000F900000000000000000000000000000000000000000000000000000000000000000000000000000000000000000000000000000000000000
310
0000000000000000000000000000000000000000000000000000000000000000000000000000000000000000000000000000000000000000
 70
     4
280
     1
281
     0
  0
BLOCK_RECORD
  5
5F5C2
330
1
100
AcDbSymbolTableRecord
100
AcDbBlockTableRecord
  2
_Oblique
340
0
 70
     0
280
     1
281
     0
  0
BLOCK_RECORD
  5
ACBCB
330
1
100
AcDbSymbolTableRecord
100
AcDbBlockTableRecord
  2
AVE_RENDER
340
0
 70
     0
280
     1
281
     0
  0
BLOCK_RECORD
  5
ACBD9
330
1
100
AcDbSymbolTableRecord
100
AcDbBlockTableRecord
  2
AVE_GLOBAL
340
0
 70
     0
280
     1
281
     0
  0
BLOCK_RECORD
  5
12BB73
330
1
100
AcDbSymbolTableRecord
100
AcDbBlockTableRecord
  2
_ClosedBlank
340
0
 70
     0
280
     1
281
     0
  0
BLOCK_RECORD
  5
12BB79
330
1
100
AcDbSymbolTableRecord
100
AcDbBlockTableRecord
  2
_DotSmall
340
0
 70
     0
280
     1
281
     0
  0
BLOCK_RECORD
  5
1336C4
330
1
100
AcDbSymbolTableRecord
100
AcDbBlockTableRecord
  2
_CLOSED
340
0
 70
     0
280
     1
281
     0
  0
BLOCK_RECORD
  5
13D52F
330
1
100
AcDbSymbolTableRecord
100
AcDbBlockTableRecord
  2
_Dot
340
0
 70
     0
280
     1
281
     0
  0
BLOCK_RECORD
  5
13D534
102
{ACAD_XDICTIONARY
360
13D535
102
}
330
1
100
AcDbSymbolTableRecord
100
AcDbBlockTableRecord
  2
_ArchTick
340
0
 70
     0
280
     1
281
     0
  0
BLOCK_RECORD
  5
13D53A
330
1
100
AcDbSymbolTableRecord
100
AcDbBlockTableRecord
  2
*D11
340
0
 70
     0
280
     1
281
     0
  0
BLOCK_RECORD
  5
13D546
330
1
100
AcDbSymbolTableRecord
100
AcDbBlockTableRecord
  2
*D12
340
0
 70
     0
280
     1
281
     0
  0
BLOCK_RECORD
  5
13D552
330
1
100
AcDbSymbolTableRecord
100
AcDbBlockTableRecord
  2
*D13
340
0
 70
     0
280
     1
281
     0
  0
BLOCK_RECORD
  5
13D560
330
1
100
AcDbSymbolTableRecord
100
AcDbBlockTableRecord
  2
*D14
340
0
 70
     0
280
     1
281
     0
  0
BLOCK_RECORD
  5
13D56C
330
1
100
AcDbSymbolTableRecord
100
AcDbBlockTableRecord
  2
*D15
340
0
 70
     0
280
     1
281
     0
  0
BLOCK_RECORD
  5
13D57E
102
{ACAD_XDICTIONARY
360
13D59E
102
}
330
1
100
AcDbSymbolTableRecord
100
AcDbBlockTableRecord
  2
A$C0B4B4B8F
340
0
 70
     4
280
     1
281
     0
  0
BLOCK_RECORD
  5
14AC30
330
1
100
AcDbSymbolTableRecord
100
AcDbBlockTableRecord
  2
A$C00294823
340
0
 70
     4
280
     1
281
     0
  0
BLOCK_RECORD
  5
155BEF
330
1
100
AcDbSymbolTableRecord
100
AcDbBlockTableRecord
  2
*D53
340
0
 70
     0
280
     1
281
     0
  0
BLOCK_RECORD
  5
155C01
330
1
100
AcDbSymbolTableRecord
100
AcDbBlockTableRecord
  2
*D54
340
0
 70
     0
280
     1
281
     0
  0
BLOCK_RECORD
  5
155C0D
330
1
100
AcDbSymbolTableRecord
100
AcDbBlockTableRecord
  2
*D55
340
0
 70
     0
280
     1
281
     0
  0
BLOCK_RECORD
  5
155C19
330
1
100
AcDbSymbolTableRecord
100
AcDbBlockTableRecord
  2
*D56
340
0
 70
     0
280
     1
281
     0
  0
BLOCK_RECORD
  5
155C25
330
1
100
AcDbSymbolTableRecord
100
AcDbBlockTableRecord
  2
*D57
340
0
 70
     0
280
     1
281
     0
  0
BLOCK_RECORD
  5
155C31
330
1
100
AcDbSymbolTableRecord
100
AcDbBlockTableRecord
  2
*D58
340
0
 70
     0
280
     1
281
     0
  0
BLOCK_RECORD
  5
155C3F
330
1
100
AcDbSymbolTableRecord
100
AcDbBlockTableRecord
  2
*D59
340
0
 70
     0
280
     1
281
     0
  0
BLOCK_RECORD
  5
155C51
330
1
100
AcDbSymbolTableRecord
100
AcDbBlockTableRecord
  2
*D60
340
0
 70
     0
280
     1
281
     0
  0
BLOCK_RECORD
  5
1561F9
330
1
100
AcDbSymbolTableRecord
100
AcDbBlockTableRecord
  2
*D101
340
0
 70
     0
280
     1
281
     0
  0
BLOCK_RECORD
  5
156205
330
1
100
AcDbSymbolTableRecord
100
AcDbBlockTableRecord
  2
*D102
340
0
 70
     0
280
     1
281
     0
  0
BLOCK_RECORD
  5
156211
330
1
100
AcDbSymbolTableRecord
100
AcDbBlockTableRecord
  2
*D103
340
0
 70
     0
280
     1
281
     0
  0
BLOCK_RECORD
  5
15621F
330
1
100
AcDbSymbolTableRecord
100
AcDbBlockTableRecord
  2
*D104
340
0
 70
     0
280
     1
281
     0
  0
BLOCK_RECORD
  5
156251
330
1
100
AcDbSymbolTableRecord
100
AcDbBlockTableRecord
  2
*D105
340
0
 70
     0
280
     1
281
     0
  0
BLOCK_RECORD
  5
156288
330
1
100
AcDbSymbolTableRecord
100
AcDbBlockTableRecord
  2
*D106
340
0
 70
     0
280
     1
281
     0
  0
BLOCK_RECORD
  5
156298
330
1
100
AcDbSymbolTableRecord
100
AcDbBlockTableRecord
  2
*D107
340
0
 70
     0
280
     1
281
     0
  0
BLOCK_RECORD
  5
1562E0
330
1
100
AcDbSymbolTableRecord
100
AcDbBlockTableRecord
  2
*D108
340
0
 70
     0
280
     1
281
     0
  0
BLOCK_RECORD
  5
1562F6
330
1
100
AcDbSymbolTableRecord
100
AcDbBlockTableRecord
  2
*D109
340
0
 70
     0
280
     1
281
     0
  0
ENDTAB
  0
ENDSEC
  0
SECTION
  2
BLOCKS
  0
BLOCK
  5
20
330
1F
100
AcDbEntity
  8
0
100
AcDbBlockBegin
  2
*Model_Space
 70
     0
 10
0.0
 20
0.0
 30
0.0
  3
*Model_Space
  1

  0
ENDBLK
  5
21
330
1F
100
AcDbEntity
  8
0
100
AcDbBlockEnd
  0
BLOCK
  5
57
330
55
100
AcDbEntity
 67
     1
  8
0
100
AcDbBlockBegin
  2
*Paper_Space
 70
     0
 10
0.0
 20
0.0
 30
0.0
  3
*Paper_Space
  1

  0
ENDBLK
  5
58
330
55
100
AcDbEntity
 67
     1
  8
0
100
AcDbBlockEnd
  0
BLOCK
  5
52
330
50
100
AcDbEntity
 67
     1
  8
0
100
AcDbBlockBegin
  2
*Paper_Space0
 70
     0
 10
0.0
 20
0.0
 30
0.0
  3
*Paper_Space0
  1

  0
VIEWPORT
  5
5603F
330
50
100
AcDbEntity
 67
     1
  8
0
100
AcDbViewport
 10
128.5
 20
97.5
 30
0.0
 40
428.6961038961039
 41
222.18
 68
     0
 69
     0
 12
128.5
 22
97.5
 13
0.0
 23
0.0
 14
10.0
 24
10.0
 15
10.0
 25
10.0
 16
0.0
 26
0.0
 36
1.0
 17
0.0
 27
0.0
 37
0.0
 42
50.0
 43
0.0
 44
0.0
 45
222.18
 50
0.0
 51
0.0
 72
 20000
 90
   819232
  1

281
     0
 71
     1
 74
     0
110
0.0
120
0.0
130
0.0
111
1.0
121
0.0
131
0.0
112
0.0
122
1.0
132
0.0
 79
     0
146
0.0
170
     0
 61
     5
348
DE1E
292
     1
282
     1
141
0.0
142
0.0
 63
   250
421
  3355443
  0
VIEWPORT
  5
56041
330
50
100
AcDbEntity
 67
     1
  8
0
100
AcDbViewport
 10
128.5
 20
97.5
 30
0.0
 40
205.6
 41
156.0
 68
     0
 69
     0
 12
44432.77871652242
 22
-19184.9654913116
 13
0.0
 23
0.0
 14
10.0
 24
10.0
 15
10.0
 25
10.0
 16
0.0
 26
0.0
 36
1.0
 17
0.0
 27
0.0
 37
0.0
 42
50.0
 43
0.0
 44
0.0
 45
63278.44398776388
 50
0.0
 51
0.0
 72
 20000
 90
   819296
  1

281
     0
 71
     1
 74
     0
110
0.0
120
0.0
130
0.0
111
1.0
121
0.0
131
0.0
112
0.0
122
1.0
132
0.0
 79
     0
146
0.0
170
     0
 61
     5
348
DE1E
292
     1
282
     1
141
0.0
142
0.0
 63
   250
421
  3355443
  0
ENDBLK
  5
53
330
50
100
AcDbEntity
 67
     1
  8
0
100
AcDbBlockEnd
  0
BLOCK
  5
210C1
330
210C0
100
AcDbEntity
  8
0
100
AcDbBlockBegin
  2
_NONE
 70
     0
 10
0.0
 20
0.0
 30
0.0
  3
_NONE
  1

  0
ENDBLK
  5
210C2
330
210C0
100
AcDbEntity
  8
0
100
AcDbBlockEnd
  0
BLOCK
  5
295AF
330
295AE
100
AcDbEntity
  8
0
100
AcDbBlockBegin
  2
t
 70
     0
 10
0.0
 20
0.0
 30
0.0
  3
t
  1

  0
LINE
  5
295B0
330
295AE
100
AcDbEntity
  8
粗实线
100
AcDbLine
 10
-318.8283492829796
 20
312.0710678118662
 30
0.0
 11
-318.8283492829796
 21
317.0710678118662
 31
0.0
  0
LINE
  5
295B1
330
295AE
100
AcDbEntity
  8
粗实线
100
AcDbLine
 10
-313.0
 20
312.0710678118662
 30
0.0
 11
-318.8283492829796
 21
312.0710678118662
 31
0.0
  0
ARC
  5
295B2
330
295AE
100
AcDbEntity
  8
粗实线
100
AcDbCircle
 10
-313.0
 20
309.0710678118662
 30
0.0
 40
3.0
100
AcDbArc
 50
0.0
 51
90.0
  0
ARC
  5
295B3
330
295AE
100
AcDbEntity
  8
粗实线
100
AcDbCircle
 10
-313.0
 20
309.0710678118662
 30
0.0
 40
8.0
100
AcDbArc
 50
0.0
 51
90.0
  0
LINE
  5
295B4
330
295AE
100
AcDbEntity
  8
粗实线
100
AcDbLine
 10
-310.0
 20
62.07106781186576
 30
0.0
 11
-310.0
 21
309.0710678118662
 31
0.0
  0
LINE
  5
295B5
330
295AE
100
AcDbEntity
  8
粗实线
100
AcDbLine
 10
-305.0
 20
62.07106781186576
 30
0.0
 11
-305.0
 21
309.0710678118662
 31
0.0
  0
LINE
  5
295B6
330
295AE
100
AcDbEntity
  8
粗实线
100
AcDbLine
 10
42.92893218813697
 20
0.0
 30
0.0
 11
0.0
 21
0.0
 31
0.0
  0
LINE
  5
295B7
330
295AE
100
AcDbEntity
  8
粗实线
100
AcDbLine
 10
40.8578643762703
 20
5.0
 30
0.0
 11
0.0
 21
5.0
 31
0.0
  0
LINE
  5
295B8
330
295AE
100
AcDbEntity
  8
粗实线
100
AcDbLine
 10
-36.47822565556271
 20
12.07106781186621
 30
0.0
 11
40.8578643762703
 21
12.07106781186621
 31
0.0
  0
ARC
  5
295B9
330
295AE
100
AcDbEntity
  8
粗实线
100
AcDbCircle
 10
-255.0
 20
62.07106781186621
 30
0.0
 40
50.0
100
AcDbArc
 50
180.0
 51
270.0
  0
ARC
  5
295BA
330
295AE
100
AcDbEntity
  8
粗实线
100
AcDbCircle
 10
-255.0
 20
62.07106781186621
 30
0.0
 40
55.0
100
AcDbArc
 50
180.0
 51
270.0
  0
LINE
  5
295BB
330
295AE
100
AcDbEntity
  8
粗实线
100
AcDbLine
 10
-50.0
 20
7.071067811865759
 30
0.0
 11
-42.92893218813697
 21
0.0
 31
0.0
  0
LINE
  5
295BC
330
295AE
100
AcDbEntity
  8
粗实线
100
AcDbLine
 10
-42.92893218813697
 20
0.0
 30
0.0
 11
0.0
 21
0.0
 31
0.0
  0
LINE
  5
295BD
330
295AE
100
AcDbEntity
  8
粗实线
100
AcDbLine
 10
-255.0
 20
7.071067811866214
 30
0.0
 11
-50.00000000000364
 21
7.071067811865759
 31
0.0
  0
LINE
  5
295BE
330
295AE
100
AcDbEntity
  8
粗实线
100
AcDbLine
 10
-40.8578643762703
 20
5.0
 30
0.0
 11
0.0
 21
5.0
 31
0.0
  0
LINE
  5
295BF
330
295AE
100
AcDbEntity
  8
粗实线
100
AcDbLine
 10
-47.92893218813515
 20
12.07106781186621
 30
0.0
 11
-40.8578643762703
 21
5.0
 31
0.0
  0
LINE
  5
295C0
330
295AE
100
AcDbEntity
  8
粗实线
100
AcDbLine
 10
-31.78036601842905
 20
5.0
 30
0.0
 11
-31.78036601842905
 21
0.0
 31
0.0
  0
LINE
  5
295C1
330
295AE
100
AcDbEntity
  8
粗实线
100
AcDbLine
 10
-255.0
 20
12.07106781186621
 30
0.0
 11
-47.73877895041368
 21
12.07106781186621
 31
0.0
  0
ARC
  5
295C2
330
295AE
100
AcDbEntity
  8
粗实线
100
AcDbCircle
 10
255.0
 20
62.07106781186576
 30
0.0
 40
50.0
100
AcDbArc
 50
270.0
 51
0.0
  0
ARC
  5
295C3
330
295AE
100
AcDbEntity
  8
粗实线
100
AcDbCircle
 10
255.0
 20
62.07106781186576
 30
0.0
 40
55.0
100
AcDbArc
 50
270.0
 51
0.0
  0
LINE
  5
295C4
330
295AE
100
AcDbEntity
  8
粗实线
100
AcDbLine
 10
50.0
 20
7.071067811865759
 30
0.0
 11
42.92893218813697
 21
0.0
 31
0.0
  0
LINE
  5
295C5
330
295AE
100
AcDbEntity
  8
粗实线
100
AcDbLine
 10
47.92893218813515
 20
12.07106781186576
 30
0.0
 11
40.8578643762703
 21
5.0
 31
0.0
  0
LINE
  5
295C6
330
295AE
100
AcDbEntity
  8
粗实线
100
AcDbLine
 10
31.78036601842905
 20
5.0
 30
0.0
 11
31.78036601842905
 21
0.0
 31
0.0
  0
LINE
  5
295C7
330
295AE
100
AcDbEntity
  8
粗实线
100
AcDbLine
 10
50.0
 20
7.071067811866214
 30
0.0
 11
255.0
 21
7.071067811865759
 31
0.0
  0
LINE
  5
295C8
330
295AE
100
AcDbEntity
  8
粗实线
100
AcDbLine
 10
47.76748461586248
 20
12.07106781186621
 30
0.0
 11
255.0
 21
12.07106781186576
 31
0.0
  0
LINE
  5
295C9
330
295AE
100
AcDbEntity
  8
粗实线
100
AcDbLine
 10
310.0
 20
62.07106781186576
 30
0.0
 11
310.0
 21
309.0710678118662
 31
0.0
  0
LINE
  5
295CA
330
295AE
100
AcDbEntity
  8
粗实线
100
AcDbLine
 10
305.0
 20
62.07106781186576
 30
0.0
 11
305.0
 21
309.0710678118662
 31
0.0
  0
ARC
  5
295CB
330
295AE
100
AcDbEntity
  8
粗实线
100
AcDbCircle
 10
313.0
 20
309.0710678118662
 30
0.0
 40
8.0
100
AcDbArc
 50
90.0
 51
180.0
  0
ARC
  5
295CC
330
295AE
100
AcDbEntity
  8
粗实线
100
AcDbCircle
 10
313.0
 20
309.0710678118662
 30
0.0
 40
3.0
100
AcDbArc
 50
90.0
 51
180.0
  0
LINE
  5
295CD
330
295AE
100
AcDbEntity
  8
粗实线
100
AcDbLine
 10
313.0
 20
312.0710678118662
 30
0.0
 11
318.8283492829796
 21
312.0710678118662
 31
0.0
  0
LINE
  5
295CE
330
295AE
100
AcDbEntity
  8
粗实线
100
AcDbLine
 10
318.8283492829796
 20
312.0710678118662
 30
0.0
 11
318.8283492829796
 21
317.0710678118662
 31
0.0
  0
LINE
  5
295CF
330
295AE
100
AcDbEntity
  8
0
100
AcDbLine
 10
0.0
 20
443.7082756246481
 30
0.0
 11
0.0
 21
-111.1585886847506
 31
0.0
  0
ENDBLK
  5
295D0
330
295AE
100
AcDbEntity
  8
0
100
AcDbBlockEnd
  0
BLOCK
  5
5F5C3
330
5F5C2
100
AcDbEntity
  8
0
 48
5.0
100
AcDbBlockBegin
  2
_Oblique
 70
     0
 10
0.0
 20
0.0
 30
0.0
  3
_Oblique
  1

  0
LINE
  5
5F5C4
330
5F5C2
100
AcDbEntity
  8
0
  6
ByBlock
 62
     0
370
    -2
100
AcDbLine
 10
-0.5
 20
-0.5
 30
0.0
 11
0.5
 21
0.5
 31
0.0
  0
ENDBLK
  5
5F5C5
330
5F5C2
100
AcDbEntity
  8
0
 48
5.0
100
AcDbBlockEnd
  0
BLOCK
  5
ACBCC
330
ACBCB
100
AcDbEntity
  8
0
100
AcDbBlockBegin
  2
AVE_RENDER
 70
     0
 10
0.0
 20
0.0
 30
0.0
  3
AVE_RENDER
  1
AVE_RENDER
  0
ENDBLK
  5
ACBCD
330
ACBCB
100
AcDbEntity
  8
0
100
AcDbBlockEnd
  0
BLOCK
  5
ACBDA
330
ACBD9
100
AcDbEntity
  8
0
100
AcDbBlockBegin
  2
AVE_GLOBAL
 70
     0
 10
0.0
 20
0.0
 30
0.0
  3
AVE_GLOBAL
  1
AVE_GLOBAL
  0
ENDBLK
  5
ACBDB
330
ACBD9
100
AcDbEntity
  8
0
100
AcDbBlockEnd
  0
BLOCK
  5
12BB74
330
12BB73
100
AcDbEntity
  8
0
 48
2.0
100
AcDbBlockBegin
  2
_ClosedBlank
 70
     0
 10
0.0
 20
0.0
 30
0.0
  3
_ClosedBlank
  1

  0
LINE
  5
12BB75
330
12BB73
100
AcDbEntity
  8
0
  6
ByBlock
 62
     0
370
    -2
100
AcDbLine
 10
-1.0
 20
0.1666666666666666
 30
0.0
 11
0.0
 21
0.0
 31
0.0
  0
LINE
  5
12BB76
330
12BB73
100
AcDbEntity
  8
0
  6
ByBlock
 62
     0
370
    -2
100
AcDbLine
 10
0.0
 20
0.0
 30
0.0
 11
-1.0
 21
-0.1666666666666666
 31
0.0
  0
LINE
  5
12BB77
330
12BB73
100
AcDbEntity
  8
0
  6
ByBlock
 62
     0
370
    -2
100
AcDbLine
 10
-1.0
 20
0.1666666666666666
 30
0.0
 11
-1.0
 21
-0.1666666666666666
 31
0.0
  0
ENDBLK
  5
12BB78
330
12BB73
100
AcDbEntity
  8
0
 48
2.0
100
AcDbBlockEnd
  0
BLOCK
  5
12BB7A
330
12BB79
100
AcDbEntity
  8
0
100
AcDbBlockBegin
  2
_DotSmall
 70
     0
 10
0.0
 20
0.0
 30
0.0
  3
_DotSmall
  1

  0
LWPOLYLINE
  5
12BB7B
330
12BB79
100
AcDbEntity
  8
0
  6
ByBlock
 62
     0
100
AcDbPolyline
 90
        2
 70
     1
 43
0.5
 10
-0.0625
 20
0.0
 42
1.0
 10
0.0625
 20
0.0
 42
1.0
  0
ENDBLK
  5
12BB7C
330
12BB79
100
AcDbEntity
  8
0
100
AcDbBlockEnd
  0
BLOCK
  5
1336C5
330
1336C4
100
AcDbEntity
  8
0
100
AcDbBlockBegin
  2
_CLOSED
 70
     0
 10
0.0
 20
0.0
 30
0.0
  3
_CLOSED
  1

  0
LINE
  5
1336C6
330
1336C4
100
AcDbEntity
  8
0
  6
ByBlock
 62
     0
370
    -2
100
AcDbLine
 10
-1.0
 20
0.166667
 30
0.0
 11
0.0
 21
0.0
 31
0.0
  0
LINE
  5
1336C7
330
1336C4
100
AcDbEntity
  8
0
  6
ByBlock
 62
     0
370
    -2
100
AcDbLine
 10
0.0
 20
0.0
 30
0.0
 11
-1.0
 21
-0.166667
 31
0.0
  0
LINE
  5
1336C8
330
1336C4
100
AcDbEntity
  8
0
  6
ByBlock
 62
     0
370
    -2
100
AcDbLine
 10
-1.0
 20
0.166667
 30
0.0
 11
-1.0
 21
-0.166667
 31
0.0
  0
LINE
  5
1336C9
330
1336C4
100
AcDbEntity
  8
0
  6
ByBlock
 62
     0
370
    -2
100
AcDbLine
 10
0.0
 20
0.0
 30
0.0
 11
-1.0
 21
0.0
 31
0.0
  0
ENDBLK
  5
1336CA
330
1336C4
100
AcDbEntity
  8
0
100
AcDbBlockEnd
  0
BLOCK
  5
13D530
330
13D52F
100
AcDbEntity
  8
0
 62
     6
370
    -3
100
AcDbBlockBegin
  2
_Dot
 70
     0
 10
0.0
 20
0.0
 30
0.0
  3
_Dot
  1

  0
LWPOLYLINE
  5
13D531
330
13D52F
100
AcDbEntity
  8
0
  6
ByBlock
 62
     0
370
    -3
100
AcDbPolyline
 90
        2
 70
     1
 43
0.5
 10
-0.25
 20
0.0
 42
1.0
 10
0.25
 20
0.0
 42
1.0
  0
LINE
  5
13D532
330
13D52F
100
AcDbEntity
  8
0
  6
ByBlock
 62
     0
370
    -2
100
AcDbLine
 10
-0.5
 20
0.0
 30
0.0
 11
-1.0
 21
0.0
 31
0.0
  0
ENDBLK
  5
13D533
330
13D52F
100
AcDbEntity
  8
0
 62
     6
370
    -3
100
AcDbBlockEnd
  0
BLOCK
  5
13D537
330
13D534
100
AcDbEntity
  8
0
100
AcDbBlockBegin
  2
_ArchTick
 70
     0
 10
0.0
 20
0.0
 30
0.0
  3
_ArchTick
  1

  0
LWPOLYLINE
  5
13D538
330
13D534
100
AcDbEntity
  8
0
  6
ByBlock
 62
     0
100
AcDbPolyline
 90
        2
 70
     0
 43
0.15
 10
-0.5
 20
-0.5
 10
0.5
 20
0.5
  0
ENDBLK
  5
13D539
330
13D534
100
AcDbEntity
  8
0
100
AcDbBlockEnd
  0
BLOCK
  5
13D53B
330
13D53A
100
AcDbEntity
  8
0
100
AcDbBlockBegin
  2
*D11
 70
     1
 10
0.0
 20
0.0
 30
0.0
  3
*D11
  1

  0
LINE
  5
13D53C
330
13D53A
100
AcDbEntity
  8
0
440
 16777216
370
    -2
100
AcDbLine
 10
33861.71252217048
 20
-26204.14436245966
 30
0.0
 11
33861.71252217048
 21
-26239.56180009766
 31
0.0
  0
LINE
  5
13D53D
330
13D53A
100
AcDbEntity
  8
0
440
 16777216
370
    -2
100
AcDbLine
 10
34014.16714326217
 20
-26204.14436245966
 30
0.0
 11
34014.16714326217
 21
-26239.56180009766
 31
0.0
  0
LINE
  5
13D53E
330
13D53A
100
AcDbEntity
  8
0
440
 16777216
370
    -2
100
AcDbLine
 10
33876.71252217048
 20
-26234.56180009766
 30
0.0
 11
33999.16714326217
 21
-26234.56180009766
 31
0.0
  0
SOLID
  5
13D53F
330
13D53A
100
AcDbEntity
  8
0
440
 16777216
100
AcDbTrace
 10
33876.71252217048
 20
-26232.06180009766
 30
0.0
 11
33876.71252217048
 21
-26237.06180009766
 31
0.0
 12
33861.71252217048
 22
-26234.56180009766
 32
0.0
 13
33861.71252217048
 23
-26234.56180009766
 33
0.0
  0
SOLID
  5
13D540
330
13D53A
100
AcDbEntity
  8
0
440
 16777216
100
AcDbTrace
 10
33999.16714326217
 20
-26232.06180009766
 30
0.0
 11
33999.16714326217
 21
-26237.06180009766
 31
0.0
 12
34014.16714326217
 22
-26234.56180009766
 32
0.0
 13
34014.16714326217
 23
-26234.56180009766
 33
0.0
  0
MTEXT
  5
13D541
330
13D53A
100
AcDbEntity
  8
0
440
 16777216
370
    15
100
AcDbMText
 10
33937.84408751578
 20
-26222.47037152623
 30
0.0
 40
16.0
 41
0.0
 46
0.0
 71
     5
 72
     1
  1
{\Ftxt|c134;%%C}52
 73
     1
 44
1.0
  0
POINT
  5
13D542
330
13D53A
100
AcDbEntity
  8
Defpoints
 62
     0
440
 16777216
100
AcDbPoint
 10
33861.71252217048
 20
-26199.14436245966
 30
0.0
  0
POINT
  5
13D543
330
13D53A
100
AcDbEntity
  8
Defpoints
 62
     0
440
 16777216
100
AcDbPoint
 10
34014.16714326217
 20
-26199.14436245966
 30
0.0
  0
POINT
  5
13D544
330
13D53A
100
AcDbEntity
  8
Defpoints
 62
     0
440
 16777216
100
AcDbPoint
 10
34014.16714326217
 20
-26234.56180009766
 30
0.0
  0
ENDBLK
  5
13D545
330
13D53A
100
AcDbEntity
  8
0
100
AcDbBlockEnd
  0
BLOCK
  5
13D547
330
13D546
100
AcDbEntity
  8
0
100
AcDbBlockBegin
  2
*D12
 70
     1
 10
0.0
 20
0.0
 30
0.0
  3
*D12
  1

  0
LINE
  5
13D548
330
13D546
100
AcDbEntity
  8
0
440
 16777216
370
    -2
100
AcDbLine
 10
33822.36939950485
 20
-26182.34370715547
 30
0.0
 11
33822.36939950485
 21
-26263.99208484452
 31
0.0
  0
LINE
  5
13D549
330
13D546
100
AcDbEntity
  8
0
440
 16777216
370
    -2
100
AcDbLine
 10
34053.3003136878
 20
-26182.34370715547
 30
0.0
 11
34053.3003136878
 21
-26263.99208484452
 31
0.0
  0
LINE
  5
13D54A
330
13D546
100
AcDbEntity
  8
0
440
 16777216
370
    -2
100
AcDbLine
 10
33837.36939950485
 20
-26258.99208484452
 30
0.0
 11
34038.3003136878
 21
-26258.99208484452
 31
0.0
  0
SOLID
  5
13D54B
330
13D546
100
AcDbEntity
  8
0
440
 16777216
100
AcDbTrace
 10
33837.36939950485
 20
-26256.49208484452
 30
0.0
 11
33837.36939950485
 21
-26261.49208484452
 31
0.0
 12
33822.36939950485
 22
-26258.99208484452
 32
0.0
 13
33822.36939950485
 23
-26258.99208484452
 33
0.0
  0
SOLID
  5
13D54C
330
13D546
100
AcDbEntity
  8
0
440
 16777216
100
AcDbTrace
 10
34038.3003136878
 20
-26256.49208484452
 30
0.0
 11
34038.3003136878
 21
-26261.49208484452
 31
0.0
 12
34053.3003136878
 22
-26258.99208484452
 32
0.0
 13
34053.3003136878
 23
-26258.99208484452
 33
0.0
  0
MTEXT
  5
13D54D
330
13D546
100
AcDbEntity
  8
0
440
 16777216
370
    15
100
AcDbMText
 10
33936.64132925554
 20
-26246.90065627309
 30
0.0
 40
16.0
 41
0.0
 46
0.0
 71
     5
 72
     1
  1
{\Ftxt|c134;%%C}72
 73
     1
 44
1.0
  0
POINT
  5
13D54E
330
13D546
100
AcDbEntity
  8
Defpoints
 62
     0
440
 16777216
100
AcDbPoint
 10
33822.36939950485
 20
-26177.34370715548
 30
0.0
  0
POINT
  5
13D54F
330
13D546
100
AcDbEntity
  8
Defpoints
 62
     0
440
 16777216
100
AcDbPoint
 10
34053.3003136878
 20
-26177.34370715548
 30
0.0
  0
POINT
  5
13D550
330
13D546
100
AcDbEntity
  8
Defpoints
 62
     0
440
 16777216
100
AcDbPoint
 10
34053.3003136878
 20
-26258.99208484452
 30
0.0
  0
ENDBLK
  5
13D551
330
13D546
100
AcDbEntity
  8
0
100
AcDbBlockEnd
  0
BLOCK
  5
13D553
330
13D552
100
AcDbEntity
  8
0
100
AcDbBlockBegin
  2
*D13
 70
     1
 10
0.0
 20
0.0
 30
0.0
  3
*D13
  1

  0
LINE
  5
13D554
330
13D552
100
AcDbEntity
  8
0
440
 16777216
370
    -2
100
AcDbLine
 10
33857.71927304635
 20
-26192.54695401645
 30
0.0
 11
33736.55579240111
 21
-26192.54695401645
 31
0.0
  0
LINE
  5
13D555
330
13D552
100
AcDbEntity
  8
0
440
 16777216
370
    -2
100
AcDbLine
 10
33820.51166641919
 20
-26170.34530715547
 30
0.0
 11
33736.55579240111
 21
-26170.34530715547
 31
0.0
  0
LINE
  5
13D556
330
13D552
100
AcDbEntity
  8
0
440
 16777216
370
    -2
100
AcDbLine
 10
33741.55579240111
 20
-26207.54695401645
 30
0.0
 11
33741.55579240111
 21
-26222.54695401645
 31
0.0
  0
LINE
  5
13D557
330
13D552
100
AcDbEntity
  8
0
440
 16777216
370
    -2
100
AcDbLine
 10
33741.55579240111
 20
-26155.34530715547
 30
0.0
 11
33741.55579240111
 21
-26140.34530715547
 31
0.0
  0
LINE
  5
13D558
330
13D552
100
AcDbEntity
  8
0
440
 16777216
370
    -2
100
AcDbLine
 10
33741.55579240111
 20
-26192.54695401645
 30
0.0
 11
33741.55579240111
 21
-26170.34530715547
 31
0.0
  0
SOLID
  5
13D559
330
13D552
100
AcDbEntity
  8
0
440
 16777216
100
AcDbTrace
 10
33739.05579240111
 20
-26207.54695401645
 30
0.0
 11
33744.05579240111
 21
-26207.54695401645
 31
0.0
 12
33741.55579240111
 22
-26192.54695401645
 32
0.0
 13
33741.55579240111
 23
-26192.54695401645
 33
0.0
  0
SOLID
  5
13D55A
330
13D552
100
AcDbEntity
  8
0
440
 16777216
100
AcDbTrace
 10
33739.05579240111
 20
-26155.34530715547
 30
0.0
 11
33744.05579240111
 21
-26155.34530715547
 31
0.0
 12
33741.55579240111
 22
-26170.34530715547
 32
0.0
 13
33741.55579240111
 23
-26170.34530715547
 33
0.0
  0
MTEXT
  5
13D55B
330
13D552
100
AcDbEntity
  8
0
440
 16777216
370
    15
100
AcDbMText
 10
33729.46436382969
 20
-26181.44613058595
 30
0.0
 40
16.0
 41
0.0
 46
0.0
 71
     5
 72
     1
  1
6
 11
0.0000000000000001
 21
1.0
 31
0.0
 73
     1
 44
1.0
  0
POINT
  5
13D55C
330
13D552
100
AcDbEntity
  8
Defpoints
 62
     0
440
 16777216
100
AcDbPoint
 10
33862.71927304635
 20
-26192.54695401645
 30
0.0
  0
POINT
  5
13D55D
330
13D552
100
AcDbEntity
  8
Defpoints
 62
     0
440
 16777216
100
AcDbPoint
 10
33825.51166641919
 20
-26170.34530715547
 30
0.0
  0
POINT
  5
13D55E
330
13D552
100
AcDbEntity
  8
Defpoints
 62
     0
440
 16777216
100
AcDbPoint
 10
33741.55579240111
 20
-26170.34530715547
 30
0.0
  0
ENDBLK
  5
13D55F
330
13D552
100
AcDbEntity
  8
0
100
AcDbBlockEnd
  0
BLOCK
  5
13D561
330
13D560
100
AcDbEntity
  8
0
100
AcDbBlockBegin
  2
*D14
 70
     1
 10
0.0
 20
0.0
 30
0.0
  3
*D14
  1

  0
LINE
  5
13D562
330
13D560
100
AcDbEntity
  8
0
440
 16777216
370
    -2
100
AcDbLine
 10
33832.25872719709
 20
-26176.29651174526
 30
0.0
 11
33832.25872719709
 21
-26136.20450267268
 31
0.0
  0
LINE
  5
13D563
330
13D560
100
AcDbEntity
  8
0
440
 16777216
370
    -2
100
AcDbLine
 10
34043.62093823553
 20
-26176.29651174525
 30
0.0
 11
34043.62093823553
 21
-26136.20450267268
 31
0.0
  0
LINE
  5
13D564
330
13D560
100
AcDbEntity
  8
0
440
 16777216
370
    -2
100
AcDbLine
 10
33847.25872719709
 20
-26141.20450267268
 30
0.0
 11
34028.62093823553
 21
-26141.20450267268
 31
0.0
  0
SOLID
  5
13D565
330
13D560
100
AcDbEntity
  8
0
440
 16777216
100
AcDbTrace
 10
33847.25872719709
 20
-26138.70450267268
 30
0.0
 11
33847.25872719709
 21
-26143.70450267268
 31
0.0
 12
33832.25872719709
 22
-26141.20450267268
 32
0.0
 13
33832.25872719709
 23
-26141.20450267268
 33
0.0
  0
SOLID
  5
13D566
330
13D560
100
AcDbEntity
  8
0
440
 16777216
100
AcDbTrace
 10
34028.62093823553
 20
-26138.70450267268
 30
0.0
 11
34028.62093823553
 21
-26143.70450267268
 31
0.0
 12
34043.62093823553
 22
-26141.20450267268
 32
0.0
 13
34043.62093823553
 23
-26141.20450267268
 33
0.0
  0
MTEXT
  5
13D567
330
13D560
100
AcDbEntity
  8
0
440
 16777216
370
    15
100
AcDbMText
 10
33935.62135180313
 20
-26129.11307410125
 30
0.0
 40
16.0
 41
0.0
 46
0.0
 71
     5
 72
     1
  1
{\Ftxt|c134;%%C}68
 73
     1
 44
1.0
  0
POINT
  5
13D568
330
13D560
100
AcDbEntity
  8
Defpoints
 62
     0
440
 16777216
100
AcDbPoint
 10
33832.25872719709
 20
-26181.29651174526
 30
0.0
  0
POINT
  5
13D569
330
13D560
100
AcDbEntity
  8
Defpoints
 62
     0
440
 16777216
100
AcDbPoint
 10
34043.62093823553
 20
-26181.29651174525
 30
0.0
  0
POINT
  5
13D56A
330
13D560
100
AcDbEntity
  8
Defpoints
 62
     0
440
 16777216
100
AcDbPoint
 10
34043.62093823553
 20
-26141.20450267268
 30
0.0
  0
ENDBLK
  5
13D56B
330
13D560
100
AcDbEntity
  8
0
100
AcDbBlockEnd
  0
BLOCK
  5
13D56D
330
13D56C
100
AcDbEntity
  8
0
100
AcDbBlockBegin
  2
*D15
 70
     1
 10
0.0
 20
0.0
 30
0.0
  3
*D15
  1

  0
LINE
  5
13D56E
330
13D56C
100
AcDbEntity
  8
0
440
 16777216
370
    -2
100
AcDbLine
 10
33840.65678402355
 20
-26181.29651174526
 30
0.0
 11
33784.55396128355
 21
-26181.29651174526
 31
0.0
  0
LINE
  5
13D56F
330
13D56C
100
AcDbEntity
  8
0
440
 16777216
370
    -2
100
AcDbLine
 10
33840.65678402355
 20
-26170.34530715548
 30
0.0
 11
33784.55396128355
 21
-26170.34530715548
 31
0.0
  0
LINE
  5
13D570
330
13D56C
100
AcDbEntity
  8
0
440
 16777216
370
    -2
100
AcDbLine
 10
33789.55396128355
 20
-26196.29651174526
 30
0.0
 11
33789.55396128355
 21
-26211.29651174526
 31
0.0
  0
LINE
  5
13D571
330
13D56C
100
AcDbEntity
  8
0
440
 16777216
370
    -2
100
AcDbLine
 10
33789.55396128355
 20
-26155.34530715548
 30
0.0
 11
33789.55396128355
 21
-26100.07102144119
 31
0.0
  0
LINE
  5
13D572
330
13D56C
100
AcDbEntity
  8
0
440
 16777216
370
    -2
100
AcDbLine
 10
33789.55396128355
 20
-26181.29651174526
 30
0.0
 11
33789.55396128355
 21
-26170.34530715548
 31
0.0
  0
SOLID
  5
13D573
330
13D56C
100
AcDbEntity
  8
0
440
 16777216
100
AcDbTrace
 10
33787.05396128355
 20
-26196.29651174526
 30
0.0
 11
33792.05396128355
 21
-26196.29651174526
 31
0.0
 12
33789.55396128355
 22
-26181.29651174526
 32
0.0
 13
33789.55396128355
 23
-26181.29651174526
 33
0.0
  0
SOLID
  5
13D574
330
13D56C
100
AcDbEntity
  8
0
440
 16777216
100
AcDbTrace
 10
33787.05396128355
 20
-26155.34530715548
 30
0.0
 11
33792.05396128355
 21
-26155.34530715548
 31
0.0
 12
33789.55396128355
 22
-26170.34530715548
 32
0.0
 13
33789.55396128355
 23
-26170.34530715548
 33
0.0
  0
MTEXT
  5
13D575
330
13D56C
100
AcDbEntity
  8
0
440
 16777216
370
    15
100
AcDbMText
 10
33777.41681842641
 20
-26120.20816429833
 30
0.0
 40
16.0
 41
0.0
 46
0.0
 71
     5
 72
     1
  1
3.5
 11
0.0000000000000001
 21
1.0
 31
0.0
 73
     1
 44
1.0
  0
POINT
  5
13D576
330
13D56C
100
AcDbEntity
  8
Defpoints
 62
     0
440
 16777216
100
AcDbPoint
 10
33845.65678402355
 20
-26181.29651174526
 30
0.0
  0
POINT
  5
13D577
330
13D56C
100
AcDbEntity
  8
Defpoints
 62
     0
440
 16777216
100
AcDbPoint
 10
33845.65678402355
 20
-26170.34530715548
 30
0.0
  0
POINT
  5
13D578
330
13D56C
100
AcDbEntity
  8
Defpoints
 62
     0
440
 16777216
100
AcDbPoint
 10
33789.55396128355
 20
-26170.34530715548
 30
0.0
  0
ENDBLK
  5
13D579
330
13D56C
100
AcDbEntity
  8
0
100
AcDbBlockEnd
  0
BLOCK
  5
13D5A0
330
13D57E
100
AcDbEntity
  8
0
100
AcDbBlockBegin
  2
A$C0B4B4B8F
 70
     0
 10
0.0
 20
0.0
 30
0.0
  3
A$C0B4B4B8F
  1

  0
MTEXT
  5
13D57F
330
13D57E
100
AcDbEntity
  8
标注线
100
AcDbMText
 10
270.3699595929283
 20
237.3666080927578
 30
0.0
 40
20.0
 41
182.893383090618
 46
0.0
 71
     3
 72
     5
  1
{\fSimSun|b0|i0|c134|p54;II 放大}
 73
     1
 44
1.0
  0
LINE
  5
13D580
330
13D57E
100
AcDbEntity
  8
0
370
    30
100
AcDbLine
 10
336.5098292314797
 20
86.64838842814061
 30
0.0
 11
358.8809386654903
 21
86.64838842814061
 31
0.0
  0
LINE
  5
13D581
330
13D57E
100
AcDbEntity
  8
0
370
    30
100
AcDbLine
 10
330.2413807236226
 20
93.64678842814464
 30
0.0
 11
357.377433031339
 21
93.64678842814464
 31
0.0
  0
LINE
  5
13D582
330
13D57E
100
AcDbEntity
  8
cs
 48
0.5
100
AcDbLine
 10
110.049341019614
 20
93.64678842814464
 30
0.0
 11
94.91118915413972
 21
93.64678842814464
 31
0.0
  0
LINE
  5
13D583
330
13D57E
100
AcDbEntity
  8
0
370
    30
100
AcDbLine
 10
105.7888672885019
 20
86.64838842814061
 30
0.0
 11
93.27299231783399
 21
86.64838842814061
 31
0.0
  0
LINE
  5
13D584
330
13D57E
100
AcDbEntity
  8
0
370
    30
100
AcDbLine
 10
295.0417488732419
 20
71.44514156716105
 30
0.0
 11
297.3766588058497
 21
64.84773312395191
 31
0.0
  0
LINE
  5
13D585
330
13D57E
100
AcDbEntity
  8
0
370
    30
100
AcDbLine
 10
147.2569476467688
 20
71.44514156716105
 30
0.0
 11
144.922037714161
 21
64.84773312395191
 31
0.0
  0
LINE
  5
13D586
330
13D57E
100
AcDbEntity
  8
0
370
    30
100
AcDbLine
 10
297.3766588058497
 20
64.84773312395191
 30
0.0
 11
144.922037714161
 21
64.84773312395191
 31
0.0
  0
LINE
  5
13D587
330
13D57E
100
AcDbEntity
  8
0
370
    30
100
AcDbLine
 10
147.2569476467688
 20
71.44514156716105
 30
0.0
 11
295.0417488732419
 21
71.44514156716105
 31
0.0
  0
LINE
  5
13D588
330
13D57E
100
AcDbEntity
  8
0
370
    30
100
AcDbLine
 10
331.5467946662248
 20
93.64678842814464
 30
0.0
 11
326.8304537792137
 21
82.69558383835464
 31
0.0
  0
LINE
  5
13D589
330
13D57E
100
AcDbEntity
  8
0
370
    30
100
AcDbLine
 10
332.4698505260385
 20
77.26767689729604
 30
0.0
 11
297.3766588058497
 21
64.84773312395191
 31
0.0
  0
LINE
  5
13D58A
330
13D57E
100
AcDbEntity
  8
0
370
    30
100
AcDbLine
 10
336.5098292314797
 20
86.64838842814061
 30
0.0
 11
332.4698505260385
 21
77.26767689729604
 31
0.0
  0
LINE
  5
13D58B
330
13D57E
100
AcDbEntity
  8
0
370
    30
100
AcDbLine
 10
326.8304537792356
 20
82.69558383835464
 30
0.0
 11
295.0417488732419
 21
71.44514156716105
 31
0.0
  0
LINE
  5
13D58C
330
13D57E
100
AcDbEntity
  8
0
370
    30
100
AcDbLine
 10
109.8288459939649
 20
77.26767689729604
 30
0.0
 11
144.922037714161
 21
64.84773312395191
 31
0.0
  0
LINE
  5
13D58D
330
13D57E
100
AcDbEntity
  8
0
370
    30
100
AcDbLine
 10
105.7888672885019
 20
86.64838842814061
 30
0.0
 11
109.8288459939649
 21
77.26767689729604
 31
0.0
  0
LINE
  5
13D58E
102
{ACAD_REACTORS
330
13D59D
102
}
330
13D57E
100
AcDbEntity
  8
0
370
    30
100
AcDbLine
 10
330.2413807236226
 20
93.64678842814464
 30
0.0
 11
110.049341019614
 21
93.64678842814464
 31
0.0
  0
LINE
  5
13D58F
330
13D57E
100
AcDbEntity
  8
中心
 48
3.0
100
AcDbLine
 10
221.1493482599835
 20
56.31817462050822
 30
0.0
 11
221.1493482599835
 21
110.4987390100941
 31
0.0
  0
DIMENSION
  5
13D590
330
13D57E
100
AcDbEntity
  8
0
370
    15
100
AcDbDimension
280
     0
  2
*D11
 10
297.3766588058497
 20
29.43029548595587
 30
0.0
 11
221.0536030594667
 21
29.43029548595587
 31
0.0
 12
-33716.79048445632
 22
26263.99209558361
 32
0.0
 70
   128
  1
{\Ftxt|c134;%%C}52
 71
     5
 42
152.4546210916887
 73
     0
 74
     0
 75
     0
  3
ISO-25$0
100
AcDbAlignedDimension
 13
144.922037714161
 23
64.84773312395191
 33
0.0
 14
297.3766588058497
 24
64.84773312395191
 34
0.0
100
AcDbRotatedDimension
1001
ACAD
1000
DSTYLE
1002
{
1070
    41
1040
15.0
1070
    42
1040
5.0
1070
    43
1040
2.0
1070
    44
1040
5.0
1070
    45
1040
0.001
1070
    46
1040
0.0
1070
    50
1040
0.7853981633974483
1070
   140
1040
16.0
1070
   141
1040
4.0
1070
   143
1040
0.03937007874016
1070
   147
1040
4.0
1070
   178
1070
   256
1070
   179
1070
     1
1070
   271
1070
     2
1070
   272
1070
     2
1070
   289
1070
     3
1070
   340
1005
11
1070
   341
1005
0
1070
   342
1005
0
1070
   371
1070
    -2
1070
   372
1070
    -2
1002
}
  0
LINE
  5
13D591
330
13D57E
100
AcDbEntity
  8
0
370
    30
100
AcDbLine
 10
110.7519018537932
 20
93.64678842814464
 30
0.0
 11
115.4682427407751
 21
82.69558383835464
 31
0.0
  0
DIMENSION
  5
13D592
330
13D57E
100
AcDbEntity
  8
0
370
    15
100
AcDbDimension
280
     0
  2
*D12
 10
336.5098292314797
 20
5.000010739091521
 30
0.0
 11
219.8508447992208
 21
5.000010739091521
 31
0.0
 12
-33716.79048445632
 22
26263.99209558361
 32
0.0
 70
   128
  1
{\Ftxt|c134;%%C}72
 71
     5
 42
230.9309141829435
 73
     0
 74
     0
 75
     0
  3
ISO-25$0
100
AcDbAlignedDimension
 13
105.5789150485361
 23
86.64838842814061
 33
0.0
 14
336.5098292314797
 24
86.64838842814061
 34
0.0
100
AcDbRotatedDimension
1001
ACAD
1000
DSTYLE
1002
{
1070
    41
1040
15.0
1070
    42
1040
5.0
1070
    43
1040
2.0
1070
    44
1040
5.0
1070
    45
1040
0.001
1070
    46
1040
0.0
1070
    50
1040
0.7853981633974483
1070
   140
1040
16.0
1070
   141
1040
4.0
1070
   143
1040
0.03937007874016
1070
   147
1040
4.0
1070
   178
1070
   256
1070
   179
1070
     1
1070
   271
1070
     2
1070
   272
1070
     2
1070
   289
1070
     3
1070
   340
1005
11
1070
   341
1005
0
1070
   342
1005
0
1070
   371
1070
    -2
1070
   372
1070
    -2
1002
}
  0
DIMENSION
  5
13D593
330
13D57E
100
AcDbEntity
  8
0
370
    15
100
AcDbDimension
280
     0
  2
*D13
 10
24.76530794479186
 20
93.64678842814464
 30
0.0
 11
24.76530794479913
 21
82.54596499765829
 31
0.0
 12
-33716.79048445632
 22
26263.99209558361
 32
0.0
 70
   128
  1
6
 71
     5
 42
22.2016468609836
 73
     0
 74
     0
 75
     0
  3
ISO-25$0
100
AcDbAlignedDimension
 13
145.9287885900339
 23
71.44514156716105
 33
0.0
 14
108.7211819628719
 24
93.64678842814464
 34
0.0
 50
90.0
100
AcDbRotatedDimension
1001
ACAD
1000
DSTYLE
1002
{
1070
    41
1040
15.0
1070
    42
1040
5.0
1070
    43
1040
2.0
1070
    44
1040
5.0
1070
    45
1040
0.001
1070
    46
1040
0.0
1070
    50
1040
0.7853981633974483
1070
   140
1040
16.0
1070
   141
1040
4.0
1070
   143
1040
0.03937007874016
1070
   147
1040
4.0
1070
   178
1070
   256
1070
   179
1070
     1
1070
   271
1070
     2
1070
   272
1070
     2
1070
   289
1070
     3
1070
   340
1005
11
1070
   341
1005
0
1070
   342
1005
0
1070
   371
1070
    -2
1070
   372
1070
    -2
1002
}
  0
DIMENSION
  5
13D594
330
13D57E
100
AcDbEntity
  8
0
370
    15
100
AcDbDimension
280
     0
  2
*D14
 10
326.8304537792137
 20
122.7875929109359
 30
0.0
 11
218.8308673468128
 21
122.7875929109359
 31
0.0
 12
-33716.79048445632
 22
26263.99209558361
 32
0.0
 70
   128
  1
{\Ftxt|c134;%%C}68
 71
     5
 42
211.3622110384385
 73
     0
 74
     0
 75
     0
  3
ISO-25$0
100
AcDbAlignedDimension
 13
115.4682427407751
 23
82.69558383835464
 33
0.0
 14
326.8304537792137
 24
82.69558383836193
 34
0.0
100
AcDbRotatedDimension
1001
ACAD
1000
DSTYLE
1002
{
1070
    41
1040
15.0
1070
    42
1040
5.0
1070
    43
1040
2.0
1070
    44
1040
5.0
1070
    45
1040
0.001
1070
    46
1040
0.0
1070
    50
1040
0.7853981633974483
1070
   140
1040
16.0
1070
   141
1040
4.0
1070
   143
1040
0.03937007874016
1070
   147
1040
4.0
1070
   178
1070
   256
1070
   179
1070
     1
1070
   271
1070
     2
1070
   272
1070
     2
1070
   289
1070
     3
1070
   340
1005
11
1070
   341
1005
0
1070
   342
1005
0
1070
   371
1070
    -2
1070
   372
1070
    -2
1002
}
  0
LINE
  5
13D595
102
{ACAD_REACTORS
330
13D59D
102
}
330
13D57E
100
AcDbEntity
  8
0
370
    30
100
AcDbLine
 10
115.4682427407751
 20
82.69558383835464
 30
0.0
 11
326.8304537792137
 21
82.69558383836193
 31
0.0
  0
LINE
  5
13D596
330
13D57E
100
AcDbEntity
  8
0
370
    30
100
AcDbLine
 10
115.4682427407751
 20
82.69558383835464
 30
0.0
 11
147.2569476467688
 21
71.44514156716105
 31
0.0
  0
LINE
  5
13D597
330
13D57E
100
AcDbEntity
  8
0
 48
0.5
100
AcDbLine
 10
94.91118915413972
 20
93.64678842814464
 30
0.0
 11
93.27299231783399
 21
86.64838842814061
 31
0.0
  0
LINE
  5
13D598
330
13D57E
100
AcDbEntity
  8
0
 48
0.5
100
AcDbLine
 10
357.377433031339
 20
93.64678842814464
 30
0.0
 11
358.8809386654903
 21
86.64838842814061
 31
0.0
  0
HATCH
  5
13D599
330
13D57E
100
AcDbEntity
  8
DIMJ
100
AcDbHatch
 10
0.0
 20
0.0
 30
0.0
210
0.0
220
0.0
230
1.0
  2
ANSI31
 70
     0
 71
     0
 91
        1
 92
        7
 72
     0
 73
     1
 93
        8
 10
331.5467946662248
 20
93.64678842813736
 10
326.8304537792137
 20
82.69558383834009
 10
295.0417488732419
 20
71.44514156715377
 10
297.3766588058497
 20
64.84773312394463
 10
332.4698505260385
 20
77.26767689729604
 10
336.5098292314797
 20
86.64838842814061
 10
358.8809386654903
 20
86.64838842814061
 10
357.377433031339
 20
93.64678842813736
 97
        0
 75
     0
 76
     1
 52
0.0
 41
1.04976
 77
     0
 78
     1
 53
45.0
 43
-83871.45089520913
 44
-7009.5938489603
 45
-2.356778416413388
 46
2.356778416413388
 79
     0
 47
0.2710970503053007
 98
        1
 10
339.5738505932022
 20
91.80797761025678
  0
HATCH
  5
13D59A
330
13D57E
100
AcDbEntity
  8
DIMJ
100
AcDbHatch
 10
0.0
 20
0.0
 30
0.0
210
0.0
220
0.0
230
1.0
  2
ANSI31
 70
     0
 71
     0
 91
        1
 92
        7
 72
     0
 73
     1
 93
        9
 10
144.922037714161
 20
64.84773312394463
 10
147.2569476467688
 20
71.44514156715377
 10
115.4682427407751
 20
82.69558383834738
 10
110.7519018537932
 20
93.64678842813736
 10
110.049341019614
 20
93.64678842813736
 10
94.91118915413972
 20
93.64678842813736
 10
93.27299231783399
 20
86.64838842814061
 10
105.7888672885019
 20
86.64838842814061
 10
109.8288459939649
 20
77.26767689729604
 97
        0
 75
     0
 76
     1
 52
0.0
 41
1.04976
 77
     0
 78
     1
 53
45.0
 43
-83871.45089520913
 44
-7009.5938489603
 45
-2.356778416413388
 46
2.356778416413388
 79
     0
 47
0.3842113092781178
 98
        1
 10
138.3668025098304
 20
68.9152152556635
  0
DIMENSION
  5
13D59B
102
{ACAD_XDICTIONARY
360
13D59C
102
}
102
{ACAD_REACTORS
330
13D59D
102
}
330
13D57E
100
AcDbEntity
  8
0
370
    15
100
AcDbDimension
280
     0
  2
*D15
 10
72.76347682722962
 20
93.64678842813782
 30
0.0
 11
72.7634768272369
 21
143.7839312852852
 31
0.0
 12
-33716.79048445632
 22
26263.99209558361
 32
0.0
 70
   128
  1
3.5
 71
     5
 42
10.95120458978272
 73
     0
 74
     0
 75
     0
  3
ISO-25$0
100
AcDbAlignedDimension
 13
128.8662995672316
 23
82.6955838383551
 33
0.0
 14
128.8662995672316
 24
93.64678842813782
 34
0.0
 50
90.0
100
AcDbRotatedDimension
1001
ACAD
1000
DSTYLE
1002
{
1070
    41
1040
15.0
1070
    42
1040
5.0
1070
    43
1040
2.0
1070
    44
1040
5.0
1070
    45
1040
0.001
1070
    46
1040
0.0
1070
    50
1040
0.7853981633974483
1070
   140
1040
16.0
1070
   141
1040
4.0
1070
   143
1040
0.03937007874016
1070
   147
1040
4.0
1070
   178
1070
   256
1070
   179
1070
     1
1070
   271
1070
     2
1070
   272
1070
     2
1070
   289
1070
     3
1070
   340
1005
11
1070
   341
1005
0
1070
   342
1005
0
1070
   371
1070
    -2
1070
   372
1070
    -2
1002
}
  0
ENDBLK
  5
13D5A1
330
13D57E
100
AcDbEntity
  8
0
100
AcDbBlockEnd
  0
BLOCK
  5
14AC73
330
14AC30
100
AcDbEntity
  8
0
100
AcDbBlockBegin
  2
A$C00294823
 70
     0
 10
0.0
 20
0.0
 30
0.0
  3
A$C00294823
  1

  0
LINE
  5
14AC31
330
14AC30
100
AcDbEntity
  8
WHITE
  6
Continuous
100
AcDbLine
 10
31.95748498360718
 20
251.2433058443757
 30
0.0
 11
256.9405116572025
 21
273.4633048204969
 31
0.0
  0
LINE
  5
14AC32
330
14AC30
100
AcDbEntity
  8
WHITE
  6
Continuous
100
AcDbLine
 10
645.4161593703984
 20
273.4635447013179
 30
0.0
 11
870.4024978661701
 21
251.2433059815494
 31
0.0
  0
ARC
  5
14AC33
330
14AC30
100
AcDbEntity
  8
0
100
AcDbCircle
 10
43.99999134327027
 20
265.6799966229055
 30
0.0
 40
19.0
100
AcDbArc
 50
186.6491627649886
 51
270.0
  0
ARC
  5
14AC34
330
14AC30
100
AcDbEntity
  8
0
100
AcDbCircle
 10
43.99547935939426
 20
265.6764996371394
 30
0.0
 40
18.79442448157161
100
AcDbArc
 50
186.0979487581161
 51
230.1702296855143
  0
LINE
  5
14AC35
330
14AC30
100
AcDbEntity
  8
0
100
AcDbLine
 10
25.30739847299356
 20
263.6799966229055
 30
0.0
 11
23.80105520314919
 21
263.6799966229055
 31
0.0
  0
LINE
  5
14AC36
330
14AC30
100
AcDbEntity
  8
0
100
AcDbLine
 10
23.80105520314919
 20
263.6799966229055
 30
0.0
 11
23.80105520314919
 21
263.4799966229084
 31
0.0
  0
LINE
  5
14AC37
330
14AC30
100
AcDbEntity
  8
0
100
AcDbLine
 10
23.80105520314919
 20
263.4799966229084
 30
0.0
 11
25.12778956393686
 21
263.4799966228939
 31
0.0
  0
ARC
  5
14AC38
330
14AC30
100
AcDbEntity
  8
0
100
AcDbCircle
 10
858.3599913432635
 20
265.6799966229055
 30
0.0
 40
19.0
100
AcDbArc
 50
270.0
 51
359.3968753930651
  0
ARC
  5
14AC39
330
14AC30
100
AcDbEntity
  8
0
100
AcDbCircle
 10
858.3645033271395
 20
265.6764996371394
 30
0.0
 40
18.79442448157161
100
AcDbArc
 50
309.8297709644481
 51
0.0106607426626227
  0
LINE
  5
14AC3A
330
14AC30
100
AcDbEntity
  8
0
100
AcDbLine
 10
877.1589274833759
 20
265.6799966229055
 30
0.0
 11
878.5589274833846
 21
265.6799966229055
 31
0.0
  0
LINE
  5
14AC3B
330
14AC30
100
AcDbEntity
  8
0
100
AcDbLine
 10
878.5589274833846
 20
265.6799966229055
 30
0.0
 11
878.5589274833846
 21
265.4799966229084
 31
0.0
  0
LINE
  5
14AC3C
330
14AC30
100
AcDbEntity
  8
0
100
AcDbLine
 10
878.5589274833846
 20
265.4799966229084
 30
0.0
 11
877.3589386825269
 21
265.4799966229011
 31
0.0
  0
LINE
  5
14AC3D
330
14AC30
100
AcDbEntity
  8
0
100
AcDbLine
 10
-0.000008656729733
 20
636.67999662292
 30
0.0
 11
-0.000008656737009
 21
221.6799966228764
 31
0.0
  0
LINE
  5
14AC3E
330
14AC30
100
AcDbEntity
  8
0
100
AcDbLine
 10
-0.000008656737009
 20
221.6799966228764
 30
0.0
 11
43.99999134328481
 21
221.6799966228618
 31
0.0
  0
LINE
  5
14AC3F
330
14AC30
100
AcDbEntity
  8
0
100
AcDbLine
 10
43.99999134328481
 20
221.6799966228618
 30
0.0
 11
43.99999134327754
 21
246.6799966229055
 31
0.0
  0
SPLINE
  5
14AC40
330
14AC30
100
AcDbEntity
  8
0
 62
     3
100
AcDbSpline
210
0.0
220
0.0
230
1.0
 70
  1064
 71
     3
 72
     9
 73
     5
 74
     3
 42
0.000000001
 43
0.0000000001
 44
0.0000000001
 40
0.0
 40
0.0
 40
0.0
 40
0.0
 40
13.88228286687388
 40
27.76592244441559
 40
27.76592244441559
 40
27.76592244441559
 40
27.76592244441559
 10
273.4633006333252
 20
256.9405158443742
 30
0.0
 10
273.8044674126971
 20
261.6504714236311
 30
0.0
 10
274.4868343135516
 20
271.0708428844624
 30
0.0
 10
279.9290845056792
 20
278.7903863960626
 30
0.0
 10
282.6503425625497
 20
282.6503467497214
 30
0.0
 11
273.4633006333252
 21
256.9405158443742
 31
0.0
 11
275.6766555073491
 21
270.6452171471219
 31
0.0
 11
282.6503425625497
 21
282.6503467497214
 31
0.0
  0
SPLINE
  5
14AC41
330
14AC30
100
AcDbEntity
  8
0
 62
     3
100
AcDbSpline
210
0.0
220
0.0
230
1.0
 70
  1064
 71
     3
 72
     9
 73
     5
 74
     3
 42
0.000000001
 43
0.0000000001
 44
0.0000000001
 40
0.0
 40
0.0
 40
0.0
 40
0.0
 40
13.88228286686786
 40
27.76592244441586
 40
27.76592244441586
 40
27.76592244441586
 40
27.76592244441586
 10
256.9405116572025
 20
273.4633048204969
 30
0.0
 10
261.6504672364565
 20
273.8044715998726
 30
0.0
 10
271.0708386972864
 20
274.4868385007348
 30
0.0
 10
278.7903822088883
 20
279.9290886928588
 30
0.0
 10
282.6503425625497
 20
282.6503467497287
 30
0.0
 11
256.9405116572025
 21
273.4633048204969
 31
0.0
 11
270.6452129599429
 21
275.6766596945281
 31
0.0
 11
282.6503425625497
 21
282.6503467497287
 31
0.0
  0
SPLINE
  5
14AC42
330
14AC30
100
AcDbEntity
  8
0
 62
     3
100
AcDbSpline
210
0.0
220
0.0
230
1.0
 70
  1064
 71
     3
 72
     9
 73
     5
 74
     3
 42
0.000000001
 43
0.0000000001
 44
0.0000000001
 40
0.0
 40
0.0
 40
0.0
 40
0.0
 40
13.88228286687504
 40
27.76592244441309
 40
27.76592244441309
 40
27.76592244441309
 40
27.76592244441309
 10
628.8966820531941
 20
256.9405158443742
 30
0.0
 10
628.5555152738187
 20
261.6504714236307
 30
0.0
 10
627.8731483729577
 20
271.0708428844599
 30
0.0
 10
622.4308981808364
 20
278.7903863960622
 30
0.0
 10
619.7096401239696
 20
282.6503467497214
 30
0.0
 11
628.8966820531941
 21
256.9405158443742
 31
0.0
 11
626.6833271791629
 21
270.6452171471219
 31
0.0
 11
619.7096401239696
 21
282.6503467497214
 31
0.0
  0
SPLINE
  5
14AC43
330
14AC30
100
AcDbEntity
  8
0
 62
     3
100
AcDbSpline
210
0.0
220
0.0
230
1.0
 70
  1064
 71
     3
 72
     9
 73
     5
 74
     3
 42
0.000000001
 43
0.0000000001
 44
0.0000000001
 40
0.0
 40
0.0
 40
0.0
 40
0.0
 40
13.88228286687504
 40
27.76592244441675
 40
27.76592244441675
 40
27.76592244441675
 40
27.76592244441675
 10
645.4194710293168
 20
273.4633048204969
 30
0.0
 10
640.70951545006
 20
273.8044715998719
 30
0.0
 10
631.2891439892291
 20
274.4868385007322
 30
0.0
 10
623.5696004776285
 20
279.9290886928588
 30
0.0
 10
619.7096401239696
 20
282.6503467497287
 30
0.0
 11
645.4194710293168
 21
273.4633048204969
 31
0.0
 11
631.714769726569
 21
275.6766596945281
 31
0.0
 11
619.7096401239696
 21
282.6503467497287
 31
0.0
  0
LINE
  5
14AC44
330
14AC30
100
AcDbEntity
  8
WHITE
  6
Continuous
100
AcDbLine
 10
31.95748498360718
 20
607.1166874014206
 30
0.0
 11
256.9405257922412
 21
584.8966874014244
 31
0.0
  0
LINE
  5
14AC45
330
14AC30
100
AcDbEntity
  8
WHITE
  6
Continuous
 62
     0
100
AcDbLine
 10
273.4633006333252
 20
601.4194774014149
 30
0.0
 11
251.243300633324
 21
826.7124037186558
 31
0.0
  0
LINE
  5
14AC46
330
14AC30
100
AcDbEntity
  8
WHITE
  6
Continuous
 62
     0
100
AcDbLine
 10
651.1166820532025
 20
826.7124037186558
 30
0.0
 11
628.8966820531941
 21
601.4194774014149
 31
0.0
  0
LINE
  5
14AC47
330
14AC30
100
AcDbEntity
  8
WHITE
  6
Continuous
100
AcDbLine
 10
645.4194710293168
 20
584.8966884252995
 30
0.0
 11
870.4024978661701
 21
607.1166872642471
 31
0.0
  0
ARC
  5
14AC48
330
14AC30
100
AcDbEntity
  8
0
100
AcDbCircle
 10
43.99999134327027
 20
592.6799966228909
 30
0.0
 40
19.0
100
AcDbArc
 50
90.0
 51
173.3508372350114
  0
ARC
  5
14AC49
330
14AC30
100
AcDbEntity
  8
0
100
AcDbCircle
 10
43.99547935939426
 20
592.683493608657
 30
0.0
 40
18.79442448157161
100
AcDbArc
 50
129.8297703144857
 51
173.9020512418838
  0
LINE
  5
14AC4A
330
14AC30
100
AcDbEntity
  8
0
100
AcDbLine
 10
25.30739847299356
 20
594.6799966228909
 30
0.0
 11
23.80105520314919
 21
594.6799966228909
 31
0.0
  0
LINE
  5
14AC4B
330
14AC30
100
AcDbEntity
  8
0
100
AcDbLine
 10
23.80105520314919
 20
594.6799966228909
 30
0.0
 11
23.80105520314919
 21
594.879996622888
 31
0.0
  0
LINE
  5
14AC4C
330
14AC30
100
AcDbEntity
  8
0
100
AcDbLine
 10
23.80105520314919
 20
594.879996622888
 30
0.0
 11
25.12778956393686
 21
594.8799966228953
 31
0.0
  0
ARC
  5
14AC4D
330
14AC30
100
AcDbEntity
  8
0
 62
     1
100
AcDbCircle
 10
239.428802901436
 20
811.832294735742
 30
0.0
 40
19.0
100
AcDbArc
 50
51.55115410856758
 51
94.37916975317811
  0
LINE
  5
14AC4E
330
14AC30
100
AcDbEntity
  8
0
 62
     1
100
AcDbLine
 10
237.8000763049868
 20
831.6923113050261
 30
0.0
 11
237.9780286763789
 21
830.7768257182733
 31
0.0
  0
LINE
  5
14AC4F
330
14AC30
100
AcDbEntity
  8
0
 62
     1
100
AcDbLine
 10
237.8000763049868
 20
831.6923113050261
 30
0.0
 11
265.6833006333191
 21
834.3588886275293
 31
0.0
  0
LINE
  5
14AC50
330
14AC30
100
AcDbEntity
  8
0
 62
     0
100
AcDbLine
 10
265.6833006333191
 20
834.3588886275293
 30
0.0
 11
265.6833006333118
 21
858.3599965885996
 31
0.0
  0
ARC
  5
14AC51
330
14AC30
100
AcDbEntity
  8
0
100
AcDbCircle
 10
858.3599913432635
 20
592.6799966228909
 30
0.0
 40
19.0
100
AcDbArc
 50
0.6031246069348341
 51
90.0
  0
ARC
  5
14AC52
330
14AC30
100
AcDbEntity
  8
0
100
AcDbCircle
 10
858.3645033271395
 20
592.683493608657
 30
0.0
 40
18.79442448157161
100
AcDbArc
 50
359.9893392573374
 51
50.17022903555195
  0
LINE
  5
14AC53
330
14AC30
100
AcDbEntity
  8
0
100
AcDbLine
 10
877.1589274833759
 20
592.6799966228909
 30
0.0
 11
878.5589274833846
 21
592.6799966228909
 31
0.0
  0
LINE
  5
14AC54
330
14AC30
100
AcDbEntity
  8
0
100
AcDbLine
 10
878.5589274833846
 20
592.6799966228909
 30
0.0
 11
878.5589274833846
 21
592.879996622888
 31
0.0
  0
LINE
  5
14AC55
330
14AC30
100
AcDbEntity
  8
0
100
AcDbLine
 10
878.5589274833846
 20
592.879996622888
 30
0.0
 11
877.3589386825269
 21
592.8799966228953
 31
0.0
  0
LINE
  5
14AC56
330
14AC30
100
AcDbEntity
  8
0
 62
     0
100
AcDbLine
 10
636.6766820532075
 20
834.3588886275293
 30
0.0
 11
636.6766820532075
 21
858.3599965885996
 31
0.0
  0
LINE
  5
14AC57
330
14AC30
100
AcDbEntity
  8
0
 62
     0
100
AcDbLine
 10
636.6766820532075
 20
858.3599965885996
 30
0.0
 11
265.6833006333118
 21
858.3599965885996
 31
0.0
  0
LINE
  5
14AC58
330
14AC30
100
AcDbEntity
  8
0
100
AcDbLine
 10
-0.000008656729733
 20
636.67999662292
 30
0.0
 11
43.99999134328481
 21
636.6799966229272
 31
0.0
  0
LINE
  5
14AC59
330
14AC30
100
AcDbEntity
  8
0
100
AcDbLine
 10
43.99999134328481
 20
636.6799966229272
 30
0.0
 11
43.99999134327754
 21
611.6799966228909
 31
0.0
  0
SPLINE
  5
14AC5A
330
14AC30
100
AcDbEntity
  8
0
 62
     3
100
AcDbSpline
210
0.0
220
0.0
230
1.0
 70
  1064
 71
     3
 72
     9
 73
     5
 74
     3
 42
0.000000001
 43
0.0000000001
 44
0.0000000001
 40
0.0
 40
0.0
 40
0.0
 40
0.0
 40
13.88228286687388
 40
27.76592244441559
 40
27.76592244441559
 40
27.76592244441559
 40
27.76592244441559
 10
273.4633006333252
 20
601.4194774014149
 30
0.0
 10
273.8044674126971
 20
596.709521822158
 30
0.0
 10
274.4868343135516
 20
587.2891503613266
 30
0.0
 10
279.9290845056792
 20
579.5696068497265
 30
0.0
 10
282.6503425625497
 20
575.7096464960677
 30
0.0
 11
273.4633006333252
 21
601.4194774014149
 31
0.0
 11
275.6766555073491
 21
587.7147760986672
 31
0.0
 11
282.6503425625497
 21
575.7096464960677
 31
0.0
  0
SPLINE
  5
14AC5B
330
14AC30
100
AcDbEntity
  8
0
 62
     3
100
AcDbSpline
210
0.0
220
0.0
230
1.0
 70
  1064
 71
     3
 72
     9
 73
     5
 74
     3
 42
0.000000001
 43
0.0000000001
 44
0.0000000001
 40
0.0
 40
0.0
 40
0.0
 40
0.0
 40
13.88228286686902
 40
27.76592244441702
 40
27.76592244441702
 40
27.76592244441702
 40
27.76592244441702
 10
256.9405116572025
 20
584.8966884252995
 30
0.0
 10
261.6504672364564
 20
584.5555216459208
 30
0.0
 10
271.0708386972858
 20
583.8731547450525
 30
0.0
 10
278.7903822088882
 20
578.4309045529297
 30
0.0
 10
282.6503425625497
 20
575.7096464960604
 30
0.0
 11
256.9405116572025
 21
584.8966884252995
 31
0.0
 11
270.6452129599429
 21
582.683333551261
 31
0.0
 11
282.6503425625497
 21
575.7096464960604
 31
0.0
  0
SPLINE
  5
14AC5C
330
14AC30
100
AcDbEntity
  8
0
 62
     3
100
AcDbSpline
210
0.0
220
0.0
230
1.0
 70
  1064
 71
     3
 72
     9
 73
     5
 74
     3
 42
0.000000001
 43
0.0000000001
 44
0.0000000001
 40
0.0
 40
0.0
 40
0.0
 40
0.0
 40
13.88228286687504
 40
27.76592244441309
 40
27.76592244441309
 40
27.76592244441309
 40
27.76592244441309
 10
628.8966820531941
 20
601.4194774014149
 30
0.0
 10
628.5555152738187
 20
596.7095218221584
 30
0.0
 10
627.8731483729577
 20
587.2891503613293
 30
0.0
 10
622.4308981808364
 20
579.5696068497269
 30
0.0
 10
619.7096401239696
 20
575.7096464960677
 30
0.0
 11
628.8966820531941
 21
601.4194774014149
 31
0.0
 11
626.6833271791629
 21
587.7147760986672
 31
0.0
 11
619.7096401239696
 21
575.7096464960677
 31
0.0
  0
SPLINE
  5
14AC5D
330
14AC30
100
AcDbEntity
  8
0
 62
     3
100
AcDbSpline
210
0.0
220
0.0
230
1.0
 70
  1064
 71
     3
 72
     9
 73
     5
 74
     3
 42
0.000000001
 43
0.0000000001
 44
0.0000000001
 40
0.0
 40
0.0
 40
0.0
 40
0.0
 40
13.8822828668762
 40
27.76592244441791
 40
27.76592244441791
 40
27.76592244441791
 40
27.76592244441791
 10
645.4194710293168
 20
584.8966884252995
 30
0.0
 10
640.7095154500601
 20
584.5555216459216
 30
0.0
 10
631.2891439892298
 20
583.8731547450553
 30
0.0
 10
623.5696004776285
 20
578.4309045529297
 30
0.0
 10
619.7096401239696
 20
575.7096464960604
 30
0.0
 11
645.4194710293168
 21
584.8966884252995
 31
0.0
 11
631.714769726569
 21
582.683333551261
 31
0.0
 11
619.7096401239696
 21
575.7096464960604
 31
0.0
  0
LINE
  5
14AC5E
330
14AC30
100
AcDbEntity
  8
0
100
AcDbLine
 10
902.35999134322
 20
636.67999662292
 30
0.0
 11
902.3599913432418
 21
221.6799966228837
 31
0.0
  0
LINE
  5
14AC5F
330
14AC30
100
AcDbEntity
  8
0
100
AcDbLine
 10
902.3599913432418
 20
221.6799966228837
 30
0.0
 11
858.3599913432417
 21
221.6799966228618
 31
0.0
  0
LINE
  5
14AC60
330
14AC30
100
AcDbEntity
  8
0
100
AcDbLine
 10
858.3599913432417
 20
221.6799966228618
 30
0.0
 11
858.3599913432344
 21
246.6799966229055
 31
0.0
  0
LINE
  5
14AC61
330
14AC30
100
AcDbEntity
  8
0
100
AcDbLine
 10
902.35999134322
 20
636.67999662292
 30
0.0
 11
858.3599913432344
 21
636.6799966229345
 31
0.0
  0
LINE
  5
14AC62
330
14AC30
100
AcDbEntity
  8
0
100
AcDbLine
 10
858.3599913432344
 20
636.6799966229345
 30
0.0
 11
858.3599913432344
 21
611.6799966228909
 31
0.0
  0
ARC
  5
14AC63
330
14AC30
100
AcDbEntity
  8
0
 62
     1
100
AcDbCircle
 10
662.931179785076
 20
811.832294735742
 30
0.0
 40
19.0
100
AcDbArc
 50
85.62083024682186
 51
128.4488458910987
  0
LINE
  5
14AC64
330
14AC30
100
AcDbEntity
  8
0
 62
     1
100
AcDbLine
 10
664.5599063815252
 20
831.6923113050261
 30
0.0
 11
664.3819540101331
 21
830.7768257182733
 31
0.0
  0
LINE
  5
14AC65
330
14AC30
100
AcDbEntity
  8
0
 62
     1
100
AcDbLine
 10
664.5599063815252
 20
831.6923113050261
 30
0.0
 11
636.6766820531929
 21
834.3588886275293
 31
0.0
  0
LINE
  5
14AC66
330
14AC30
100
AcDbEntity
  8
WHITE
  6
Continuous
 62
     0
100
AcDbLine
 10
273.4633006333252
 20
256.9405158443742
 30
0.0
 11
251.243300633324
 21
31.64758952714056
 31
0.0
  0
LINE
  5
14AC67
330
14AC30
100
AcDbEntity
  8
WHITE
  6
Continuous
 62
     0
100
AcDbLine
 10
651.1166820532025
 20
31.64758952714056
 30
0.0
 11
628.8966820531941
 21
256.9405158443815
 31
0.0
  0
ARC
  5
14AC68
330
14AC30
100
AcDbEntity
  8
0
 62
     1
100
AcDbCircle
 10
239.428802901436
 20
46.52769851005451
 30
0.0
 40
19.0
100
AcDbArc
 50
265.6208302468219
 51
308.4488458914324
  0
LINE
  5
14AC69
330
14AC30
100
AcDbEntity
  8
0
 62
     1
100
AcDbLine
 10
237.8000763049868
 20
26.66768194077031
 30
0.0
 11
237.9780286763789
 21
27.58316752752307
 31
0.0
  0
LINE
  5
14AC6A
330
14AC30
100
AcDbEntity
  8
0
 62
     1
100
AcDbLine
 10
237.8000763049868
 20
26.66768194077031
 30
0.0
 11
265.6833006333191
 21
24.00110461826717
 31
0.0
  0
LINE
  5
14AC6B
330
14AC30
100
AcDbEntity
  8
0
 62
     0
100
AcDbLine
 10
265.6833006333191
 20
24.00110461826717
 30
0.0
 11
265.6833006333118
 21
-0.0000033428032111
 31
0.0
  0
LINE
  5
14AC6C
330
14AC30
100
AcDbEntity
  8
0
 62
     0
100
AcDbLine
 10
636.6766820532075
 20
24.00110461826717
 30
0.0
 11
636.6766820532075
 21
-0.0000033428032111
 31
0.0
  0
LINE
  5
14AC6D
330
14AC30
100
AcDbEntity
  8
0
 62
     0
100
AcDbLine
 10
636.6766820532075
 20
-0.0000033428032111
 30
0.0
 11
265.6833006333118
 21
-0.0000033428032111
 31
0.0
  0
ARC
  5
14AC6E
330
14AC30
100
AcDbEntity
  8
0
 62
     1
100
AcDbCircle
 10
662.931179785076
 20
46.52769851005451
 30
0.0
 40
19.0
100
AcDbArc
 50
231.5511541085676
 51
274.3791697531781
  0
LINE
  5
14AC6F
330
14AC30
100
AcDbEntity
  8
0
 62
     1
100
AcDbLine
 10
664.5599063815252
 20
26.66768194077031
 30
0.0
 11
664.3819540101331
 21
27.58316752752307
 31
0.0
  0
LINE
  5
14AC70
330
14AC30
100
AcDbEntity
  8
0
 62
     1
100
AcDbLine
 10
664.5599063815252
 20
26.66768194077031
 30
0.0
 11
636.6766820531929
 21
24.00110461826717
 31
0.0
  0
LINE
  5
14AC71
330
14AC30
100
AcDbEntity
  8
0
100
AcDbLine
 10
451.1799913432596
 20
858.3599965885996
 30
0.0
 11
451.1799913432596
 21
-0.0000033428032111
 31
0.0
  0
LINE
  5
14AC72
330
14AC30
100
AcDbEntity
  8
0
100
AcDbLine
 10
-0.000008656733371
 20
429.1799966228982
 30
0.0
 11
902.3599913432308
 21
429.1799966229457
 31
0.0
  0
ENDBLK
  5
14AC74
330
14AC30
100
AcDbEntity
  8
0
100
AcDbBlockEnd
  0
BLOCK
  5
155BF9
330
155BEF
100
AcDbEntity
  8
0
100
AcDbBlockBegin
  2
*D53
 70
     1
 10
0.0
 20
0.0
 30
0.0
  3
*D53
  1

  0
LINE
  5
156607
330
155BEF
100
AcDbEntity
  8
标注
 62
     0
440
 16777216
370
    -2
100
AcDbLine
 10
-34282.84768014954
 20
-24229.06041646514
 30
0.0
 11
-34383.3857182318
 21
-24229.06041646514
 31
0.0
  0
LINE
  5
156608
330
155BEF
100
AcDbEntity
  8
标注
 62
     0
440
 16777216
370
    -2
100
AcDbLine
 10
-34318.04768014956
 20
-23975.06041646514
 30
0.0
 11
-34383.3857182318
 21
-23975.06041646514
 31
0.0
  0
LINE
  5
156609
330
155BEF
100
AcDbEntity
  8
标注
 62
     0
440
 16777216
370
    -2
100
AcDbLine
 10
-34380.8857182318
 20
-24199.06041646513
 30
0.0
 11
-34380.8857182318
 21
-24005.06041646513
 31
0.0
  0
SOLID
  5
15660A
330
155BEF
100
AcDbEntity
  8
标注
 62
     0
440
 16777216
100
AcDbTrace
 10
-34385.88571823181
 20
-24199.06041646513
 30
0.0
 11
-34375.8857182318
 21
-24199.06041646513
 31
0.0
 12
-34380.8857182318
 22
-24229.06041646514
 32
0.0
 13
-34380.8857182318
 23
-24229.06041646514
 33
0.0
  0
SOLID
  5
15660B
330
155BEF
100
AcDbEntity
  8
标注
 62
     0
440
 16777216
100
AcDbTrace
 10
-34385.88571823181
 20
-24005.06041646513
 30
0.0
 11
-34375.8857182318
 21
-24005.06041646513
 31
0.0
 12
-34380.8857182318
 22
-23975.06041646514
 32
0.0
 13
-34380.8857182318
 23
-23975.06041646514
 33
0.0
  0
MTEXT
  5
15660C
330
155BEF
100
AcDbEntity
  8
标注
 62
     0
440
 16777216
100
AcDbMText
 10
-34409.48907018711
 20
-24102.06041646512
 30
0.0
 40
30.0
 41
0.0
 46
0.0
 71
     5
 72
     1
  1
\A1;254{\fSimSun|b0|i0|c134|p2; [10"]}
 11
0.0000000000000001
 21
1.0
 31
0.0
 73
     1
 44
1.0
  0
POINT
  5
15660D
330
155BEF
100
AcDbEntity
  8
Defpoints
 62
     0
440
 16777216
100
AcDbPoint
 10
-34274.84768014954
 20
-24229.06041646514
 30
0.0
  0
POINT
  5
15660E
330
155BEF
100
AcDbEntity
  8
Defpoints
 62
     0
440
 16777216
100
AcDbPoint
 10
-34310.04768014955
 20
-23975.06041646514
 30
0.0
  0
POINT
  5
15660F
330
155BEF
100
AcDbEntity
  8
Defpoints
 62
     0
440
 16777216
100
AcDbPoint
 10
-34380.8857182318
 20
-23975.06041646514
 30
0.0
  0
ENDBLK
  5
155BFA
330
155BEF
100
AcDbEntity
  8
0
100
AcDbBlockEnd
  0
BLOCK
  5
155C0B
330
155C01
100
AcDbEntity
  8
0
100
AcDbBlockBegin
  2
*D54
 70
     1
 10
0.0
 20
0.0
 30
0.0
  3
*D54
  1

  0
LINE
  5
1566AD
330
155C01
100
AcDbEntity
  8
标注
 62
     0
440
 16777216
370
    -2
100
AcDbLine
 10
-34318.04768014956
 20
-24951.18913669146
 30
0.0
 11
-34418.30122469207
 21
-24951.18913669146
 31
0.0
  0
LINE
  5
1566AE
330
155C01
100
AcDbEntity
  8
标注
 62
     0
440
 16777216
370
    -2
100
AcDbLine
 10
-34318.04768014956
 20
-24443.18913669146
 30
0.0
 11
-34418.30122469207
 21
-24443.18913669146
 31
0.0
  0
LINE
  5
1566AF
330
155C01
100
AcDbEntity
  8
标注
 62
     0
440
 16777216
370
    -2
100
AcDbLine
 10
-34415.80122469207
 20
-24921.18913669146
 30
0.0
 11
-34415.80122469207
 21
-24473.18913669145
 31
0.0
  0
SOLID
  5
1566B0
330
155C01
100
AcDbEntity
  8
标注
 62
     0
440
 16777216
100
AcDbTrace
 10
-34420.80122469207
 20
-24921.18913669146
 30
0.0
 11
-34410.80122469207
 21
-24921.18913669146
 31
0.0
 12
-34415.80122469207
 22
-24951.18913669146
 32
0.0
 13
-34415.80122469207
 23
-24951.18913669146
 33
0.0
  0
SOLID
  5
1566B1
330
155C01
100
AcDbEntity
  8
标注
 62
     0
440
 16777216
100
AcDbTrace
 10
-34420.80122469207
 20
-24473.18913669145
 30
0.0
 11
-34410.80122469207
 21
-24473.18913669145
 31
0.0
 12
-34415.80122469207
 22
-24443.18913669146
 32
0.0
 13
-34415.80122469207
 23
-24443.18913669146
 33
0.0
  0
MTEXT
  5
1566B2
330
155C01
100
AcDbEntity
  8
标注
 62
     0
440
 16777216
100
AcDbMText
 10
-34444.40457664738
 20
-24697.18913669145
 30
0.0
 40
30.0
 41
0.0
 46
0.0
 71
     5
 72
     1
  1
\A1;508{\fSimSun|b0|i0|c134|p2; [20"]}
 11
0.0000000000000001
 21
1.0
 31
0.0
 73
     1
 44
1.0
  0
POINT
  5
1566B3
330
155C01
100
AcDbEntity
  8
Defpoints
 62
     0
440
 16777216
100
AcDbPoint
 10
-34310.04768014955
 20
-24951.18913669146
 30
0.0
  0
POINT
  5
1566B4
330
155C01
100
AcDbEntity
  8
Defpoints
 62
     0
440
 16777216
100
AcDbPoint
 10
-34310.04768014955
 20
-24443.18913669146
 30
0.0
  0
POINT
  5
1566B5
330
155C01
100
AcDbEntity
  8
Defpoints
 62
     0
440
 16777216
100
AcDbPoint
 10
-34415.80122469207
 20
-24443.18913669146
 30
0.0
  0
ENDBLK
  5
155C0C
330
155C01
100
AcDbEntity
  8
0
100
AcDbBlockEnd
  0
BLOCK
  5
155C17
330
155C0D
100
AcDbEntity
  8
0
100
AcDbBlockBegin
  2
*D55
 70
     1
 10
0.0
 20
0.0
 30
0.0
  3
*D55
  1

  0
LINE
  5
156677
330
155C0D
100
AcDbEntity
  8
标注
 62
     0
440
 16777216
370
    -2
100
AcDbLine
 10
-33472.04768014954
 20
-24435.18913669145
 30
0.0
 11
-33472.04768014954
 21
-24340.76531597203
 31
0.0
  0
LINE
  5
156678
330
155C0D
100
AcDbEntity
  8
标注
 62
     0
440
 16777216
370
    -2
100
AcDbLine
 10
-34310.04768014954
 20
-24435.18913669145
 30
0.0
 11
-34310.04768014954
 21
-24340.76531597203
 31
0.0
  0
LINE
  5
156679
330
155C0D
100
AcDbEntity
  8
标注
 62
     0
440
 16777216
370
    -2
100
AcDbLine
 10
-33502.04768014954
 20
-24343.26531597203
 30
0.0
 11
-34280.04768014954
 21
-24343.26531597203
 31
0.0
  0
SOLID
  5
15667A
330
155C0D
100
AcDbEntity
  8
标注
 62
     0
440
 16777216
100
AcDbTrace
 10
-33502.04768014954
 20
-24338.26531597203
 30
0.0
 11
-33502.04768014954
 21
-24348.26531597203
 31
0.0
 12
-33472.04768014954
 22
-24343.26531597203
 32
0.0
 13
-33472.04768014954
 23
-24343.26531597203
 33
0.0
  0
SOLID
  5
15667B
330
155C0D
100
AcDbEntity
  8
标注
 62
     0
440
 16777216
100
AcDbTrace
 10
-34280.04768014954
 20
-24338.26531597203
 30
0.0
 11
-34280.04768014954
 21
-24348.26531597203
 31
0.0
 12
-34310.04768014954
 22
-24343.26531597203
 32
0.0
 13
-34310.04768014954
 23
-24343.26531597203
 33
0.0
  0
MTEXT
  5
15667C
330
155C0D
100
AcDbEntity
  8
标注
 62
     0
440
 16777216
100
AcDbMText
 10
-33889.60191373991
 20
-24314.66196401673
 30
0.0
 40
30.0
 41
0.0
 46
0.0
 71
     5
 72
     1
  1
\A1;838{\fSimSun|b0|i0|c134|p2; [32"]}
 73
     1
 44
1.0
  0
POINT
  5
15667D
330
155C0D
100
AcDbEntity
  8
Defpoints
 62
     0
440
 16777216
100
AcDbPoint
 10
-33472.04768014954
 20
-24443.18913669145
 30
0.0
  0
POINT
  5
15667E
330
155C0D
100
AcDbEntity
  8
Defpoints
 62
     0
440
 16777216
100
AcDbPoint
 10
-34310.04768014954
 20
-24443.18913669145
 30
0.0
  0
POINT
  5
15667F
330
155C0D
100
AcDbEntity
  8
Defpoints
 62
     0
440
 16777216
100
AcDbPoint
 10
-34310.04768014954
 20
-24343.26531597203
 30
0.0
  0
ENDBLK
  5
155C18
330
155C0D
100
AcDbEntity
  8
0
100
AcDbBlockEnd
  0
BLOCK
  5
155C23
330
155C19
100
AcDbEntity
  8
0
100
AcDbBlockBegin
  2
*D56
 70
     1
 10
0.0
 20
0.0
 30
0.0
  3
*D56
  1

  0
LINE
  5
156689
330
155C19
100
AcDbEntity
  8
标注
 62
     0
440
 16777216
370
    -2
100
AcDbLine
 10
-34295.04768014954
 20
-24469.18913669145
 30
0.0
 11
-34295.04768014954
 21
-24403.31902408675
 31
0.0
  0
LINE
  5
15668A
330
155C19
100
AcDbEntity
  8
标注
 62
     0
440
 16777216
370
    -2
100
AcDbLine
 10
-33906.04768014948
 20
-24469.18913669148
 30
0.0
 11
-33906.04768014948
 21
-24403.31902408675
 31
0.0
  0
LINE
  5
15668B
330
155C19
100
AcDbEntity
  8
标注
 62
     0
440
 16777216
370
    -2
100
AcDbLine
 10
-34265.04768014954
 20
-24405.81902408675
 30
0.0
 11
-33936.04768014948
 21
-24405.81902408675
 31
0.0
  0
SOLID
  5
15668C
330
155C19
100
AcDbEntity
  8
标注
 62
     0
440
 16777216
100
AcDbTrace
 10
-34265.04768014954
 20
-24400.81902408675
 30
0.0
 11
-34265.04768014954
 21
-24410.81902408675
 31
0.0
 12
-34295.04768014954
 22
-24405.81902408675
 32
0.0
 13
-34295.04768014954
 23
-24405.81902408675
 33
0.0
  0
SOLID
  5
15668D
330
155C19
100
AcDbEntity
  8
标注
 62
     0
440
 16777216
100
AcDbTrace
 10
-33936.04768014948
 20
-24400.81902408675
 30
0.0
 11
-33936.04768014948
 21
-24410.81902408675
 31
0.0
 12
-33906.04768014948
 22
-24405.81902408675
 32
0.0
 13
-33906.04768014948
 23
-24405.81902408675
 33
0.0
  0
MTEXT
  5
15668E
330
155C19
100
AcDbEntity
  8
标注
 62
     0
440
 16777216
100
AcDbMText
 10
-34095.50058233635
 20
-24377.21567213144
 30
0.0
 40
30.0
 41
0.0
 46
0.0
 71
     5
 72
     1
  1
\A1;{\fSimSun|b0|i0|c134|p2;390 [15.35"]}
 73
     1
 44
1.0
  0
POINT
  5
15668F
330
155C19
100
AcDbEntity
  8
Defpoints
 62
     0
440
 16777216
100
AcDbPoint
 10
-34295.04768014954
 20
-24477.18913669145
 30
0.0
  0
POINT
  5
156690
330
155C19
100
AcDbEntity
  8
Defpoints
 62
     0
440
 16777216
100
AcDbPoint
 10
-33906.04768014948
 20
-24477.18913669147
 30
0.0
  0
POINT
  5
156691
330
155C19
100
AcDbEntity
  8
Defpoints
 62
     0
440
 16777216
100
AcDbPoint
 10
-33906.04768014948
 20
-24405.81902408675
 30
0.0
  0
ENDBLK
  5
155C24
330
155C19
100
AcDbEntity
  8
0
100
AcDbBlockEnd
  0
BLOCK
  5
155C2F
330
155C25
100
AcDbEntity
  8
0
100
AcDbBlockBegin
  2
*D57
 70
     1
 10
0.0
 20
0.0
 30
0.0
  3
*D57
  1

  0
LINE
  5
15669B
330
155C25
100
AcDbEntity
  8
标注
 62
     0
440
 16777216
370
    -2
100
AcDbLine
 10
-33876.04768014954
 20
-24469.18913669145
 30
0.0
 11
-33876.04768014954
 21
-24403.40704941794
 31
0.0
  0
LINE
  5
15669C
330
155C25
100
AcDbEntity
  8
标注
 62
     0
440
 16777216
370
    -2
100
AcDbLine
 10
-33487.04768014948
 20
-24469.18913669146
 30
0.0
 11
-33487.04768014948
 21
-24403.40704941794
 31
0.0
  0
LINE
  5
15669D
330
155C25
100
AcDbEntity
  8
标注
 62
     0
440
 16777216
370
    -2
100
AcDbLine
 10
-33846.04768014954
 20
-24405.90704941794
 30
0.0
 11
-33517.04768014948
 21
-24405.90704941794
 31
0.0
  0
SOLID
  5
15669E
330
155C25
100
AcDbEntity
  8
标注
 62
     0
440
 16777216
100
AcDbTrace
 10
-33846.04768014954
 20
-24400.90704941794
 30
0.0
 11
-33846.04768014954
 21
-24410.90704941794
 31
0.0
 12
-33876.04768014954
 22
-24405.90704941794
 32
0.0
 13
-33876.04768014954
 23
-24405.90704941794
 33
0.0
  0
SOLID
  5
15669F
330
155C25
100
AcDbEntity
  8
标注
 62
     0
440
 16777216
100
AcDbTrace
 10
-33517.04768014948
 20
-24400.90704941794
 30
0.0
 11
-33517.04768014948
 21
-24410.90704941794
 31
0.0
 12
-33487.04768014948
 22
-24405.90704941794
 32
0.0
 13
-33487.04768014948
 23
-24405.90704941794
 33
0.0
  0
MTEXT
  5
1566A0
330
155C25
100
AcDbEntity
  8
标注
 62
     0
440
 16777216
100
AcDbMText
 10
-33681.54768014951
 20
-24377.30369746264
 30
0.0
 40
30.0
 41
0.0
 46
0.0
 71
     5
 72
     1
  1
\A1;{\fSimSun|b0|i0|c134|p2;390 [15.35"]}
 73
     1
 44
1.0
  0
POINT
  5
1566A1
330
155C25
100
AcDbEntity
  8
Defpoints
 62
     0
440
 16777216
100
AcDbPoint
 10
-33876.04768014954
 20
-24477.18913669145
 30
0.0
  0
POINT
  5
1566A2
330
155C25
100
AcDbEntity
  8
Defpoints
 62
     0
440
 16777216
100
AcDbPoint
 10
-33487.04768014948
 20
-24477.18913669146
 30
0.0
  0
POINT
  5
1566A3
330
155C25
100
AcDbEntity
  8
Defpoints
 62
     0
440
 16777216
100
AcDbPoint
 10
-33487.04768014948
 20
-24405.90704941794
 30
0.0
  0
ENDBLK
  5
155C30
330
155C25
100
AcDbEntity
  8
0
100
AcDbBlockEnd
  0
BLOCK
  5
155C3D
330
155C31
100
AcDbEntity
  8
0
100
AcDbBlockBegin
  2
*D58
 70
     1
 10
0.0
 20
0.0
 30
0.0
  3
*D58
  1

  0
LINE
  5
156633
330
155C31
100
AcDbEntity
  8
标注
 62
     0
440
 16777216
370
    -2
100
AcDbLine
 10
-33906.04768014951
 20
-24689.18913669145
 30
0.0
 11
-33906.04768014951
 21
-24614.17347818659
 31
0.0
  0
LINE
  5
156634
330
155C31
100
AcDbEntity
  8
标注
 62
     0
440
 16777216
370
    -2
100
AcDbLine
 10
-33876.04768014945
 20
-24689.18913669146
 30
0.0
 11
-33876.04768014945
 21
-24614.17347818659
 31
0.0
  0
LINE
  5
156635
330
155C31
100
AcDbEntity
  8
标注
 62
     0
440
 16777216
370
    -2
100
AcDbLine
 10
-33936.04768014951
 20
-24616.67347818659
 30
0.0
 11
-33966.04768014951
 21
-24616.67347818659
 31
0.0
  0
LINE
  5
156636
330
155C31
100
AcDbEntity
  8
标注
 62
     0
440
 16777216
370
    -2
100
AcDbLine
 10
-33846.04768014945
 20
-24616.67347818659
 30
0.0
 11
-33613.70131143436
 21
-24616.67347818659
 31
0.0
  0
LINE
  5
156637
330
155C31
100
AcDbEntity
  8
标注
 62
     0
440
 16777216
370
    -2
100
AcDbLine
 10
-33906.04768014951
 20
-24616.67347818659
 30
0.0
 11
-33876.04768014945
 21
-24616.67347818659
 31
0.0
  0
SOLID
  5
156638
330
155C31
100
AcDbEntity
  8
标注
 62
     0
440
 16777216
100
AcDbTrace
 10
-33936.04768014951
 20
-24611.67347818659
 30
0.0
 11
-33936.04768014951
 21
-24621.67347818659
 31
0.0
 12
-33906.04768014951
 22
-24616.67347818659
 32
0.0
 13
-33906.04768014951
 23
-24616.67347818659
 33
0.0
  0
SOLID
  5
156639
330
155C31
100
AcDbEntity
  8
标注
 62
     0
440
 16777216
100
AcDbTrace
 10
-33846.04768014945
 20
-24611.67347818659
 30
0.0
 11
-33846.04768014945
 21
-24621.67347818659
 31
0.0
 12
-33876.04768014945
 22
-24616.67347818659
 32
0.0
 13
-33876.04768014945
 23
-24616.67347818659
 33
0.0
  0
MTEXT
  5
15663A
330
155C31
100
AcDbEntity
  8
标注
 62
     0
440
 16777216
100
AcDbMText
 10
-33714.87449579191
 20
-24588.07012623129
 30
0.0
 40
30.0
 41
0.0
 46
0.0
 71
     5
 72
     1
  1
\A1;{\fSimSun|b0|i0|c134|p2;28 [1.1"]}
 73
     1
 44
1.0
  0
POINT
  5
15663B
330
155C31
100
AcDbEntity
  8
Defpoints
 62
     0
440
 16777216
100
AcDbPoint
 10
-33906.04768014951
 20
-24697.18913669145
 30
0.0
  0
POINT
  5
15663C
330
155C31
100
AcDbEntity
  8
Defpoints
 62
     0
440
 16777216
100
AcDbPoint
 10
-33876.04768014945
 20
-24697.18913669146
 30
0.0
  0
POINT
  5
15663D
330
155C31
100
AcDbEntity
  8
Defpoints
 62
     0
440
 16777216
100
AcDbPoint
 10
-33876.04768014945
 20
-24616.67347818659
 30
0.0
  0
ENDBLK
  5
155C3E
330
155C31
100
AcDbEntity
  8
0
100
AcDbBlockEnd
  0
BLOCK
  5
155C49
330
155C3F
100
AcDbEntity
  8
0
100
AcDbBlockBegin
  2
*D59
 70
     1
 10
0.0
 20
0.0
 30
0.0
  3
*D59
  1

  0
LINE
  5
1566BF
330
155C3F
100
AcDbEntity
  8
标注
 62
     0
440
 16777216
370
    -2
100
AcDbLine
 10
-34284.04768014956
 20
-24458.18913669145
 30
0.0
 11
-34372.90457567787
 21
-24458.18913669145
 31
0.0
  0
LINE
  5
1566C0
330
155C3F
100
AcDbEntity
  8
标注
 62
     0
440
 16777216
370
    -2
100
AcDbLine
 10
-34284.0476801495
 20
-24936.18913669146
 30
0.0
 11
-34372.90457567787
 21
-24936.18913669146
 31
0.0
  0
LINE
  5
1566C1
330
155C3F
100
AcDbEntity
  8
标注
 62
     0
440
 16777216
370
    -2
100
AcDbLine
 10
-34370.40457567787
 20
-24488.18913669145
 30
0.0
 11
-34370.40457567787
 21
-24906.18913669146
 31
0.0
  0
SOLID
  5
1566C2
330
155C3F
100
AcDbEntity
  8
标注
 62
     0
440
 16777216
100
AcDbTrace
 10
-34375.40457567787
 20
-24488.18913669145
 30
0.0
 11
-34365.40457567787
 21
-24488.18913669145
 31
0.0
 12
-34370.40457567787
 22
-24458.18913669145
 32
0.0
 13
-34370.40457567787
 23
-24458.18913669145
 33
0.0
  0
SOLID
  5
1566C3
330
155C3F
100
AcDbEntity
  8
标注
 62
     0
440
 16777216
100
AcDbTrace
 10
-34375.40457567787
 20
-24906.18913669146
 30
0.0
 11
-34365.40457567787
 21
-24906.18913669146
 31
0.0
 12
-34370.40457567787
 22
-24936.18913669146
 32
0.0
 13
-34370.40457567787
 23
-24936.18913669146
 33
0.0
  0
MTEXT
  5
1566C4
330
155C3F
100
AcDbEntity
  8
标注
 62
     0
440
 16777216
100
AcDbMText
 10
-34399.00792763317
 20
-24697.18913669145
 30
0.0
 40
30.0
 41
0.0
 46
0.0
 71
     5
 72
     1
  1
\A1;478{\fSimSun|b0|i0|c134|p2; [18.82"]}
 11
0.0000000000000001
 21
1.0
 31
0.0
 73
     1
 44
1.0
  0
POINT
  5
1566C5
330
155C3F
100
AcDbEntity
  8
Defpoints
 62
     0
440
 16777216
100
AcDbPoint
 10
-34276.04768014955
 20
-24458.18913669145
 30
0.0
  0
POINT
  5
1566C6
330
155C3F
100
AcDbEntity
  8
Defpoints
 62
     0
440
 16777216
100
AcDbPoint
 10
-34276.04768014949
 20
-24936.18913669146
 30
0.0
  0
POINT
  5
1566C7
330
155C3F
100
AcDbEntity
  8
Defpoints
 62
     0
440
 16777216
100
AcDbPoint
 10
-34370.40457567787
 20
-24936.18913669146
 30
0.0
  0
ENDBLK
  5
155C4A
330
155C3F
100
AcDbEntity
  8
0
100
AcDbBlockEnd
  0
BLOCK
  5
155C5E
330
155C51
100
AcDbEntity
  8
0
100
AcDbBlockBegin
  2
*D60
 70
     1
 10
0.0
 20
0.0
 30
0.0
  3
*D60
  1

  0
LINE
  5
156158
330
155C51
100
AcDbEntity
  8
标注
 62
     0
440
 16777216
370
    -2
100
AcDbLine
 10
-33485.84653692733
 20
-24189.12708908948
 30
0.0
 11
-33485.84653692733
 21
-24184.87913135585
 31
0.0
  0
ARC
  5
156159
330
155C51
100
AcDbEntity
  8
标注
 62
     0
440
 16777216
370
    -2
100
AcDbCircle
 10
-33485.84653692732
 20
-23976.26041646508
 30
0.0
 40
206.1187148907749
100
AcDbArc
 50
250.8067637291499
 51
259.1533818645678
  0
ARC
  5
15615A
330
155C51
100
AcDbEntity
  8
标注
 62
     0
440
 16777216
370
    -2
100
AcDbCircle
 10
-33485.84653692732
 20
-23976.26041646508
 30
0.0
 40
206.1187148907749
100
AcDbArc
 50
278.346618135417
 51
286.6932362708348
  0
ARC
  5
15615B
330
155C51
100
AcDbEntity
  8
标注
 62
     0
440
 16777216
370
    -2
100
AcDbCircle
 10
-33485.84653692732
 20
-23976.26041646508
 30
0.0
 40
206.1187148907749
100
AcDbArc
 50
267.4999999999857
 51
269.9999999999991
  0
SOLID
  5
15615C
330
155C51
100
AcDbEntity
  8
标注
 62
     0
440
 16777216
100
AcDbTrace
 10
-33524.05301545563
 20
-24173.73058571365
 30
0.0
 11
-33525.21509606787
 21
-24183.66283463576
 31
0.0
 12
-33494.83730899544
 22
-24182.18295201144
 32
0.0
 13
-33494.83730899544
 23
-24182.18295201144
 33
0.0
  0
SOLID
  5
15615D
330
155C51
100
AcDbEntity
  8
标注
 62
     0
440
 16777216
100
AcDbTrace
 10
-33455.56221435047
 20
-24185.18266592145
 30
0.0
 11
-33456.28995030632
 21
-24175.20918105513
 31
0.0
 12
-33485.84653692733
 22
-24182.37913135585
 32
0.0
 13
-33485.84653692733
 23
-24182.37913135585
 33
0.0
  0
MTEXT
  5
15615E
330
155C51
100
AcDbEntity
  8
标注
 62
     0
440
 16777216
100
AcDbMText
 10
-33443.31647288369
 20
-24152.31490387204
 30
0.0
 40
30.0
 41
0.0
 46
0.0
 71
     5
 72
     1
  1
\A1;2.5°
 11
0.9720391816667582
 21
0.2348187158312113
 31
0.0
 73
     1
 44
1.0
  0
POINT
  5
15615F
330
155C51
100
AcDbEntity
  8
Defpoints
 62
     0
440
 16777216
100
AcDbPoint
 10
-33491.84144177765
 20
-24182.29193285046
 30
0.0
  0
POINT
  5
156160
330
155C51
100
AcDbEntity
  8
Defpoints
 62
     0
440
 16777216
100
AcDbPoint
 10
-33485.84653692733
 20
-23976.26041646516
 30
0.0
  0
POINT
  5
156161
330
155C51
100
AcDbEntity
  8
Defpoints
 62
     0
440
 16777216
100
AcDbPoint
 10
-33485.84653692732
 20
-23976.26041646514
 30
0.0
  0
POINT
  5
156162
330
155C51
100
AcDbEntity
  8
Defpoints
 62
     0
440
 16777216
100
AcDbPoint
 10
-33485.84653692733
 20
-24181.12708908948
 30
0.0
  0
POINT
  5
156163
330
155C51
100
AcDbEntity
  8
Defpoints
 62
     0
440
 16777216
100
AcDbPoint
 10
-33496.04054241225
 20
-24209.7415280899
 30
0.0
  0
ENDBLK
  5
155C5F
330
155C51
100
AcDbEntity
  8
0
100
AcDbBlockEnd
  0
BLOCK
  5
156203
330
1561F9
100
AcDbEntity
  8
0
100
AcDbBlockBegin
  2
*D101
 70
     1
 10
0.0
 20
0.0
 30
0.0
  3
*D101
  1

  0
LINE
  5
1566FD
330
1561F9
100
AcDbEntity
  8
标注
 62
     0
440
 16777216
370
    -2
100
AcDbLine
 10
-34013.40544158565
 20
-25270.55243727103
 30
0.0
 11
-34013.40544158565
 21
-25327.50105386673
 31
0.0
  0
LINE
  5
1566FE
330
1561F9
100
AcDbEntity
  8
标注
 62
     0
440
 16777216
370
    -2
100
AcDbLine
 10
-33795.56333325851
 20
-25270.55243727103
 30
0.0
 11
-33795.56333325851
 21
-25327.50105386673
 31
0.0
  0
LINE
  5
1566FF
330
1561F9
100
AcDbEntity
  8
标注
 62
     0
440
 16777216
370
    -2
100
AcDbLine
 10
-33986.40544158565
 20
-25325.25105386673
 30
0.0
 11
-33822.56333325851
 21
-25325.25105386673
 31
0.0
  0
SOLID
  5
156700
330
1561F9
100
AcDbEntity
  8
标注
 62
     0
440
 16777216
100
AcDbTrace
 10
-33986.40544158565
 20
-25320.75105386673
 30
0.0
 11
-33986.40544158565
 21
-25329.75105386673
 31
0.0
 12
-34013.40544158565
 22
-25325.25105386673
 32
0.0
 13
-34013.40544158565
 23
-25325.25105386673
 33
0.0
  0
SOLID
  5
156701
330
1561F9
100
AcDbEntity
  8
标注
 62
     0
440
 16777216
100
AcDbTrace
 10
-33822.56333325851
 20
-25320.75105386673
 30
0.0
 11
-33822.56333325851
 21
-25329.75105386673
 31
0.0
 12
-33795.56333325851
 22
-25325.25105386673
 32
0.0
 13
-33795.56333325851
 23
-25325.25105386673
 33
0.0
  0
MTEXT
  5
156702
330
1561F9
100
AcDbEntity
  8
标注
 62
     0
440
 16777216
100
AcDbMText
 10
-33904.48438742208
 20
-25299.50803710695
 30
0.0
 40
27.0
 41
0.0
 46
0.0
 71
     5
 72
     1
  1
\A1;{\Ftxt|c134;%%C\fSimSun|b0|i0|c134|p2;90 [3.5"]}
 73
     1
 44
1.0
  0
POINT
  5
156703
330
1561F9
100
AcDbEntity
  8
Defpoints
 62
     0
440
 16777216
100
AcDbPoint
 10
-34013.40544158565
 20
-25263.35243727103
 30
0.0
  0
POINT
  5
156704
330
1561F9
100
AcDbEntity
  8
Defpoints
 62
     0
440
 16777216
100
AcDbPoint
 10
-33795.56333325851
 20
-25263.35243727103
 30
0.0
  0
POINT
  5
156705
330
1561F9
100
AcDbEntity
  8
Defpoints
 62
     0
440
 16777216
100
AcDbPoint
 10
-33795.56333325851
 20
-25325.25105386673
 30
0.0
  0
ENDBLK
  5
156204
330
1561F9
100
AcDbEntity
  8
0
100
AcDbBlockEnd
  0
BLOCK
  5
15620F
330
156205
100
AcDbEntity
  8
0
100
AcDbBlockBegin
  2
*D102
 70
     1
 10
0.0
 20
0.0
 30
0.0
  3
*D102
  1

  0
LINE
  5
156721
330
156205
100
AcDbEntity
  8
标注
 62
     0
440
 16777216
370
    -2
100
AcDbLine
 10
-34069.62275220758
 20
-25239.40152377052
 30
0.0
 11
-34069.62275220758
 21
-25381.01604037342
 31
0.0
  0
LINE
  5
156722
330
156205
100
AcDbEntity
  8
标注
 62
     0
440
 16777216
370
    -2
100
AcDbLine
 10
-33739.64602297954
 20
-25239.40152377052
 30
0.0
 11
-33739.64602297954
 21
-25381.01604037342
 31
0.0
  0
LINE
  5
156723
330
156205
100
AcDbEntity
  8
标注
 62
     0
440
 16777216
370
    -2
100
AcDbLine
 10
-34042.62275220758
 20
-25378.76604037342
 30
0.0
 11
-33766.64602297954
 21
-25378.76604037342
 31
0.0
  0
SOLID
  5
156724
330
156205
100
AcDbEntity
  8
标注
 62
     0
440
 16777216
100
AcDbTrace
 10
-34042.62275220758
 20
-25374.26604037342
 30
0.0
 11
-34042.62275220758
 21
-25383.26604037342
 31
0.0
 12
-34069.62275220758
 22
-25378.76604037342
 32
0.0
 13
-34069.62275220758
 23
-25378.76604037342
 33
0.0
  0
SOLID
  5
156725
330
156205
100
AcDbEntity
  8
标注
 62
     0
440
 16777216
100
AcDbTrace
 10
-33766.64602297954
 20
-25374.26604037342
 30
0.0
 11
-33766.64602297954
 21
-25383.26604037342
 31
0.0
 12
-33739.64602297954
 22
-25378.76604037342
 32
0.0
 13
-33739.64602297954
 23
-25378.76604037342
 33
0.0
  0
MTEXT
  5
156726
330
156205
100
AcDbEntity
  8
标注
 62
     0
440
 16777216
100
AcDbMText
 10
-33907.70510986327
 20
-25353.02302361365
 30
0.0
 40
27.0
 41
0.0
 46
0.0
 71
     5
 72
     1
  1
\A1;{\Ftxt|c134;%%C\fSimSun|b0|i0|c134|p2;120 [4.7"]}
 73
     1
 44
1.0
  0
POINT
  5
156727
330
156205
100
AcDbEntity
  8
Defpoints
 62
     0
440
 16777216
100
AcDbPoint
 10
-34069.62275220758
 20
-25232.20152377052
 30
0.0
  0
POINT
  5
156728
330
156205
100
AcDbEntity
  8
Defpoints
 62
     0
440
 16777216
100
AcDbPoint
 10
-33739.64602297954
 20
-25232.20152377052
 30
0.0
  0
POINT
  5
156729
330
156205
100
AcDbEntity
  8
Defpoints
 62
     0
440
 16777216
100
AcDbPoint
 10
-33739.64602297954
 20
-25378.76604037342
 30
0.0
  0
ENDBLK
  5
156210
330
156205
100
AcDbEntity
  8
0
100
AcDbBlockEnd
  0
BLOCK
  5
15621D
330
156211
100
AcDbEntity
  8
0
100
AcDbBlockBegin
  2
*D103
 70
     1
 10
0.0
 20
0.0
 30
0.0
  3
*D103
  1

  0
LINE
  5
1566E9
330
156211
100
AcDbEntity
  8
标注
 62
     0
440
 16777216
370
    -2
100
AcDbLine
 10
-34019.1668972386
 20
-25253.92541331813
 30
0.0
 11
-34168.25986265492
 21
-25253.92541331813
 31
0.0
  0
LINE
  5
1566EA
330
156211
100
AcDbEntity
  8
标注
 62
     0
440
 16777216
370
    -2
100
AcDbLine
 10
-34072.33277319187
 20
-25222.20152377054
 30
0.0
 11
-34168.25986265492
 21
-25222.20152377054
 31
0.0
  0
LINE
  5
1566EB
330
156211
100
AcDbEntity
  8
标注
 62
     0
440
 16777216
370
    -2
100
AcDbLine
 10
-34166.00986265492
 20
-25280.92541331813
 30
0.0
 11
-34166.00986265492
 21
-25307.92541331813
 31
0.0
  0
LINE
  5
1566EC
330
156211
100
AcDbEntity
  8
标注
 62
     0
440
 16777216
370
    -2
100
AcDbLine
 10
-34166.00986265492
 20
-25195.20152377054
 30
0.0
 11
-34166.00986265492
 21
-25168.20152377054
 31
0.0
  0
LINE
  5
1566ED
330
156211
100
AcDbEntity
  8
标注
 62
     0
440
 16777216
370
    -2
100
AcDbLine
 10
-34166.00986265492
 20
-25253.92541331813
 30
0.0
 11
-34166.00986265492
 21
-25222.20152377054
 31
0.0
  0
SOLID
  5
1566EE
330
156211
100
AcDbEntity
  8
标注
 62
     0
440
 16777216
100
AcDbTrace
 10
-34170.50986265492
 20
-25280.92541331813
 30
0.0
 11
-34161.50986265491
 21
-25280.92541331813
 31
0.0
 12
-34166.00986265492
 22
-25253.92541331813
 32
0.0
 13
-34166.00986265492
 23
-25253.92541331813
 33
0.0
  0
SOLID
  5
1566EF
330
156211
100
AcDbEntity
  8
标注
 62
     0
440
 16777216
100
AcDbTrace
 10
-34170.50986265492
 20
-25195.20152377054
 30
0.0
 11
-34161.50986265491
 21
-25195.20152377054
 31
0.0
 12
-34166.00986265492
 22
-25222.20152377054
 32
0.0
 13
-34166.00986265492
 23
-25222.20152377054
 33
0.0
  0
MTEXT
  5
1566F0
330
156211
100
AcDbEntity
  8
标注
 62
     0
440
 16777216
100
AcDbMText
 10
-34191.75287941469
 20
-25238.06346854431
 30
0.0
 40
27.0
 41
0.0
 46
0.0
 71
     5
 72
     1
  1
\A1;{\fSimSun|b0|i0|c134|p2;6 [.24"]}
 11
0.0000000000000001
 21
1.0
 31
0.0
 73
     1
 44
1.0
  0
POINT
  5
1566F1
330
156211
100
AcDbEntity
  8
Defpoints
 62
     0
440
 16777216
100
AcDbPoint
 10
-34011.9668972386
 20
-25253.92541331813
 30
0.0
  0
POINT
  5
1566F2
330
156211
100
AcDbEntity
  8
Defpoints
 62
     0
440
 16777216
100
AcDbPoint
 10
-34065.13277319187
 20
-25222.20152377054
 30
0.0
  0
POINT
  5
1566F3
330
156211
100
AcDbEntity
  8
Defpoints
 62
     0
440
 16777216
100
AcDbPoint
 10
-34166.00986265492
 20
-25222.20152377054
 30
0.0
  0
ENDBLK
  5
15621E
330
156211
100
AcDbEntity
  8
0
100
AcDbBlockEnd
  0
BLOCK
  5
156229
330
15621F
100
AcDbEntity
  8
0
100
AcDbBlockBegin
  2
*D104
 70
     1
 10
0.0
 20
0.0
 30
0.0
  3
*D104
  1

  0
LINE
  5
15670F
330
15621F
100
AcDbEntity
  8
标注
 62
     0
440
 16777216
370
    -2
100
AcDbLine
 10
-34055.49191131217
 20
-25230.64967847701
 30
0.0
 11
-34055.49191131217
 21
-25178.31228554066
 31
0.0
  0
LINE
  5
156710
330
15621F
100
AcDbEntity
  8
标注
 62
     0
440
 16777216
370
    -2
100
AcDbLine
 10
-33753.47686353205
 20
-25230.649678477
 30
0.0
 11
-33753.47686353205
 21
-25178.31228554066
 31
0.0
  0
LINE
  5
156711
330
15621F
100
AcDbEntity
  8
标注
 62
     0
440
 16777216
370
    -2
100
AcDbLine
 10
-34028.49191131217
 20
-25180.56228554066
 30
0.0
 11
-33780.47686353205
 21
-25180.56228554066
 31
0.0
  0
SOLID
  5
156712
330
15621F
100
AcDbEntity
  8
标注
 62
     0
440
 16777216
100
AcDbTrace
 10
-34028.49191131217
 20
-25176.06228554066
 30
0.0
 11
-34028.49191131217
 21
-25185.06228554066
 31
0.0
 12
-34055.49191131217
 22
-25180.56228554066
 32
0.0
 13
-34055.49191131217
 23
-25180.56228554066
 33
0.0
  0
SOLID
  5
156713
330
15621F
100
AcDbEntity
  8
标注
 62
     0
440
 16777216
100
AcDbTrace
 10
-33780.47686353205
 20
-25176.06228554066
 30
0.0
 11
-33780.47686353205
 21
-25185.06228554066
 31
0.0
 12
-33753.47686353205
 22
-25180.56228554066
 32
0.0
 13
-33753.47686353205
 23
-25180.56228554066
 33
0.0
  0
MTEXT
  5
156714
330
15621F
100
AcDbEntity
  8
标注
 62
     0
440
 16777216
100
AcDbMText
 10
-33904.48438742211
 20
-25154.81926878088
 30
0.0
 40
27.0
 41
0.0
 46
0.0
 71
     5
 72
     1
  1
\A1;{\Ftxt|c134;%%C\fSimSun|b0|i0|c134|p2;114 [4.5"]}
 73
     1
 44
1.0
  0
POINT
  5
156715
330
15621F
100
AcDbEntity
  8
Defpoints
 62
     0
440
 16777216
100
AcDbPoint
 10
-34055.49191131217
 20
-25237.84967847702
 30
0.0
  0
POINT
  5
156716
330
15621F
100
AcDbEntity
  8
Defpoints
 62
     0
440
 16777216
100
AcDbPoint
 10
-33753.47686353205
 20
-25237.849678477
 30
0.0
  0
POINT
  5
156717
330
15621F
100
AcDbEntity
  8
Defpoints
 62
     0
440
 16777216
100
AcDbPoint
 10
-33753.47686353205
 20
-25180.56228554066
 30
0.0
  0
ENDBLK
  5
15622A
330
15621F
100
AcDbEntity
  8
0
100
AcDbBlockEnd
  0
BLOCK
  5
15625D
330
156251
100
AcDbEntity
  8
0
100
AcDbBlockBegin
  2
*D105
 70
     1
 10
0.0
 20
0.0
 30
0.0
  3
*D105
  1

  0
LINE
  5
1566D3
330
156251
100
AcDbEntity
  8
标注
 62
     0
440
 16777216
370
    -2
100
AcDbLine
 10
-34043.54745425564
 20
-25237.84967847703
 30
0.0
 11
-34118.76266736147
 21
-25237.84967847703
 31
0.0
  0
LINE
  5
1566D4
330
156251
100
AcDbEntity
  8
标注
 62
     0
440
 16777216
370
    -2
100
AcDbLine
 10
-34043.54745425564
 20
-25222.20152377055
 30
0.0
 11
-34118.76266736147
 21
-25222.20152377055
 31
0.0
  0
LINE
  5
1566D5
330
156251
100
AcDbEntity
  8
标注
 62
     0
440
 16777216
370
    -2
100
AcDbLine
 10
-34116.51266736147
 20
-25264.84967847703
 30
0.0
 11
-34116.51266736147
 21
-25291.84967847703
 31
0.0
  0
LINE
  5
1566D6
330
156251
100
AcDbEntity
  8
标注
 62
     0
440
 16777216
370
    -2
100
AcDbLine
 10
-34116.51266736147
 20
-25195.20152377055
 30
0.0
 11
-34116.51266736147
 21
-25005.69873047446
 31
0.0
  0
LINE
  5
1566D7
330
156251
100
AcDbEntity
  8
标注
 62
     0
440
 16777216
370
    -2
100
AcDbLine
 10
-34116.51266736147
 20
-25237.84967847703
 30
0.0
 11
-34116.51266736147
 21
-25222.20152377055
 31
0.0
  0
SOLID
  5
1566D8
330
156251
100
AcDbEntity
  8
标注
 62
     0
440
 16777216
100
AcDbTrace
 10
-34121.01266736147
 20
-25264.84967847703
 30
0.0
 11
-34112.01266736147
 21
-25264.84967847703
 31
0.0
 12
-34116.51266736147
 22
-25237.84967847703
 32
0.0
 13
-34116.51266736147
 23
-25237.84967847703
 33
0.0
  0
SOLID
  5
1566D9
330
156251
100
AcDbEntity
  8
标注
 62
     0
440
 16777216
100
AcDbTrace
 10
-34121.01266736147
 20
-25195.20152377055
 30
0.0
 11
-34112.01266736147
 21
-25195.20152377055
 31
0.0
 12
-34116.51266736147
 22
-25222.20152377055
 32
0.0
 13
-34116.51266736147
 23
-25222.20152377055
 33
0.0
  0
MTEXT
  5
1566DA
330
156251
100
AcDbEntity
  8
标注
 62
     0
440
 16777216
100
AcDbMText
 10
-34142.25568412125
 20
-25086.95012712249
 30
0.0
 40
27.0
 41
0.0
 46
0.0
 71
     5
 72
     1
  1
\A1;{\fSimSun|b0|i0|c134|p2;3 [.12"]}
 11
0.0000000000000001
 21
1.0
 31
0.0
 73
     1
 44
1.0
  0
POINT
  5
1566DB
330
156251
100
AcDbEntity
  8
Defpoints
 62
     0
440
 16777216
100
AcDbPoint
 10
-34036.34745425564
 20
-25237.84967847703
 30
0.0
  0
POINT
  5
1566DC
330
156251
100
AcDbEntity
  8
Defpoints
 62
     0
440
 16777216
100
AcDbPoint
 10
-34036.34745425564
 20
-25222.20152377055
 30
0.0
  0
POINT
  5
1566DD
330
156251
100
AcDbEntity
  8
Defpoints
 62
     0
440
 16777216
100
AcDbPoint
 10
-34116.51266736147
 20
-25222.20152377055
 30
0.0
  0
ENDBLK
  5
15625E
330
156251
100
AcDbEntity
  8
0
100
AcDbBlockEnd
  0
BLOCK
  5
15628E
330
156288
100
AcDbEntity
  8
0
100
AcDbBlockBegin
  2
*D106
 70
     1
 10
0.0
 20
0.0
 30
0.0
  3
*D106
  1

  0
LINE
  5
15665C
330
156288
100
AcDbEntity
  8
标注
440
 16777216
370
    -2
100
AcDbLine
 10
-33560.78134715344
 20
-24178.95312255796
 30
0.0
 11
-33771.41821866183
 21
-24178.95312255796
 31
0.0
  0
LINE
  5
15665D
330
156288
100
AcDbEntity
  8
标注
440
 16777216
370
    -2
100
AcDbLine
 10
-33771.41821866183
 20
-24178.95312255796
 30
0.0
 11
-33841.29620047341
 21
-24206.6496103447
 31
0.0
  0
MTEXT
  5
15665E
330
156288
100
AcDbEntity
  8
标注
440
 16777216
100
AcDbMText
 10
-33663.09978290763
 20
-24154.34977060266
 30
0.0
 40
30.0
 41
0.0
 46
0.0
 71
     5
 72
     1
  1
R19{\fSimSun|b0|i0|c134|p2; [.75"]}
 73
     1
 44
1.0
  0
SOLID
  5
15665F
330
156288
100
AcDbEntity
  8
标注
440
 16777216
100
AcDbTrace
 10
-33842.8314825015
 20
-24202.77610802699
 30
0.0
 11
-33839.76091844532
 21
-24210.52311266241
 31
0.0
 12
-33864.53721437969
 22
-24215.86130251323
 32
0.0
 13
-33864.53721437969
 23
-24215.86130251323
 33
0.0
  0
POINT
  5
156660
330
156288
100
AcDbEntity
  8
Defpoints
 62
     0
440
 16777216
100
AcDbPoint
 10
-33864.53721437969
 20
-24215.86130251323
 30
0.0
  0
POINT
  5
156661
330
156288
100
AcDbEntity
  8
Defpoints
 62
     0
440
 16777216
100
AcDbPoint
 10
-33846.87404381087
 20
-24208.86041646513
 30
0.0
  0
ENDBLK
  5
15628F
330
156288
100
AcDbEntity
  8
0
100
AcDbBlockEnd
  0
BLOCK
  5
15629E
330
156298
100
AcDbEntity
  8
0
100
AcDbBlockBegin
  2
*D107
 70
     1
 10
0.0
 20
0.0
 30
0.0
  3
*D107
  1

  0
LINE
  5
156656
330
156298
100
AcDbEntity
  8
标注
440
 16777216
370
    -2
100
AcDbLine
 10
-33988.29125365661
 20
-24142.49627582735
 30
0.0
 11
-34198.92812516501
 21
-24142.49627582734
 31
0.0
  0
LINE
  5
156657
330
156298
100
AcDbEntity
  8
标注
440
 16777216
370
    -2
100
AcDbLine
 10
-34198.92812516501
 20
-24142.49627582734
 30
0.0
 11
-34261.61292840602
 21
-24204.63633129719
 31
0.0
  0
MTEXT
  5
156658
330
156298
100
AcDbEntity
  8
标注
440
 16777216
100
AcDbMText
 10
-34090.6096894108
 20
-24117.89292387204
 30
0.0
 40
30.0
 41
0.0
 46
0.0
 71
     5
 72
     1
  1
R19{\fSimSun|b0|i0|c134|p2; [.75"]}
 73
     1
 44
1.0
  0
SOLID
  5
156659
330
156298
100
AcDbEntity
  8
标注
440
 16777216
100
AcDbTrace
 10
-34264.54632088375
 20
-24201.67722337711
 30
0.0
 11
-34258.67953592828
 21
-24207.59543921727
 31
0.0
 12
-34279.36757592652
 22
-24222.23668616358
 32
0.0
 13
-34279.36757592652
 23
-24222.23668616358
 33
0.0
  0
POINT
  5
15665A
330
156298
100
AcDbEntity
  8
Defpoints
 62
     0
440
 16777216
100
AcDbPoint
 10
-34279.36757592652
 20
-24222.23668616358
 30
0.0
  0
POINT
  5
15665B
330
156298
100
AcDbEntity
  8
Defpoints
 62
     0
440
 16777216
100
AcDbPoint
 10
-34265.87404381094
 20
-24208.86041646513
 30
0.0
  0
ENDBLK
  5
15629F
330
156298
100
AcDbEntity
  8
0
100
AcDbBlockEnd
  0
BLOCK
  5
1562E6
330
1562E0
100
AcDbEntity
  8
0
100
AcDbBlockBegin
  2
*D108
 70
     1
 10
0.0
 20
0.0
 30
0.0
  3
*D108
  1

  0
LINE
  5
156668
330
1562E0
100
AcDbEntity
  8
标注
440
 16777216
370
    -2
100
AcDbLine
 10
-33566.26841303083
 20
-24904.33517996116
 30
0.0
 11
-33776.90528453921
 21
-24904.33517996116
 31
0.0
  0
LINE
  5
156669
330
1562E0
100
AcDbEntity
  8
标注
440
 16777216
370
    -2
100
AcDbLine
 10
-33776.90528453921
 20
-24904.33517996116
 30
0.0
 11
-33851.12339628506
 21
-24916.23894687156
 31
0.0
  0
MTEXT
  5
15666A
330
1562E0
100
AcDbEntity
  8
标注
440
 16777216
100
AcDbMText
 10
-33668.58684878502
 20
-24879.73182800585
 30
0.0
 40
30.0
 41
0.0
 46
0.0
 71
     5
 72
     1
  1
R19{\fSimSun|b0|i0|c134|p2; [.75"]}
 73
     1
 44
1.0
  0
SOLID
  5
15666B
330
1562E0
100
AcDbEntity
  8
标注
440
 16777216
100
AcDbTrace
 10
-33851.78325032665
 20
-24912.12486085461
 30
0.0
 11
-33850.46354224345
 21
-24920.35303288852
 31
0.0
 12
-33875.80791238678
 22
-24920.19807112114
 32
0.0
 13
-33875.80791238678
 23
-24920.19807112114
 33
0.0
  0
POINT
  5
15666C
330
1562E0
100
AcDbEntity
  8
Defpoints
 62
     0
440
 16777216
100
AcDbPoint
 10
-33875.80791238678
 20
-24920.19807112114
 30
0.0
  0
POINT
  5
15666D
330
1562E0
100
AcDbEntity
  8
Defpoints
 62
     0
440
 16777216
100
AcDbPoint
 10
-33857.04768014948
 20
-24917.18913669147
 30
0.0
  0
ENDBLK
  5
1562E7
330
1562E0
100
AcDbEntity
  8
0
100
AcDbBlockEnd
  0
BLOCK
  5
1562FC
330
1562F6
100
AcDbEntity
  8
0
100
AcDbBlockBegin
  2
*D109
 70
     1
 10
0.0
 20
0.0
 30
0.0
  3
*D109
  1

  0
LINE
  5
156662
330
1562F6
100
AcDbEntity
  8
标注
440
 16777216
370
    -2
100
AcDbLine
 10
-33970.44306774139
 20
-24906.50992648504
 30
0.0
 11
-34181.07993924976
 21
-24906.50992648503
 31
0.0
  0
LINE
  5
156663
330
1562F6
100
AcDbEntity
  8
标注
440
 16777216
370
    -2
100
AcDbLine
 10
-34181.07993924976
 20
-24906.50992648503
 30
0.0
 11
-34270.08525975208
 21
-24916.51865700896
 31
0.0
  0
MTEXT
  5
156664
330
1562F6
100
AcDbEntity
  8
标注
440
 16777216
100
AcDbMText
 10
-34072.76150349558
 20
-24881.90657452973
 30
0.0
 40
30.0
 41
0.0
 46
0.0
 71
     5
 72
     1
  1
R19{\fSimSun|b0|i0|c134|p2; [.75"]}
 73
     1
 44
1.0
  0
SOLID
  5
156665
330
1562F6
100
AcDbEntity
  8
标注
440
 16777216
100
AcDbTrace
 10
-34270.55087064268
 20
-24912.37808728855
 30
0.0
 11
-34269.61964886148
 21
-24920.65922672939
 31
0.0
 12
-34294.92867807461
 22
-24919.31232235257
 32
0.0
 13
-34294.92867807461
 23
-24919.31232235257
 33
0.0
  0
POINT
  5
156666
330
1562F6
100
AcDbEntity
  8
Defpoints
 62
     0
440
 16777216
100
AcDbPoint
 10
-34294.92867807461
 20
-24919.31232235257
 30
0.0
  0
POINT
  5
156667
330
1562F6
100
AcDbEntity
  8
Defpoints
 62
     0
440
 16777216
100
AcDbPoint
 10
-34276.04768014945
 20
-24917.18913669143
 30
0.0
  0
ENDBLK
  5
1562FD
330
1562F6
100
AcDbEntity
  8
0
100
AcDbBlockEnd
  0
ENDSEC
  0
SECTION
  2
ENTITIES
  0
LINE
  5
155AAA
330
1F
100
AcDbEntity
  8
0
 48
0.5
100
AcDbLine
 10
-33485.84653692738
 20
-23976.26041646514
 30
0.0
 11
-33472.04768014954
 21
-23976.26041646513
 31
0.0
  0
LINE
  5
155AAB
330
1F
100
AcDbEntity
  8
0
 48
0.5
100
AcDbLine
 10
-33472.04768014954
 20
-23975.06041646513
 30
0.0
 11
-33472.04768014954
 21
-23976.26041646513
 31
0.0
  0
LINE
  5
155AAC
330
1F
100
AcDbEntity
  8
0
 48
0.5
100
AcDbLine
 10
-34310.04768014954
 20
-23975.06041646513
 30
0.0
 11
-34310.04768014954
 21
-23976.26041646513
 31
0.0
  0
LINE
  5
155AAD
102
{ACAD_REACTORS
330
155AB0
102
}
330
1F
100
AcDbEntity
  8
0
 48
0.5
100
AcDbLine
 10
-34310.04768014954
 20
-23976.26041646513
 30
0.0
 11
-34296.2488233717
 21
-23976.26041646513
 31
0.0
  0
DIMENSION
  5
155AAE
102
{ACAD_XDICTIONARY
360
155AAF
102
}
102
{ACAD_REACTORS
330
155AB0
102
}
330
1F
100
AcDbEntity
  8
标注
100
AcDbDimension
280
     0
  2
*D53
 10
-34380.8857182318
 20
-23975.06041646514
 30
0.0
 11
-34409.48907018711
 21
-24102.06041646512
 31
0.0
 70
    32
  1
<>{\fSimSun|b0|i0|c134|p2; [10"]}
 71
     5
 42
254.0
 73
     0
 74
     0
 75
     0
  3
usally
100
AcDbAlignedDimension
 13
-34274.84768014953
 23
-24229.06041646513
 33
0.0
 14
-34310.04768014954
 24
-23975.06041646513
 34
0.0
 50
90.0
100
AcDbRotatedDimension
1001
ACAD
1000
DSTYLE
1002
{
1070
    41
1040
15.0
1070
    40
1040
2.0
1002
}
  0
DIMENSION
  5
155AB2
102
{ACAD_XDICTIONARY
360
155AB3
102
}
102
{ACAD_REACTORS
330
155AB4
102
}
330
1F
100
AcDbEntity
  8
标注
100
AcDbDimension
280
     0
  2
*D54
 10
-34415.80122469207
 20
-24443.18913669146
 30
0.0
 11
-34415.80122469207
 21
-24697.18913669145
 31
0.0
 70
   160
  1
<>{\fSimSun|b0|i0|c134|p2; [20"]}
 71
     5
 42
508.0000000000036
 73
     0
 74
     0
 75
     0
  3
usally
100
AcDbAlignedDimension
 13
-34310.04768014954
 23
-24951.18913669144
 33
0.0
 14
-34310.04768014954
 24
-24443.18913669145
 34
0.0
 50
90.0
100
AcDbRotatedDimension
  0
DIMENSION
  5
155AB5
102
{ACAD_XDICTIONARY
360
155AB6
102
}
102
{ACAD_REACTORS
330
155AB7
102
}
330
1F
100
AcDbEntity
  8
标注
100
AcDbDimension
280
     0
  2
*D55
 10
-34310.04768014954
 20
-24343.26531597203
 30
0.0
 11
-33889.60191373991
 21
-24343.26531597203
 31
0.0
 70
   160
  1
<>{\fSimSun|b0|i0|c134|p2; [32"]}
 71
     5
 42
838.0
 73
     0
 74
     0
 75
     0
  3
usally
100
AcDbAlignedDimension
 13
-33472.04768014954
 23
-24443.18913669145
 33
0.0
 14
-34310.04768014954
 24
-24443.18913669145
 34
0.0
100
AcDbRotatedDimension
  0
LINE
  5
155AB8
330
1F
100
AcDbEntity
  8
0
 48
0.5
100
AcDbLine
 10
-33516.22131648816
 20
-24227.86041646513
 30
0.0
 11
-33846.87404381093
 21
-24227.86041646513
 31
0.0
  0
LINE
  5
155AB9
330
1F
100
AcDbEntity
  8
0
 48
0.5
100
AcDbLine
 10
-33486.99528701806
 20
-23975.06041646511
 30
0.0
 11
-33497.23940027812
 21
-24209.68918482508
 31
0.0
  0
LINE
  5
155ABA
330
1F
100
AcDbEntity
  8
0
 48
0.5
100
AcDbLine
 10
-34284.85596002096
 20
-24209.68918482506
 30
0.0
 11
-34295.10007328102
 21
-23975.06041646513
 31
0.0
  0
LINE
  5
155ABB
330
1F
100
AcDbEntity
  8
0
 48
0.5
100
AcDbLine
 10
-33935.22131648816
 20
-24229.06041646511
 30
0.0
 11
-34040.19768014951
 21
-24229.06041646513
 31
0.0
  0
LINE
  5
155ABC
102
{ACAD_REACTORS
330
155AB0
102
}
330
1F
100
AcDbEntity
  8
0
 48
0.5
100
AcDbLine
 10
-34310.04768014954
 20
-23975.06041646513
 30
0.0
 11
-33472.04768014954
 21
-23975.06041646513
 31
0.0
  0
LINE
  5
155ABD
330
1F
100
AcDbEntity
  8
0
 48
0.5
100
AcDbLine
 10
-33506.04768014954
 20
-24936.18913669145
 30
0.0
 11
-33857.04768014948
 21
-24936.18913669145
 31
0.0
  0
LINE
  5
155ABE
102
{ACAD_REACTORS
330
155AE7
102
}
330
1F
100
AcDbEntity
  8
0
 48
0.5
100
AcDbLine
 10
-33487.04768014954
 20
-24477.18913669145
 30
0.0
 11
-33487.04768014954
 21
-24917.18913669145
 31
0.0
  0
LINE
  5
155ABF
330
1F
100
AcDbEntity
  8
0
 48
0.5
100
AcDbLine
 10
-34276.04768014954
 20
-24458.18913669145
 30
0.0
 11
-33925.04768014948
 21
-24458.18913669147
 31
0.0
  0
LINE
  5
155AC0
102
{ACAD_REACTORS
330
155AE4
102
}
330
1F
100
AcDbEntity
  8
0
 48
0.5
100
AcDbLine
 10
-34295.04768014948
 20
-24917.18913669145
 30
0.0
 11
-34295.04768014954
 21
-24477.18913669145
 31
0.0
  0
LINE
  5
155AC1
102
{ACAD_REACTORS
330
155B0C
102
}
330
1F
100
AcDbEntity
  8
中心
 48
3.0
100
AcDbLine
 10
-34345.67262113745
 20
-24697.18913669145
 30
0.0
 11
-33444.67069505142
 21
-24697.18913669145
 31
0.0
  0
LINE
  5
155AC2
102
{ACAD_REACTORS
330
155AB7
102
}
330
1F
100
AcDbEntity
  8
0
 48
0.5
100
AcDbLine
 10
-34310.04768014954
 20
-24443.18913669145
 30
0.0
 11
-33472.04768014954
 21
-24443.18913669145
 31
0.0
  0
LINE
  5
155AC3
102
{ACAD_REACTORS
330
155AB4
102
}
330
1F
100
AcDbEntity
  8
0
 48
0.5
100
AcDbLine
 10
-34310.04768014954
 20
-24951.18913669144
 30
0.0
 11
-34310.04768014954
 21
-24443.18913669145
 31
0.0
  0
LINE
  5
155AC4
330
1F
100
AcDbEntity
  8
0
 48
0.5
100
AcDbLine
 10
-33472.04768014954
 20
-24951.18913669144
 30
0.0
 11
-34310.04768014954
 21
-24951.18913669144
 31
0.0
  0
LINE
  5
155AC5
330
1F
100
AcDbEntity
  8
0
 48
0.5
100
AcDbLine
 10
-33472.04768014954
 20
-24443.18913669145
 30
0.0
 11
-33472.04768014954
 21
-24951.18913669144
 31
0.0
  0
LINE
  5
155AC6
102
{ACAD_REACTORS
330
155AE4
330
155B0C
102
}
330
1F
100
AcDbEntity
  8
0
 48
0.5
100
AcDbLine
 10
-33906.04768014948
 20
-24477.18913669147
 30
0.0
 11
-33906.04768014954
 21
-24917.18913669146
 31
0.0
  0
LINE
  5
155AC7
102
{ACAD_REACTORS
330
155B0C
102
}
330
1F
100
AcDbEntity
  8
0
 48
0.5
100
AcDbLine
 10
-33876.04768014954
 20
-24477.18913669145
 30
0.0
 11
-33876.04768014948
 21
-24917.18913669145
 31
0.0
  0
LINE
  5
155AC8
330
1F
100
AcDbEntity
  8
0
 48
0.5
100
AcDbLine
 10
-33857.04768014954
 20
-24458.18913669145
 30
0.0
 11
-33506.04768014954
 21
-24458.18913669145
 31
0.0
  0
LINE
  5
155AC9
330
1F
100
AcDbEntity
  8
0
 48
0.5
100
AcDbLine
 10
-33925.04768014954
 20
-24936.18913669146
 30
0.0
 11
-34276.04768014948
 21
-24936.18913669145
 31
0.0
  0
LINE
  5
155ACA
330
1F
100
AcDbEntity
  8
中心
 48
3.0
100
AcDbLine
 10
-34100.54768014954
 20
-24422.34874393991
 30
0.0
 11
-34100.54768014954
 21
-24975.80278469022
 31
0.0
  0
LINE
  5
155ACB
330
1F
100
AcDbEntity
  8
中心
 48
3.0
100
AcDbLine
 10
-33681.54768014948
 20
-24417.97329874211
 30
0.0
 11
-33681.54768014948
 21
-24981.93279833963
 31
0.0
  0
CIRCLE
  5
155ACC
330
1F
100
AcDbEntity
  8
0
 48
0.5
100
AcDbCircle
 10
-34100.54768014954
 20
-24697.18913669145
 30
0.0
 40
60.0
  0
CIRCLE
  5
155ACD
330
1F
100
AcDbEntity
  8
0
 48
0.5
100
AcDbCircle
 10
-34100.54768014954
 20
-24697.18913669145
 30
0.0
 40
57.0
  0
CIRCLE
  5
155ACE
330
1F
100
AcDbEntity
  8
0
 48
0.5
100
AcDbCircle
 10
-34100.54768014954
 20
-24697.18913669145
 30
0.0
 40
45.0
  0
CIRCLE
  5
155ACF
330
1F
100
AcDbEntity
  8
0
 48
0.5
100
AcDbCircle
 10
-33681.54768014948
 20
-24697.18913669143
 30
0.0
 40
45.0
  0
CIRCLE
  5
155AD0
330
1F
100
AcDbEntity
  8
0
 48
0.5
100
AcDbCircle
 10
-33681.54768014948
 20
-24697.18913669143
 30
0.0
 40
57.0
  0
CIRCLE
  5
155AD1
330
1F
100
AcDbEntity
  8
0
 48
0.5
100
AcDbCircle
 10
-33681.54768014948
 20
-24697.18913669143
 30
0.0
 40
60.0
  0
ARC
  5
155AD2
102
{ACAD_REACTORS
330
155B0F
102
}
330
1F
100
AcDbEntity
  8
0
 48
0.5
100
AcDbCircle
 10
-34276.04768014954
 20
-24477.18913669145
 30
0.0
 40
19.0
100
AcDbArc
 50
90.0
 51
180.0
  0
ARC
  5
155AD3
330
1F
100
AcDbEntity
  8
0
 48
0.5
100
AcDbCircle
 10
-33925.04768014948
 20
-24477.18913669147
 30
0.0
 40
19.0
100
AcDbArc
 50
0.0
 51
90.0
  0
ARC
  5
155AD4
330
1F
100
AcDbEntity
  8
0
 48
0.5
100
AcDbCircle
 10
-33925.04768014954
 20
-24917.18913669146
 30
0.0
 40
19.0
100
AcDbArc
 50
270.0
 51
0.0
  0
ARC
  5
155AD5
102
{ACAD_REACTORS
330
155B0F
102
}
330
1F
100
AcDbEntity
  8
0
 48
0.5
100
AcDbCircle
 10
-34276.04768014948
 20
-24917.18913669145
 30
0.0
 40
19.0
100
AcDbArc
 50
180.0
 51
270.0
  0
ARC
  5
155AD6
102
{ACAD_REACTORS
330
155AE7
102
}
330
1F
100
AcDbEntity
  8
0
 48
0.5
100
AcDbCircle
 10
-33857.04768014954
 20
-24477.18913669145
 30
0.0
 40
19.0
100
AcDbArc
 50
90.0
 51
180.0
  0
ARC
  5
155AD7
330
1F
100
AcDbEntity
  8
0
 48
0.5
100
AcDbCircle
 10
-33857.04768014948
 20
-24917.18913669145
 30
0.0
 40
19.0
100
AcDbArc
 50
180.0
 51
270.0
  0
ARC
  5
155AD8
330
1F
100
AcDbEntity
  8
0
 48
0.5
100
AcDbCircle
 10
-33506.04768014954
 20
-24917.18913669145
 30
0.0
 40
19.0
100
AcDbArc
 50
270.0
 51
0.0
  0
ARC
  5
155AD9
330
1F
100
AcDbEntity
  8
0
 48
0.5
100
AcDbCircle
 10
-33506.04768014954
 20
-24477.18913669145
 30
0.0
 40
19.0
100
AcDbArc
 50
0.0
 51
90.0
  0
LINE
  5
155ADA
330
1F
100
AcDbEntity
  8
0
 48
0.5
100
AcDbLine
 10
-34138.29520633286
 20
-24650.55090916254
 30
0.0
 11
-34269.70575905433
 21
-24488.18913669146
 31
0.0
  0
LINE
  5
155ADB
330
1F
100
AcDbEntity
  8
0
 48
0.5
100
AcDbLine
 10
-34062.80015396622
 20
-24650.55090916254
 30
0.0
 11
-33931.38960124469
 21
-24488.18913669148
 31
0.0
  0
LINE
  5
155ADC
330
1F
100
AcDbEntity
  8
0
 48
0.5
100
AcDbLine
 10
-34138.29520633286
 20
-24743.82736422037
 30
0.0
 11
-34269.70575905433
 21
-24906.18913669145
 31
0.0
  0
LINE
  5
155ADD
330
1F
100
AcDbEntity
  8
0
 48
0.5
100
AcDbLine
 10
-34062.80015396622
 20
-24743.82736422037
 30
0.0
 11
-33931.38960124475
 21
-24906.18913669146
 31
0.0
  0
LINE
  5
155ADE
330
1F
100
AcDbEntity
  8
0
 48
0.5
100
AcDbLine
 10
-33719.2952063328
 20
-24743.82736422037
 30
0.0
 11
-33850.70575905433
 21
-24906.18913669146
 31
0.0
  0
LINE
  5
155ADF
330
1F
100
AcDbEntity
  8
0
 48
0.5
100
AcDbLine
 10
-33643.80015396617
 20
-24743.82736422035
 30
0.0
 11
-33512.3896012447
 21
-24906.18913669146
 31
0.0
  0
LINE
  5
155AE0
330
1F
100
AcDbEntity
  8
0
 48
0.5
100
AcDbLine
 10
-33719.29520633285
 20
-24650.55090916253
 30
0.0
 11
-33850.70575905427
 21
-24488.18913669148
 31
0.0
  0
LINE
  5
155AE1
330
1F
100
AcDbEntity
  8
0
 48
0.5
100
AcDbLine
 10
-33644.13101348314
 20
-24650.28505312105
 30
0.0
 11
-33514.82268014956
 21
-24488.18913669149
 31
0.0
  0
DIMENSION
  5
155AE2
102
{ACAD_XDICTIONARY
360
155AE3
102
}
102
{ACAD_REACTORS
330
155AE4
102
}
330
1F
100
AcDbEntity
  8
标注
100
AcDbDimension
280
     0
  2
*D56
 10
-33906.04768014948
 20
-24405.81902408675
 30
0.0
 11
-34095.50058233635
 21
-24405.81902408675
 31
0.0
 70
   160
  1
{\fSimSun|b0|i0|c134|p2;390 [15.35"]}
 71
     5
 42
389.0000000000582
 73
     0
 74
     0
 75
     0
  3
usally
100
AcDbAlignedDimension
 13
-34295.04768014954
 23
-24477.18913669145
 33
0.0
 14
-33906.04768014948
 24
-24477.18913669147
 34
0.0
100
AcDbRotatedDimension
  0
DIMENSION
  5
155AE5
102
{ACAD_XDICTIONARY
360
155AE6
102
}
102
{ACAD_REACTORS
330
155AE7
102
}
330
1F
100
AcDbEntity
  8
标注
100
AcDbDimension
280
     0
  2
*D57
 10
-33487.04768014948
 20
-24405.90704941794
 30
0.0
 11
-33681.54768014951
 21
-24377.30369746264
 31
0.0
 70
    32
  1
{\fSimSun|b0|i0|c134|p2;390 [15.35"]}
 71
     5
 42
389.0000000000582
 73
     0
 74
     0
 75
     0
  3
usally
100
AcDbAlignedDimension
 13
-33876.04768014954
 23
-24477.18913669145
 33
0.0
 14
-33487.04768014948
 24
-24477.18913669146
 34
0.0
100
AcDbRotatedDimension
  0
LINE
  5
155AE8
330
1F
100
AcDbEntity
  8
0
 48
0.5
100
AcDbLine
 10
-33916.23940027807
 20
-24209.68918482509
 30
0.0
 11
-33905.995287018
 21
-23975.06041646513
 31
0.0
  0
LINE
  5
155AE9
330
1F
100
AcDbEntity
  8
0
 48
0.5
100
AcDbLine
 10
-33865.85596002096
 20
-24209.68918482508
 30
0.0
 11
-33876.10007328102
 21
-23975.06041646513
 31
0.0
  0
LINE
  5
155AEA
330
1F
100
AcDbEntity
  8
0
 48
0.5
100
AcDbLine
 10
-33516.22131648816
 20
-24229.06041646511
 30
0.0
 11
-33621.19768014956
 21
-24229.06041646513
 31
0.0
  0
LINE
  5
155AEB
330
1F
100
AcDbEntity
  8
0
 48
0.5
100
AcDbLine
 10
-33935.22131648816
 20
-24227.86041646515
 30
0.0
 11
-34265.87404381093
 21
-24227.86041646511
 31
0.0
  0
LINE
  5
155AEC
330
1F
100
AcDbEntity
  8
0
 48
0.5
100
AcDbLine
 10
-33904.84653692726
 20
-23976.26041646515
 30
0.0
 11
-33877.2488233717
 21
-23976.26041646515
 31
0.0
  0
LINE
  5
155AED
330
1F
100
AcDbEntity
  8
中心
 48
3.0
100
AcDbLine
 10
-34100.54768014954
 20
-24256.77248002207
 30
0.0
 11
-34100.54768014954
 21
-23948.78701338032
 31
0.0
  0
LINE
  5
155AEE
330
1F
100
AcDbEntity
  8
中心
 48
3.0
100
AcDbLine
 10
-33681.54768014954
 20
-24251.30295956498
 30
0.0
 11
-33681.54768014954
 21
-23956.92799323326
 31
0.0
  0
ELLIPSE
  5
155AEF
330
1F
100
AcDbEntity
  8
标注
 48
0.5
100
AcDbEllipse
 10
-34098.11938257147
 20
-24231.86263735908
 30
0.0
 11
68.7857686311521
 21
0.0000000000625603
 31
0.0
210
0.0
220
0.0
230
1.0
 40
0.1771042167345489
 41
0.0
 42
6.283185307179586
  0
LINE
  5
155AF0
330
1F
100
AcDbEntity
  8
0
  6
ByBlock
 62
     0
370
    25
100
AcDbLine
 10
-34042.94512916652
 20
-24232.72368182112
 30
0.0
 11
-34053.54768014954
 21
-24235.86041646513
 31
0.0
  0
LINE
  5
155AF1
330
1F
100
AcDbEntity
  8
0
  6
ByBlock
 62
     0
370
    25
100
AcDbLine
 10
-34040.19768014951
 20
-24229.06041646513
 30
0.0
 11
-34042.94512916652
 21
-24232.72368182112
 31
0.0
  0
LINE
  5
155AF2
330
1F
100
AcDbEntity
  8
0
  6
ByBlock
 62
     0
370
    25
100
AcDbLine
 10
-34043.54768014954
 20
-24231.86041646513
 30
0.0
 11
-34053.54768014954
 21
-24234.86041646513
 31
0.0
  0
LINE
  5
155AF3
330
1F
100
AcDbEntity
  8
0
  6
ByBlock
 62
     0
370
    25
100
AcDbLine
 10
-34040.54768014954
 20
-24227.86041646513
 30
0.0
 11
-34043.54768014954
 21
-24231.86041646513
 31
0.0
  0
LINE
  5
155AF4
330
1F
100
AcDbEntity
  8
粗实
 62
     0
100
AcDbLine
 10
-34157.54768014954
 20
-24231.86041646513
 30
0.0
 11
-34043.54768014954
 21
-24231.86041646513
 31
0.0
  0
LINE
  5
155AF5
330
1F
100
AcDbEntity
  8
0
  6
ByBlock
 62
     0
370
    25
100
AcDbLine
 10
-34053.54768014954
 20
-24235.86041646513
 30
0.0
 11
-34147.54768014954
 21
-24235.86041646513
 31
0.0
  0
LINE
  5
155AF6
330
1F
100
AcDbEntity
  8
0
  6
ByBlock
 62
     0
370
    25
100
AcDbLine
 10
-34053.54768014954
 20
-24234.86041646513
 30
0.0
 11
-34147.54768014954
 21
-24234.86041646513
 31
0.0
  0
LINE
  5
155AF7
330
1F
100
AcDbEntity
  8
0
  6
ByBlock
 62
     0
370
    25
100
AcDbLine
 10
-34160.54768014954
 20
-24227.86041646513
 30
0.0
 11
-34157.54768014954
 21
-24231.86041646513
 31
0.0
  0
LINE
  5
155AF8
330
1F
100
AcDbEntity
  8
0
  6
ByBlock
 62
     0
370
    25
100
AcDbLine
 10
-34160.89768014957
 20
-24229.06041646513
 30
0.0
 11
-34158.15023113256
 21
-24232.72368182112
 31
0.0
  0
LINE
  5
155AF9
330
1F
100
AcDbEntity
  8
0
  6
ByBlock
 62
     0
370
    25
100
AcDbLine
 10
-34157.54768014954
 20
-24231.86041646513
 30
0.0
 11
-34147.54768014954
 21
-24234.86041646513
 31
0.0
  0
LINE
  5
155AFA
330
1F
100
AcDbEntity
  8
0
  6
ByBlock
 62
     0
370
    25
100
AcDbLine
 10
-34158.15023113256
 20
-24232.72368182112
 30
0.0
 11
-34147.54768014954
 21
-24235.86041646513
 31
0.0
  0
LEADER
  5
155AFB
330
1F
100
AcDbEntity
  8
标注
 48
0.5
100
AcDbLeader
  3
ISO-25
 76
     2
 10
-34044.8428425319
 20
-24224.1568895747
 30
0.0
 10
-34004.71547002542
 20
-24172.12690319792
 30
0.0
1001
ACAD
1000
DSTYLE
1002
{
1070
   147
1040
2.0
1070
    77
1070
     0
1002
}
  0
MTEXT
  5
155AFC
330
1F
100
AcDbEntity
  8
0
 62
     6
370
     9
100
AcDbMText
 10
-33999.20334719591
 20
-24154.32111461753
 30
0.0
 40
24.0
 41
19.28677669586614
 46
0.0
 71
     1
 72
     5
  1
{\fSimSun|b0|i0|c134|p2;I}
 73
     1
 44
1.0
  0
LINE
  5
155AFD
330
1F
100
AcDbEntity
  8
0
  6
ByBlock
 62
     0
370
    25
100
AcDbLine
 10
-33634.54768014954
 20
-24234.86041646515
 30
0.0
 11
-33728.54768014954
 21
-24234.86041646515
 31
0.0
  0
LINE
  5
155AFE
330
1F
100
AcDbEntity
  8
0
  6
ByBlock
 62
     0
370
    25
100
AcDbLine
 10
-33634.54768014954
 20
-24235.86041646514
 30
0.0
 11
-33728.54768014954
 21
-24235.86041646514
 31
0.0
  0
LINE
  5
155AFF
330
1F
100
AcDbEntity
  8
粗实
 62
     0
100
AcDbLine
 10
-33738.54768014954
 20
-24231.86041646514
 30
0.0
 11
-33624.54768014954
 21
-24231.86041646514
 31
0.0
  0
LINE
  5
155B00
330
1F
100
AcDbEntity
  8
0
  6
ByBlock
 62
     0
370
    25
100
AcDbLine
 10
-33621.54768014954
 20
-24227.86041646515
 30
0.0
 11
-33624.54768014954
 21
-24231.86041646514
 31
0.0
  0
LINE
  5
155B01
330
1F
100
AcDbEntity
  8
0
  6
ByBlock
 62
     0
370
    25
100
AcDbLine
 10
-33624.54768014954
 20
-24231.86041646514
 30
0.0
 11
-33634.54768014954
 21
-24234.86041646515
 31
0.0
  0
LINE
  5
155B02
330
1F
100
AcDbEntity
  8
0
  6
ByBlock
 62
     0
370
    25
100
AcDbLine
 10
-33621.19768014951
 20
-24229.06041646513
 30
0.0
 11
-33623.94512916652
 21
-24232.72368182114
 31
0.0
  0
LINE
  5
155B03
330
1F
100
AcDbEntity
  8
0
  6
ByBlock
 62
     0
370
    25
100
AcDbLine
 10
-33623.94512916652
 20
-24232.72368182114
 30
0.0
 11
-33634.54768014954
 21
-24235.86041646514
 31
0.0
  0
LINE
  5
155B04
330
1F
100
AcDbEntity
  8
0
  6
ByBlock
 62
     0
370
    25
100
AcDbLine
 10
-33739.15023113256
 20
-24232.72368182114
 30
0.0
 11
-33728.54768014954
 21
-24235.86041646514
 31
0.0
  0
LINE
  5
155B05
330
1F
100
AcDbEntity
  8
0
  6
ByBlock
 62
     0
370
    25
100
AcDbLine
 10
-33738.54768014954
 20
-24231.86041646514
 30
0.0
 11
-33728.54768014954
 21
-24234.86041646515
 31
0.0
  0
LINE
  5
155B06
330
1F
100
AcDbEntity
  8
0
  6
ByBlock
 62
     0
370
    25
100
AcDbLine
 10
-33741.89768014958
 20
-24229.06041646513
 30
0.0
 11
-33739.15023113256
 21
-24232.72368182114
 31
0.0
  0
LINE
  5
155B07
330
1F
100
AcDbEntity
  8
0
  6
ByBlock
 62
     0
370
    25
100
AcDbLine
 10
-33741.54768014954
 20
-24227.86041646515
 30
0.0
 11
-33738.54768014954
 21
-24231.86041646514
 31
0.0
  0
LINE
  5
155B08
330
1F
100
AcDbEntity
  8
0
 48
0.5
100
AcDbLine
 10
-33741.89768014958
 20
-24229.06041646513
 30
0.0
 11
-33846.87404381093
 21
-24229.06041646513
 31
0.0
  0
LINE
  5
155B09
330
1F
100
AcDbEntity
  8
0
 48
0.5
100
AcDbLine
 10
-34160.89768014957
 20
-24229.06041646511
 30
0.0
 11
-34265.87404381093
 21
-24229.06041646514
 31
0.0
  0
DIMENSION
  5
155B0A
102
{ACAD_XDICTIONARY
360
155B0B
102
}
102
{ACAD_REACTORS
330
155B0C
102
}
330
1F
100
AcDbEntity
  8
标注
100
AcDbDimension
280
     0
  2
*D58
 10
-33876.04768014945
 20
-24616.67347818659
 30
0.0
 11
-33714.87449579191
 21
-24588.07012623129
 31
0.0
 70
    32
  1
{\fSimSun|b0|i0|c134|p2;28 [1.1"]}
 71
     5
 42
30.00000000005821
 73
     0
 74
     0
 75
     0
  3
usally
100
AcDbAlignedDimension
 13
-33906.04768014951
 23
-24697.18913669145
 33
0.0
 14
-33876.04768014945
 24
-24697.18913669146
 34
0.0
100
AcDbRotatedDimension
  0
DIMENSION
  5
155B0D
102
{ACAD_XDICTIONARY
360
155B0E
102
}
102
{ACAD_REACTORS
330
155B0F
102
}
330
1F
100
AcDbEntity
  8
标注
100
AcDbDimension
280
     0
  2
*D59
 10
-34370.40457567787
 20
-24936.18913669146
 30
0.0
 11
-34370.40457567787
 21
-24697.18913669145
 31
0.0
 70
   160
  1
<>{\fSimSun|b0|i0|c134|p2; [18.82"]}
 71
     5
 42
478.0000000000036
 73
     0
 74
     0
 75
     0
  3
usally
100
AcDbAlignedDimension
 13
-34276.04768014954
 23
-24458.18913669145
 33
0.0
 14
-34276.04768014948
 24
-24936.18913669145
 34
0.0
 50
90.0
100
AcDbRotatedDimension
  0
LINE
  5
155B1C
330
1F
100
AcDbEntity
  8
0
 62
     0
370
    -3
100
AcDbLine
 10
-34710.5834489056
 20
-25949.57759067372
 30
0.0
 11
-34653.33460432831
 21
-25949.57759067372
 31
0.0
  0
LINE
  5
155B35
330
1F
100
AcDbEntity
  8
0
 62
     0
370
    -3
100
AcDbLine
 10
-34252.59269228722
 20
-25949.57759067372
 30
0.0
 11
-34176.26089951756
 21
-25949.57759067372
 31
0.0
  0
LINE
  5
155B3D
330
1F
100
AcDbEntity
  8
0
 62
     0
370
    -3
100
AcDbLine
 10
-34252.59269228722
 20
-25949.57759067372
 30
0.0
 11
-34405.25627782672
 21
-25949.57759067372
 31
0.0
  0
LWPOLYLINE
  5
155B62
330
1F
100
AcDbEntity
  8
0
 62
     6
370
     9
100
AcDbPolyline
 90
        2
 70
     0
 10
-34127.22712852322
 20
-24013.66801492903
 40
4.62903336
 41
0.0
 10
-34141.10728852327
 20
-24013.66801492903
 40
0.0
 41
0.0
  0
LINE
  5
155B66
330
1F
100
AcDbEntity
  8
0
 62
     6
370
     9
100
AcDbLine
 10
-34127.22712852322
 20
-24013.66801492903
 30
0.0
 11
-34064.07940512062
 21
-24013.66801492903
 31
0.0
  0
LWPOLYLINE
  5
155B67
330
1F
100
AcDbEntity
  8
0
 62
     6
370
     9
100
AcDbPolyline
 90
        2
 70
     0
 10
-34064.07940512062
 20
-24013.66801492903
 40
4.62903336
 41
0.0
 10
-34050.19924512056
 20
-24013.66801492903
 40
0.0
 41
0.0
  0
LWPOLYLINE
  5
155B68
330
1F
100
AcDbEntity
  8
0
 62
     6
370
     9
100
AcDbPolyline
 90
        2
 70
     0
 10
-33711.6456232473
 20
-24032.41078009521
 40
4.62903336
 41
0.0
 10
-33725.52578324736
 20
-24032.41078009521
 40
0.0
 41
0.0
  0
LINE
  5
155B6C
330
1F
100
AcDbEntity
  8
0
 62
     6
370
     9
100
AcDbLine
 10
-33711.6456232473
 20
-24032.41078009521
 30
0.0
 11
-33648.49789984471
 21
-24032.41078009521
 31
0.0
  0
LWPOLYLINE
  5
155B6D
330
1F
100
AcDbEntity
  8
0
 62
     6
370
     9
100
AcDbPolyline
 90
        2
 70
     0
 10
-33648.49789984471
 20
-24032.41078009521
 40
4.62903336
 41
0.0
 10
-33634.61773984464
 20
-24032.41078009521
 40
0.0
 41
0.0
  0
LWPOLYLINE
  5
155B6E
330
1F
100
AcDbEntity
  8
0
 62
     6
370
     9
100
AcDbPolyline
 90
        2
 70
     0
 10
-33561.97671339531
 20
-24672.39001927696
 40
4.62903336
 41
0.0
 10
-33561.97671339531
 20
-24658.50985927696
 40
0.0
 41
0.0
  0
LINE
  5
155B6F
330
1F
100
AcDbEntity
  8
0
 62
     6
370
     9
100
AcDbLine
 10
-33561.97671339531
 20
-24735.5377426796
 30
0.0
 11
-33561.97671339531
 21
-24672.39001927696
 31
0.0
  0
LWPOLYLINE
  5
155B73
330
1F
100
AcDbEntity
  8
0
 62
     6
370
     9
100
AcDbPolyline
 90
        2
 70
     0
 10
-33561.97671339531
 20
-24735.53774267962
 40
4.62903336
 41
0.0
 10
-33561.97671339531
 20
-24749.41790267962
 40
0.0
 41
0.0
  0
LWPOLYLINE
  5
155B74
330
1F
100
AcDbEntity
  8
0
 62
     6
370
     9
100
AcDbPolyline
 90
        2
 70
     0
 10
-33984.2581169122
 20
-24664.89665712617
 40
4.62903336
 41
0.0
 10
-33984.2581169122
 20
-24651.01649712617
 40
0.0
 41
0.0
  0
LINE
  5
155B75
330
1F
100
AcDbEntity
  8
0
 62
     6
370
     9
100
AcDbLine
 10
-33984.2581169122
 20
-24728.04438052881
 30
0.0
 11
-33984.2581169122
 21
-24664.89665712617
 31
0.0
  0
LWPOLYLINE
  5
155B79
330
1F
100
AcDbEntity
  8
0
 62
     6
370
     9
100
AcDbPolyline
 90
        2
 70
     0
 10
-33984.2581169122
 20
-24728.04438052882
 40
4.62903336
 41
0.0
 10
-33984.2581169122
 20
-24741.92454052882
 40
0.0
 41
0.0
  0
LINE
  5
155B7A
330
1F
100
AcDbEntity
  8
0
 48
0.5
100
AcDbLine
 10
-34286.05481788684
 20
-24209.74152808993
 30
0.0
 11
-34296.2488233717
 21
-23976.26041646511
 31
0.0
  0
LINE
  5
155B7B
330
1F
100
AcDbEntity
  8
0
 48
0.5
100
AcDbLine
 10
-33915.04054241225
 20
-24209.7415280899
 30
0.0
 11
-33904.84653692726
 21
-23976.26041646473
 31
0.0
  0
LINE
  5
155B7C
330
1F
100
AcDbEntity
  8
0
 48
0.5
100
AcDbLine
 10
-33867.05481788684
 20
-24209.74152808991
 30
0.0
 11
-33877.2488233717
 21
-23976.26041646472
 31
0.0
  0
LINE
  5
155B7D
102
{ACAD_REACTORS
330
155B89
102
}
330
1F
100
AcDbEntity
  8
0
 48
0.5
100
AcDbLine
 10
-33485.84653692732
 20
-23976.26041646515
 30
0.0
 11
-33496.04054241225
 21
-24209.7415280899
 31
0.0
  0
ARC
  5
155B7E
330
1F
100
AcDbEntity
  8
0
 48
0.5
100
AcDbCircle
 10
-34265.87404381093
 20
-24208.86041646514
 30
0.0
 40
20.2
100
AcDbArc
 50
182.4999999997627
 51
270.0
  0
ARC
  5
155B7F
330
1F
100
AcDbEntity
  8
0
 48
0.5
100
AcDbCircle
 10
-33935.22131648816
 20
-24208.86041646511
 30
0.0
 40
20.2
100
AcDbArc
 50
270.0
 51
357.5000000002372
  0
ARC
  5
155B80
330
1F
100
AcDbEntity
  8
0
 48
0.5
100
AcDbCircle
 10
-33846.87404381093
 20
-24208.86041646513
 30
0.0
 40
20.2
100
AcDbArc
 50
182.4999999997627
 51
270.0
  0
ARC
  5
155B81
330
1F
100
AcDbEntity
  8
0
 48
0.5
100
AcDbCircle
 10
-33516.22131648816
 20
-24208.86041646511
 30
0.0
 40
20.2
100
AcDbArc
 50
270.0
 51
357.5000000002372
  0
ARC
  5
155B82
330
1F
100
AcDbEntity
  8
0
 48
0.5
100
AcDbCircle
 10
-33516.22131648816
 20
-24208.86041646513
 30
0.0
 40
19.0
100
AcDbArc
 50
270.0
 51
357.5000000002372
  0
ARC
  5
155B83
330
1F
100
AcDbEntity
  8
0
 48
0.5
100
AcDbCircle
 10
-33846.87404381093
 20
-24208.86041646513
 30
0.0
 40
19.0
100
AcDbArc
 50
182.4999999997627
 51
270.0
  0
ARC
  5
155B84
330
1F
100
AcDbEntity
  8
0
 48
0.5
100
AcDbCircle
 10
-33935.22131648816
 20
-24208.86041646514
 30
0.0
 40
19.0
100
AcDbArc
 50
270.0
 51
357.5000000002372
  0
ARC
  5
155B85
330
1F
100
AcDbEntity
  8
0
 48
0.5
100
AcDbCircle
 10
-34265.87404381093
 20
-24208.86041646511
 30
0.0
 40
19.0
100
AcDbArc
 50
182.4999999997627
 51
270.0
  0
LINE
  5
155B86
102
{ACAD_REACTORS
330
155B89
102
}
330
1F
100
AcDbEntity
  8
标注
 48
0.5
100
AcDbLine
 10
-33485.84653692732
 20
-23976.26041646514
 30
0.0
 11
-33485.84653692732
 21
-24181.12708908948
 31
0.0
  0
DIMENSION
  5
155B87
102
{ACAD_XDICTIONARY
360
155B88
102
}
102
{ACAD_REACTORS
330
155B89
102
}
330
1F
100
AcDbEntity
  8
标注
100
AcDbDimension
280
     0
  2
*D60
 10
-33496.04054241225
 20
-24209.7415280899
 30
0.0
 11
-33437.44600498792
 21
-24176.61588341371
 31
0.0
 70
   162
 71
     5
 42
0.0436332313000918
 73
     0
 74
     0
 75
     0
  3
usally
100
AcDb2LineAngularDimension
 13
-33485.84653692732
 23
-23976.26041646514
 33
0.0
 14
-33485.84653692732
 24
-24181.12708908948
 34
0.0
 15
-33485.84653692732
 25
-23976.26041646515
 35
0.0
 16
-33491.84144177765
 26
-24182.29193285046
 36
0.0
  0
LINE
  5
1561D9
330
1F
100
AcDbEntity
  8
0
370
    30
100
AcDbLine
 10
-33739.64602297954
 20
-25232.20152377052
 30
0.0
 11
-33707.67998869457
 21
-25232.20152377052
 31
0.0
  0
LINE
  5
1561DA
330
1F
100
AcDbEntity
  8
0
370
    30
100
AcDbLine
 10
-33748.60299672764
 20
-25222.20152377053
 30
0.0
 11
-33709.82834493906
 21
-25222.20152377053
 31
0.0
  0
LINE
  5
1561DB
330
1F
100
AcDbEntity
  8
cs
 48
0.5
100
AcDbLine
 10
-34063.23496932707
 20
-25222.20152377053
 30
0.0
 11
-34084.86584476354
 21
-25222.20152377053
 31
0.0
  0
LINE
  5
1561DC
330
1F
100
AcDbEntity
  8
0
370
    30
100
AcDbLine
 10
-34069.32275186469
 20
-25232.20152377052
 30
0.0
 11
-34087.20666100197
 21
-25232.20152377052
 31
0.0
  0
LINE
  5
1561DD
330
1F
100
AcDbEntity
  8
0
370
    30
100
AcDbLine
 10
-33798.89968147043
 20
-25253.92541331811
 30
0.0
 11
-33795.56333325851
 21
-25263.35243727103
 31
0.0
  0
LINE
  5
1561DE
330
1F
100
AcDbEntity
  8
0
370
    30
100
AcDbLine
 10
-34010.06909337379
 20
-25253.92541331811
 30
0.0
 11
-34013.40544158565
 21
-25263.35243727103
 31
0.0
  0
LINE
  5
1561DF
330
1F
100
AcDbEntity
  8
0
370
    30
100
AcDbLine
 10
-33795.56333325851
 20
-25263.35243727103
 30
0.0
 11
-34013.40544158565
 21
-25263.35243727103
 31
0.0
  0
LINE
  5
1561E0
330
1F
100
AcDbEntity
  8
0
370
    30
100
AcDbLine
 10
-34010.06909337379
 20
-25253.92541331811
 30
0.0
 11
-33798.89968147043
 21
-25253.92541331811
 31
0.0
  0
LINE
  5
1561E1
330
1F
100
AcDbEntity
  8
0
370
    30
100
AcDbLine
 10
-33746.73769331172
 20
-25222.20152377053
 30
0.0
 11
-33753.47686353205
 21
-25237.84967847702
 31
0.0
  0
LINE
  5
1561E2
330
1F
100
AcDbEntity
  8
0
370
    30
100
AcDbLine
 10
-33745.41874060851
 20
-25245.60560403293
 30
0.0
 11
-33795.56333325851
 21
-25263.35243727103
 31
0.0
  0
LINE
  5
1561E3
330
1F
100
AcDbEntity
  8
0
370
    30
100
AcDbLine
 10
-33739.64602297954
 20
-25232.20152377052
 30
0.0
 11
-33745.41874060851
 21
-25245.60560403293
 31
0.0
  0
LINE
  5
1561E4
330
1F
100
AcDbEntity
  8
0
370
    30
100
AcDbLine
 10
-33753.47686353205
 20
-25237.84967847702
 30
0.0
 11
-33798.89968147043
 21
-25253.92541331811
 31
0.0
  0
LINE
  5
1561E5
330
1F
100
AcDbEntity
  8
0
370
    30
100
AcDbLine
 10
-34063.55003423571
 20
-25245.60560403293
 30
0.0
 11
-34013.40544158565
 21
-25263.35243727103
 31
0.0
  0
LINE
  5
1561E6
330
1F
100
AcDbEntity
  8
0
370
    30
100
AcDbLine
 10
-34069.32275186469
 20
-25232.20152377052
 30
0.0
 11
-34063.55003423571
 21
-25245.60560403293
 31
0.0
  0
LINE
  5
1561E7
102
{ACAD_REACTORS
330
1561F7
102
}
330
1F
100
AcDbEntity
  8
0
370
    30
100
AcDbLine
 10
-33748.60299672764
 20
-25222.20152377053
 30
0.0
 11
-34063.23496932707
 21
-25222.20152377053
 31
0.0
  0
LINE
  5
1561E9
330
1F
100
AcDbEntity
  8
CEN
 48
0.25
100
AcDbLine
 10
-33904.48438742211
 20
-25275.54030664609
 30
0.0
 11
-33904.48438742211
 21
-25198.12180471767
 31
0.0
  0
DIMENSION
  5
1561EA
330
1F
100
AcDbEntity
  8
标注
100
AcDbDimension
280
     0
  2
*D101
 10
-33795.56333325851
 20
-25325.25105386673
 30
0.0
 11
-33904.48438742208
 21
-25325.25105386673
 31
0.0
 70
   160
  1
{\Ftxt|c134;%%C\fSimSun|b0|i0|c134|p2;90 [3.5"]}
 71
     5
 42
217.8421083271387
 73
     0
 74
     0
 75
     0
  3
usally
100
AcDbAlignedDimension
 13
-34013.40544158565
 23
-25263.35243727103
 33
0.0
 14
-33795.56333325851
 24
-25263.35243727103
 34
0.0
100
AcDbRotatedDimension
1001
ACAD
1000
DSTYLE
1002
{
1070
    40
1040
1.8
1002
}
  0
LINE
  5
1561EB
330
1F
100
AcDbEntity
  8
0
370
    30
100
AcDbLine
 10
-34062.23108153251
 20
-25222.20152377053
 30
0.0
 11
-34055.49191131217
 21
-25237.84967847702
 31
0.0
  0
DIMENSION
  5
1561EC
330
1F
100
AcDbEntity
  8
标注
100
AcDbDimension
280
     0
  2
*D102
 10
-33739.64602297954
 20
-25378.76604037342
 30
0.0
 11
-33907.70510986327
 21
-25378.76604037342
 31
0.0
 70
   160
  1
{\Ftxt|c134;%%C\fSimSun|b0|i0|c134|p2;120 [4.7"]}
 71
     5
 42
329.9767292280449
 73
     0
 74
     0
 75
     0
  3
usally
100
AcDbAlignedDimension
 13
-34069.62275220758
 23
-25232.20152377052
 33
0.0
 14
-33739.64602297954
 24
-25232.20152377052
 34
0.0
100
AcDbRotatedDimension
1001
ACAD
1000
DSTYLE
1002
{
1070
    40
1040
1.8
1002
}
  0
DIMENSION
  5
1561ED
330
1F
100
AcDbEntity
  8
标注
100
AcDbDimension
280
     0
  2
*D103
 10
-34166.00986265492
 20
-25222.20152377054
 30
0.0
 11
-34166.00986265492
 21
-25238.06346854431
 31
0.0
 70
   160
  1
{\fSimSun|b0|i0|c134|p2;6 [.24"]}
 71
     5
 42
31.72388954758935
 73
     0
 74
     0
 75
     0
  3
usally
100
AcDbAlignedDimension
 13
-34011.96689723859
 23
-25253.92541331811
 33
0.0
 14
-34065.13277319186
 24
-25222.20152377053
 34
0.0
 50
90.0
100
AcDbRotatedDimension
1001
ACAD
1000
DSTYLE
1002
{
1070
    40
1040
1.8
1002
}
  0
DIMENSION
  5
1561EE
330
1F
100
AcDbEntity
  8
标注
100
AcDbDimension
280
     0
  2
*D104
 10
-33753.47686353205
 20
-25180.56228554066
 30
0.0
 11
-33904.48438742211
 21
-25180.56228554066
 31
0.0
 70
   160
  1
{\Ftxt|c134;%%C\fSimSun|b0|i0|c134|p2;114 [4.5"]}
 71
     5
 42
302.0150477801217
 73
     0
 74
     0
 75
     0
  3
usally
100
AcDbAlignedDimension
 13
-34055.49191131217
 23
-25237.84967847702
 33
0.0
 14
-33753.47686353205
 24
-25237.849678477
 34
0.0
100
AcDbRotatedDimension
1001
ACAD
1000
DSTYLE
1002
{
1070
    40
1040
1.8
1002
}
  0
LINE
  5
1561EF
102
{ACAD_REACTORS
330
1561F7
102
}
330
1F
100
AcDbEntity
  8
0
370
    30
100
AcDbLine
 10
-34055.49191131217
 20
-25237.84967847702
 30
0.0
 11
-33753.47686353205
 21
-25237.849678477
 31
0.0
  0
LINE
  5
1561F0
330
1F
100
AcDbEntity
  8
0
370
    30
100
AcDbLine
 10
-34055.49191131217
 20
-25237.84967847702
 30
0.0
 11
-34010.06909337379
 21
-25253.92541331811
 31
0.0
  0
LINE
  5
1561F1
330
1F
100
AcDbEntity
  8
0
 48
0.5
100
AcDbLine
 10
-34084.86584476354
 20
-25222.20152377053
 30
0.0
 11
-34087.20666100197
 21
-25232.20152377052
 31
0.0
  0
LINE
  5
1561F2
330
1F
100
AcDbEntity
  8
0
 48
0.5
100
AcDbLine
 10
-33709.82834493906
 20
-25222.20152377053
 30
0.0
 11
-33707.67998869457
 21
-25232.20152377052
 31
0.0
  0
HATCH
  5
1561F3
330
1F
100
AcDbEntity
  8
DIMJ
100
AcDbHatch
 10
0.0
 20
0.0
 30
0.0
210
0.0
220
0.0
230
1.0
  2
ANSI31
 70
     0
 71
     0
 91
        1
 92
        7
 72
     0
 73
     1
 93
        8
 10
-33746.73769331172
 20
-25222.20152377053
 10
-33753.47686353205
 20
-25237.84967847703
 10
-33798.89968147043
 20
-25253.92541331811
 10
-33795.56333325851
 20
-25263.35243727103
 10
-33745.41874060857
 20
-25245.60560403293
 10
-33739.64602297954
 20
-25232.20152377052
 10
-33707.67998869457
 20
-25232.20152377052
 10
-33709.82834493906
 20
-25222.20152377053
 97
        0
 75
     0
 76
     1
 52
0.0
 41
1.5
 77
     0
 78
     1
 53
45.0
 43
-154064.2355354975
 44
-35372.00810440102
 45
-3.367596045400931
 46
3.367596045400932
 79
     0
 47
0.2710970503053007
 98
        1
 10
-33735.26784888011
 20
-25224.82899693281
  0
HATCH
  5
1561F4
330
1F
100
AcDbEntity
  8
DIMJ
100
AcDbHatch
 10
0.0
 20
0.0
 30
0.0
210
0.0
220
0.0
230
1.0
  2
ANSI31
 70
     0
 71
     0
 91
        1
 92
        7
 72
     0
 73
     1
 93
        9
 10
-34013.40544158565
 20
-25263.35243727103
 10
-34010.06909337379
 20
-25253.92541331811
 10
-34055.49191131217
 20
-25237.84967847702
 10
-34062.23108153251
 20
-25222.20152377053
 10
-34063.23496932707
 20
-25222.20152377053
 10
-34084.86584476354
 20
-25222.20152377053
 10
-34087.20666100197
 20
-25232.20152377052
 10
-34069.32275186469
 20
-25232.20152377052
 10
-34063.55003423577
 20
-25245.60560403293
 97
        0
 75
     0
 76
     1
 52
0.0
 41
1.5
 77
     0
 78
     1
 53
45.0
 43
-154064.2355354975
 44
-35372.00810440102
 45
-3.367596045400931
 46
3.367596045400932
 79
     0
 47
0.3842113092781178
 98
        1
 10
-34022.77220428044
 20
-25257.54042005036
  0
DIMENSION
  5
1561F5
102
{ACAD_XDICTIONARY
360
1561F6
102
}
102
{ACAD_REACTORS
330
1561F7
102
}
330
1F
100
AcDbEntity
  8
标注
100
AcDbDimension
280
     0
  2
*D105
 10
-34116.51266736147
 20
-25222.20152377055
 30
0.0
 11
-34116.51266736147
 21
-25086.95012712249
 31
0.0
 70
   160
  1
{\fSimSun|b0|i0|c134|p2;3 [.12"]}
 71
     5
 42
15.6481547064759
 73
     0
 74
     0
 75
     0
  3
usally
100
AcDbAlignedDimension
 13
-34036.34745425562
 23
-25237.84967847702
 33
0.0
 14
-34036.34745425562
 24
-25222.20152377054
 34
0.0
 50
90.0
100
AcDbRotatedDimension
1001
ACAD
1000
DSTYLE
1002
{
1070
    40
1040
1.8
1002
}
  0
LINE
  5
1561F8
330
1F
100
AcDbEntity
  8
标注
100
AcDbLine
 10
-34166.00986265492
 20
-25222.20152377053
 30
0.0
 11
-34166.00986265492
 21
-25253.92541331811
 31
0.0
  0
DIMENSION
  5
156287
330
1F
100
AcDbEntity
  8
标注
100
AcDbDimension
280
     0
  2
*D106
 10
-33846.87404381087
 20
-24208.86041646513
 30
0.0
 11
-33663.09978290763
 21
-24178.95312255796
 31
0.0
 70
   164
  1
<>{\fSimSun|b0|i0|c134|p2; [.75"]}
 71
     5
 42
19.00000000005093
 73
     0
 74
     0
 75
     0
  3
ISO-25
100
AcDbRadialDimension
 15
-33864.53721437969
 25
-24215.86130251323
 35
0.0
 40
0.0
1001
ACAD
1000
DSTYLE
1002
{
1070
    40
1040
1.0
1070
    41
1040
25.0
1070
   140
1040
30.0
1002
}
  0
DIMENSION
  5
156297
330
1F
100
AcDbEntity
  8
标注
100
AcDbDimension
280
     0
  2
*D107
 10
-34265.87404381094
 20
-24208.86041646513
 30
0.0
 11
-34090.6096894108
 21
-24142.49627582735
 31
0.0
 70
   164
  1
<>{\fSimSun|b0|i0|c134|p2; [.75"]}
 71
     5
 42
18.99999999999272
 73
     0
 74
     0
 75
     0
  3
ISO-25
100
AcDbRadialDimension
 15
-34279.36757592652
 25
-24222.23668616358
 35
0.0
 40
0.0
1001
ACAD
1000
DSTYLE
1002
{
1070
    40
1040
1.0
1070
    41
1040
25.0
1070
   140
1040
30.0
1002
}
  0
DIMENSION
  5
1562DF
330
1F
100
AcDbEntity
  8
标注
100
AcDbDimension
280
     0
  2
*D108
 10
-33857.04768014948
 20
-24917.18913669147
 30
0.0
 11
-33776.90528453921
 21
-24904.33517996116
 31
0.0
 70
   164
  1
<>{\fSimSun|b0|i0|c134|p2; [.75"]}
 71
     5
 42
18.99999999998545
 73
     0
 74
     0
 75
     0
  3
ISO-25
100
AcDbRadialDimension
 15
-33875.80791238678
 25
-24920.19807112114
 35
0.0
 40
0.0
1001
ACAD
1000
DSTYLE
1002
{
1070
    40
1040
1.0
1070
    41
1040
25.0
1070
   140
1040
30.0
1002
}
  0
DIMENSION
  5
1562F5
330
1F
100
AcDbEntity
  8
标注
100
AcDbDimension
280
     0
  2
*D109
 10
-34276.04768014945
 20
-24917.18913669143
 30
0.0
 11
-34181.07993924976
 21
-24906.50992648503
 31
0.0
 70
   164
  1
<>{\fSimSun|b0|i0|c134|p2; [.75"]}
 71
     5
 42
19.00000000003638
 73
     0
 74
     0
 75
     0
  3
ISO-25
100
AcDbRadialDimension
 15
-34294.92867807461
 25
-24919.31232235257
 35
0.0
 40
0.0
1001
ACAD
1000
DSTYLE
1002
{
1070
    40
1040
1.0
1070
    41
1040
25.0
1070
   140
1040
30.0
1002
}
  0
VIEWPORT
  5
579E8
330
55
100
AcDbEntity
 67
     1
  8
0
100
AcDbViewport
 10
131.9468164730006
 20
97.5
 30
0.0
 40
435.5897368421052
 41
222.18
 68
     1
 69
     1
 12
131.9468164730006
 22
97.5
 13
0.0
 23
0.0
 14
10.0
 24
10.0
 15
10.0
 25
10.0
 16
0.0
 26
0.0
 36
1.0
 17
0.0
 27
0.0
 37
0.0
 42
50.0
 43
0.0
 44
0.0
 45
222.18
 50
0.0
 51
0.0
 72
 20000
 90
   819232
  1

281
     0
 71
     1
 74
     0
110
0.0
120
0.0
130
0.0
111
1.0
121
0.0
131
0.0
112
0.0
122
1.0
132
0.0
 79
     0
146
0.0
170
     0
 61
     5
348
DE1E
292
     1
282
     1
141
0.0
142
0.0
 63
   250
421
  3355443
  0
VIEWPORT
  5
579EA
330
55
100
AcDbEntity
 67
     1
  8
0
100
AcDbViewport
 10
128.5
 20
97.5
 30
0.0
 40
205.6
 41
156.0
 68
     2
 69
     2
 12
44432.77871652242
 22
-19184.9654913116
 13
0.0
 23
0.0
 14
10.0
 24
10.0
 15
10.0
 25
10.0
 16
0.0
 26
0.0
 36
1.0
 17
0.0
 27
0.0
 37
0.0
 42
50.0
 43
0.0
 44
0.0
 45
63278.44398776388
 50
0.0
 51
0.0
 72
 20000
 90
   819296
  1

281
     0
 71
     1
 74
     0
110
0.0
120
0.0
130
0.0
111
1.0
121
0.0
131
0.0
112
0.0
122
1.0
132
0.0
 79
     0
146
0.0
170
     0
 61
     5
348
DE1E
292
     1
282
     1
141
0.0
142
0.0
 63
   250
421
  3355443
  0
ENDSEC
  0
SECTION
  2
OBJECTS
  0
DICTIONARY
  5
C
330
0
100
AcDbDictionary
281
     1
  3
ACAD_BGPLOT_KEY
350
C0F4C
  3
ACAD_CIP_PREVIOUS_PRODUCT_INFO
350
1565F4
  3
ACAD_COLOR
350
6B
  3
ACAD_DETAILVIEWSTYLE
350
1565EB
  3
ACAD_GROUP
350
D
  3
ACAD_IMAGE_DICT
350
12A80A
  3
ACAD_IMAGE_VARS
350
12A80E
  3
ACAD_LAYOUT
350
1A
  3
ACAD_MATERIAL
350
6A
  3
ACAD_MLEADERSTYLE
350
12A04A
  3
ACAD_MLINESTYLE
350
17
  3
ACAD_PLOTSETTINGS
350
19
  3
ACAD_PLOTSTYLENAME
350
E
  3
ACAD_SCALELIST
350
12A028
  3
ACAD_SECTIONVIEWSTYLE
350
1565E9
  3
ACAD_TABLESTYLE
350
DE29
  3
ACAD_VISUALSTYLE
350
DE18
  3
AcadDim
350
12B19F
  3
ACDB_RECOMPOSE_DATA
350
156734
  3
AcDbVariableDictionary
350
5E
  3
ASE_INDEX_DICTIONARY
350
11FBC8
  0
DICTIONARY
  5
E0C7
330
8
100
AcDbDictionary
280
     1
281
     1
  0
DICTIONARY
  5
DFEA
330
2
100
AcDbDictionary
280
     1
281
     1
  3
ACAD_LAYERFILTERS
360
129F67
  3
ACAD_LAYERSTATES
360
E6F7
  3
ACLYDICTIONARY
360
129F66
  0
DICTIONARY
  5
12B71D
330
10
100
AcDbDictionary
280
     1
281
     1
  3
ADSK_XREC_LAYER_RECONCILED
360
12B71E
  0
DICTIONARY
  5
12B71F
330
DFE7
100
AcDbDictionary
280
     1
281
     1
  3
ADSK_XREC_LAYER_RECONCILED
360
12B720
  0
DICTIONARY
  5
12B721
330
E3EE
100
AcDbDictionary
280
     1
281
     1
  3
ADSK_XREC_LAYER_RECONCILED
360
12B722
  0
DICTIONARY
  5
F119
330
F118
100
AcDbDictionary
280
     1
281
     1
  3
ADSK_XREC_LAYER_RECONCILED
360
12B723
  0
DICTIONARY
  5
13D0D
330
13D0C
100
AcDbDictionary
280
     1
281
     1
  3
ADSK_XREC_LAYER_RECONCILED
360
12B724
  0
DICTIONARY
  5
16712
330
16711
100
AcDbDictionary
280
     1
281
     1
  3
ADSK_XREC_LAYER_RECONCILED
360
12B725
  0
DICTIONARY
  5
12B726
330
44A7B
100
AcDbDictionary
280
     1
281
     1
  3
ADSK_XREC_LAYER_RECONCILED
360
12B727
  0
DICTIONARY
  5
122223
330
122222
100
AcDbDictionary
280
     1
281
     1
  3
ADSK_XREC_LAYER_RECONCILED
360
12B728
  0
DICTIONARY
  5
12B729
330
127472
100
AcDbDictionary
280
     1
281
     1
  3
ADSK_XREC_LAYER_RECONCILED
360
12B72A
  0
DICTIONARY
  5
12A5B7
330
12A5B6
100
AcDbDictionary
280
     1
281
     1
  3
ADSK_XREC_LAYER_RECONCILED
360
12B72B
  0
DICTIONARY
  5
12A5B9
330
12A5B8
100
AcDbDictionary
280
     1
281
     1
  3
ADSK_XREC_LAYER_RECONCILED
360
12B72C
  0
DICTIONARY
  5
12A5BB
330
12A5BA
100
AcDbDictionary
280
     1
281
     1
  3
ADSK_XREC_LAYER_RECONCILED
360
12B72D
  0
DICTIONARY
  5
12A5BD
330
12A5BC
100
AcDbDictionary
280
     1
281
     1
  3
ADSK_XREC_LAYER_RECONCILED
360
12B72E
  0
DICTIONARY
  5
12A5BF
330
12A5BE
100
AcDbDictionary
280
     1
281
     1
  3
ADSK_XREC_LAYER_RECONCILED
360
12B72F
  0
DICTIONARY
  5
12A5C1
330
12A5C0
100
AcDbDictionary
280
     1
281
     1
  3
ADSK_XREC_LAYER_RECONCILED
360
12B730
  0
DICTIONARY
  5
12A5C3
330
12A5C2
100
AcDbDictionary
280
     1
281
     1
  3
ADSK_XREC_LAYER_RECONCILED
360
12B731
  0
DICTIONARY
  5
12A5C5
330
12A5C4
100
AcDbDictionary
280
     1
281
     1
  3
ADSK_XREC_LAYER_RECONCILED
360
12B732
  0
DICTIONARY
  5
141551
330
141550
100
AcDbDictionary
280
     1
281
     1
  3
ADSK_XREC_LAYER_RECONCILED
360
141552
  0
DICTIONARY
  5
DE63
330
1F
100
AcDbDictionary
280
     1
281
     1
  3
ACAD_SORTENTS
360
DE64
  0
DICTIONARY
  5
13D535
330
13D534
100
AcDbDictionary
280
     1
281
     1
  3
ACAD_SORTENTS
360
13D536
  0
DICTIONARY
  5
13D59E
330
13D57E
100
AcDbDictionary
280
     1
281
     1
  3
ACAD_SORTENTS
360
13D59F
  0
DICTIONARY
  5
13D59C
330
13D59B
100
AcDbDictionary
280
     1
281
     1
  3
ACAD_DIMASSOC
360
13D59D
  0
DICTIONARY
  5
155AAF
330
155AAE
100
AcDbDictionary
280
     1
281
     1
  3
ACAD_DIMASSOC
360
155AB0
  0
DICTIONARY
  5
155AB3
330
155AB2
100
AcDbDictionary
280
     1
281
     1
  3
ACAD_DIMASSOC
360
155AB4
  0
DICTIONARY
  5
155AB6
330
155AB5
100
AcDbDictionary
280
     1
281
     1
  3
ACAD_DIMASSOC
360
155AB7
  0
DICTIONARY
  5
155AE3
330
155AE2
100
AcDbDictionary
280
     1
281
     1
  3
ACAD_DIMASSOC
360
155AE4
  0
DICTIONARY
  5
155AE6
330
155AE5
100
AcDbDictionary
280
     1
281
     1
  3
ACAD_DIMASSOC
360
155AE7
  0
DICTIONARY
  5
155B0B
330
155B0A
100
AcDbDictionary
280
     1
281
     1
  3
ACAD_DIMASSOC
360
155B0C
  0
DICTIONARY
  5
155B0E
330
155B0D
100
AcDbDictionary
280
     1
281
     1
  3
ACAD_DIMASSOC
360
155B0F
  0
DICTIONARY
  5
155B88
330
155B87
100
AcDbDictionary
280
     1
281
     1
  3
ACAD_DIMASSOC
360
155B89
  0
DICTIONARY
  5
1561F6
330
1561F5
100
AcDbDictionary
280
     1
281
     1
  3
ACAD_DIMASSOC
360
1561F7
  0
DICTIONARY
  5
C0F4C
102
{ACAD_REACTORS
330
C
102
}
330
C
100
AcDbDictionary
280
     1
281
     1
  0
XRECORD
  5
1565F4
102
{ACAD_REACTORS
330
C
102
}
330
C
100
AcDbXrecord
280
     1
300
ACDLT
300
2018
300

  0
DICTIONARY
  5
6B
102
{ACAD_REACTORS
330
C
102
}
330
C
100
AcDbDictionary
281
     1
  0
DICTIONARY
  5
1565EB
102
{ACAD_REACTORS
330
C
102
}
330
C
100
AcDbDictionary
281
     1
  3
Metric50
350
1565EC
  0
DICTIONARY
  5
D
102
{ACAD_REACTORS
330
C
102
}
330
C
100
AcDbDictionary
281
     1
  0
DICTIONARY
  5
12A80A
102
{ACAD_REACTORS
330
C
102
}
330
C
100
AcDbDictionary
281
     1
  3
图标
350
12A80B
1001
AcadStringInfo
1000
MIFCodePage
1070
     5
  0
RASTERVARIABLES
  5
12A80E
102
{ACAD_REACTORS
330
C
102
}
330
C
100
AcDbRasterVariables
 90
        0
 70
     1
 71
     1
 72
     1
  0
DICTIONARY
  5
1A
102
{ACAD_REACTORS
330
C
102
}
330
C
100
AcDbDictionary
281
     1
  3
Model
350
22
  3
布局1
350
51
  3
布局2
350
56
1001
AcadStringInfo
1000
MIFCodePage
1070
     5
  0
DICTIONARY
  5
6A
102
{ACAD_REACTORS
330
C
102
}
330
C
100
AcDbDictionary
281
     1
  3
ByBlock
350
DE16
  3
ByLayer
350
DE15
  3
Global
350
DE17
  0
DICTIONARY
  5
12A04A
102
{ACAD_REACTORS
330
C
102
}
330
C
100
AcDbDictionary
281
     1
  3
Standard
350
12A04B
  0
DICTIONARY
  5
17
102
{ACAD_REACTORS
330
C
102
}
330
C
100
AcDbDictionary
281
     1
  3
Standard
350
18
  0
DICTIONARY
  5
19
102
{ACAD_REACTORS
330
C
102
}
330
C
100
AcDbDictionary
281
     1
  0
ACDBDICTIONARYWDFLT
  5
E
102
{ACAD_REACTORS
330
C
102
}
330
C
100
AcDbDictionary
281
     1
  3
Normal
350
F
100
AcDbDictionaryWithDefault
340
F
  0
DICTIONARY
  5
12A028
102
{ACAD_REACTORS
330
C
102
}
330
C
100
AcDbDictionary
281
     1
  3
A0
350
12A029
  3
A1
350
12A02A
  3
A2
350
12A02B
  3
A3
350
12A02C
  3
A4
350
12A02D
  3
A5
350
12A02E
  3
A6
350
12A02F
  3
A7
350
12A030
  3
A8
350
12A031
  3
A9
350
12A032
  3
B0
350
12A033
  3
B1
350
12A034
  3
B2
350
12A035
  3
B3
350
12A036
  3
B4
350
12A037
  3
B5
350
12A038
  3
B6
350
12A039
  3
B7
350
12A03A
  3
B8
350
12A03B
  3
B9
350
12A03C
  3
C0
350
12A03D
  3
C1
350
12A03E
  3
C2
350
12A03F
  3
C3
350
12A040
  3
C4
350
12A041
  3
C5
350
12A042
  3
C6
350
12A043
  3
C7
350
12A044
  3
C8
350
12A045
  3
C9
350
12A046
  3
D0
350
12A047
  3
D1
350
12A048
  3
D2
350
12A049
  0
DICTIONARY
  5
1565E9
102
{ACAD_REACTORS
330
C
102
}
330
C
100
AcDbDictionary
281
     1
  3
Metric50
350
1565EA
  0
DICTIONARY
  5
DE29
102
{ACAD_REACTORS
330
C
102
}
330
C
100
AcDbDictionary
281
     1
  3
10.5
350
128BA8
  3
16
350
122496
  3
Standard
350
DE2A
  3
副本 (2) Standard
350
122497
  3
副本 (3) Standard
350
122498
  3
副本 Standard
350
122499
1001
AcadStringInfo
1000
MIFCodePage
1070
     5
  0
DICTIONARY
  5
DE18
102
{ACAD_REACTORS
330
C
102
}
330
C
100
AcDbDictionary
281
     1
  3
2dWireframe
350
DE1E
  3
3D Hidden
350
DE20
  3
3dWireframe
350
DE1F
  3
Basic
350
DE1D
  3
Brighten
350
DE24
  3
ColorChange
350
DE28
  3
Conceptual
350
DE21
  3
Dim
350
DE23
  3
EdgeColorOff
350
1565E8
  3
Facepattern
350
DE27
  3
Flat
350
DE19
  3
FlatWithEdges
350
DE1A
  3
Gouraud
350
DE1B
  3
GouraudWithEdges
350
DE1C
  3
Hidden
350
1565E0
  3
JitterOff
350
1565E6
  3
Linepattern
350
DE26
  3
OverhangOff
350
1565E7
  3
Realistic
350
DE22
  3
Shaded
350
1565E5
  3
Shaded with edges
350
1565E4
  3
Shades of Gray
350
1565E1
  3
Sketchy
350
1565E2
  3
Thicken
350
DE25
  3
Wireframe
350
67F3C
  3
X-Ray
350
1565E3
  0
XRECORD
  5
12B19F
102
{ACAD_REACTORS
330
C
102
}
330
C
100
AcDbXrecord
280
     1
 90
   990106
  3

 60
     0
 61
     0
 62
     1
 63
     3
 64
     0
 65
     0
 66
     0
 67
     3
 68
     1
 69
     0
 70
     0
 71
     0
 72
     0
 40
0.0
170
     0
  0
XRECORD
  5
156734
102
{ACAD_REACTORS
330
C
102
}
330
C
100
AcDbXrecord
280
     1
 90
        1
330
DE2A
330
122496
330
122497
330
122498
330
122499
330
128BA8
330
13D590
330
13D592
330
13D593
330
13D594
330
13D59B
  0
DICTIONARY
  5
5E
102
{ACAD_REACTORS
330
C
102
}
330
C
100
AcDbDictionary
281
     1
  3
CANNOSCALE
350
12A14E
  3
CMLEADERSTYLE
350
12A14C
  3
CTABLESTYLE
350
DFDB
  3
CVIEWDETAILSTYLE
350
15672A
  3
CVIEWSECTIONSTYLE
350
15672B
  3
DIMASSOC
350
5F
  3
FIELDEVAL
350
C0F4D
  3
HIDETEXT
350
63
  3
INDEXCTL
350
E0E6
  3
LAYEREVAL
350
15672C
  3
LAYERNOTIFY
350
15672D
  3
LIGHTINGUNITS
350
12A14F
  3
MSLTSCALE
350
12A14D
  3
SORTENTS
350
E0E5
  0
DICTIONARY
  5
11FBC8
102
{ACAD_REACTORS
330
C
102
}
330
C
100
AcDbDictionary
281
     1
  3
ASEBlockHierarchyIndexRecord
350
11FBC9
1001
DCO15
1040
1842092776.051
  0
DICTIONARY
  5
129F67
102
{ACAD_REACTORS
330
DFEA
102
}
330
DFEA
100
AcDbDictionary
281
     1
  0
DICTIONARY
  5
E6F7
102
{ACAD_REACTORS
330
DFEA
102
}
330
DFEA
100
AcDbDictionary
281
     1
  0
DICTIONARY
  5
129F66
102
{ACAD_REACTORS
330
DFEA
102
}
330
DFEA
100
AcDbDictionary
281
     1
1001
ACAD
1000
<All
  0
XRECORD
  5
12B71E
102
{ACAD_REACTORS
330
12B71D
102
}
330
12B71D
100
AcDbXrecord
280
     1
290
     1
  0
XRECORD
  5
12B720
102
{ACAD_REACTORS
330
12B71F
102
}
330
12B71F
100
AcDbXrecord
280
     1
290
     1
  0
XRECORD
  5
12B722
102
{ACAD_REACTORS
330
12B721
102
}
330
12B721
100
AcDbXrecord
280
     1
290
     1
  0
XRECORD
  5
12B723
102
{ACAD_REACTORS
330
F119
102
}
330
F119
100
AcDbXrecord
280
     1
290
     1
  0
XRECORD
  5
12B724
102
{ACAD_REACTORS
330
13D0D
102
}
330
13D0D
100
AcDbXrecord
280
     1
290
     1
  0
XRECORD
  5
12B725
102
{ACAD_REACTORS
330
16712
102
}
330
16712
100
AcDbXrecord
280
     1
290
     1
  0
XRECORD
  5
12B727
102
{ACAD_REACTORS
330
12B726
102
}
330
12B726
100
AcDbXrecord
280
     1
290
     1
  0
XRECORD
  5
12B728
102
{ACAD_REACTORS
330
122223
102
}
330
122223
100
AcDbXrecord
280
     1
290
     1
  0
XRECORD
  5
12B72A
102
{ACAD_REACTORS
330
12B729
102
}
330
12B729
100
AcDbXrecord
280
     1
290
     1
  0
XRECORD
  5
12B72B
102
{ACAD_REACTORS
330
12A5B7
102
}
330
12A5B7
100
AcDbXrecord
280
     1
290
     1
  0
XRECORD
  5
12B72C
102
{ACAD_REACTORS
330
12A5B9
102
}
330
12A5B9
100
AcDbXrecord
280
     1
290
     1
  0
XRECORD
  5
12B72D
102
{ACAD_REACTORS
330
12A5BB
102
}
330
12A5BB
100
AcDbXrecord
280
     1
290
     1
  0
XRECORD
  5
12B72E
102
{ACAD_REACTORS
330
12A5BD
102
}
330
12A5BD
100
AcDbXrecord
280
     1
290
     1
  0
XRECORD
  5
12B72F
102
{ACAD_REACTORS
330
12A5BF
102
}
330
12A5BF
100
AcDbXrecord
280
     1
290
     1
  0
XRECORD
  5
12B730
102
{ACAD_REACTORS
330
12A5C1
102
}
330
12A5C1
100
AcDbXrecord
280
     1
290
     1
  0
XRECORD
  5
12B731
102
{ACAD_REACTORS
330
12A5C3
102
}
330
12A5C3
100
AcDbXrecord
280
     1
290
     1
  0
XRECORD
  5
12B732
102
{ACAD_REACTORS
330
12A5C5
102
}
330
12A5C5
100
AcDbXrecord
280
     1
290
     1
  0
XRECORD
  5
141552
102
{ACAD_REACTORS
330
141551
102
}
330
141551
100
AcDbXrecord
280
     1
290
     1
  0
SORTENTSTABLE
  5
DE64
102
{ACAD_REACTORS
330
DE63
102
}
330
DE63
100
AcDbSortentsTable
330
1F
331
155B07
  5
155B07
331
155B03
  5
155B03
331
155AFF
  5
155AFF
331
155AC6
  5
155AC6
331
155AFB
  5
155AFB
331
1561F8
  5
1561F8
331
155B7F
  5
155B7F
331
155AC2
  5
155AC2
331
1561F4
  5
1561F4
331
155B7B
  5
155B7B
331
1561F0
  5
1561F0
331
155B73
  5
155B73
331
155AF7
  5
155AF7
331
155AF3
  5
155AF3
331
155ABE
  5
155ABE
331
155AEF
  5
155AEF
331
1561EC
  5
1561EC
331
155ABA
  5
155ABA
331
155B6F
  5
155B6F
331
155AEB
  5
155AEB
331
155AB2
  5
155AB2
331
1561E4
  5
1561E4
331
1561E0
  5
1561E0
331
155B67
  5
155B67
331
1562DF
  5
1562DF
331
155AE0
  5
155AE0
331
155ADC
  5
155ADC
331
1561DD
  5
1561DD
331
155AAB
  5
155AAB
331
155AD8
  5
155AD8
331
1561D9
  5
1561D9
331
155AD4
  5
155AD4
331
155AD0
  5
155AD0
331
155ACC
  5
155ACC
331
155AC8
  5
155AC8
331
155B87
  5
155B87
331
155B83
  5
155B83
331
155B04
  5
155B04
331
155B00
  5
155B00
331
155AFC
  5
155AFC
331
155AF8
  5
155AF8
331
155B7C
  5
155B7C
331
155AC7
  5
155AC7
331
155B74
  5
155B74
331
155AC3
  5
155AC3
331
1561F5
  5
1561F5
331
1561F1
  5
1561F1
331
155AF4
  5
155AF4
331
155AF0
  5
155AF0
331
155AEC
  5
155AEC
331
155ABF
  5
155ABF
331
155AE8
  5
155AE8
331
155B6C
  5
155B6C
331
1561ED
  5
1561ED
331
155ABB
  5
155ABB
331
155B68
  5
155B68
331
1561E9
  5
1561E9
331
1561E5
  5
1561E5
331
1561E1
  5
1561E1
331
155AE5
  5
155AE5
331
155AE1
  5
155AE1
331
155AAC
  5
155AAC
331
155ADD
  5
155ADD
331
155B1C
  5
155B1C
331
155AD9
  5
155AD9
331
1561DE
  5
1561DE
331
1561DA
  5
1561DA
331
1562F5
  5
1562F5
331
155AD5
  5
155AD5
331
155AD1
  5
155AD1
331
155ACD
  5
155ACD
331
155B08
  5
155B08
331
155AC9
  5
155AC9
331
155B84
  5
155B84
331
155B80
  5
155B80
331
155B05
  5
155B05
331
155B01
  5
155B01
331
155AFD
  5
155AFD
331
155AC4
  5
155AC4
331
155AF9
  5
155AF9
331
155B7D
  5
155B7D
331
155AC0
  5
155AC0
331
155B79
  5
155B79
331
155B75
  5
155B75
331
1561F2
  5
1561F2
331
155AF5
  5
155AF5
331
155AF1
  5
155AF1
331
155ABC
  5
155ABC
331
155AED
  5
155AED
331
155AB8
  5
155AB8
331
155B6D
  5
155B6D
331
1561EE
  5
1561EE
331
155AE9
  5
155AE9
331
1561EA
  5
1561EA
331
1561E6
  5
1561E6
331
1561E2
  5
1561E2
331
155AE2
  5
155AE2
331
155AAD
  5
155AAD
331
155ADE
  5
155ADE
331
1561DF
  5
1561DF
331
155ADA
  5
155ADA
331
1561DB
  5
1561DB
331
155AD6
  5
155AD6
331
155AD2
  5
155AD2
331
155ACE
  5
155ACE
331
155B0D
  5
155B0D
331
155ACA
  5
155ACA
331
155B09
  5
155B09
331
155B85
  5
155B85
331
155B81
  5
155B81
331
155B06
  5
155B06
331
155B02
  5
155B02
331
155AFE
  5
155AFE
331
155B3D
  5
155B3D
331
155B7E
  5
155B7E
331
155AC5
  5
155AC5
331
155AFA
  5
155AFA
331
155AC1
  5
155AC1
331
155B7A
  5
155B7A
331
1561F3
  5
1561F3
331
156297
  5
156297
331
155B35
  5
155B35
331
155AF6
  5
155AF6
331
155AF2
  5
155AF2
331
155ABD
  5
155ABD
331
155AEE
  5
155AEE
331
155AB9
  5
155AB9
331
155AEA
  5
155AEA
331
155B6E
  5
155B6E
331
155AB5
  5
155AB5
331
1561EF
  5
1561EF
331
1561EB
  5
1561EB
331
155B66
  5
155B66
331
1561E7
  5
1561E7
331
155B62
  5
155B62
331
1561E3
  5
1561E3
331
156287
  5
156287
331
155AAE
  5
155AAE
331
155ADF
  5
155ADF
331
1561DC
  5
1561DC
331
155AAA
  5
155AAA
331
155ADB
  5
155ADB
331
155AD7
  5
155AD7
331
155AD3
  5
155AD3
331
155ACF
  5
155ACF
331
155ACB
  5
155ACB
331
155B0A
  5
155B0A
331
155B86
  5
155B86
331
155B82
  5
155B82
  0
SORTENTSTABLE
  5
13D536
102
{ACAD_REACTORS
330
13D535
102
}
330
13D535
100
AcDbSortentsTable
330
13D534
  0
SORTENTSTABLE
  5
13D59F
102
{ACAD_REACTORS
330
13D59E
102
}
330
13D59E
100
AcDbSortentsTable
330
13D57E
  0
DIMASSOC
  5
13D59D
102
{ACAD_REACTORS
330
13D59C
102
}
330
13D59C
100
AcDbDimAssoc
330
13D59B
 90
        3
 70
     0
 71
     0
  1
AcDbOsnapPointRef
 72
    10
331
13D595
 73
     2
 91
        0
 40
0.0633890834157667
 10
0.0
 20
0.0
 30
0.0
 75
     0
  1
AcDbOsnapPointRef
 72
     8
331
13D58E
 73
     2
 91
        0
 40
0.9145429663446716
 10
0.0
 20
0.0
 30
0.0
 75
     1
  1
AcDbOsnapPointRef
 72
    10
331
13D595
 73
     2
 91
        0
 40
0.0633890834157667
 10
0.0
 20
0.0
 30
0.0
 75
     0
  0
DIMASSOC
  5
155AB0
102
{ACAD_REACTORS
330
155AAF
102
}
330
155AAF
100
AcDbDimAssoc
330
155AAE
 90
        2
 70
     0
 71
     0
  1
AcDbOsnapPointRef
 72
    13
331
155ABC
 73
     2
 91
        0
 40
0.0
 10
0.0
 20
0.0
 30
2.000000000000000E+50
 75
     0
  0
DIMASSOC
  5
155AB4
102
{ACAD_REACTORS
330
155AB3
102
}
330
155AB3
100
AcDbDimAssoc
330
155AB2
 90
        1
 70
     0
 71
     0
  1
AcDbOsnapPointRef
 72
    13
331
155AC3
 73
     2
 91
        0
 40
0.0
 10
0.0
 20
0.0
 30
2.000000000000000E+50
 75
     0
  0
DIMASSOC
  5
155AB7
102
{ACAD_REACTORS
330
155AB6
102
}
330
155AB6
100
AcDbDimAssoc
330
155AB5
 90
        3
 70
     0
 71
     0
  1
AcDbOsnapPointRef
 72
     1
331
155AC2
 73
     2
 91
        0
 40
1.0
 10
0.0
 20
0.0
 30
2.000000000000000E+50
 75
     0
  1
AcDbOsnapPointRef
 72
    13
331
155AC2
 73
     2
 91
        0
 40
0.0
 10
0.0
 20
0.0
 30
2.000000000000000E+50
 75
     0
  0
DIMASSOC
  5
155AE4
102
{ACAD_REACTORS
330
155AE3
102
}
330
155AE3
100
AcDbDimAssoc
330
155AE2
 90
        3
 70
     0
 71
     0
  1
AcDbOsnapPointRef
 72
     1
331
155AC0
 73
     2
 91
        0
 40
1.0
 10
0.0
 20
0.0
 30
2.000000000000000E+50
 75
     0
  1
AcDbOsnapPointRef
 72
    13
331
155AC6
 73
     2
 91
        0
 40
0.0
 10
0.0
 20
0.0
 30
2.000000000000000E+50
 75
     0
  0
DIMASSOC
  5
155AE7
102
{ACAD_REACTORS
330
155AE6
102
}
330
155AE6
100
AcDbDimAssoc
330
155AE5
 90
        3
 70
     0
 71
     0
  1
AcDbOsnapPointRef
 72
     1
331
155AD6
 73
     2
 91
        0
 40
3.141592653589793
 10
0.0
 20
0.0
 30
2.000000000000000E+50
 75
     0
  1
AcDbOsnapPointRef
 72
     8
331
155ABE
 73
     2
 91
        0
 40
0.0
 10
0.0
 20
0.0
 30
0.0
 75
     1
  1
AcDbOsnapPointRef
 72
     1
331
155AD6
 73
     2
 91
        0
 40
3.141592653589793
 10
0.0
 20
0.0
 30
2.000000000000000E+50
 75
     0
  0
DIMASSOC
  5
155B0C
102
{ACAD_REACTORS
330
155B0B
102
}
330
155B0B
100
AcDbDimAssoc
330
155B0A
 90
        3
 70
     0
 71
     0
  1
AcDbOsnapPointRef
 72
     6
331
155AC6
 73
     2
 91
        0
 40
0.4999999999999753
 10
0.0
 20
0.0
 30
0.0
332
155AC1
 74
     2
 92
        0
 75
     0
  1
AcDbOsnapPointRef
 72
     8
331
155AC7
 73
     2
 91
        0
 40
0.5000000000000166
 10
0.0
 20
0.0
 30
0.0
 75
     1
  1
AcDbOsnapPointRef
 72
     6
331
155AC6
 73
     2
 91
        0
 40
0.4999999999999753
 10
0.0
 20
0.0
 30
0.0
332
155AC1
 74
     2
 92
        0
 75
     0
  0
DIMASSOC
  5
155B0F
102
{ACAD_REACTORS
330
155B0E
102
}
330
155B0E
100
AcDbDimAssoc
330
155B0D
 90
        3
 70
     0
 71
     0
  1
AcDbOsnapPointRef
 72
    13
331
155AD2
 73
     2
 91
        0
 40
1.570796326794896
 10
0.0
 20
0.0
 30
2.000000000000000E+50
 75
     0
  1
AcDbOsnapPointRef
 72
     1
331
155AD5
 73
     2
 91
        0
 40
4.712388980384689
 10
0.0
 20
0.0
 30
2.000000000000000E+50
 75
     0
  0
DIMASSOC
  5
155B89
102
{ACAD_REACTORS
330
155B88
102
}
330
155B88
100
AcDbDimAssoc
330
155B87
 90
       15
 70
     0
 71
     0
  1
AcDbOsnapPointRef
 72
    13
331
155B86
 73
     2
 91
        0
 40
0.0
 10
0.0
 20
0.0
 30
2.000000000000000E+50
 75
     0
  1
AcDbOsnapPointRef
 72
     1
331
155B86
 73
     2
 91
        0
 40
1.0
 10
0.0
 20
0.0
 30
2.000000000000000E+50
 75
     0
  1
AcDbOsnapPointRef
 72
    13
331
155B7D
 73
     2
 91
        0
 40
0.0
 10
0.0
 20
0.0
 30
2.000000000000000E+50
 75
     0
  1
AcDbOsnapPointRef
 72
     1
331
155B7D
 73
     2
 91
        0
 40
1.0
 10
0.0
 20
0.0
 30
2.000000000000000E+50
 75
     0
  0
DIMASSOC
  5
1561F7
102
{ACAD_REACTORS
330
1561F6
102
}
330
1561F6
100
AcDbDimAssoc
330
1561F5
 90
        3
 70
     0
 71
     0
  1
AcDbOsnapPointRef
 72
    10
331
1561EF
 73
     2
 91
        0
 40
0.0633890834157667
 10
0.0
 20
0.0
 30
0.0
 75
     0
  1
AcDbOsnapPointRef
 72
     8
331
1561E7
 73
     2
 91
        0
 40
0.9145429663446716
 10
0.0
 20
0.0
 30
0.0
 75
     1
  1
AcDbOsnapPointRef
 72
    10
331
1561EF
 73
     2
 91
        0
 40
0.0633890834157667
 10
0.0
 20
0.0
 30
0.0
 75
     0
  0
ACDBDETAILVIEWSTYLE
  5
1565EC
102
{ACAD_REACTORS
330
1565EB
102
}
330
1565EB
100
AcDbModelDocViewStyle
 70
     0
  3
Metric50
290
     1
300
Metric50
 90
        0
100
AcDbDetailViewStyle
 70
     0
 71
     0
 90
        3
 71
     1
340
11
 62
   256
 40
5.0
340
0
 62
   256
 40
5.0
300

 40
0.0
280
     1
 71
     2
340
16
 90
       25
 62
   256
 71
     3
340
11
 62
   256
 40
5.0
 90
        0
 40
15.0
 90
        1
300
%<\AcVar ViewDetailId>% (%<\AcVar ViewScale \f "%sn">%)
 71
     4
340
16
 90
       25
 62
   256
340
16
 90
       25
 62
   256
280
     0
  0
IMAGEDEF
  5
12A80B
102
{ACAD_REACTORS
330
12A80A
102
}
330
12A80A
100
AcDbRasterImageDef
 90
        0
  1
C:\Documents and Settings\Administrator\桌面\图标.jpg
 10
389.0
 20
116.0
 11
0.2645833333333333
 21
0.2645833333333333
280
     1
281
     5
1001
AcadStringInfo
1000
MIFCodePage
1070
     5
  0
LAYOUT
  5
22
102
{ACAD_REACTORS
330
1A
102
}
330
1A
100
AcDbPlotSettings
  1

  2
Canon iP2700 series
  4
A4
  6

 40
4.180416584014892
 41
5.831417560577392
 42
4.180404663085937
 43
3.757080078125
 44
209.9733276367187
 45
296.9683227539062
 46
-0.0000000000000142
 47
1.361083642065153
 48
-52954.50888855205
 49
6503.379967077941
140
-51619.38879031921
141
8388.442391487766
142
1.0
143
6.62220872177797
 70
 11956
 72
     1
 73
     0
 74
     4
  7
monochrome.ctb
 75
     0
147
0.1510070192610169
 76
     0
 77
     2
 78
   300
148
52954.50888855205
149
-6503.379967077941
100
AcDbLayout
  1
Model
 70
     1
 71
     0
 10
0.0
 20
0.0
 11
12.0
 21
9.0
 12
0.0
 22
0.0
 32
0.0
 14
0.0
 24
0.0
 34
0.0
 15
0.0
 25
0.0
 35
0.0
146
0.0
 13
0.0
 23
0.0
 33
0.0
 16
1.0
 26
0.0
 36
0.0
 17
0.0
 27
1.0
 37
0.0
 76
     0
330
1F
331
DE13
1001
ACAD_PSEXT
1000
Canon iP2700 series
1000
Canon iP2700 series
1000
USB001
1000

1070
     0
  0
LAYOUT
  5
51
102
{ACAD_XDICTIONARY
360
56046
102
}
102
{ACAD_REACTORS
330
1A
102
}
330
1A
100
AcDbPlotSettings
  1

  2
none_device
  4
ISO_A4_(210.00_x_297.00_MM)
  6

 40
7.5
 41
20.0
 42
7.5
 43
20.0
 44
210.0
 45
297.0
 46
0.0
 47
0.0
 48
0.0
 49
0.0
140
0.0
141
0.0
142
1.0
143
1.0
 70
   688
 72
     1
 73
     1
 74
     5
  7
monochrome.ctb
 75
    16
147
1.0
 76
     0
 77
     2
 78
   300
148
0.0
149
0.0
100
AcDbLayout
  1
布局1
 70
     1
 71
     1
 10
-20.0
 20
-7.5
 11
277.0
 21
202.5
 12
0.0
 22
0.0
 32
0.0
 14
25.69999999999999
 24
19.5
 34
0.0
 15
231.3
 25
175.5
 35
0.0
146
0.0
 13
0.0
 23
0.0
 33
0.0
 16
1.0
 26
0.0
 36
0.0
 17
0.0
 27
1.0
 37
0.0
 76
     0
330
50
331
5603F
1001
ACAD_PSEXT
1000
无
1000
无
1000
不可用
1000
在选择新的绘图仪配置名称之前，不能打印该布局。
1070
     0
1001
AcadStringInfo
1000
MIFCodePage
1070
     5
  0
LAYOUT
  5
56
102
{ACAD_XDICTIONARY
360
579EF
102
}
102
{ACAD_REACTORS
330
1A
102
}
330
1A
100
AcDbPlotSettings
  1

  2
none_device
  4
ISO_A4_(210.00_x_297.00_MM)
  6

 40
7.5
 41
20.0
 42
7.5
 43
20.0
 44
210.0
 45
297.0
 46
0.0
 47
0.0
 48
0.0
 49
0.0
140
0.0
141
0.0
142
1.0
143
1.0
 70
   688
 72
     1
 73
     1
 74
     5
  7
monochrome.ctb
 75
    16
147
1.0
 76
     0
 77
     2
 78
   300
148
0.0
149
0.0
100
AcDbLayout
  1
布局2
 70
     1
 71
     2
 10
-20.0
 20
-7.5
 11
277.0
 21
202.5
 12
0.0
 22
0.0
 32
0.0
 14
25.69999999999999
 24
19.5
 34
0.0
 15
231.3
 25
175.5
 35
0.0
146
0.0
 13
0.0
 23
0.0
 33
0.0
 16
1.0
 26
0.0
 36
0.0
 17
0.0
 27
1.0
 37
0.0
 76
     0
330
55
331
579E8
1001
ACAD_PSEXT
1000
无
1000
无
1000
不可用
1000
在选择新的绘图仪配置名称之前，不能打印该布局。
1070
     0
1001
AcadStringInfo
1000
MIFCodePage
1070
     5
  0
MATERIAL
  5
DE16
102
{ACAD_REACTORS
330
6A
102
}
330
6A
100
AcDbMaterial
  1
ByBlock
 73
     1
 78
     1
172
     1
176
     1
270
     1
274
     1
 94
       63
  0
MATERIAL
  5
DE15
102
{ACAD_REACTORS
330
6A
102
}
330
6A
100
AcDbMaterial
  1
ByLayer
 73
     1
 78
     1
172
     1
176
     1
270
     1
274
     1
 94
       63
  0
MATERIAL
  5
DE17
102
{ACAD_REACTORS
330
6A
102
}
330
6A
100
AcDbMaterial
  1
Global
 73
     1
 78
     1
172
     1
176
     1
270
     1
274
     1
 94
       63
  0
MLEADERSTYLE
  5
12A04B
102
{ACAD_REACTORS
330
12A04A
102
}
330
12A04A
100
AcDbMLeaderStyle
179
     2
170
     2
171
     1
172
     0
 90
        2
 40
0.0
 41
0.0
173
     1
 91
-1056964608
340
14
 92
       -2
290
     1
 42
2.0
291
     1
 43
0.36
  3
Standard
 44
4.0
300

342
11
174
     1
178
     6
175
     1
176
     0
 93
-1056964608
 45
4.0
292
     0
297
     0
 46
4.0
 94
-1056964608
 47
1.0
 49
1.0
140
1.0
293
     1
141
0.0
294
     1
177
     0
142
1.0
295
     1
296
     0
143
0.125
271
     0
272
     9
273
     9
298
     0
1001
ACAD
1000
AcRTDxfName
1000
MLEADERSTYLE
1000
AcRTDxfName
1000
MLEADERSTYLE
1000
AcRTDxfName
1000
MLEADERSTYLE
1000
AcRTDxfName
1000
MLEADERSTYLE
1000
AcRTDxfName
1000
MLEADERSTYLE
1000
AcRTDxfName
1000
MLEADERSTYLE
1000
AcRTDxfName
1000
MLEADERSTYLE
1000
AcRTDxfName
1000
MLEADERSTYLE
1000
AcRTDxfName
1000
MLEADERSTYLE
1000
AcRTDxfName
1000
MLEADERSTYLE
1000
AcRTDxfName
1000
MLEADERSTYLE
1000
AcRTDxfName
1000
MLEADERSTYLE
1000
AcRTDxfName
1000
MLEADERSTYLE
1000
AcRTDxfName
1000
MLEADERSTYLE
1000
AcRTDxfName
1000
MLEADERSTYLE
1000
AcRTDxfName
1000
MLEADERSTYLE
1000
AcRTDxfName
1000
MLEADERSTYLE
1000
AcRTDxfName
1000
MLEADERSTYLE
1000
AcRTDxfName
1000
MLEADERSTYLE
1000
AcRTDxfName
1000
MLEADERSTYLE
1000
AcRTDxfName
1000
MLEADERSTYLE
1000
AcRTDxfName
1000
MLEADERSTYLE
1000
AcRTDxfName
1000
MLEADERSTYLE
1000
AcRTDxfName
1000
MLEADERSTYLE
1000
AcRTDxfName
1000
MLEADERSTYLE
1000
AcRTDxfName
1000
MLEADERSTYLE
1000
AcRTDxfName
1000
MLEADERSTYLE
1000
AcRTDxfName
1000
MLEADERSTYLE
1000
AcRTDxfName
1000
MLEADERSTYLE
1000
AcRTDxfName
1000
MLEADERSTYLE
1000
AcRTDxfName
1000
MLEADERSTYLE
1000
AcRTDxfName
1000
MLEADERSTYLE
1000
AcRTDxfName
1000
MLEADERSTYLE
1000
AcRTDxfName
1000
MLEADERSTYLE
1000
AcRTDxfName
1000
MLEADERSTYLE
1000
AcRTDxfName
1000
MLEADERSTYLE
1000
AcRTDxfName
1000
MLEADERSTYLE
1000
AcRTDxfName
1000
MLEADERSTYLE
1000
AcRTDxfName
1000
MLEADERSTYLE
1000
AcRTDxfName
1000
MLEADERSTYLE
1000
AcRTDxfName
1000
MLEADERSTYLE
1000
AcRTDxfName
1000
MLEADERSTYLE
  0
MLINESTYLE
  5
18
102
{ACAD_REACTORS
330
17
102
}
330
17
100
AcDbMlineStyle
  2
STANDARD
 70
     0
  3

 62
   256
 51
90.0
 52
90.0
 71
     2
 49
0.5
 62
   256
  6
BYLAYER
 49
-0.5
 62
   256
  6
BYLAYER
  0
ACDBPLACEHOLDER
  5
F
102
{ACAD_REACTORS
330
E
102
}
330
E
  0
SCALE
  5
12A029
102
{ACAD_REACTORS
330
12A028
102
}
330
12A028
100
AcDbScale
 70
     0
300
1:1
140
1.0
141
1.0
290
     1
1001
ACAD
1000
AcRTDxfName
1000
SCALE
1000
AcRTDxfName
1000
SCALE
1000
AcRTDxfName
1000
SCALE
1000
AcRTDxfName
1000
SCALE
1000
AcRTDxfName
1000
SCALE
1000
AcRTDxfName
1000
SCALE
1000
AcRTDxfName
1000
SCALE
1000
AcRTDxfName
1000
SCALE
1000
AcRTDxfName
1000
SCALE
1000
AcRTDxfName
1000
SCALE
1000
AcRTDxfName
1000
SCALE
1000
AcRTDxfName
1000
SCALE
1000
AcRTDxfName
1000
SCALE
1000
AcRTDxfName
1000
SCALE
1000
AcRTDxfName
1000
SCALE
1000
AcRTDxfName
1000
SCALE
1000
AcRTDxfName
1000
SCALE
1000
AcRTDxfName
1000
SCALE
1000
AcRTDxfName
1000
SCALE
1000
AcRTDxfName
1000
SCALE
1000
AcRTDxfName
1000
SCALE
1000
AcRTDxfName
1000
SCALE
1000
AcRTDxfName
1000
SCALE
1000
AcRTDxfName
1000
SCALE
1000
AcRTDxfName
1000
SCALE
1000
AcRTDxfName
1000
SCALE
1000
AcRTDxfName
1000
SCALE
1000
AcRTDxfName
1000
SCALE
1000
AcRTDxfName
1000
SCALE
1000
AcRTDxfName
1000
SCALE
1000
AcRTDxfName
1000
SCALE
1000
AcRTDxfName
1000
SCALE
1000
AcRTDxfName
1000
SCALE
1000
AcRTDxfName
1000
SCALE
1000
AcRTDxfName
1000
SCALE
1000
AcRTDxfName
1000
SCALE
1000
AcRTDxfName
1000
SCALE
1000
AcRTDxfName
1000
SCALE
1000
AcRTDxfName
1000
SCALE
1000
AcRTDxfName
1000
SCALE
1000
AcRTDxfName
1000
SCALE
1000
AcRTDxfName
1000
SCALE
  0
SCALE
  5
12A02A
102
{ACAD_REACTORS
330
12A028
102
}
330
12A028
100
AcDbScale
 70
     0
300
1:2
140
1.0
141
2.0
290
     0
1001
ACAD
1000
AcRTDxfName
1000
SCALE
1000
AcRTDxfName
1000
SCALE
1000
AcRTDxfName
1000
SCALE
1000
AcRTDxfName
1000
SCALE
1000
AcRTDxfName
1000
SCALE
1000
AcRTDxfName
1000
SCALE
1000
AcRTDxfName
1000
SCALE
1000
AcRTDxfName
1000
SCALE
1000
AcRTDxfName
1000
SCALE
1000
AcRTDxfName
1000
SCALE
1000
AcRTDxfName
1000
SCALE
1000
AcRTDxfName
1000
SCALE
1000
AcRTDxfName
1000
SCALE
1000
AcRTDxfName
1000
SCALE
1000
AcRTDxfName
1000
SCALE
1000
AcRTDxfName
1000
SCALE
1000
AcRTDxfName
1000
SCALE
1000
AcRTDxfName
1000
SCALE
1000
AcRTDxfName
1000
SCALE
1000
AcRTDxfName
1000
SCALE
1000
AcRTDxfName
1000
SCALE
1000
AcRTDxfName
1000
SCALE
1000
AcRTDxfName
1000
SCALE
1000
AcRTDxfName
1000
SCALE
1000
AcRTDxfName
1000
SCALE
1000
AcRTDxfName
1000
SCALE
1000
AcRTDxfName
1000
SCALE
1000
AcRTDxfName
1000
SCALE
1000
AcRTDxfName
1000
SCALE
1000
AcRTDxfName
1000
SCALE
1000
AcRTDxfName
1000
SCALE
1000
AcRTDxfName
1000
SCALE
1000
AcRTDxfName
1000
SCALE
1000
AcRTDxfName
1000
SCALE
1000
AcRTDxfName
1000
SCALE
1000
AcRTDxfName
1000
SCALE
1000
AcRTDxfName
1000
SCALE
1000
AcRTDxfName
1000
SCALE
1000
AcRTDxfName
1000
SCALE
1000
AcRTDxfName
1000
SCALE
1000
AcRTDxfName
1000
SCALE
1000
AcRTDxfName
1000
SCALE
  0
SCALE
  5
12A02B
102
{ACAD_REACTORS
330
12A028
102
}
330
12A028
100
AcDbScale
 70
     0
300
1:4
140
1.0
141
4.0
290
     0
1001
ACAD
1000
AcRTDxfName
1000
SCALE
1000
AcRTDxfName
1000
SCALE
1000
AcRTDxfName
1000
SCALE
1000
AcRTDxfName
1000
SCALE
1000
AcRTDxfName
1000
SCALE
1000
AcRTDxfName
1000
SCALE
1000
AcRTDxfName
1000
SCALE
1000
AcRTDxfName
1000
SCALE
1000
AcRTDxfName
1000
SCALE
1000
AcRTDxfName
1000
SCALE
1000
AcRTDxfName
1000
SCALE
1000
AcRTDxfName
1000
SCALE
1000
AcRTDxfName
1000
SCALE
1000
AcRTDxfName
1000
SCALE
1000
AcRTDxfName
1000
SCALE
1000
AcRTDxfName
1000
SCALE
1000
AcRTDxfName
1000
SCALE
1000
AcRTDxfName
1000
SCALE
1000
AcRTDxfName
1000
SCALE
1000
AcRTDxfName
1000
SCALE
1000
AcRTDxfName
1000
SCALE
1000
AcRTDxfName
1000
SCALE
1000
AcRTDxfName
1000
SCALE
1000
AcRTDxfName
1000
SCALE
1000
AcRTDxfName
1000
SCALE
1000
AcRTDxfName
1000
SCALE
1000
AcRTDxfName
1000
SCALE
1000
AcRTDxfName
1000
SCALE
1000
AcRTDxfName
1000
SCALE
1000
AcRTDxfName
1000
SCALE
1000
AcRTDxfName
1000
SCALE
1000
AcRTDxfName
1000
SCALE
1000
AcRTDxfName
1000
SCALE
1000
AcRTDxfName
1000
SCALE
1000
AcRTDxfName
1000
SCALE
1000
AcRTDxfName
1000
SCALE
1000
AcRTDxfName
1000
SCALE
1000
AcRTDxfName
1000
SCALE
1000
AcRTDxfName
1000
SCALE
1000
AcRTDxfName
1000
SCALE
1000
AcRTDxfName
1000
SCALE
1000
AcRTDxfName
1000
SCALE
  0
SCALE
  5
12A02C
102
{ACAD_REACTORS
330
12A028
102
}
330
12A028
100
AcDbScale
 70
     0
300
1:5
140
1.0
141
5.0
290
     0
1001
ACAD
1000
AcRTDxfName
1000
SCALE
1000
AcRTDxfName
1000
SCALE
1000
AcRTDxfName
1000
SCALE
1000
AcRTDxfName
1000
SCALE
1000
AcRTDxfName
1000
SCALE
1000
AcRTDxfName
1000
SCALE
1000
AcRTDxfName
1000
SCALE
1000
AcRTDxfName
1000
SCALE
1000
AcRTDxfName
1000
SCALE
1000
AcRTDxfName
1000
SCALE
1000
AcRTDxfName
1000
SCALE
1000
AcRTDxfName
1000
SCALE
1000
AcRTDxfName
1000
SCALE
1000
AcRTDxfName
1000
SCALE
1000
AcRTDxfName
1000
SCALE
1000
AcRTDxfName
1000
SCALE
1000
AcRTDxfName
1000
SCALE
1000
AcRTDxfName
1000
SCALE
1000
AcRTDxfName
1000
SCALE
1000
AcRTDxfName
1000
SCALE
1000
AcRTDxfName
1000
SCALE
1000
AcRTDxfName
1000
SCALE
1000
AcRTDxfName
1000
SCALE
1000
AcRTDxfName
1000
SCALE
1000
AcRTDxfName
1000
SCALE
1000
AcRTDxfName
1000
SCALE
1000
AcRTDxfName
1000
SCALE
1000
AcRTDxfName
1000
SCALE
1000
AcRTDxfName
1000
SCALE
1000
AcRTDxfName
1000
SCALE
1000
AcRTDxfName
1000
SCALE
1000
AcRTDxfName
1000
SCALE
1000
AcRTDxfName
1000
SCALE
1000
AcRTDxfName
1000
SCALE
1000
AcRTDxfName
1000
SCALE
1000
AcRTDxfName
1000
SCALE
1000
AcRTDxfName
1000
SCALE
1000
AcRTDxfName
1000
SCALE
1000
AcRTDxfName
1000
SCALE
1000
AcRTDxfName
1000
SCALE
1000
AcRTDxfName
1000
SCALE
1000
AcRTDxfName
1000
SCALE
  0
SCALE
  5
12A02D
102
{ACAD_REACTORS
330
12A028
102
}
330
12A028
100
AcDbScale
 70
     0
300
1:8
140
1.0
141
8.0
290
     0
1001
ACAD
1000
AcRTDxfName
1000
SCALE
1000
AcRTDxfName
1000
SCALE
1000
AcRTDxfName
1000
SCALE
1000
AcRTDxfName
1000
SCALE
1000
AcRTDxfName
1000
SCALE
1000
AcRTDxfName
1000
SCALE
1000
AcRTDxfName
1000
SCALE
1000
AcRTDxfName
1000
SCALE
1000
AcRTDxfName
1000
SCALE
1000
AcRTDxfName
1000
SCALE
1000
AcRTDxfName
1000
SCALE
1000
AcRTDxfName
1000
SCALE
1000
AcRTDxfName
1000
SCALE
1000
AcRTDxfName
1000
SCALE
1000
AcRTDxfName
1000
SCALE
1000
AcRTDxfName
1000
SCALE
1000
AcRTDxfName
1000
SCALE
1000
AcRTDxfName
1000
SCALE
1000
AcRTDxfName
1000
SCALE
1000
AcRTDxfName
1000
SCALE
1000
AcRTDxfName
1000
SCALE
1000
AcRTDxfName
1000
SCALE
1000
AcRTDxfName
1000
SCALE
1000
AcRTDxfName
1000
SCALE
1000
AcRTDxfName
1000
SCALE
1000
AcRTDxfName
1000
SCALE
1000
AcRTDxfName
1000
SCALE
1000
AcRTDxfName
1000
SCALE
1000
AcRTDxfName
1000
SCALE
1000
AcRTDxfName
1000
SCALE
1000
AcRTDxfName
1000
SCALE
1000
AcRTDxfName
1000
SCALE
1000
AcRTDxfName
1000
SCALE
1000
AcRTDxfName
1000
SCALE
1000
AcRTDxfName
1000
SCALE
1000
AcRTDxfName
1000
SCALE
1000
AcRTDxfName
1000
SCALE
1000
AcRTDxfName
1000
SCALE
1000
AcRTDxfName
1000
SCALE
1000
AcRTDxfName
1000
SCALE
1000
AcRTDxfName
1000
SCALE
1000
AcRTDxfName
1000
SCALE
  0
SCALE
  5
12A02E
102
{ACAD_REACTORS
330
12A028
102
}
330
12A028
100
AcDbScale
 70
     0
300
1:10
140
1.0
141
10.0
290
     0
1001
ACAD
1000
AcRTDxfName
1000
SCALE
1000
AcRTDxfName
1000
SCALE
1000
AcRTDxfName
1000
SCALE
1000
AcRTDxfName
1000
SCALE
1000
AcRTDxfName
1000
SCALE
1000
AcRTDxfName
1000
SCALE
1000
AcRTDxfName
1000
SCALE
1000
AcRTDxfName
1000
SCALE
1000
AcRTDxfName
1000
SCALE
1000
AcRTDxfName
1000
SCALE
1000
AcRTDxfName
1000
SCALE
1000
AcRTDxfName
1000
SCALE
1000
AcRTDxfName
1000
SCALE
1000
AcRTDxfName
1000
SCALE
1000
AcRTDxfName
1000
SCALE
1000
AcRTDxfName
1000
SCALE
1000
AcRTDxfName
1000
SCALE
1000
AcRTDxfName
1000
SCALE
1000
AcRTDxfName
1000
SCALE
1000
AcRTDxfName
1000
SCALE
1000
AcRTDxfName
1000
SCALE
1000
AcRTDxfName
1000
SCALE
1000
AcRTDxfName
1000
SCALE
1000
AcRTDxfName
1000
SCALE
1000
AcRTDxfName
1000
SCALE
1000
AcRTDxfName
1000
SCALE
1000
AcRTDxfName
1000
SCALE
1000
AcRTDxfName
1000
SCALE
1000
AcRTDxfName
1000
SCALE
1000
AcRTDxfName
1000
SCALE
1000
AcRTDxfName
1000
SCALE
1000
AcRTDxfName
1000
SCALE
1000
AcRTDxfName
1000
SCALE
1000
AcRTDxfName
1000
SCALE
1000
AcRTDxfName
1000
SCALE
1000
AcRTDxfName
1000
SCALE
1000
AcRTDxfName
1000
SCALE
1000
AcRTDxfName
1000
SCALE
1000
AcRTDxfName
1000
SCALE
1000
AcRTDxfName
1000
SCALE
1000
AcRTDxfName
1000
SCALE
1000
AcRTDxfName
1000
SCALE
  0
SCALE
  5
12A02F
102
{ACAD_REACTORS
330
12A028
102
}
330
12A028
100
AcDbScale
 70
     0
300
1:16
140
1.0
141
16.0
290
     0
1001
ACAD
1000
AcRTDxfName
1000
SCALE
1000
AcRTDxfName
1000
SCALE
1000
AcRTDxfName
1000
SCALE
1000
AcRTDxfName
1000
SCALE
1000
AcRTDxfName
1000
SCALE
1000
AcRTDxfName
1000
SCALE
1000
AcRTDxfName
1000
SCALE
1000
AcRTDxfName
1000
SCALE
1000
AcRTDxfName
1000
SCALE
1000
AcRTDxfName
1000
SCALE
1000
AcRTDxfName
1000
SCALE
1000
AcRTDxfName
1000
SCALE
1000
AcRTDxfName
1000
SCALE
1000
AcRTDxfName
1000
SCALE
1000
AcRTDxfName
1000
SCALE
1000
AcRTDxfName
1000
SCALE
1000
AcRTDxfName
1000
SCALE
1000
AcRTDxfName
1000
SCALE
1000
AcRTDxfName
1000
SCALE
1000
AcRTDxfName
1000
SCALE
1000
AcRTDxfName
1000
SCALE
1000
AcRTDxfName
1000
SCALE
1000
AcRTDxfName
1000
SCALE
1000
AcRTDxfName
1000
SCALE
1000
AcRTDxfName
1000
SCALE
1000
AcRTDxfName
1000
SCALE
1000
AcRTDxfName
1000
SCALE
1000
AcRTDxfName
1000
SCALE
1000
AcRTDxfName
1000
SCALE
1000
AcRTDxfName
1000
SCALE
1000
AcRTDxfName
1000
SCALE
1000
AcRTDxfName
1000
SCALE
1000
AcRTDxfName
1000
SCALE
1000
AcRTDxfName
1000
SCALE
1000
AcRTDxfName
1000
SCALE
1000
AcRTDxfName
1000
SCALE
1000
AcRTDxfName
1000
SCALE
1000
AcRTDxfName
1000
SCALE
1000
AcRTDxfName
1000
SCALE
1000
AcRTDxfName
1000
SCALE
1000
AcRTDxfName
1000
SCALE
1000
AcRTDxfName
1000
SCALE
  0
SCALE
  5
12A030
102
{ACAD_REACTORS
330
12A028
102
}
330
12A028
100
AcDbScale
 70
     0
300
1:20
140
1.0
141
20.0
290
     0
1001
ACAD
1000
AcRTDxfName
1000
SCALE
1000
AcRTDxfName
1000
SCALE
1000
AcRTDxfName
1000
SCALE
1000
AcRTDxfName
1000
SCALE
1000
AcRTDxfName
1000
SCALE
1000
AcRTDxfName
1000
SCALE
1000
AcRTDxfName
1000
SCALE
1000
AcRTDxfName
1000
SCALE
1000
AcRTDxfName
1000
SCALE
1000
AcRTDxfName
1000
SCALE
1000
AcRTDxfName
1000
SCALE
1000
AcRTDxfName
1000
SCALE
1000
AcRTDxfName
1000
SCALE
1000
AcRTDxfName
1000
SCALE
1000
AcRTDxfName
1000
SCALE
1000
AcRTDxfName
1000
SCALE
1000
AcRTDxfName
1000
SCALE
1000
AcRTDxfName
1000
SCALE
1000
AcRTDxfName
1000
SCALE
1000
AcRTDxfName
1000
SCALE
1000
AcRTDxfName
1000
SCALE
1000
AcRTDxfName
1000
SCALE
1000
AcRTDxfName
1000
SCALE
1000
AcRTDxfName
1000
SCALE
1000
AcRTDxfName
1000
SCALE
1000
AcRTDxfName
1000
SCALE
1000
AcRTDxfName
1000
SCALE
1000
AcRTDxfName
1000
SCALE
1000
AcRTDxfName
1000
SCALE
1000
AcRTDxfName
1000
SCALE
1000
AcRTDxfName
1000
SCALE
1000
AcRTDxfName
1000
SCALE
1000
AcRTDxfName
1000
SCALE
1000
AcRTDxfName
1000
SCALE
1000
AcRTDxfName
1000
SCALE
1000
AcRTDxfName
1000
SCALE
1000
AcRTDxfName
1000
SCALE
1000
AcRTDxfName
1000
SCALE
1000
AcRTDxfName
1000
SCALE
1000
AcRTDxfName
1000
SCALE
1000
AcRTDxfName
1000
SCALE
1000
AcRTDxfName
1000
SCALE
  0
SCALE
  5
12A031
102
{ACAD_REACTORS
330
12A028
102
}
330
12A028
100
AcDbScale
 70
     0
300
1:30
140
1.0
141
30.0
290
     0
1001
ACAD
1000
AcRTDxfName
1000
SCALE
1000
AcRTDxfName
1000
SCALE
1000
AcRTDxfName
1000
SCALE
1000
AcRTDxfName
1000
SCALE
1000
AcRTDxfName
1000
SCALE
1000
AcRTDxfName
1000
SCALE
1000
AcRTDxfName
1000
SCALE
1000
AcRTDxfName
1000
SCALE
1000
AcRTDxfName
1000
SCALE
1000
AcRTDxfName
1000
SCALE
1000
AcRTDxfName
1000
SCALE
1000
AcRTDxfName
1000
SCALE
1000
AcRTDxfName
1000
SCALE
1000
AcRTDxfName
1000
SCALE
1000
AcRTDxfName
1000
SCALE
1000
AcRTDxfName
1000
SCALE
1000
AcRTDxfName
1000
SCALE
1000
AcRTDxfName
1000
SCALE
1000
AcRTDxfName
1000
SCALE
1000
AcRTDxfName
1000
SCALE
1000
AcRTDxfName
1000
SCALE
1000
AcRTDxfName
1000
SCALE
1000
AcRTDxfName
1000
SCALE
1000
AcRTDxfName
1000
SCALE
1000
AcRTDxfName
1000
SCALE
1000
AcRTDxfName
1000
SCALE
1000
AcRTDxfName
1000
SCALE
1000
AcRTDxfName
1000
SCALE
1000
AcRTDxfName
1000
SCALE
1000
AcRTDxfName
1000
SCALE
1000
AcRTDxfName
1000
SCALE
1000
AcRTDxfName
1000
SCALE
1000
AcRTDxfName
1000
SCALE
1000
AcRTDxfName
1000
SCALE
1000
AcRTDxfName
1000
SCALE
1000
AcRTDxfName
1000
SCALE
1000
AcRTDxfName
1000
SCALE
1000
AcRTDxfName
1000
SCALE
1000
AcRTDxfName
1000
SCALE
1000
AcRTDxfName
1000
SCALE
1000
AcRTDxfName
1000
SCALE
1000
AcRTDxfName
1000
SCALE
  0
SCALE
  5
12A032
102
{ACAD_REACTORS
330
12A028
102
}
330
12A028
100
AcDbScale
 70
     0
300
1:40
140
1.0
141
40.0
290
     0
1001
ACAD
1000
AcRTDxfName
1000
SCALE
1000
AcRTDxfName
1000
SCALE
1000
AcRTDxfName
1000
SCALE
1000
AcRTDxfName
1000
SCALE
1000
AcRTDxfName
1000
SCALE
1000
AcRTDxfName
1000
SCALE
1000
AcRTDxfName
1000
SCALE
1000
AcRTDxfName
1000
SCALE
1000
AcRTDxfName
1000
SCALE
1000
AcRTDxfName
1000
SCALE
1000
AcRTDxfName
1000
SCALE
1000
AcRTDxfName
1000
SCALE
1000
AcRTDxfName
1000
SCALE
1000
AcRTDxfName
1000
SCALE
1000
AcRTDxfName
1000
SCALE
1000
AcRTDxfName
1000
SCALE
1000
AcRTDxfName
1000
SCALE
1000
AcRTDxfName
1000
SCALE
1000
AcRTDxfName
1000
SCALE
1000
AcRTDxfName
1000
SCALE
1000
AcRTDxfName
1000
SCALE
1000
AcRTDxfName
1000
SCALE
1000
AcRTDxfName
1000
SCALE
1000
AcRTDxfName
1000
SCALE
1000
AcRTDxfName
1000
SCALE
1000
AcRTDxfName
1000
SCALE
1000
AcRTDxfName
1000
SCALE
1000
AcRTDxfName
1000
SCALE
1000
AcRTDxfName
1000
SCALE
1000
AcRTDxfName
1000
SCALE
1000
AcRTDxfName
1000
SCALE
1000
AcRTDxfName
1000
SCALE
1000
AcRTDxfName
1000
SCALE
1000
AcRTDxfName
1000
SCALE
1000
AcRTDxfName
1000
SCALE
1000
AcRTDxfName
1000
SCALE
1000
AcRTDxfName
1000
SCALE
1000
AcRTDxfName
1000
SCALE
1000
AcRTDxfName
1000
SCALE
1000
AcRTDxfName
1000
SCALE
1000
AcRTDxfName
1000
SCALE
1000
AcRTDxfName
1000
SCALE
  0
SCALE
  5
12A033
102
{ACAD_REACTORS
330
12A028
102
}
330
12A028
100
AcDbScale
 70
     0
300
1:50
140
1.0
141
50.0
290
     0
1001
ACAD
1000
AcRTDxfName
1000
SCALE
1000
AcRTDxfName
1000
SCALE
1000
AcRTDxfName
1000
SCALE
1000
AcRTDxfName
1000
SCALE
1000
AcRTDxfName
1000
SCALE
1000
AcRTDxfName
1000
SCALE
1000
AcRTDxfName
1000
SCALE
1000
AcRTDxfName
1000
SCALE
1000
AcRTDxfName
1000
SCALE
1000
AcRTDxfName
1000
SCALE
1000
AcRTDxfName
1000
SCALE
1000
AcRTDxfName
1000
SCALE
1000
AcRTDxfName
1000
SCALE
1000
AcRTDxfName
1000
SCALE
1000
AcRTDxfName
1000
SCALE
1000
AcRTDxfName
1000
SCALE
1000
AcRTDxfName
1000
SCALE
1000
AcRTDxfName
1000
SCALE
1000
AcRTDxfName
1000
SCALE
1000
AcRTDxfName
1000
SCALE
1000
AcRTDxfName
1000
SCALE
1000
AcRTDxfName
1000
SCALE
1000
AcRTDxfName
1000
SCALE
1000
AcRTDxfName
1000
SCALE
1000
AcRTDxfName
1000
SCALE
1000
AcRTDxfName
1000
SCALE
1000
AcRTDxfName
1000
SCALE
1000
AcRTDxfName
1000
SCALE
1000
AcRTDxfName
1000
SCALE
1000
AcRTDxfName
1000
SCALE
1000
AcRTDxfName
1000
SCALE
1000
AcRTDxfName
1000
SCALE
1000
AcRTDxfName
1000
SCALE
1000
AcRTDxfName
1000
SCALE
1000
AcRTDxfName
1000
SCALE
1000
AcRTDxfName
1000
SCALE
1000
AcRTDxfName
1000
SCALE
1000
AcRTDxfName
1000
SCALE
1000
AcRTDxfName
1000
SCALE
1000
AcRTDxfName
1000
SCALE
1000
AcRTDxfName
1000
SCALE
1000
AcRTDxfName
1000
SCALE
  0
SCALE
  5
12A034
102
{ACAD_REACTORS
330
12A028
102
}
330
12A028
100
AcDbScale
 70
     0
300
1:100
140
1.0
141
100.0
290
     0
1001
ACAD
1000
AcRTDxfName
1000
SCALE
1000
AcRTDxfName
1000
SCALE
1000
AcRTDxfName
1000
SCALE
1000
AcRTDxfName
1000
SCALE
1000
AcRTDxfName
1000
SCALE
1000
AcRTDxfName
1000
SCALE
1000
AcRTDxfName
1000
SCALE
1000
AcRTDxfName
1000
SCALE
1000
AcRTDxfName
1000
SCALE
1000
AcRTDxfName
1000
SCALE
1000
AcRTDxfName
1000
SCALE
1000
AcRTDxfName
1000
SCALE
1000
AcRTDxfName
1000
SCALE
1000
AcRTDxfName
1000
SCALE
1000
AcRTDxfName
1000
SCALE
1000
AcRTDxfName
1000
SCALE
1000
AcRTDxfName
1000
SCALE
1000
AcRTDxfName
1000
SCALE
1000
AcRTDxfName
1000
SCALE
1000
AcRTDxfName
1000
SCALE
1000
AcRTDxfName
1000
SCALE
1000
AcRTDxfName
1000
SCALE
1000
AcRTDxfName
1000
SCALE
1000
AcRTDxfName
1000
SCALE
1000
AcRTDxfName
1000
SCALE
1000
AcRTDxfName
1000
SCALE
1000
AcRTDxfName
1000
SCALE
1000
AcRTDxfName
1000
SCALE
1000
AcRTDxfName
1000
SCALE
1000
AcRTDxfName
1000
SCALE
1000
AcRTDxfName
1000
SCALE
1000
AcRTDxfName
1000
SCALE
1000
AcRTDxfName
1000
SCALE
1000
AcRTDxfName
1000
SCALE
1000
AcRTDxfName
1000
SCALE
1000
AcRTDxfName
1000
SCALE
1000
AcRTDxfName
1000
SCALE
1000
AcRTDxfName
1000
SCALE
1000
AcRTDxfName
1000
SCALE
1000
AcRTDxfName
1000
SCALE
1000
AcRTDxfName
1000
SCALE
1000
AcRTDxfName
1000
SCALE
  0
SCALE
  5
12A035
102
{ACAD_REACTORS
330
12A028
102
}
330
12A028
100
AcDbScale
 70
     0
300
2:1
140
2.0
141
1.0
290
     0
1001
ACAD
1000
AcRTDxfName
1000
SCALE
1000
AcRTDxfName
1000
SCALE
1000
AcRTDxfName
1000
SCALE
1000
AcRTDxfName
1000
SCALE
1000
AcRTDxfName
1000
SCALE
1000
AcRTDxfName
1000
SCALE
1000
AcRTDxfName
1000
SCALE
1000
AcRTDxfName
1000
SCALE
1000
AcRTDxfName
1000
SCALE
1000
AcRTDxfName
1000
SCALE
1000
AcRTDxfName
1000
SCALE
1000
AcRTDxfName
1000
SCALE
1000
AcRTDxfName
1000
SCALE
1000
AcRTDxfName
1000
SCALE
1000
AcRTDxfName
1000
SCALE
1000
AcRTDxfName
1000
SCALE
1000
AcRTDxfName
1000
SCALE
1000
AcRTDxfName
1000
SCALE
1000
AcRTDxfName
1000
SCALE
1000
AcRTDxfName
1000
SCALE
1000
AcRTDxfName
1000
SCALE
1000
AcRTDxfName
1000
SCALE
1000
AcRTDxfName
1000
SCALE
1000
AcRTDxfName
1000
SCALE
1000
AcRTDxfName
1000
SCALE
1000
AcRTDxfName
1000
SCALE
1000
AcRTDxfName
1000
SCALE
1000
AcRTDxfName
1000
SCALE
1000
AcRTDxfName
1000
SCALE
1000
AcRTDxfName
1000
SCALE
1000
AcRTDxfName
1000
SCALE
1000
AcRTDxfName
1000
SCALE
1000
AcRTDxfName
1000
SCALE
1000
AcRTDxfName
1000
SCALE
1000
AcRTDxfName
1000
SCALE
1000
AcRTDxfName
1000
SCALE
1000
AcRTDxfName
1000
SCALE
1000
AcRTDxfName
1000
SCALE
1000
AcRTDxfName
1000
SCALE
1000
AcRTDxfName
1000
SCALE
1000
AcRTDxfName
1000
SCALE
1000
AcRTDxfName
1000
SCALE
  0
SCALE
  5
12A036
102
{ACAD_REACTORS
330
12A028
102
}
330
12A028
100
AcDbScale
 70
     0
300
4:1
140
4.0
141
1.0
290
     0
1001
ACAD
1000
AcRTDxfName
1000
SCALE
1000
AcRTDxfName
1000
SCALE
1000
AcRTDxfName
1000
SCALE
1000
AcRTDxfName
1000
SCALE
1000
AcRTDxfName
1000
SCALE
1000
AcRTDxfName
1000
SCALE
1000
AcRTDxfName
1000
SCALE
1000
AcRTDxfName
1000
SCALE
1000
AcRTDxfName
1000
SCALE
1000
AcRTDxfName
1000
SCALE
1000
AcRTDxfName
1000
SCALE
1000
AcRTDxfName
1000
SCALE
1000
AcRTDxfName
1000
SCALE
1000
AcRTDxfName
1000
SCALE
1000
AcRTDxfName
1000
SCALE
1000
AcRTDxfName
1000
SCALE
1000
AcRTDxfName
1000
SCALE
1000
AcRTDxfName
1000
SCALE
1000
AcRTDxfName
1000
SCALE
1000
AcRTDxfName
1000
SCALE
1000
AcRTDxfName
1000
SCALE
1000
AcRTDxfName
1000
SCALE
1000
AcRTDxfName
1000
SCALE
1000
AcRTDxfName
1000
SCALE
1000
AcRTDxfName
1000
SCALE
1000
AcRTDxfName
1000
SCALE
1000
AcRTDxfName
1000
SCALE
1000
AcRTDxfName
1000
SCALE
1000
AcRTDxfName
1000
SCALE
1000
AcRTDxfName
1000
SCALE
1000
AcRTDxfName
1000
SCALE
1000
AcRTDxfName
1000
SCALE
1000
AcRTDxfName
1000
SCALE
1000
AcRTDxfName
1000
SCALE
1000
AcRTDxfName
1000
SCALE
1000
AcRTDxfName
1000
SCALE
1000
AcRTDxfName
1000
SCALE
1000
AcRTDxfName
1000
SCALE
1000
AcRTDxfName
1000
SCALE
1000
AcRTDxfName
1000
SCALE
1000
AcRTDxfName
1000
SCALE
1000
AcRTDxfName
1000
SCALE
  0
SCALE
  5
12A037
102
{ACAD_REACTORS
330
12A028
102
}
330
12A028
100
AcDbScale
 70
     0
300
8:1
140
8.0
141
1.0
290
     0
1001
ACAD
1000
AcRTDxfName
1000
SCALE
1000
AcRTDxfName
1000
SCALE
1000
AcRTDxfName
1000
SCALE
1000
AcRTDxfName
1000
SCALE
1000
AcRTDxfName
1000
SCALE
1000
AcRTDxfName
1000
SCALE
1000
AcRTDxfName
1000
SCALE
1000
AcRTDxfName
1000
SCALE
1000
AcRTDxfName
1000
SCALE
1000
AcRTDxfName
1000
SCALE
1000
AcRTDxfName
1000
SCALE
1000
AcRTDxfName
1000
SCALE
1000
AcRTDxfName
1000
SCALE
1000
AcRTDxfName
1000
SCALE
1000
AcRTDxfName
1000
SCALE
1000
AcRTDxfName
1000
SCALE
1000
AcRTDxfName
1000
SCALE
1000
AcRTDxfName
1000
SCALE
1000
AcRTDxfName
1000
SCALE
1000
AcRTDxfName
1000
SCALE
1000
AcRTDxfName
1000
SCALE
1000
AcRTDxfName
1000
SCALE
1000
AcRTDxfName
1000
SCALE
1000
AcRTDxfName
1000
SCALE
1000
AcRTDxfName
1000
SCALE
1000
AcRTDxfName
1000
SCALE
1000
AcRTDxfName
1000
SCALE
1000
AcRTDxfName
1000
SCALE
1000
AcRTDxfName
1000
SCALE
1000
AcRTDxfName
1000
SCALE
1000
AcRTDxfName
1000
SCALE
1000
AcRTDxfName
1000
SCALE
1000
AcRTDxfName
1000
SCALE
1000
AcRTDxfName
1000
SCALE
1000
AcRTDxfName
1000
SCALE
1000
AcRTDxfName
1000
SCALE
1000
AcRTDxfName
1000
SCALE
1000
AcRTDxfName
1000
SCALE
1000
AcRTDxfName
1000
SCALE
1000
AcRTDxfName
1000
SCALE
1000
AcRTDxfName
1000
SCALE
1000
AcRTDxfName
1000
SCALE
  0
SCALE
  5
12A038
102
{ACAD_REACTORS
330
12A028
102
}
330
12A028
100
AcDbScale
 70
     0
300
10:1
140
10.0
141
1.0
290
     0
1001
ACAD
1000
AcRTDxfName
1000
SCALE
1000
AcRTDxfName
1000
SCALE
1000
AcRTDxfName
1000
SCALE
1000
AcRTDxfName
1000
SCALE
1000
AcRTDxfName
1000
SCALE
1000
AcRTDxfName
1000
SCALE
1000
AcRTDxfName
1000
SCALE
1000
AcRTDxfName
1000
SCALE
1000
AcRTDxfName
1000
SCALE
1000
AcRTDxfName
1000
SCALE
1000
AcRTDxfName
1000
SCALE
1000
AcRTDxfName
1000
SCALE
1000
AcRTDxfName
1000
SCALE
1000
AcRTDxfName
1000
SCALE
1000
AcRTDxfName
1000
SCALE
1000
AcRTDxfName
1000
SCALE
1000
AcRTDxfName
1000
SCALE
1000
AcRTDxfName
1000
SCALE
1000
AcRTDxfName
1000
SCALE
1000
AcRTDxfName
1000
SCALE
1000
AcRTDxfName
1000
SCALE
1000
AcRTDxfName
1000
SCALE
1000
AcRTDxfName
1000
SCALE
1000
AcRTDxfName
1000
SCALE
1000
AcRTDxfName
1000
SCALE
1000
AcRTDxfName
1000
SCALE
1000
AcRTDxfName
1000
SCALE
1000
AcRTDxfName
1000
SCALE
1000
AcRTDxfName
1000
SCALE
1000
AcRTDxfName
1000
SCALE
1000
AcRTDxfName
1000
SCALE
1000
AcRTDxfName
1000
SCALE
1000
AcRTDxfName
1000
SCALE
1000
AcRTDxfName
1000
SCALE
1000
AcRTDxfName
1000
SCALE
1000
AcRTDxfName
1000
SCALE
1000
AcRTDxfName
1000
SCALE
1000
AcRTDxfName
1000
SCALE
1000
AcRTDxfName
1000
SCALE
1000
AcRTDxfName
1000
SCALE
1000
AcRTDxfName
1000
SCALE
1000
AcRTDxfName
1000
SCALE
  0
SCALE
  5
12A039
102
{ACAD_REACTORS
330
12A028
102
}
330
12A028
100
AcDbScale
 70
     0
300
100:1
140
100.0
141
1.0
290
     0
1001
ACAD
1000
AcRTDxfName
1000
SCALE
1000
AcRTDxfName
1000
SCALE
1000
AcRTDxfName
1000
SCALE
1000
AcRTDxfName
1000
SCALE
1000
AcRTDxfName
1000
SCALE
1000
AcRTDxfName
1000
SCALE
1000
AcRTDxfName
1000
SCALE
1000
AcRTDxfName
1000
SCALE
1000
AcRTDxfName
1000
SCALE
1000
AcRTDxfName
1000
SCALE
1000
AcRTDxfName
1000
SCALE
1000
AcRTDxfName
1000
SCALE
1000
AcRTDxfName
1000
SCALE
1000
AcRTDxfName
1000
SCALE
1000
AcRTDxfName
1000
SCALE
1000
AcRTDxfName
1000
SCALE
1000
AcRTDxfName
1000
SCALE
1000
AcRTDxfName
1000
SCALE
1000
AcRTDxfName
1000
SCALE
1000
AcRTDxfName
1000
SCALE
1000
AcRTDxfName
1000
SCALE
1000
AcRTDxfName
1000
SCALE
1000
AcRTDxfName
1000
SCALE
1000
AcRTDxfName
1000
SCALE
1000
AcRTDxfName
1000
SCALE
1000
AcRTDxfName
1000
SCALE
1000
AcRTDxfName
1000
SCALE
1000
AcRTDxfName
1000
SCALE
1000
AcRTDxfName
1000
SCALE
1000
AcRTDxfName
1000
SCALE
1000
AcRTDxfName
1000
SCALE
1000
AcRTDxfName
1000
SCALE
1000
AcRTDxfName
1000
SCALE
1000
AcRTDxfName
1000
SCALE
1000
AcRTDxfName
1000
SCALE
1000
AcRTDxfName
1000
SCALE
1000
AcRTDxfName
1000
SCALE
1000
AcRTDxfName
1000
SCALE
1000
AcRTDxfName
1000
SCALE
1000
AcRTDxfName
1000
SCALE
1000
AcRTDxfName
1000
SCALE
1000
AcRTDxfName
1000
SCALE
  0
SCALE
  5
12A03A
102
{ACAD_REACTORS
330
12A028
102
}
330
12A028
100
AcDbScale
 70
     0
300
1/128" = 1'-0"
140
0.0078125
141
12.0
290
     0
1001
ACAD
1000
AcRTDxfName
1000
SCALE
1000
AcRTDxfName
1000
SCALE
1000
AcRTDxfName
1000
SCALE
1000
AcRTDxfName
1000
SCALE
1000
AcRTDxfName
1000
SCALE
1000
AcRTDxfName
1000
SCALE
1000
AcRTDxfName
1000
SCALE
1000
AcRTDxfName
1000
SCALE
1000
AcRTDxfName
1000
SCALE
1000
AcRTDxfName
1000
SCALE
1000
AcRTDxfName
1000
SCALE
1000
AcRTDxfName
1000
SCALE
1000
AcRTDxfName
1000
SCALE
1000
AcRTDxfName
1000
SCALE
1000
AcRTDxfName
1000
SCALE
1000
AcRTDxfName
1000
SCALE
1000
AcRTDxfName
1000
SCALE
1000
AcRTDxfName
1000
SCALE
1000
AcRTDxfName
1000
SCALE
1000
AcRTDxfName
1000
SCALE
1000
AcRTDxfName
1000
SCALE
1000
AcRTDxfName
1000
SCALE
1000
AcRTDxfName
1000
SCALE
1000
AcRTDxfName
1000
SCALE
1000
AcRTDxfName
1000
SCALE
1000
AcRTDxfName
1000
SCALE
1000
AcRTDxfName
1000
SCALE
1000
AcRTDxfName
1000
SCALE
1000
AcRTDxfName
1000
SCALE
1000
AcRTDxfName
1000
SCALE
1000
AcRTDxfName
1000
SCALE
1000
AcRTDxfName
1000
SCALE
1000
AcRTDxfName
1000
SCALE
1000
AcRTDxfName
1000
SCALE
1000
AcRTDxfName
1000
SCALE
1000
AcRTDxfName
1000
SCALE
1000
AcRTDxfName
1000
SCALE
1000
AcRTDxfName
1000
SCALE
1000
AcRTDxfName
1000
SCALE
1000
AcRTDxfName
1000
SCALE
1000
AcRTDxfName
1000
SCALE
1000
AcRTDxfName
1000
SCALE
  0
SCALE
  5
12A03B
102
{ACAD_REACTORS
330
12A028
102
}
330
12A028
100
AcDbScale
 70
     0
300
1/64" = 1'-0"
140
0.015625
141
12.0
290
     0
1001
ACAD
1000
AcRTDxfName
1000
SCALE
1000
AcRTDxfName
1000
SCALE
1000
AcRTDxfName
1000
SCALE
1000
AcRTDxfName
1000
SCALE
1000
AcRTDxfName
1000
SCALE
1000
AcRTDxfName
1000
SCALE
1000
AcRTDxfName
1000
SCALE
1000
AcRTDxfName
1000
SCALE
1000
AcRTDxfName
1000
SCALE
1000
AcRTDxfName
1000
SCALE
1000
AcRTDxfName
1000
SCALE
1000
AcRTDxfName
1000
SCALE
1000
AcRTDxfName
1000
SCALE
1000
AcRTDxfName
1000
SCALE
1000
AcRTDxfName
1000
SCALE
1000
AcRTDxfName
1000
SCALE
1000
AcRTDxfName
1000
SCALE
1000
AcRTDxfName
1000
SCALE
1000
AcRTDxfName
1000
SCALE
1000
AcRTDxfName
1000
SCALE
1000
AcRTDxfName
1000
SCALE
1000
AcRTDxfName
1000
SCALE
1000
AcRTDxfName
1000
SCALE
1000
AcRTDxfName
1000
SCALE
1000
AcRTDxfName
1000
SCALE
1000
AcRTDxfName
1000
SCALE
1000
AcRTDxfName
1000
SCALE
1000
AcRTDxfName
1000
SCALE
1000
AcRTDxfName
1000
SCALE
1000
AcRTDxfName
1000
SCALE
1000
AcRTDxfName
1000
SCALE
1000
AcRTDxfName
1000
SCALE
1000
AcRTDxfName
1000
SCALE
1000
AcRTDxfName
1000
SCALE
1000
AcRTDxfName
1000
SCALE
1000
AcRTDxfName
1000
SCALE
1000
AcRTDxfName
1000
SCALE
1000
AcRTDxfName
1000
SCALE
1000
AcRTDxfName
1000
SCALE
1000
AcRTDxfName
1000
SCALE
1000
AcRTDxfName
1000
SCALE
1000
AcRTDxfName
1000
SCALE
  0
SCALE
  5
12A03C
102
{ACAD_REACTORS
330
12A028
102
}
330
12A028
100
AcDbScale
 70
     0
300
1/32" = 1'-0"
140
0.03125
141
12.0
290
     0
1001
ACAD
1000
AcRTDxfName
1000
SCALE
1000
AcRTDxfName
1000
SCALE
1000
AcRTDxfName
1000
SCALE
1000
AcRTDxfName
1000
SCALE
1000
AcRTDxfName
1000
SCALE
1000
AcRTDxfName
1000
SCALE
1000
AcRTDxfName
1000
SCALE
1000
AcRTDxfName
1000
SCALE
1000
AcRTDxfName
1000
SCALE
1000
AcRTDxfName
1000
SCALE
1000
AcRTDxfName
1000
SCALE
1000
AcRTDxfName
1000
SCALE
1000
AcRTDxfName
1000
SCALE
1000
AcRTDxfName
1000
SCALE
1000
AcRTDxfName
1000
SCALE
1000
AcRTDxfName
1000
SCALE
1000
AcRTDxfName
1000
SCALE
1000
AcRTDxfName
1000
SCALE
1000
AcRTDxfName
1000
SCALE
1000
AcRTDxfName
1000
SCALE
1000
AcRTDxfName
1000
SCALE
1000
AcRTDxfName
1000
SCALE
1000
AcRTDxfName
1000
SCALE
1000
AcRTDxfName
1000
SCALE
1000
AcRTDxfName
1000
SCALE
1000
AcRTDxfName
1000
SCALE
1000
AcRTDxfName
1000
SCALE
1000
AcRTDxfName
1000
SCALE
1000
AcRTDxfName
1000
SCALE
1000
AcRTDxfName
1000
SCALE
1000
AcRTDxfName
1000
SCALE
1000
AcRTDxfName
1000
SCALE
1000
AcRTDxfName
1000
SCALE
1000
AcRTDxfName
1000
SCALE
1000
AcRTDxfName
1000
SCALE
1000
AcRTDxfName
1000
SCALE
1000
AcRTDxfName
1000
SCALE
1000
AcRTDxfName
1000
SCALE
1000
AcRTDxfName
1000
SCALE
1000
AcRTDxfName
1000
SCALE
1000
AcRTDxfName
1000
SCALE
1000
AcRTDxfName
1000
SCALE
  0
SCALE
  5
12A03D
102
{ACAD_REACTORS
330
12A028
102
}
330
12A028
100
AcDbScale
 70
     0
300
1/16" = 1'-0"
140
0.0625
141
12.0
290
     0
1001
ACAD
1000
AcRTDxfName
1000
SCALE
1000
AcRTDxfName
1000
SCALE
1000
AcRTDxfName
1000
SCALE
1000
AcRTDxfName
1000
SCALE
1000
AcRTDxfName
1000
SCALE
1000
AcRTDxfName
1000
SCALE
1000
AcRTDxfName
1000
SCALE
1000
AcRTDxfName
1000
SCALE
1000
AcRTDxfName
1000
SCALE
1000
AcRTDxfName
1000
SCALE
1000
AcRTDxfName
1000
SCALE
1000
AcRTDxfName
1000
SCALE
1000
AcRTDxfName
1000
SCALE
1000
AcRTDxfName
1000
SCALE
1000
AcRTDxfName
1000
SCALE
1000
AcRTDxfName
1000
SCALE
1000
AcRTDxfName
1000
SCALE
1000
AcRTDxfName
1000
SCALE
1000
AcRTDxfName
1000
SCALE
1000
AcRTDxfName
1000
SCALE
1000
AcRTDxfName
1000
SCALE
1000
AcRTDxfName
1000
SCALE
1000
AcRTDxfName
1000
SCALE
1000
AcRTDxfName
1000
SCALE
1000
AcRTDxfName
1000
SCALE
1000
AcRTDxfName
1000
SCALE
1000
AcRTDxfName
1000
SCALE
1000
AcRTDxfName
1000
SCALE
1000
AcRTDxfName
1000
SCALE
1000
AcRTDxfName
1000
SCALE
1000
AcRTDxfName
1000
SCALE
1000
AcRTDxfName
1000
SCALE
1000
AcRTDxfName
1000
SCALE
1000
AcRTDxfName
1000
SCALE
1000
AcRTDxfName
1000
SCALE
1000
AcRTDxfName
1000
SCALE
1000
AcRTDxfName
1000
SCALE
1000
AcRTDxfName
1000
SCALE
1000
AcRTDxfName
1000
SCALE
1000
AcRTDxfName
1000
SCALE
1000
AcRTDxfName
1000
SCALE
1000
AcRTDxfName
1000
SCALE
  0
SCALE
  5
12A03E
102
{ACAD_REACTORS
330
12A028
102
}
330
12A028
100
AcDbScale
 70
     0
300
3/32" = 1'-0"
140
0.09375
141
12.0
290
     0
1001
ACAD
1000
AcRTDxfName
1000
SCALE
1000
AcRTDxfName
1000
SCALE
1000
AcRTDxfName
1000
SCALE
1000
AcRTDxfName
1000
SCALE
1000
AcRTDxfName
1000
SCALE
1000
AcRTDxfName
1000
SCALE
1000
AcRTDxfName
1000
SCALE
1000
AcRTDxfName
1000
SCALE
1000
AcRTDxfName
1000
SCALE
1000
AcRTDxfName
1000
SCALE
1000
AcRTDxfName
1000
SCALE
1000
AcRTDxfName
1000
SCALE
1000
AcRTDxfName
1000
SCALE
1000
AcRTDxfName
1000
SCALE
1000
AcRTDxfName
1000
SCALE
1000
AcRTDxfName
1000
SCALE
1000
AcRTDxfName
1000
SCALE
1000
AcRTDxfName
1000
SCALE
1000
AcRTDxfName
1000
SCALE
1000
AcRTDxfName
1000
SCALE
1000
AcRTDxfName
1000
SCALE
1000
AcRTDxfName
1000
SCALE
1000
AcRTDxfName
1000
SCALE
1000
AcRTDxfName
1000
SCALE
1000
AcRTDxfName
1000
SCALE
1000
AcRTDxfName
1000
SCALE
1000
AcRTDxfName
1000
SCALE
1000
AcRTDxfName
1000
SCALE
1000
AcRTDxfName
1000
SCALE
1000
AcRTDxfName
1000
SCALE
1000
AcRTDxfName
1000
SCALE
1000
AcRTDxfName
1000
SCALE
1000
AcRTDxfName
1000
SCALE
1000
AcRTDxfName
1000
SCALE
1000
AcRTDxfName
1000
SCALE
1000
AcRTDxfName
1000
SCALE
1000
AcRTDxfName
1000
SCALE
1000
AcRTDxfName
1000
SCALE
1000
AcRTDxfName
1000
SCALE
1000
AcRTDxfName
1000
SCALE
1000
AcRTDxfName
1000
SCALE
1000
AcRTDxfName
1000
SCALE
  0
SCALE
  5
12A03F
102
{ACAD_REACTORS
330
12A028
102
}
330
12A028
100
AcDbScale
 70
     0
300
1/8" = 1'-0"
140
0.125
141
12.0
290
     0
1001
ACAD
1000
AcRTDxfName
1000
SCALE
1000
AcRTDxfName
1000
SCALE
1000
AcRTDxfName
1000
SCALE
1000
AcRTDxfName
1000
SCALE
1000
AcRTDxfName
1000
SCALE
1000
AcRTDxfName
1000
SCALE
1000
AcRTDxfName
1000
SCALE
1000
AcRTDxfName
1000
SCALE
1000
AcRTDxfName
1000
SCALE
1000
AcRTDxfName
1000
SCALE
1000
AcRTDxfName
1000
SCALE
1000
AcRTDxfName
1000
SCALE
1000
AcRTDxfName
1000
SCALE
1000
AcRTDxfName
1000
SCALE
1000
AcRTDxfName
1000
SCALE
1000
AcRTDxfName
1000
SCALE
1000
AcRTDxfName
1000
SCALE
1000
AcRTDxfName
1000
SCALE
1000
AcRTDxfName
1000
SCALE
1000
AcRTDxfName
1000
SCALE
1000
AcRTDxfName
1000
SCALE
1000
AcRTDxfName
1000
SCALE
1000
AcRTDxfName
1000
SCALE
1000
AcRTDxfName
1000
SCALE
1000
AcRTDxfName
1000
SCALE
1000
AcRTDxfName
1000
SCALE
1000
AcRTDxfName
1000
SCALE
1000
AcRTDxfName
1000
SCALE
1000
AcRTDxfName
1000
SCALE
1000
AcRTDxfName
1000
SCALE
1000
AcRTDxfName
1000
SCALE
1000
AcRTDxfName
1000
SCALE
1000
AcRTDxfName
1000
SCALE
1000
AcRTDxfName
1000
SCALE
1000
AcRTDxfName
1000
SCALE
1000
AcRTDxfName
1000
SCALE
1000
AcRTDxfName
1000
SCALE
1000
AcRTDxfName
1000
SCALE
1000
AcRTDxfName
1000
SCALE
1000
AcRTDxfName
1000
SCALE
1000
AcRTDxfName
1000
SCALE
1000
AcRTDxfName
1000
SCALE
  0
SCALE
  5
12A040
102
{ACAD_REACTORS
330
12A028
102
}
330
12A028
100
AcDbScale
 70
     0
300
3/16" = 1'-0"
140
0.1875
141
12.0
290
     0
1001
ACAD
1000
AcRTDxfName
1000
SCALE
1000
AcRTDxfName
1000
SCALE
1000
AcRTDxfName
1000
SCALE
1000
AcRTDxfName
1000
SCALE
1000
AcRTDxfName
1000
SCALE
1000
AcRTDxfName
1000
SCALE
1000
AcRTDxfName
1000
SCALE
1000
AcRTDxfName
1000
SCALE
1000
AcRTDxfName
1000
SCALE
1000
AcRTDxfName
1000
SCALE
1000
AcRTDxfName
1000
SCALE
1000
AcRTDxfName
1000
SCALE
1000
AcRTDxfName
1000
SCALE
1000
AcRTDxfName
1000
SCALE
1000
AcRTDxfName
1000
SCALE
1000
AcRTDxfName
1000
SCALE
1000
AcRTDxfName
1000
SCALE
1000
AcRTDxfName
1000
SCALE
1000
AcRTDxfName
1000
SCALE
1000
AcRTDxfName
1000
SCALE
1000
AcRTDxfName
1000
SCALE
1000
AcRTDxfName
1000
SCALE
1000
AcRTDxfName
1000
SCALE
1000
AcRTDxfName
1000
SCALE
1000
AcRTDxfName
1000
SCALE
1000
AcRTDxfName
1000
SCALE
1000
AcRTDxfName
1000
SCALE
1000
AcRTDxfName
1000
SCALE
1000
AcRTDxfName
1000
SCALE
1000
AcRTDxfName
1000
SCALE
1000
AcRTDxfName
1000
SCALE
1000
AcRTDxfName
1000
SCALE
1000
AcRTDxfName
1000
SCALE
1000
AcRTDxfName
1000
SCALE
1000
AcRTDxfName
1000
SCALE
1000
AcRTDxfName
1000
SCALE
1000
AcRTDxfName
1000
SCALE
1000
AcRTDxfName
1000
SCALE
1000
AcRTDxfName
1000
SCALE
1000
AcRTDxfName
1000
SCALE
1000
AcRTDxfName
1000
SCALE
1000
AcRTDxfName
1000
SCALE
  0
SCALE
  5
12A041
102
{ACAD_REACTORS
330
12A028
102
}
330
12A028
100
AcDbScale
 70
     0
300
1/4" = 1'-0"
140
0.25
141
12.0
290
     0
1001
ACAD
1000
AcRTDxfName
1000
SCALE
1000
AcRTDxfName
1000
SCALE
1000
AcRTDxfName
1000
SCALE
1000
AcRTDxfName
1000
SCALE
1000
AcRTDxfName
1000
SCALE
1000
AcRTDxfName
1000
SCALE
1000
AcRTDxfName
1000
SCALE
1000
AcRTDxfName
1000
SCALE
1000
AcRTDxfName
1000
SCALE
1000
AcRTDxfName
1000
SCALE
1000
AcRTDxfName
1000
SCALE
1000
AcRTDxfName
1000
SCALE
1000
AcRTDxfName
1000
SCALE
1000
AcRTDxfName
1000
SCALE
1000
AcRTDxfName
1000
SCALE
1000
AcRTDxfName
1000
SCALE
1000
AcRTDxfName
1000
SCALE
1000
AcRTDxfName
1000
SCALE
1000
AcRTDxfName
1000
SCALE
1000
AcRTDxfName
1000
SCALE
1000
AcRTDxfName
1000
SCALE
1000
AcRTDxfName
1000
SCALE
1000
AcRTDxfName
1000
SCALE
1000
AcRTDxfName
1000
SCALE
1000
AcRTDxfName
1000
SCALE
1000
AcRTDxfName
1000
SCALE
1000
AcRTDxfName
1000
SCALE
1000
AcRTDxfName
1000
SCALE
1000
AcRTDxfName
1000
SCALE
1000
AcRTDxfName
1000
SCALE
1000
AcRTDxfName
1000
SCALE
1000
AcRTDxfName
1000
SCALE
1000
AcRTDxfName
1000
SCALE
1000
AcRTDxfName
1000
SCALE
1000
AcRTDxfName
1000
SCALE
1000
AcRTDxfName
1000
SCALE
1000
AcRTDxfName
1000
SCALE
1000
AcRTDxfName
1000
SCALE
1000
AcRTDxfName
1000
SCALE
1000
AcRTDxfName
1000
SCALE
1000
AcRTDxfName
1000
SCALE
1000
AcRTDxfName
1000
SCALE
  0
SCALE
  5
12A042
102
{ACAD_REACTORS
330
12A028
102
}
330
12A028
100
AcDbScale
 70
     0
300
3/8" = 1'-0"
140
0.375
141
12.0
290
     0
1001
ACAD
1000
AcRTDxfName
1000
SCALE
1000
AcRTDxfName
1000
SCALE
1000
AcRTDxfName
1000
SCALE
1000
AcRTDxfName
1000
SCALE
1000
AcRTDxfName
1000
SCALE
1000
AcRTDxfName
1000
SCALE
1000
AcRTDxfName
1000
SCALE
1000
AcRTDxfName
1000
SCALE
1000
AcRTDxfName
1000
SCALE
1000
AcRTDxfName
1000
SCALE
1000
AcRTDxfName
1000
SCALE
1000
AcRTDxfName
1000
SCALE
1000
AcRTDxfName
1000
SCALE
1000
AcRTDxfName
1000
SCALE
1000
AcRTDxfName
1000
SCALE
1000
AcRTDxfName
1000
SCALE
1000
AcRTDxfName
1000
SCALE
1000
AcRTDxfName
1000
SCALE
1000
AcRTDxfName
1000
SCALE
1000
AcRTDxfName
1000
SCALE
1000
AcRTDxfName
1000
SCALE
1000
AcRTDxfName
1000
SCALE
1000
AcRTDxfName
1000
SCALE
1000
AcRTDxfName
1000
SCALE
1000
AcRTDxfName
1000
SCALE
1000
AcRTDxfName
1000
SCALE
1000
AcRTDxfName
1000
SCALE
1000
AcRTDxfName
1000
SCALE
1000
AcRTDxfName
1000
SCALE
1000
AcRTDxfName
1000
SCALE
1000
AcRTDxfName
1000
SCALE
1000
AcRTDxfName
1000
SCALE
1000
AcRTDxfName
1000
SCALE
1000
AcRTDxfName
1000
SCALE
1000
AcRTDxfName
1000
SCALE
1000
AcRTDxfName
1000
SCALE
1000
AcRTDxfName
1000
SCALE
1000
AcRTDxfName
1000
SCALE
1000
AcRTDxfName
1000
SCALE
1000
AcRTDxfName
1000
SCALE
1000
AcRTDxfName
1000
SCALE
1000
AcRTDxfName
1000
SCALE
  0
SCALE
  5
12A043
102
{ACAD_REACTORS
330
12A028
102
}
330
12A028
100
AcDbScale
 70
     0
300
1/2" = 1'-0"
140
0.5
141
12.0
290
     0
1001
ACAD
1000
AcRTDxfName
1000
SCALE
1000
AcRTDxfName
1000
SCALE
1000
AcRTDxfName
1000
SCALE
1000
AcRTDxfName
1000
SCALE
1000
AcRTDxfName
1000
SCALE
1000
AcRTDxfName
1000
SCALE
1000
AcRTDxfName
1000
SCALE
1000
AcRTDxfName
1000
SCALE
1000
AcRTDxfName
1000
SCALE
1000
AcRTDxfName
1000
SCALE
1000
AcRTDxfName
1000
SCALE
1000
AcRTDxfName
1000
SCALE
1000
AcRTDxfName
1000
SCALE
1000
AcRTDxfName
1000
SCALE
1000
AcRTDxfName
1000
SCALE
1000
AcRTDxfName
1000
SCALE
1000
AcRTDxfName
1000
SCALE
1000
AcRTDxfName
1000
SCALE
1000
AcRTDxfName
1000
SCALE
1000
AcRTDxfName
1000
SCALE
1000
AcRTDxfName
1000
SCALE
1000
AcRTDxfName
1000
SCALE
1000
AcRTDxfName
1000
SCALE
1000
AcRTDxfName
1000
SCALE
1000
AcRTDxfName
1000
SCALE
1000
AcRTDxfName
1000
SCALE
1000
AcRTDxfName
1000
SCALE
1000
AcRTDxfName
1000
SCALE
1000
AcRTDxfName
1000
SCALE
1000
AcRTDxfName
1000
SCALE
1000
AcRTDxfName
1000
SCALE
1000
AcRTDxfName
1000
SCALE
1000
AcRTDxfName
1000
SCALE
1000
AcRTDxfName
1000
SCALE
1000
AcRTDxfName
1000
SCALE
1000
AcRTDxfName
1000
SCALE
1000
AcRTDxfName
1000
SCALE
1000
AcRTDxfName
1000
SCALE
1000
AcRTDxfName
1000
SCALE
1000
AcRTDxfName
1000
SCALE
1000
AcRTDxfName
1000
SCALE
1000
AcRTDxfName
1000
SCALE
  0
SCALE
  5
12A044
102
{ACAD_REACTORS
330
12A028
102
}
330
12A028
100
AcDbScale
 70
     0
300
3/4" = 1'-0"
140
0.75
141
12.0
290
     0
1001
ACAD
1000
AcRTDxfName
1000
SCALE
1000
AcRTDxfName
1000
SCALE
1000
AcRTDxfName
1000
SCALE
1000
AcRTDxfName
1000
SCALE
1000
AcRTDxfName
1000
SCALE
1000
AcRTDxfName
1000
SCALE
1000
AcRTDxfName
1000
SCALE
1000
AcRTDxfName
1000
SCALE
1000
AcRTDxfName
1000
SCALE
1000
AcRTDxfName
1000
SCALE
1000
AcRTDxfName
1000
SCALE
1000
AcRTDxfName
1000
SCALE
1000
AcRTDxfName
1000
SCALE
1000
AcRTDxfName
1000
SCALE
1000
AcRTDxfName
1000
SCALE
1000
AcRTDxfName
1000
SCALE
1000
AcRTDxfName
1000
SCALE
1000
AcRTDxfName
1000
SCALE
1000
AcRTDxfName
1000
SCALE
1000
AcRTDxfName
1000
SCALE
1000
AcRTDxfName
1000
SCALE
1000
AcRTDxfName
1000
SCALE
1000
AcRTDxfName
1000
SCALE
1000
AcRTDxfName
1000
SCALE
1000
AcRTDxfName
1000
SCALE
1000
AcRTDxfName
1000
SCALE
1000
AcRTDxfName
1000
SCALE
1000
AcRTDxfName
1000
SCALE
1000
AcRTDxfName
1000
SCALE
1000
AcRTDxfName
1000
SCALE
1000
AcRTDxfName
1000
SCALE
1000
AcRTDxfName
1000
SCALE
1000
AcRTDxfName
1000
SCALE
1000
AcRTDxfName
1000
SCALE
1000
AcRTDxfName
1000
SCALE
1000
AcRTDxfName
1000
SCALE
1000
AcRTDxfName
1000
SCALE
1000
AcRTDxfName
1000
SCALE
1000
AcRTDxfName
1000
SCALE
1000
AcRTDxfName
1000
SCALE
1000
AcRTDxfName
1000
SCALE
1000
AcRTDxfName
1000
SCALE
  0
SCALE
  5
12A045
102
{ACAD_REACTORS
330
12A028
102
}
330
12A028
100
AcDbScale
 70
     0
300
1" = 1'-0"
140
1.0
141
12.0
290
     0
1001
ACAD
1000
AcRTDxfName
1000
SCALE
1000
AcRTDxfName
1000
SCALE
1000
AcRTDxfName
1000
SCALE
1000
AcRTDxfName
1000
SCALE
1000
AcRTDxfName
1000
SCALE
1000
AcRTDxfName
1000
SCALE
1000
AcRTDxfName
1000
SCALE
1000
AcRTDxfName
1000
SCALE
1000
AcRTDxfName
1000
SCALE
1000
AcRTDxfName
1000
SCALE
1000
AcRTDxfName
1000
SCALE
1000
AcRTDxfName
1000
SCALE
1000
AcRTDxfName
1000
SCALE
1000
AcRTDxfName
1000
SCALE
1000
AcRTDxfName
1000
SCALE
1000
AcRTDxfName
1000
SCALE
1000
AcRTDxfName
1000
SCALE
1000
AcRTDxfName
1000
SCALE
1000
AcRTDxfName
1000
SCALE
1000
AcRTDxfName
1000
SCALE
1000
AcRTDxfName
1000
SCALE
1000
AcRTDxfName
1000
SCALE
1000
AcRTDxfName
1000
SCALE
1000
AcRTDxfName
1000
SCALE
1000
AcRTDxfName
1000
SCALE
1000
AcRTDxfName
1000
SCALE
1000
AcRTDxfName
1000
SCALE
1000
AcRTDxfName
1000
SCALE
1000
AcRTDxfName
1000
SCALE
1000
AcRTDxfName
1000
SCALE
1000
AcRTDxfName
1000
SCALE
1000
AcRTDxfName
1000
SCALE
1000
AcRTDxfName
1000
SCALE
1000
AcRTDxfName
1000
SCALE
1000
AcRTDxfName
1000
SCALE
1000
AcRTDxfName
1000
SCALE
1000
AcRTDxfName
1000
SCALE
1000
AcRTDxfName
1000
SCALE
1000
AcRTDxfName
1000
SCALE
1000
AcRTDxfName
1000
SCALE
1000
AcRTDxfName
1000
SCALE
1000
AcRTDxfName
1000
SCALE
  0
SCALE
  5
12A046
102
{ACAD_REACTORS
330
12A028
102
}
330
12A028
100
AcDbScale
 70
     0
300
1-1/2" = 1'-0"
140
1.5
141
12.0
290
     0
1001
ACAD
1000
AcRTDxfName
1000
SCALE
1000
AcRTDxfName
1000
SCALE
1000
AcRTDxfName
1000
SCALE
1000
AcRTDxfName
1000
SCALE
1000
AcRTDxfName
1000
SCALE
1000
AcRTDxfName
1000
SCALE
1000
AcRTDxfName
1000
SCALE
1000
AcRTDxfName
1000
SCALE
1000
AcRTDxfName
1000
SCALE
1000
AcRTDxfName
1000
SCALE
1000
AcRTDxfName
1000
SCALE
1000
AcRTDxfName
1000
SCALE
1000
AcRTDxfName
1000
SCALE
1000
AcRTDxfName
1000
SCALE
1000
AcRTDxfName
1000
SCALE
1000
AcRTDxfName
1000
SCALE
1000
AcRTDxfName
1000
SCALE
1000
AcRTDxfName
1000
SCALE
1000
AcRTDxfName
1000
SCALE
1000
AcRTDxfName
1000
SCALE
1000
AcRTDxfName
1000
SCALE
1000
AcRTDxfName
1000
SCALE
1000
AcRTDxfName
1000
SCALE
1000
AcRTDxfName
1000
SCALE
1000
AcRTDxfName
1000
SCALE
1000
AcRTDxfName
1000
SCALE
1000
AcRTDxfName
1000
SCALE
1000
AcRTDxfName
1000
SCALE
1000
AcRTDxfName
1000
SCALE
1000
AcRTDxfName
1000
SCALE
1000
AcRTDxfName
1000
SCALE
1000
AcRTDxfName
1000
SCALE
1000
AcRTDxfName
1000
SCALE
1000
AcRTDxfName
1000
SCALE
1000
AcRTDxfName
1000
SCALE
1000
AcRTDxfName
1000
SCALE
1000
AcRTDxfName
1000
SCALE
1000
AcRTDxfName
1000
SCALE
1000
AcRTDxfName
1000
SCALE
1000
AcRTDxfName
1000
SCALE
1000
AcRTDxfName
1000
SCALE
1000
AcRTDxfName
1000
SCALE
  0
SCALE
  5
12A047
102
{ACAD_REACTORS
330
12A028
102
}
330
12A028
100
AcDbScale
 70
     0
300
3" = 1'-0"
140
3.0
141
12.0
290
     0
1001
ACAD
1000
AcRTDxfName
1000
SCALE
1000
AcRTDxfName
1000
SCALE
1000
AcRTDxfName
1000
SCALE
1000
AcRTDxfName
1000
SCALE
1000
AcRTDxfName
1000
SCALE
1000
AcRTDxfName
1000
SCALE
1000
AcRTDxfName
1000
SCALE
1000
AcRTDxfName
1000
SCALE
1000
AcRTDxfName
1000
SCALE
1000
AcRTDxfName
1000
SCALE
1000
AcRTDxfName
1000
SCALE
1000
AcRTDxfName
1000
SCALE
1000
AcRTDxfName
1000
SCALE
1000
AcRTDxfName
1000
SCALE
1000
AcRTDxfName
1000
SCALE
1000
AcRTDxfName
1000
SCALE
1000
AcRTDxfName
1000
SCALE
1000
AcRTDxfName
1000
SCALE
1000
AcRTDxfName
1000
SCALE
1000
AcRTDxfName
1000
SCALE
1000
AcRTDxfName
1000
SCALE
1000
AcRTDxfName
1000
SCALE
1000
AcRTDxfName
1000
SCALE
1000
AcRTDxfName
1000
SCALE
1000
AcRTDxfName
1000
SCALE
1000
AcRTDxfName
1000
SCALE
1000
AcRTDxfName
1000
SCALE
1000
AcRTDxfName
1000
SCALE
1000
AcRTDxfName
1000
SCALE
1000
AcRTDxfName
1000
SCALE
1000
AcRTDxfName
1000
SCALE
1000
AcRTDxfName
1000
SCALE
1000
AcRTDxfName
1000
SCALE
1000
AcRTDxfName
1000
SCALE
1000
AcRTDxfName
1000
SCALE
1000
AcRTDxfName
1000
SCALE
1000
AcRTDxfName
1000
SCALE
1000
AcRTDxfName
1000
SCALE
1000
AcRTDxfName
1000
SCALE
1000
AcRTDxfName
1000
SCALE
1000
AcRTDxfName
1000
SCALE
1000
AcRTDxfName
1000
SCALE
  0
SCALE
  5
12A048
102
{ACAD_REACTORS
330
12A028
102
}
330
12A028
100
AcDbScale
 70
     0
300
6" = 1'-0"
140
6.0
141
12.0
290
     0
1001
ACAD
1000
AcRTDxfName
1000
SCALE
1000
AcRTDxfName
1000
SCALE
1000
AcRTDxfName
1000
SCALE
1000
AcRTDxfName
1000
SCALE
1000
AcRTDxfName
1000
SCALE
1000
AcRTDxfName
1000
SCALE
1000
AcRTDxfName
1000
SCALE
1000
AcRTDxfName
1000
SCALE
1000
AcRTDxfName
1000
SCALE
1000
AcRTDxfName
1000
SCALE
1000
AcRTDxfName
1000
SCALE
1000
AcRTDxfName
1000
SCALE
1000
AcRTDxfName
1000
SCALE
1000
AcRTDxfName
1000
SCALE
1000
AcRTDxfName
1000
SCALE
1000
AcRTDxfName
1000
SCALE
1000
AcRTDxfName
1000
SCALE
1000
AcRTDxfName
1000
SCALE
1000
AcRTDxfName
1000
SCALE
1000
AcRTDxfName
1000
SCALE
1000
AcRTDxfName
1000
SCALE
1000
AcRTDxfName
1000
SCALE
1000
AcRTDxfName
1000
SCALE
1000
AcRTDxfName
1000
SCALE
1000
AcRTDxfName
1000
SCALE
1000
AcRTDxfName
1000
SCALE
1000
AcRTDxfName
1000
SCALE
1000
AcRTDxfName
1000
SCALE
1000
AcRTDxfName
1000
SCALE
1000
AcRTDxfName
1000
SCALE
1000
AcRTDxfName
1000
SCALE
1000
AcRTDxfName
1000
SCALE
1000
AcRTDxfName
1000
SCALE
1000
AcRTDxfName
1000
SCALE
1000
AcRTDxfName
1000
SCALE
1000
AcRTDxfName
1000
SCALE
1000
AcRTDxfName
1000
SCALE
1000
AcRTDxfName
1000
SCALE
1000
AcRTDxfName
1000
SCALE
1000
AcRTDxfName
1000
SCALE
1000
AcRTDxfName
1000
SCALE
1000
AcRTDxfName
1000
SCALE
  0
SCALE
  5
12A049
102
{ACAD_REACTORS
330
12A028
102
}
330
12A028
100
AcDbScale
 70
     0
300
1'-0" = 1'-0"
140
12.0
141
12.0
290
     0
1001
ACAD
1000
AcRTDxfName
1000
SCALE
1000
AcRTDxfName
1000
SCALE
1000
AcRTDxfName
1000
SCALE
1000
AcRTDxfName
1000
SCALE
1000
AcRTDxfName
1000
SCALE
1000
AcRTDxfName
1000
SCALE
1000
AcRTDxfName
1000
SCALE
1000
AcRTDxfName
1000
SCALE
1000
AcRTDxfName
1000
SCALE
1000
AcRTDxfName
1000
SCALE
1000
AcRTDxfName
1000
SCALE
1000
AcRTDxfName
1000
SCALE
1000
AcRTDxfName
1000
SCALE
1000
AcRTDxfName
1000
SCALE
1000
AcRTDxfName
1000
SCALE
1000
AcRTDxfName
1000
SCALE
1000
AcRTDxfName
1000
SCALE
1000
AcRTDxfName
1000
SCALE
1000
AcRTDxfName
1000
SCALE
1000
AcRTDxfName
1000
SCALE
1000
AcRTDxfName
1000
SCALE
1000
AcRTDxfName
1000
SCALE
1000
AcRTDxfName
1000
SCALE
1000
AcRTDxfName
1000
SCALE
1000
AcRTDxfName
1000
SCALE
1000
AcRTDxfName
1000
SCALE
1000
AcRTDxfName
1000
SCALE
1000
AcRTDxfName
1000
SCALE
1000
AcRTDxfName
1000
SCALE
1000
AcRTDxfName
1000
SCALE
1000
AcRTDxfName
1000
SCALE
1000
AcRTDxfName
1000
SCALE
1000
AcRTDxfName
1000
SCALE
1000
AcRTDxfName
1000
SCALE
1000
AcRTDxfName
1000
SCALE
1000
AcRTDxfName
1000
SCALE
1000
AcRTDxfName
1000
SCALE
1000
AcRTDxfName
1000
SCALE
1000
AcRTDxfName
1000
SCALE
1000
AcRTDxfName
1000
SCALE
1000
AcRTDxfName
1000
SCALE
1000
AcRTDxfName
1000
SCALE
  0
ACDBSECTIONVIEWSTYLE
  5
1565EA
102
{ACAD_REACTORS
330
1565E9
102
}
330
1565E9
100
AcDbModelDocViewStyle
 70
     0
  3
Metric50
290
     1
300
Metric50
 90
        0
100
AcDbSectionViewStyle
 70
     0
 71
     0
 90
      102
 71
     1
340
11
 62
   256
 40
5.0
340
0
340
0
 62
   256
 40
5.0
300
I, O, Q, S, X, Z
 40
10.0
 90
        0
 40
2.5
 90
        0
 71
     2
340
16
 90
       25
 62
   256
340
16
 90
       50
 62
   256
 40
5.0
 40
2.5
 40
5.0
 71
     3
340
11
 62
   256
 40
5.0
 90
        0
 40
15.0
 90
        1
300
%<\AcVar ViewSectionStartId>%-%<\AcVar ViewSectionEndId>% (%<\AcVar ViewScale \f "%sn">%)
 71
     4
 62
   256
 62
   257
300
ANSI31
 40
1.0
 90
        0
290
     0
290
     0
 90
        6
 40
0.0
 40
1.570796326794896
 40
0.2617993877991494
 40
1.308996938995747
 40
-0.2617993877991494
 40
1.832595714594046
  0
TABLESTYLE
  5
128BA8
102
{ACAD_XDICTIONARY
360
12A0D5
102
}
102
{ACAD_REACTORS
330
DE29
102
}
330
DE29
100
AcDbTableStyle
280
     0
  3
Standard
 70
     0
 71
     0
 40
1.5
 41
1.5
280
     1
281
     1
  7
Standard
140
10.5
170
     5
 62
   256
 63
     7
283
     0
 90
        4
 91
        0
  1

274
    -2
284
     1
 64
     0
275
    -2
285
     1
 65
     0
276
    -2
286
     1
 66
     0
277
    -2
287
     1
 67
     0
278
    -2
288
     1
 68
     0
279
    -2
289
     1
 69
     0
  7
Standard
140
6.0
170
     5
 62
     0
 63
     7
283
     0
 90
      512
 91
        0
  1

274
    -2
284
     1
 64
     0
275
    -2
285
     1
 65
     0
276
    -2
286
     1
 66
     0
277
    -2
287
     1
 67
     0
278
    -2
288
     1
 68
     0
279
    -2
289
     1
 69
     0
  7
Standard
140
4.5
170
     5
 62
     0
 63
     7
283
     0
 90
      512
 91
        0
  1

274
    -2
284
     1
 64
     0
275
    -2
285
     1
 65
     0
276
    -2
286
     1
 66
     0
277
    -2
287
     1
 67
     0
278
    -2
288
     1
 68
     0
279
    -2
289
     1
 69
     0
  0
TABLESTYLE
  5
122496
102
{ACAD_XDICTIONARY
360
12A059
102
}
102
{ACAD_REACTORS
330
DE29
102
}
330
DE29
100
AcDbTableStyle
280
     0
  3
Standard
 70
     0
 71
     0
 40
1.5
 41
1.5
280
     1
281
     1
  7
Standard
140
16.0
170
     5
 62
     0
 63
     7
283
     0
 90
      512
 91
        0
  1

274
    -2
284
     1
 64
     0
275
    -2
285
     1
 65
     0
276
    -2
286
     1
 66
     0
277
    -2
287
     1
 67
     0
278
    -2
288
     1
 68
     0
279
    -2
289
     1
 69
     0
  7
Standard
140
6.0
170
     5
 62
     0
 63
     7
283
     0
 90
      512
 91
        0
  1

274
    -2
284
     1
 64
     0
275
    -2
285
     1
 65
     0
276
    -2
286
     1
 66
     0
277
    -2
287
     1
 67
     0
278
    -2
288
     1
 68
     0
279
    -2
289
     1
 69
     0
  7
Standard
140
4.5
170
     5
 62
     0
 63
     7
283
     0
 90
      512
 91
        0
  1

274
    -2
284
     1
 64
     0
275
    -2
285
     1
 65
     0
276
    -2
286
     1
 66
     0
277
    -2
287
     1
 67
     0
278
    -2
288
     1
 68
     0
279
    -2
289
     1
 69
     0
  0
TABLESTYLE
  5
DE2A
102
{ACAD_XDICTIONARY
360
12A057
102
}
102
{ACAD_REACTORS
330
DE29
102
}
330
DE29
100
AcDbTableStyle
280
     0
  3
Standard
 70
     0
 71
     0
 40
1.5
 41
1.5
280
     0
281
     0
  7
Standard
140
4.5
170
     2
 62
     0
 63
     7
283
     0
 90
      512
 91
        0
  1

274
    -2
284
     1
 64
     0
275
    -2
285
     1
 65
     0
276
    -2
286
     1
 66
     0
277
    -2
287
     1
 67
     0
278
    -2
288
     1
 68
     0
279
    -2
289
     1
 69
     0
  7
Standard
140
6.0
170
     5
 62
     0
 63
     7
283
     0
 90
      512
 91
        0
  1

274
    -2
284
     1
 64
     0
275
    -2
285
     1
 65
     0
276
    -2
286
     1
 66
     0
277
    -2
287
     1
 67
     0
278
    -2
288
     1
 68
     0
279
    -2
289
     1
 69
     0
  7
Standard
140
4.5
170
     5
 62
     0
 63
     7
283
     0
 90
      512
 91
        0
  1

274
    -2
284
     1
 64
     0
275
    -2
285
     1
 65
     0
276
    -2
286
     1
 66
     0
277
    -2
287
     1
 67
     0
278
    -2
288
     1
 68
     0
279
    -2
289
     1
 69
     0
  0
TABLESTYLE
  5
122497
102
{ACAD_XDICTIONARY
360
12A05B
102
}
102
{ACAD_REACTORS
330
DE29
102
}
330
DE29
100
AcDbTableStyle
280
     0
  3
Standard
 70
     0
 71
     0
 40
1.5
 41
1.5
280
     1
281
     1
  7
Standard
140
10.5
170
     5
 62
     0
 63
     7
283
     0
 90
      512
 91
        0
  1

274
    -2
284
     1
 64
     0
275
    -2
285
     1
 65
     0
276
    -2
286
     1
 66
     0
277
    -2
287
     1
 67
     0
278
    -2
288
     1
 68
     0
279
    -2
289
     1
 69
     0
  7
Standard
140
6.0
170
     5
 62
     0
 63
     7
283
     0
 90
      512
 91
        0
  1

274
    -2
284
     1
 64
     0
275
    -2
285
     1
 65
     0
276
    -2
286
     1
 66
     0
277
    -2
287
     1
 67
     0
278
    -2
288
     1
 68
     0
279
    -2
289
     1
 69
     0
  7
Standard
140
4.5
170
     5
 62
     0
 63
     7
283
     0
 90
      512
 91
        0
  1

274
    -2
284
     1
 64
     0
275
    -2
285
     1
 65
     0
276
    -2
286
     1
 66
     0
277
    -2
287
     1
 67
     0
278
    -2
288
     1
 68
     0
279
    -2
289
     1
 69
     0
  0
TABLESTYLE
  5
122498
102
{ACAD_XDICTIONARY
360
12A05D
102
}
102
{ACAD_REACTORS
330
DE29
102
}
330
DE29
100
AcDbTableStyle
280
     0
  3
Standard
 70
     0
 71
     0
 40
1.5
 41
1.5
280
     1
281
     1
  7
Standard
140
28.5
170
     5
 62
     0
 63
     7
283
     0
 90
        4
 91
        0
  1

274
    -2
284
     1
 64
     0
275
    -2
285
     1
 65
     0
276
    -2
286
     1
 66
     0
277
    -2
287
     1
 67
     0
278
    -2
288
     1
 68
     0
279
    -2
289
     1
 69
     0
  7
Standard
140
6.0
170
     5
 62
     0
 63
     7
283
     0
 90
      512
 91
        0
  1

274
    -2
284
     1
 64
     0
275
    -2
285
     1
 65
     0
276
    -2
286
     1
 66
     0
277
    -2
287
     1
 67
     0
278
    -2
288
     1
 68
     0
279
    -2
289
     1
 69
     0
  7
Standard
140
4.5
170
     5
 62
     0
 63
     7
283
     0
 90
      512
 91
        0
  1

274
    -2
284
     1
 64
     0
275
    -2
285
     1
 65
     0
276
    -2
286
     1
 66
     0
277
    -2
287
     1
 67
     0
278
    -2
288
     1
 68
     0
279
    -2
289
     1
 69
     0
  0
TABLESTYLE
  5
122499
102
{ACAD_XDICTIONARY
360
12A05F
102
}
102
{ACAD_REACTORS
330
DE29
102
}
330
DE29
100
AcDbTableStyle
280
     0
  3
Standard
 70
     0
 71
     0
 40
1.5
 41
1.5
280
     1
281
     1
  7
Standard
140
18.0
170
     5
 62
     0
 63
     7
283
     0
 90
        4
 91
        0
  1

274
    -2
284
     1
 64
     0
275
    -2
285
     1
 65
     0
276
    -2
286
     1
 66
     0
277
    -2
287
     1
 67
     0
278
    -2
288
     1
 68
     0
279
    -2
289
     1
 69
     0
  7
Standard
140
6.0
170
     5
 62
     0
 63
     7
283
     0
 90
      512
 91
        0
  1

274
    -2
284
     1
 64
     0
275
    -2
285
     1
 65
     0
276
    -2
286
     1
 66
     0
277
    -2
287
     1
 67
     0
278
    -2
288
     1
 68
     0
279
    -2
289
     1
 69
     0
  7
Standard
140
4.5
170
     5
 62
     0
 63
     7
283
     0
 90
      512
 91
        0
  1

274
    -2
284
     1
 64
     0
275
    -2
285
     1
 65
     0
276
    -2
286
     1
 66
     0
277
    -2
287
     1
 67
     0
278
    -2
288
     1
 68
     0
279
    -2
289
     1
 69
     0
  0
VISUALSTYLE
  5
DE1E
102
{ACAD_REACTORS
330
DE18
102
}
330
DE18
100
AcDbVisualStyle
  2
2dWireframe
 70
     4
177
     3
291
     0
 70
    58
 90
        0
176
     1
 90
        2
176
     1
 90
        0
176
     1
 90
        0
176
     1
 40
0.6
176
     1
 40
30.0
176
     1
 62
     7
176
     1
 90
        1
176
     1
 90
        4
176
     1
 62
     7
176
     1
 62
   257
176
     1
 90
        1
176
     1
 90
        1
176
     1
 40
1.0
176
     1
 90
        0
176
     1
 62
   257
176
     1
 40
1.0
176
     1
 90
        1
176
     1
 90
        6
176
     1
 90
        2
176
     1
 62
     7
176
     1
 90
        5
176
     1
 90
        0
176
     1
 90
        0
176
     1
290
     0
176
     1
 90
        1
176
     1
 40
0.0
176
     1
 90
        0
176
     1
290
     1
176
     1
290
     1
176
     1
290
     0
176
     1
290
     0
176
     1
290
     0
176
     1
290
     0
176
     1
290
     0
176
     1
290
     0
176
     1
290
     0
176
     1
 90
       50
176
     1
 40
0.0
176
     1
 40
1.0
176
     1
 90
        0
176
     1
 62
    18
420
        0
176
     1
 90
       50
176
     1
 90
        3
176
     1
 62
     5
420
      255
176
     1
290
     0
176
     1
 90
       50
176
     1
 90
       50
176
     1
 90
       50
176
     1
290
     0
176
     1
 90
       50
176
     1
 62
   256
176
     0
 40
1.0
176
     0
 90
        2
176
     1
  1
strokes_ogs.tif
176
     1
290
     0
176
     1
 40
1.0
176
     1
 40
1.0
176
     1
  0
VISUALSTYLE
  5
DE20
102
{ACAD_REACTORS
330
DE18
102
}
330
DE18
100
AcDbVisualStyle
  2
3D Hidden
 70
     6
177
     3
291
     0
 70
    58
 90
        1
176
     1
 90
        2
176
     1
 90
        2
176
     1
 90
        0
176
     1
 40
0.6
176
     1
 40
30.0
176
     1
 62
     7
176
     1
 90
        2
176
     1
 90
        2
176
     1
 62
     7
176
     1
 62
   257
176
     1
 90
        2
176
     1
 90
        1
176
     1
 40
40.0
176
     1
 90
        0
176
     1
 62
   257
176
     1
 40
1.0
176
     1
 90
        1
176
     1
 90
        6
176
     1
 90
        2
176
     1
 62
     7
176
     1
 90
        3
176
     1
 90
        0
176
     1
 90
        0
176
     1
290
     0
176
     1
 90
        1
176
     1
 40
0.0
176
     1
 90
        0
176
     1
290
     0
176
     1
290
     1
176
     1
290
     1
176
     1
290
     0
176
     1
290
     0
176
     1
290
     0
176
     1
290
     0
176
     1
290
     0
176
     1
290
     0
176
     1
 90
       50
176
     1
 40
0.0
176
     1
 40
1.0
176
     1
 90
        0
176
     1
 62
    18
420
        0
176
     1
 90
       50
176
     1
 90
        3
176
     1
 62
     5
420
      255
176
     1
290
     0
176
     1
 90
       50
176
     1
 90
       50
176
     1
 90
       50
176
     1
290
     0
176
     1
 90
       50
176
     1
 62
   256
176
     0
 40
1.0
176
     0
 90
        2
176
     1
  1
strokes_ogs.tif
176
     1
290
     0
176
     1
 40
1.0
176
     1
 40
1.0
176
     1
  0
VISUALSTYLE
  5
DE1F
102
{ACAD_REACTORS
330
DE18
102
}
330
DE18
100
AcDbVisualStyle
  2
3dWireframe
 70
     5
177
     3
291
     0
 70
    58
 90
        0
176
     1
 90
        2
176
     1
 90
        0
176
     1
 90
        0
176
     1
 40
0.6
176
     1
 40
30.0
176
     1
 62
     7
176
     1
 90
        1
176
     1
 90
        4
176
     1
 62
     7
176
     1
 62
   257
176
     1
 90
        1
176
     1
 90
        1
176
     1
 40
1.0
176
     1
 90
        0
176
     1
 62
   257
176
     1
 40
1.0
176
     1
 90
        1
176
     1
 90
        6
176
     1
 90
        2
176
     1
 62
     7
176
     1
 90
        5
176
     1
 90
        0
176
     1
 90
        0
176
     1
290
     0
176
     1
 90
        1
176
     1
 40
0.0
176
     1
 90
        0
176
     1
290
     0
176
     1
290
     1
176
     1
290
     1
176
     1
290
     0
176
     1
290
     0
176
     1
290
     0
176
     1
290
     0
176
     1
290
     0
176
     1
290
     0
176
     1
 90
       50
176
     1
 40
0.0
176
     1
 40
1.0
176
     1
 90
        0
176
     1
 62
    18
420
        0
176
     1
 90
       50
176
     1
 90
        3
176
     1
 62
     5
420
      255
176
     1
290
     0
176
     1
 90
       50
176
     1
 90
       50
176
     1
 90
       50
176
     1
290
     0
176
     1
 90
       50
176
     1
 62
   256
176
     0
 40
1.0
176
     0
 90
        2
176
     1
  1
strokes_ogs.tif
176
     1
290
     0
176
     1
 40
1.0
176
     1
 40
1.0
176
     1
  0
VISUALSTYLE
  5
DE1D
102
{ACAD_REACTORS
330
DE18
102
}
330
DE18
100
AcDbVisualStyle
  2
Basic
 70
     7
177
     3
291
     1
 70
    58
 90
        1
176
     1
 90
        0
176
     1
 90
        1
176
     1
 90
        0
176
     1
 40
0.6
176
     1
 40
30.0
176
     1
 62
     7
176
     1
 90
        0
176
     1
 90
        4
176
     1
 62
     7
176
     1
 62
   257
176
     1
 90
        1
176
     1
 90
        1
176
     1
 40
1.0
176
     1
 90
        8
176
     1
 62
     7
176
     1
 40
1.0
176
     1
 90
        1
176
     1
 90
        6
176
     1
 90
        2
176
     1
 62
     7
176
     1
 90
        5
176
     1
 90
        0
176
     1
 90
        0
176
     1
290
     0
176
     1
 90
        1
176
     1
 40
0.0
176
     1
 90
        0
176
     1
290
     0
176
     1
290
     1
176
     1
290
     1
176
     1
290
     0
176
     1
290
     0
176
     1
290
     0
176
     1
290
     0
176
     1
290
     0
176
     1
290
     0
176
     1
 90
       50
176
     1
 40
0.0
176
     1
 40
1.0
176
     1
 90
        0
176
     1
 62
    18
420
        0
176
     1
 90
       50
176
     1
 90
        3
176
     1
 62
     5
420
      255
176
     1
290
     0
176
     1
 90
       50
176
     1
 90
       50
176
     1
 90
       50
176
     1
290
     0
176
     1
 90
       50
176
     1
 62
   256
176
     0
 40
1.0
176
     0
 90
        2
176
     1
  1
strokes_ogs.tif
176
     1
290
     0
176
     1
 40
1.0
176
     1
 40
1.0
176
     1
  0
VISUALSTYLE
  5
DE24
102
{ACAD_REACTORS
330
DE18
102
}
330
DE18
100
AcDbVisualStyle
  2
Brighten
 70
    12
177
     3
291
     1
 70
    58
 90
        2
176
     1
 90
        2
176
     1
 90
        0
176
     1
 90
        0
176
     1
 40
0.6
176
     1
 40
30.0
176
     1
 62
     7
176
     1
 90
        1
176
     1
 90
        4
176
     1
 62
     7
176
     1
 62
   257
176
     1
 90
        1
176
     1
 90
        1
176
     1
 40
1.0
176
     1
 90
        8
176
     1
 62
     7
176
     1
 40
1.0
176
     1
 90
        1
176
     1
 90
        6
176
     1
 90
        2
176
     1
 62
     7
176
     1
 90
        5
176
     1
 90
        0
176
     1
 90
        0
176
     1
290
     0
176
     1
 90
        1
176
     1
 40
50.0
176
     1
 90
        0
176
     1
290
     0
176
     1
290
     1
176
     1
290
     1
176
     1
290
     0
176
     1
290
     0
176
     1
290
     0
176
     1
290
     0
176
     1
290
     0
176
     1
290
     0
176
     1
 90
       50
176
     1
 40
0.0
176
     1
 40
1.0
176
     1
 90
        0
176
     1
 62
    18
420
        0
176
     1
 90
       50
176
     1
 90
        3
176
     1
 62
     5
420
      255
176
     1
290
     0
176
     1
 90
       50
176
     1
 90
       50
176
     1
 90
       50
176
     1
290
     0
176
     1
 90
       50
176
     1
 62
   256
176
     0
 40
1.0
176
     0
 90
        2
176
     1
  1
strokes_ogs.tif
176
     1
290
     0
176
     1
 40
1.0
176
     1
 40
1.0
176
     1
  0
VISUALSTYLE
  5
DE28
102
{ACAD_REACTORS
330
DE18
102
}
330
DE18
100
AcDbVisualStyle
  2
ColorChange
 70
    16
177
     3
291
     1
 70
    58
 90
        2
176
     1
 90
        2
176
     1
 90
        3
176
     1
 90
        0
176
     1
 40
0.6
176
     1
 40
30.0
176
     1
 62
     8
176
     1
 90
        1
176
     1
 90
        4
176
     1
 62
     7
176
     1
 62
   257
176
     1
 90
        1
176
     1
 90
        1
176
     1
 40
1.0
176
     1
 90
        8
176
     1
 62
     8
176
     1
 40
1.0
176
     1
 90
        1
176
     1
 90
        6
176
     1
 90
        2
176
     1
 62
     7
176
     1
 90
        5
176
     1
 90
        0
176
     1
 90
        0
176
     1
290
     0
176
     1
 90
        1
176
     1
 40
0.0
176
     1
 90
        0
176
     1
290
     0
176
     1
290
     1
176
     1
290
     1
176
     1
290
     0
176
     1
290
     0
176
     1
290
     0
176
     1
290
     0
176
     1
290
     0
176
     1
290
     0
176
     1
 90
       50
176
     1
 40
0.0
176
     1
 40
1.0
176
     1
 90
        0
176
     1
 62
    18
420
        0
176
     1
 90
       50
176
     1
 90
        3
176
     1
 62
     5
420
      255
176
     1
290
     0
176
     1
 90
       50
176
     1
 90
       50
176
     1
 90
       50
176
     1
290
     0
176
     1
 90
       50
176
     1
 62
   256
176
     0
 40
1.0
176
     0
 90
        2
176
     1
  1
strokes_ogs.tif
176
     1
290
     0
176
     1
 40
1.0
176
     1
 40
1.0
176
     1
  0
VISUALSTYLE
  5
DE21
102
{ACAD_REACTORS
330
DE18
102
}
330
DE18
100
AcDbVisualStyle
  2
Conceptual
 70
     9
177
     3
291
     0
 70
    58
 90
        3
176
     1
 90
        2
176
     1
 90
        0
176
     1
 90
        0
176
     1
 40
0.6
176
     1
 40
30.0
176
     1
 62
     7
176
     1
 90
        2
176
     1
 90
        2
176
     1
 62
     7
176
     1
 62
   257
176
     1
 90
        1
176
     1
 90
        1
176
     1
 40
40.0
176
     1
 90
        8
176
     1
 62
     7
176
     1
 40
1.0
176
     1
 90
        1
176
     1
 90
        6
176
     1
 90
        2
176
     1
 62
     7
176
     1
 90
        3
176
     1
 90
        0
176
     1
 90
        0
176
     1
290
     0
176
     1
 90
        1
176
     1
 40
0.0
176
     1
 90
        0
176
     1
290
     0
176
     1
290
     1
176
     1
290
     1
176
     1
290
     0
176
     1
290
     0
176
     1
290
     0
176
     1
290
     0
176
     1
290
     0
176
     1
290
     0
176
     1
 90
       50
176
     1
 40
0.0
176
     1
 40
1.0
176
     1
 90
        0
176
     1
 62
    18
420
        0
176
     1
 90
       50
176
     1
 90
        3
176
     1
 62
     5
420
      255
176
     1
290
     0
176
     1
 90
       50
176
     1
 90
       50
176
     1
 90
       50
176
     1
290
     0
176
     1
 90
       50
176
     1
 62
   256
176
     0
 40
1.0
176
     0
 90
        2
176
     1
  1
strokes_ogs.tif
176
     1
290
     0
176
     1
 40
1.0
176
     1
 40
1.0
176
     1
  0
VISUALSTYLE
  5
DE23
102
{ACAD_REACTORS
330
DE18
102
}
330
DE18
100
AcDbVisualStyle
  2
Dim
 70
    11
177
     3
291
     1
 70
    58
 90
        2
176
     1
 90
        2
176
     1
 90
        0
176
     1
 90
        0
176
     1
 40
0.6
176
     1
 40
30.0
176
     1
 62
     7
176
     1
 90
        1
176
     1
 90
        4
176
     1
 62
     7
176
     1
 62
   257
176
     1
 90
        1
176
     1
 90
        1
176
     1
 40
1.0
176
     1
 90
        8
176
     1
 62
     7
176
     1
 40
1.0
176
     1
 90
        1
176
     1
 90
        6
176
     1
 90
        2
176
     1
 62
     7
176
     1
 90
        5
176
     1
 90
        0
176
     1
 90
        0
176
     1
290
     0
176
     1
 90
        1
176
     1
 40
-50.0
176
     1
 90
        0
176
     1
290
     0
176
     1
290
     1
176
     1
290
     1
176
     1
290
     0
176
     1
290
     0
176
     1
290
     0
176
     1
290
     0
176
     1
290
     0
176
     1
290
     0
176
     1
 90
       50
176
     1
 40
0.0
176
     1
 40
1.0
176
     1
 90
        0
176
     1
 62
    18
420
        0
176
     1
 90
       50
176
     1
 90
        3
176
     1
 62
     5
420
      255
176
     1
290
     0
176
     1
 90
       50
176
     1
 90
       50
176
     1
 90
       50
176
     1
290
     0
176
     1
 90
       50
176
     1
 62
   256
176
     0
 40
1.0
176
     0
 90
        2
176
     1
  1
strokes_ogs.tif
176
     1
290
     0
176
     1
 40
1.0
176
     1
 40
1.0
176
     1
  0
VISUALSTYLE
  5
1565E8
102
{ACAD_REACTORS
330
DE18
102
}
330
DE18
100
AcDbVisualStyle
  2
EdgeColorOff
 70
    22
177
     3
291
     1
 70
    58
 90
        2
176
     0
 90
        2
176
     0
 90
        0
176
     0
 90
        0
176
     0
 40
0.6
176
     0
 40
30.0
176
     0
 62
     7
420
 16777215
176
     0
 90
        1
176
     0
 90
        4
176
     0
 62
     7
176
     0
 62
   257
176
     0
 90
        1
176
     0
 90
        1
176
     0
 40
1.0
176
     0
 90
        8
176
     2
 62
     7
176
     0
 40
1.0
176
     0
 90
        1
176
     0
 90
        6
176
     0
 90
        2
176
     0
 62
     7
176
     0
 90
        5
176
     0
 90
        0
176
     0
 90
        0
176
     0
290
     0
176
     0
 90
        1
176
     0
 40
0.0
176
     0
 90
        0
176
     0
290
     0
176
     0
290
     1
176
     0
290
     1
176
     0
290
     0
176
     0
290
     0
176
     0
290
     0
176
     0
290
     0
176
     0
290
     0
176
     0
290
     0
176
     0
 90
       50
176
     0
 40
0.0
176
     0
 40
1.0
176
     0
 90
        0
176
     0
 62
    18
420
        0
176
     0
 90
       50
176
     0
 90
        3
176
     0
 62
     5
420
      255
176
     0
290
     0
176
     0
 90
       50
176
     0
 90
       50
176
     0
 90
       50
176
     0
290
     0
176
     0
 90
       50
176
     0
 62
   256
176
     0
 40
1.0
176
     0
 90
        2
176
     0
  1
strokes_ogs.tif
176
     0
290
     0
176
     0
 40
1.0
176
     0
 40
1.0
176
     0
  0
VISUALSTYLE
  5
DE27
102
{ACAD_REACTORS
330
DE18
102
}
330
DE18
100
AcDbVisualStyle
  2
Facepattern
 70
    15
177
     3
291
     1
 70
    58
 90
        2
176
     1
 90
        2
176
     1
 90
        0
176
     1
 90
        0
176
     1
 40
0.6
176
     1
 40
30.0
176
     1
 62
     7
176
     1
 90
        1
176
     1
 90
        4
176
     1
 62
     7
176
     1
 62
   257
176
     1
 90
        1
176
     1
 90
        1
176
     1
 40
1.0
176
     1
 90
        8
176
     1
 62
     7
176
     1
 40
1.0
176
     1
 90
        1
176
     1
 90
        6
176
     1
 90
        2
176
     1
 62
     7
176
     1
 90
        5
176
     1
 90
        0
176
     1
 90
        0
176
     1
290
     0
176
     1
 90
        1
176
     1
 40
0.0
176
     1
 90
        0
176
     1
290
     0
176
     1
290
     1
176
     1
290
     1
176
     1
290
     0
176
     1
290
     0
176
     1
290
     0
176
     1
290
     0
176
     1
290
     0
176
     1
290
     0
176
     1
 90
       50
176
     1
 40
0.0
176
     1
 40
1.0
176
     1
 90
        0
176
     1
 62
    18
420
        0
176
     1
 90
       50
176
     1
 90
        3
176
     1
 62
     5
420
      255
176
     1
290
     0
176
     1
 90
       50
176
     1
 90
       50
176
     1
 90
       50
176
     1
290
     0
176
     1
 90
       50
176
     1
 62
   256
176
     0
 40
1.0
176
     0
 90
        2
176
     1
  1
strokes_ogs.tif
176
     1
290
     0
176
     1
 40
1.0
176
     1
 40
1.0
176
     1
  0
VISUALSTYLE
  5
DE19
102
{ACAD_REACTORS
330
DE18
102
}
330
DE18
100
AcDbVisualStyle
  2
Flat
 70
     0
177
     3
291
     1
 70
    58
 90
        2
176
     1
 90
        1
176
     1
 90
        1
176
     1
 90
        2
176
     1
 40
0.6
176
     1
 40
30.0
176
     1
 62
     7
176
     1
 90
        0
176
     1
 90
        4
176
     1
 62
     7
176
     1
 62
   257
176
     1
 90
        1
176
     1
 90
        1
176
     1
 40
1.0
176
     1
 90
        8
176
     1
 62
     7
176
     1
 40
1.0
176
     1
 90
        1
176
     1
 90
        6
176
     1
 90
        2
176
     1
 62
     7
176
     1
 90
        5
176
     1
 90
        0
176
     1
 90
        0
176
     1
290
     0
176
     1
 90
       13
176
     1
 40
0.0
176
     1
 90
        0
176
     1
290
     0
176
     1
290
     1
176
     1
290
     1
176
     1
290
     0
176
     1
290
     0
176
     1
290
     0
176
     1
290
     0
176
     1
290
     0
176
     1
290
     0
176
     1
 90
       50
176
     1
 40
0.0
176
     1
 40
1.0
176
     1
 90
        0
176
     1
 62
    18
420
        0
176
     1
 90
       50
176
     1
 90
        3
176
     1
 62
     5
420
      255
176
     1
290
     0
176
     1
 90
       50
176
     1
 90
       50
176
     1
 90
       50
176
     1
290
     0
176
     1
 90
       50
176
     1
 62
   256
176
     0
 40
1.0
176
     0
 90
        2
176
     1
  1
strokes_ogs.tif
176
     1
290
     0
176
     1
 40
1.0
176
     1
 40
1.0
176
     1
  0
VISUALSTYLE
  5
DE1A
102
{ACAD_REACTORS
330
DE18
102
}
330
DE18
100
AcDbVisualStyle
  2
FlatWithEdges
 70
     1
177
     3
291
     1
 70
    58
 90
        2
176
     1
 90
        1
176
     1
 90
        1
176
     1
 90
        2
176
     1
 40
0.6
176
     1
 40
30.0
176
     1
 62
     7
176
     1
 90
        1
176
     1
 90
        4
176
     1
 62
     7
176
     1
 62
   257
176
     1
 90
        1
176
     1
 90
        1
176
     1
 40
1.0
176
     1
 90
        0
176
     1
 62
   257
176
     1
 40
1.0
176
     1
 90
        1
176
     1
 90
        6
176
     1
 90
        2
176
     1
 62
     7
176
     1
 90
        5
176
     1
 90
        0
176
     1
 90
        0
176
     1
290
     0
176
     1
 90
       13
176
     1
 40
0.0
176
     1
 90
        0
176
     1
290
     0
176
     1
290
     1
176
     1
290
     1
176
     1
290
     0
176
     1
290
     0
176
     1
290
     0
176
     1
290
     0
176
     1
290
     0
176
     1
290
     0
176
     1
 90
       50
176
     1
 40
0.0
176
     1
 40
1.0
176
     1
 90
        0
176
     1
 62
    18
420
        0
176
     1
 90
       50
176
     1
 90
        3
176
     1
 62
     5
420
      255
176
     1
290
     0
176
     1
 90
       50
176
     1
 90
       50
176
     1
 90
       50
176
     1
290
     0
176
     1
 90
       50
176
     1
 62
   256
176
     0
 40
1.0
176
     0
 90
        2
176
     1
  1
strokes_ogs.tif
176
     1
290
     0
176
     1
 40
1.0
176
     1
 40
1.0
176
     1
  0
VISUALSTYLE
  5
DE1B
102
{ACAD_REACTORS
330
DE18
102
}
330
DE18
100
AcDbVisualStyle
  2
Gouraud
 70
     2
177
     3
291
     1
 70
    58
 90
        2
176
     1
 90
        2
176
     1
 90
        1
176
     1
 90
        2
176
     1
 40
0.6
176
     1
 40
30.0
176
     1
 62
     7
176
     1
 90
        0
176
     1
 90
        4
176
     1
 62
     7
176
     1
 62
   257
176
     1
 90
        1
176
     1
 90
        1
176
     1
 40
1.0
176
     1
 90
        0
176
     1
 62
     7
176
     1
 40
1.0
176
     1
 90
        1
176
     1
 90
        6
176
     1
 90
        2
176
     1
 62
     7
176
     1
 90
        5
176
     1
 90
        0
176
     1
 90
        0
176
     1
290
     0
176
     1
 90
       13
176
     1
 40
0.0
176
     1
 90
        0
176
     1
290
     0
176
     1
290
     1
176
     1
290
     1
176
     1
290
     0
176
     1
290
     0
176
     1
290
     0
176
     1
290
     0
176
     1
290
     0
176
     1
290
     0
176
     1
 90
       50
176
     1
 40
0.0
176
     1
 40
1.0
176
     1
 90
        0
176
     1
 62
    18
420
        0
176
     1
 90
       50
176
     1
 90
        3
176
     1
 62
     5
420
      255
176
     1
290
     0
176
     1
 90
       50
176
     1
 90
       50
176
     1
 90
       50
176
     1
290
     0
176
     1
 90
       50
176
     1
 62
   256
176
     0
 40
1.0
176
     0
 90
        2
176
     1
  1
strokes_ogs.tif
176
     1
290
     0
176
     1
 40
1.0
176
     1
 40
1.0
176
     1
  0
VISUALSTYLE
  5
DE1C
102
{ACAD_REACTORS
330
DE18
102
}
330
DE18
100
AcDbVisualStyle
  2
GouraudWithEdges
 70
     3
177
     3
291
     1
 70
    58
 90
        2
176
     1
 90
        2
176
     1
 90
        1
176
     1
 90
        2
176
     1
 40
0.6
176
     1
 40
30.0
176
     1
 62
     7
176
     1
 90
        1
176
     1
 90
        4
176
     1
 62
     7
176
     1
 62
   257
176
     1
 90
        1
176
     1
 90
        1
176
     1
 40
1.0
176
     1
 90
        0
176
     1
 62
   257
176
     1
 40
1.0
176
     1
 90
        1
176
     1
 90
        6
176
     1
 90
        2
176
     1
 62
     7
176
     1
 90
        5
176
     1
 90
        0
176
     1
 90
        0
176
     1
290
     0
176
     1
 90
       13
176
     1
 40
0.0
176
     1
 90
        0
176
     1
290
     0
176
     1
290
     1
176
     1
290
     1
176
     1
290
     0
176
     1
290
     0
176
     1
290
     0
176
     1
290
     0
176
     1
290
     0
176
     1
290
     0
176
     1
 90
       50
176
     1
 40
0.0
176
     1
 40
1.0
176
     1
 90
        0
176
     1
 62
    18
420
        0
176
     1
 90
       50
176
     1
 90
        3
176
     1
 62
     5
420
      255
176
     1
290
     0
176
     1
 90
       50
176
     1
 90
       50
176
     1
 90
       50
176
     1
290
     0
176
     1
 90
       50
176
     1
 62
   256
176
     0
 40
1.0
176
     0
 90
        2
176
     1
  1
strokes_ogs.tif
176
     1
290
     0
176
     1
 40
1.0
176
     1
 40
1.0
176
     1
  0
VISUALSTYLE
  5
1565E0
102
{ACAD_REACTORS
330
DE18
102
}
330
DE18
100
AcDbVisualStyle
  2
Hidden
 70
     6
177
     3
291
     0
 70
    58
 90
        1
176
     1
 90
        2
176
     1
 90
        2
176
     1
 90
        0
176
     1
 40
0.6
176
     1
 40
30.0
176
     1
 62
     7
420
 16777215
176
     1
 90
        2
176
     1
 90
        2
176
     1
 62
     7
176
     1
 62
   257
176
     1
 90
        2
176
     1
 90
        1
176
     1
 40
40.0
176
     1
 90
        0
176
     1
 62
   257
176
     1
 40
1.0
176
     1
 90
        1
176
     1
 90
        6
176
     1
 90
        2
176
     1
 62
     7
176
     1
 90
        3
176
     1
 90
        0
176
     1
 90
        0
176
     1
290
     0
176
     1
 90
        1
176
     1
 40
0.0
176
     1
 90
        0
176
     1
290
     0
176
     1
290
     1
176
     1
290
     1
176
     1
290
     0
176
     1
290
     0
176
     1
290
     0
176
     1
290
     0
176
     1
290
     0
176
     1
290
     0
176
     1
 90
       50
176
     1
 40
0.0
176
     1
 40
1.0
176
     1
 90
        0
176
     1
 62
    18
420
        0
176
     1
 90
       50
176
     1
 90
        3
176
     1
 62
     5
420
      255
176
     1
290
     0
176
     1
 90
       50
176
     1
 90
       50
176
     1
 90
       50
176
     1
290
     0
176
     1
 90
       50
176
     1
 62
   256
176
     0
 40
1.0
176
     0
 90
        2
176
     1
  1
strokes_ogs.tif
176
     1
290
     0
176
     1
 40
1.0
176
     1
 40
1.0
176
     1
  0
VISUALSTYLE
  5
1565E6
102
{ACAD_REACTORS
330
DE18
102
}
330
DE18
100
AcDbVisualStyle
  2
JitterOff
 70
    20
177
     3
291
     1
 70
    58
 90
        2
176
     0
 90
        2
176
     0
 90
        0
176
     0
 90
        0
176
     0
 40
0.6
176
     0
 40
30.0
176
     0
 62
     7
420
 16777215
176
     0
 90
        1
176
     0
 90
        4
176
     0
 62
     7
176
     0
 62
   257
176
     0
 90
        1
176
     0
 90
        1
176
     0
 40
1.0
176
     0
 90
       10
176
     2
 62
     7
176
     0
 40
1.0
176
     0
 90
        1
176
     0
 90
        6
176
     0
 90
        2
176
     0
 62
     7
176
     0
 90
        5
176
     0
 90
        0
176
     0
 90
        0
176
     0
290
     0
176
     0
 90
        1
176
     0
 40
0.0
176
     0
 90
        0
176
     0
290
     0
176
     0
290
     1
176
     0
290
     1
176
     0
290
     0
176
     0
290
     0
176
     0
290
     0
176
     0
290
     0
176
     0
290
     0
176
     0
290
     0
176
     0
 90
       50
176
     0
 40
0.0
176
     0
 40
1.0
176
     0
 90
        0
176
     0
 62
    18
420
        0
176
     0
 90
       50
176
     0
 90
        3
176
     0
 62
     5
420
      255
176
     0
290
     0
176
     0
 90
       50
176
     0
 90
       50
176
     0
 90
       50
176
     0
290
     0
176
     0
 90
       50
176
     0
 62
   256
176
     0
 40
1.0
176
     0
 90
        2
176
     0
  1
strokes_ogs.tif
176
     0
290
     0
176
     0
 40
1.0
176
     0
 40
1.0
176
     0
  0
VISUALSTYLE
  5
DE26
102
{ACAD_REACTORS
330
DE18
102
}
330
DE18
100
AcDbVisualStyle
  2
Linepattern
 70
    14
177
     3
291
     1
 70
    58
 90
        2
176
     1
 90
        2
176
     1
 90
        0
176
     1
 90
        0
176
     1
 40
0.6
176
     1
 40
30.0
176
     1
 62
     7
176
     1
 90
        1
176
     1
 90
        4
176
     1
 62
     7
176
     1
 62
   257
176
     1
 90
        7
176
     1
 90
        7
176
     1
 40
1.0
176
     1
 90
        8
176
     1
 62
     7
176
     1
 40
1.0
176
     1
 90
        1
176
     1
 90
        6
176
     1
 90
        2
176
     1
 62
     7
176
     1
 90
        5
176
     1
 90
        0
176
     1
 90
        0
176
     1
290
     0
176
     1
 90
        1
176
     1
 40
0.0
176
     1
 90
        0
176
     1
290
     0
176
     1
290
     1
176
     1
290
     1
176
     1
290
     0
176
     1
290
     0
176
     1
290
     0
176
     1
290
     0
176
     1
290
     0
176
     1
290
     0
176
     1
 90
       50
176
     1
 40
0.0
176
     1
 40
1.0
176
     1
 90
        0
176
     1
 62
    18
420
        0
176
     1
 90
       50
176
     1
 90
        3
176
     1
 62
     5
420
      255
176
     1
290
     0
176
     1
 90
       50
176
     1
 90
       50
176
     1
 90
       50
176
     1
290
     0
176
     1
 90
       50
176
     1
 62
   256
176
     0
 40
1.0
176
     0
 90
        2
176
     1
  1
strokes_ogs.tif
176
     1
290
     0
176
     1
 40
1.0
176
     1
 40
1.0
176
     1
  0
VISUALSTYLE
  5
1565E7
102
{ACAD_REACTORS
330
DE18
102
}
330
DE18
100
AcDbVisualStyle
  2
OverhangOff
 70
    21
177
     3
291
     1
 70
    58
 90
        2
176
     0
 90
        2
176
     0
 90
        0
176
     0
 90
        0
176
     0
 40
0.6
176
     0
 40
30.0
176
     0
 62
     7
420
 16777215
176
     0
 90
        1
176
     0
 90
        4
176
     0
 62
     7
176
     0
 62
   257
176
     0
 90
        1
176
     0
 90
        1
176
     0
 40
1.0
176
     0
 90
        9
176
     2
 62
     7
176
     0
 40
1.0
176
     0
 90
        1
176
     0
 90
        6
176
     0
 90
        2
176
     0
 62
     7
176
     0
 90
        5
176
     0
 90
        0
176
     0
 90
        0
176
     0
290
     0
176
     0
 90
        1
176
     0
 40
0.0
176
     0
 90
        0
176
     0
290
     0
176
     0
290
     1
176
     0
290
     1
176
     0
290
     0
176
     0
290
     0
176
     0
290
     0
176
     0
290
     0
176
     0
290
     0
176
     0
290
     0
176
     0
 90
       50
176
     0
 40
0.0
176
     0
 40
1.0
176
     0
 90
        0
176
     0
 62
    18
420
        0
176
     0
 90
       50
176
     0
 90
        3
176
     0
 62
     5
420
      255
176
     0
290
     0
176
     0
 90
       50
176
     0
 90
       50
176
     0
 90
       50
176
     0
290
     0
176
     0
 90
       50
176
     0
 62
   256
176
     0
 40
1.0
176
     0
 90
        2
176
     0
  1
strokes_ogs.tif
176
     0
290
     0
176
     0
 40
1.0
176
     0
 40
1.0
176
     0
  0
VISUALSTYLE
  5
DE22
102
{ACAD_REACTORS
330
DE18
102
}
330
DE18
100
AcDbVisualStyle
  2
Realistic
 70
     8
177
     3
291
     0
 70
    58
 90
        2
176
     1
 90
        2
176
     1
 90
        0
176
     1
 90
        0
176
     1
 40
0.6
176
     1
 40
30.0
176
     1
 62
     7
176
     1
 90
        1
176
     1
 90
        0
176
     1
 62
     7
176
     1
 62
   257
176
     1
 90
        1
176
     1
 90
        1
176
     1
 40
1.0
176
     1
 90
        8
176
     1
 62
     8
176
     1
 40
1.0
176
     1
 90
        1
176
     1
 90
        6
176
     1
 90
        2
176
     1
 62
     7
176
     1
 90
        5
176
     1
 90
        0
176
     1
 90
        0
176
     1
290
     0
176
     1
 90
       13
176
     1
 40
0.0
176
     1
 90
        0
176
     1
290
     0
176
     1
290
     1
176
     1
290
     1
176
     1
290
     0
176
     1
290
     0
176
     1
290
     0
176
     1
290
     0
176
     1
290
     0
176
     1
290
     0
176
     1
 90
       50
176
     1
 40
0.0
176
     1
 40
1.0
176
     1
 90
        0
176
     1
 62
    18
420
        0
176
     1
 90
       50
176
     1
 90
        3
176
     1
 62
     5
420
      255
176
     1
290
     0
176
     1
 90
       50
176
     1
 90
       50
176
     1
 90
       50
176
     1
290
     0
176
     1
 90
       50
176
     1
 62
   256
176
     0
 40
1.0
176
     0
 90
        2
176
     1
  1
strokes_ogs.tif
176
     1
290
     0
176
     1
 40
1.0
176
     1
 40
1.0
176
     1
  0
VISUALSTYLE
  5
1565E5
102
{ACAD_REACTORS
330
DE18
102
}
330
DE18
100
AcDbVisualStyle
  2
Shaded
 70
    27
177
     3
291
     0
 70
    58
 90
        2
176
     1
 90
        2
176
     1
 90
        1
176
     1
 90
        2
176
     1
 40
0.6
176
     1
 40
30.0
176
     1
 62
     7
420
 16777215
176
     1
 90
        0
176
     1
 90
        4
176
     1
 62
     7
176
     1
 62
   257
176
     1
 90
        1
176
     1
 90
        1
176
     1
 40
1.0
176
     1
 90
        8
176
     1
 62
   257
176
     1
 40
1.0
176
     1
 90
        1
176
     1
 90
        6
176
     1
 90
        2
176
     1
 62
     8
420
  7895160
176
     1
 90
        3
176
     1
 90
        0
176
     1
 90
        0
176
     1
290
     0
176
     1
 90
        5
176
     1
 40
0.0
176
     1
 90
        0
176
     1
290
     0
176
     1
290
     1
176
     1
290
     1
176
     1
290
     0
176
     1
290
     0
176
     1
290
     0
176
     1
290
     0
176
     1
290
     0
176
     1
290
     0
176
     1
 90
       50
176
     1
 40
0.0
176
     1
 40
1.0
176
     1
 90
        0
176
     1
 62
    18
420
        0
176
     1
 90
       50
176
     1
 90
        3
176
     1
 62
     5
420
      255
176
     1
290
     0
176
     1
 90
       50
176
     1
 90
       50
176
     1
 90
       50
176
     1
290
     0
176
     1
 90
       50
176
     1
 62
   256
176
     0
 40
1.0
176
     0
 90
        2
176
     1
  1
strokes_ogs.tif
176
     1
290
     0
176
     1
 40
1.0
176
     1
 40
1.0
176
     1
  0
VISUALSTYLE
  5
1565E4
102
{ACAD_REACTORS
330
DE18
102
}
330
DE18
100
AcDbVisualStyle
  2
Shaded with edges
 70
    26
177
     3
291
     0
 70
    58
 90
        2
176
     1
 90
        2
176
     1
 90
        1
176
     1
 90
        2
176
     1
 40
0.6
176
     1
 40
30.0
176
     1
 62
     7
420
 16777215
176
     1
 90
        1
176
     1
 90
        2
176
     1
 62
     7
176
     1
 62
   257
176
     1
 90
        2
176
     1
 90
        1
176
     1
 40
1.0
176
     1
 90
        8
176
     1
 62
   257
176
     1
 40
1.0
176
     1
 90
        1
176
     1
 90
        6
176
     1
 90
        2
176
     1
 62
     7
176
     1
 90
        3
176
     1
 90
        0
176
     1
 90
        0
176
     1
290
     0
176
     1
 90
        5
176
     1
 40
0.0
176
     1
 90
        0
176
     1
290
     0
176
     1
290
     1
176
     1
290
     1
176
     1
290
     0
176
     1
290
     0
176
     1
290
     0
176
     1
290
     0
176
     1
290
     0
176
     1
290
     0
176
     1
 90
       50
176
     1
 40
0.0
176
     1
 40
1.0
176
     1
 90
        0
176
     1
 62
    18
420
        0
176
     1
 90
       50
176
     1
 90
        3
176
     1
 62
     5
420
      255
176
     1
290
     0
176
     1
 90
       50
176
     1
 90
       50
176
     1
 90
       50
176
     1
290
     0
176
     1
 90
       50
176
     1
 62
   256
176
     0
 40
1.0
176
     0
 90
        2
176
     1
  1
strokes_ogs.tif
176
     1
290
     0
176
     1
 40
1.0
176
     1
 40
1.0
176
     1
  0
VISUALSTYLE
  5
1565E1
102
{ACAD_REACTORS
330
DE18
102
}
330
DE18
100
AcDbVisualStyle
  2
Shades of Gray
 70
    23
177
     3
291
     0
 70
    58
 90
        2
176
     1
 90
        2
176
     1
 90
        3
176
     1
 90
        0
176
     1
 40
0.6
176
     1
 40
30.0
176
     1
 62
     7
420
 16777215
176
     1
 90
        2
176
     1
 90
        2
176
     1
 62
     7
176
     1
 62
     7
176
     1
 90
        1
176
     1
 90
        1
176
     1
 40
40.0
176
     1
 90
        8
176
     1
 62
     7
176
     1
 40
1.0
176
     1
 90
        1
176
     1
 90
        6
176
     1
 90
        2
176
     1
 62
     7
176
     1
 90
        3
176
     1
 90
        0
176
     1
 90
        0
176
     1
290
     0
176
     1
 90
        1
176
     1
 40
0.0
176
     1
 90
        0
176
     1
290
     0
176
     1
290
     1
176
     1
290
     1
176
     1
290
     0
176
     1
290
     0
176
     1
290
     0
176
     1
290
     0
176
     1
290
     0
176
     1
290
     0
176
     1
 90
       50
176
     1
 40
0.0
176
     1
 40
1.0
176
     1
 90
        0
176
     1
 62
    18
420
        0
176
     1
 90
       50
176
     1
 90
        3
176
     1
 62
     5
420
      255
176
     1
290
     0
176
     1
 90
       50
176
     1
 90
       50
176
     1
 90
       50
176
     1
290
     0
176
     1
 90
       50
176
     1
 62
   256
176
     0
 40
1.0
176
     0
 90
        2
176
     1
  1
strokes_ogs.tif
176
     1
290
     0
176
     1
 40
1.0
176
     1
 40
1.0
176
     1
  0
VISUALSTYLE
  5
1565E2
102
{ACAD_REACTORS
330
DE18
102
}
330
DE18
100
AcDbVisualStyle
  2
Sketchy
 70
    24
177
     3
291
     0
 70
    58
 90
        1
176
     1
 90
        2
176
     1
 90
        2
176
     1
 90
        0
176
     1
 40
0.6
176
     1
 40
30.0
176
     1
 62
     7
420
 16777215
176
     1
 90
        2
176
     1
 90
        2
176
     1
 62
     7
176
     1
 62
     7
176
     1
 90
        1
176
     1
 90
        1
176
     1
 40
40.0
176
     1
 90
       11
176
     1
 62
     7
176
     1
 40
1.0
176
     1
 90
        1
176
     1
 90
        6
176
     1
 90
        2
176
     1
 62
     7
176
     1
 90
        6
176
     1
 90
        0
176
     1
 90
        0
176
     1
290
     0
176
     1
 90
        1
176
     1
 40
0.0
176
     1
 90
        0
176
     1
290
     0
176
     1
290
     1
176
     1
290
     1
176
     1
290
     0
176
     1
290
     0
176
     1
290
     0
176
     1
290
     0
176
     1
290
     0
176
     1
290
     0
176
     1
 90
       50
176
     1
 40
0.0
176
     1
 40
1.0
176
     1
 90
        0
176
     1
 62
    18
420
        0
176
     1
 90
       50
176
     1
 90
        3
176
     1
 62
     5
420
      255
176
     1
290
     0
176
     1
 90
       50
176
     1
 90
       50
176
     1
 90
       50
176
     1
290
     0
176
     1
 90
       50
176
     1
 62
   256
176
     0
 40
1.0
176
     0
 90
        2
176
     1
  1
strokes_ogs.tif
176
     1
290
     0
176
     1
 40
1.0
176
     1
 40
1.0
176
     1
  0
VISUALSTYLE
  5
DE25
102
{ACAD_REACTORS
330
DE18
102
}
330
DE18
100
AcDbVisualStyle
  2
Thicken
 70
    13
177
     3
291
     1
 70
    58
 90
        2
176
     1
 90
        2
176
     1
 90
        0
176
     1
 90
        0
176
     1
 40
0.6
176
     1
 40
30.0
176
     1
 62
     7
176
     1
 90
        1
176
     1
 90
        4
176
     1
 62
     7
176
     1
 62
   257
176
     1
 90
        1
176
     1
 90
        1
176
     1
 40
1.0
176
     1
 90
       12
176
     1
 62
     7
176
     1
 40
1.0
176
     1
 90
        1
176
     1
 90
        6
176
     1
 90
        2
176
     1
 62
     7
176
     1
 90
        5
176
     1
 90
        0
176
     1
 90
        0
176
     1
290
     0
176
     1
 90
        1
176
     1
 40
0.0
176
     1
 90
        0
176
     1
290
     0
176
     1
290
     1
176
     1
290
     1
176
     1
290
     0
176
     1
290
     0
176
     1
290
     0
176
     1
290
     0
176
     1
290
     0
176
     1
290
     0
176
     1
 90
       50
176
     1
 40
0.0
176
     1
 40
1.0
176
     1
 90
        0
176
     1
 62
    18
420
        0
176
     1
 90
       50
176
     1
 90
        3
176
     1
 62
     5
420
      255
176
     1
290
     0
176
     1
 90
       50
176
     1
 90
       50
176
     1
 90
       50
176
     1
290
     0
176
     1
 90
       50
176
     1
 62
   256
176
     0
 40
1.0
176
     0
 90
        2
176
     1
  1
strokes_ogs.tif
176
     1
290
     0
176
     1
 40
1.0
176
     1
 40
1.0
176
     1
  0
VISUALSTYLE
  5
67F3C
102
{ACAD_REACTORS
330
DE18
102
}
330
DE18
100
AcDbVisualStyle
  2
Wireframe
 70
     5
177
     3
291
     0
 70
    58
 90
        0
176
     1
 90
        2
176
     1
 90
        0
176
     1
 90
        0
176
     1
 40
0.6
176
     1
 40
30.0
176
     1
 62
     7
176
     1
 90
        1
176
     1
 90
        4
176
     1
 62
     7
176
     1
 62
   257
176
     1
 90
        1
176
     1
 90
        1
176
     1
 40
1.0
176
     1
 90
        0
176
     1
 62
   257
176
     1
 40
1.0
176
     1
 90
        1
176
     1
 90
        6
176
     1
 90
        2
176
     1
 62
     7
176
     1
 90
        3
176
     1
 90
        0
176
     1
 90
        0
176
     1
290
     0
176
     1
 90
        1
176
     1
 40
0.0
176
     1
 90
        0
176
     1
290
     0
176
     1
290
     1
176
     1
290
     1
176
     1
290
     0
176
     1
290
     0
176
     1
290
     0
176
     1
290
     0
176
     1
290
     0
176
     1
290
     0
176
     1
 90
       50
176
     1
 40
0.0
176
     1
 40
1.0
176
     1
 90
        0
176
     1
 62
    18
420
        0
176
     1
 90
       50
176
     1
 90
        3
176
     1
 62
     5
420
      255
176
     1
290
     0
176
     1
 90
       50
176
     1
 90
       50
176
     1
 90
       50
176
     1
290
     0
176
     1
 90
       50
176
     1
 62
   256
176
     0
 40
1.0
176
     0
 90
        2
176
     1
  1
strokes_ogs.tif
176
     1
290
     0
176
     1
 40
1.0
176
     1
 40
1.0
176
     1
  0
VISUALSTYLE
  5
1565E3
102
{ACAD_REACTORS
330
DE18
102
}
330
DE18
100
AcDbVisualStyle
  2
X-Ray
 70
    25
177
     3
291
     0
 70
    58
 90
        2
176
     1
 90
        2
176
     1
 90
        1
176
     1
 90
        1
176
     1
 40
0.5
176
     1
 40
30.0
176
     1
 62
     7
420
 16777215
176
     1
 90
        1
176
     1
 90
        0
176
     1
 62
     7
176
     1
 62
   257
176
     1
 90
        1
176
     1
 90
        1
176
     1
 40
1.0
176
     1
 90
        8
176
     1
 62
     7
176
     1
 40
1.0
176
     1
 90
        1
176
     1
 90
        6
176
     1
 90
        2
176
     1
 62
     7
176
     1
 90
        3
176
     1
 90
        0
176
     1
 90
        0
176
     1
290
     0
176
     1
 90
       13
176
     1
 40
0.0
176
     1
 90
        0
176
     1
290
     0
176
     1
290
     1
176
     1
290
     1
176
     1
290
     0
176
     1
290
     0
176
     1
290
     0
176
     1
290
     0
176
     1
290
     0
176
     1
290
     0
176
     1
 90
       50
176
     1
 40
0.0
176
     1
 40
1.0
176
     1
 90
        0
176
     1
 62
    18
420
        0
176
     1
 90
       50
176
     1
 90
        3
176
     1
 62
     5
420
      255
176
     1
290
     0
176
     1
 90
       50
176
     1
 90
       50
176
     1
 90
       50
176
     1
290
     0
176
     1
 90
       50
176
     1
 62
   256
176
     0
 40
1.0
176
     0
 90
        2
176
     1
  1
strokes_ogs.tif
176
     1
290
     0
176
     1
 40
1.0
176
     1
 40
1.0
176
     1
  0
DICTIONARYVAR
  5
12A14E
102
{ACAD_REACTORS
330
5E
102
}
330
5E
100
DictionaryVariables
280
     0
  1
1:1
  0
DICTIONARYVAR
  5
12A14C
102
{ACAD_REACTORS
330
5E
102
}
330
5E
100
DictionaryVariables
280
     0
  1
STANDARD
  0
DICTIONARYVAR
  5
DFDB
102
{ACAD_REACTORS
330
5E
102
}
330
5E
100
DictionaryVariables
280
     0
  1
STANDARD
  0
DICTIONARYVAR
  5
15672A
102
{ACAD_REACTORS
330
5E
102
}
330
5E
100
DictionaryVariables
280
     0
  1
Metric50
  0
DICTIONARYVAR
  5
15672B
102
{ACAD_REACTORS
330
5E
102
}
330
5E
100
DictionaryVariables
280
     0
  1
Metric50
  0
DICTIONARYVAR
  5
5F
102
{ACAD_REACTORS
330
5E
102
}
330
5E
100
DictionaryVariables
280
     0
  1
2
  0
DICTIONARYVAR
  5
C0F4D
102
{ACAD_REACTORS
330
5E
102
}
330
5E
100
DictionaryVariables
280
     0
  1
4
  0
DICTIONARYVAR
  5
63
102
{ACAD_REACTORS
330
5E
102
}
330
5E
100
DictionaryVariables
280
     0
  1
1
  0
DICTIONARYVAR
  5
E0E6
102
{ACAD_REACTORS
330
5E
102
}
330
5E
100
DictionaryVariables
280
     0
  1
0
  0
DICTIONARYVAR
  5
15672C
102
{ACAD_REACTORS
330
5E
102
}
330
5E
100
DictionaryVariables
280
     0
  1
1
  0
DICTIONARYVAR
  5
15672D
102
{ACAD_REACTORS
330
5E
102
}
330
5E
100
DictionaryVariables
280
     0
  1
15
  0
DICTIONARYVAR
  5
12A14F
102
{ACAD_REACTORS
330
5E
102
}
330
5E
100
DictionaryVariables
280
     0
  1
0
  0
DICTIONARYVAR
  5
12A14D
102
{ACAD_REACTORS
330
5E
102
}
330
5E
100
DictionaryVariables
280
     0
  1
0
  0
DICTIONARYVAR
  5
E0E5
102
{ACAD_REACTORS
330
5E
102
}
330
5E
100
DictionaryVariables
280
     0
  1
127
  0
XRECORD
  5
11FBC9
102
{ACAD_REACTORS
330
11FBC8
102
}
330
11FBC8
100
AcDbXrecord
280
     1
330
0
330
0
330
0
330
0
330
0
330
0
330
0
330
0
330
0
330
0
330
0
330
0
330
0
330
0
330
0
330
0
330
0
330
0
330
0
330
0
330
0
330
0
  0
DICTIONARY
  5
56046
330
51
100
AcDbDictionary
280
     1
281
     1
  0
DICTIONARY
  5
579EF
330
56
100
AcDbDictionary
280
     1
281
     1
  0
DICTIONARY
  5
12A0D5
330
128BA8
100
AcDbDictionary
280
     1
281
     1
  3
ACAD_ROUNDTRIP_2008_TABLESTYLE_CELLSTYLEMAP
360
156733
  0
DICTIONARY
  5
12A059
330
122496
100
AcDbDictionary
280
     1
281
     1
  3
ACAD_ROUNDTRIP_2008_TABLESTYLE_CELLSTYLEMAP
360
15672F
  0
DICTIONARY
  5
12A057
330
DE2A
100
AcDbDictionary
280
     1
281
     1
  3
ACAD_ROUNDTRIP_2008_TABLESTYLE_CELLSTYLEMAP
360
15672E
  0
DICTIONARY
  5
12A05B
330
122497
100
AcDbDictionary
280
     1
281
     1
  3
ACAD_ROUNDTRIP_2008_TABLESTYLE_CELLSTYLEMAP
360
156730
  0
DICTIONARY
  5
12A05D
330
122498
100
AcDbDictionary
280
     1
281
     1
  3
ACAD_ROUNDTRIP_2008_TABLESTYLE_CELLSTYLEMAP
360
156731
  0
DICTIONARY
  5
12A05F
330
122499
100
AcDbDictionary
280
     1
281
     1
  3
ACAD_ROUNDTRIP_2008_TABLESTYLE_CELLSTYLEMAP
360
156732
  0
CELLSTYLEMAP
  5
156733
102
{ACAD_REACTORS
330
12A0D5
102
}
330
12A0D5
100
AcDbCellStyleMap
 90
        3
300
CELLSTYLE
  1
TABLEFORMAT_BEGIN
 90
        5
170
     1
 91
        0
 92
    32768
 62
   257
 93
        1
300
CONTENTFORMAT
  1
CONTENTFORMAT_BEGIN
 90
        0
 91
        0
 92
      512
 93
        0
300

 40
0.0
140
1.0
 94
        5
 62
     0
340
11
144
6.0
309
CONTENTFORMAT_END
171
     1
301
MARGIN
  1
CELLMARGIN_BEGIN
 40
1.5
 40
1.5
 40
1.5
 40
1.5
 40
0.18
 40
0.18
309
CELLMARGIN_END
 94
        6
 95
        1
302
GRIDFORMAT
  1
GRIDFORMAT_BEGIN
 90
        0
 91
        1
 62
     0
 92
       -2
340
0
 93
        0
 40
0.045
309
GRIDFORMAT_END
 95
        2
302
GRIDFORMAT
  1
GRIDFORMAT_BEGIN
 90
        0
 91
        1
 62
     0
 92
       -2
340
0
 93
        0
 40
0.045
309
GRIDFORMAT_END
 95
        4
302
GRIDFORMAT
  1
GRIDFORMAT_BEGIN
 90
        0
 91
        1
 62
     0
 92
       -2
340
0
 93
        0
 40
0.045
309
GRIDFORMAT_END
 95
        8
302
GRIDFORMAT
  1
GRIDFORMAT_BEGIN
 90
        0
 91
        1
 62
     0
 92
       -2
340
0
 93
        0
 40
0.045
309
GRIDFORMAT_END
 95
       16
302
GRIDFORMAT
  1
GRIDFORMAT_BEGIN
 90
        0
 91
        1
 62
     0
 92
       -2
340
0
 93
        0
 40
0.045
309
GRIDFORMAT_END
 95
       32
302
GRIDFORMAT
  1
GRIDFORMAT_BEGIN
 90
        0
 91
        1
 62
     0
 92
       -2
340
0
 93
        0
 40
0.045
309
GRIDFORMAT_END
309
TABLEFORMAT_END
  1
CELLSTYLE_BEGIN
 90
        1
 91
        1
300
_TITLE
309
CELLSTYLE_END
300
CELLSTYLE
  1
TABLEFORMAT_BEGIN
 90
        5
170
     1
 91
        0
 92
        0
 62
   257
 93
        1
300
CONTENTFORMAT
  1
CONTENTFORMAT_BEGIN
 90
        0
 91
        0
 92
      512
 93
        0
300

 40
0.0
140
1.0
 94
        5
 62
     0
340
11
144
4.5
309
CONTENTFORMAT_END
171
     1
301
MARGIN
  1
CELLMARGIN_BEGIN
 40
1.5
 40
1.5
 40
1.5
 40
1.5
 40
0.18
 40
0.18
309
CELLMARGIN_END
 94
        6
 95
        1
302
GRIDFORMAT
  1
GRIDFORMAT_BEGIN
 90
        0
 91
        1
 62
     0
 92
       -2
340
0
 93
        0
 40
0.045
309
GRIDFORMAT_END
 95
        2
302
GRIDFORMAT
  1
GRIDFORMAT_BEGIN
 90
        0
 91
        1
 62
     0
 92
       -2
340
0
 93
        0
 40
0.045
309
GRIDFORMAT_END
 95
        4
302
GRIDFORMAT
  1
GRIDFORMAT_BEGIN
 90
        0
 91
        1
 62
     0
 92
       -2
340
0
 93
        0
 40
0.045
309
GRIDFORMAT_END
 95
        8
302
GRIDFORMAT
  1
GRIDFORMAT_BEGIN
 90
        0
 91
        1
 62
     0
 92
       -2
340
0
 93
        0
 40
0.045
309
GRIDFORMAT_END
 95
       16
302
GRIDFORMAT
  1
GRIDFORMAT_BEGIN
 90
        0
 91
        1
 62
     0
 92
       -2
340
0
 93
        0
 40
0.045
309
GRIDFORMAT_END
 95
       32
302
GRIDFORMAT
  1
GRIDFORMAT_BEGIN
 90
        0
 91
        1
 62
     0
 92
       -2
340
0
 93
        0
 40
0.045
309
GRIDFORMAT_END
309
TABLEFORMAT_END
  1
CELLSTYLE_BEGIN
 90
        2
 91
        1
300
_HEADER
309
CELLSTYLE_END
300
CELLSTYLE
  1
TABLEFORMAT_BEGIN
 90
        5
170
     1
 91
        0
 92
        0
 62
   257
 93
        1
300
CONTENTFORMAT
  1
CONTENTFORMAT_BEGIN
 90
        0
 91
        0
 92
        4
 93
        0
300

 40
0.0
140
1.0
 94
        5
 62
   256
340
11
144
10.5
309
CONTENTFORMAT_END
171
     1
301
MARGIN
  1
CELLMARGIN_BEGIN
 40
1.5
 40
1.5
 40
1.5
 40
1.5
 40
0.18
 40
0.18
309
CELLMARGIN_END
 94
        6
 95
        1
302
GRIDFORMAT
  1
GRIDFORMAT_BEGIN
 90
        0
 91
        1
 62
     0
 92
       -2
340
0
 93
        0
 40
0.045
309
GRIDFORMAT_END
 95
        2
302
GRIDFORMAT
  1
GRIDFORMAT_BEGIN
 90
        0
 91
        1
 62
     0
 92
       -2
340
0
 93
        0
 40
0.045
309
GRIDFORMAT_END
 95
        4
302
GRIDFORMAT
  1
GRIDFORMAT_BEGIN
 90
        0
 91
        1
 62
     0
 92
       -2
340
0
 93
        0
 40
0.045
309
GRIDFORMAT_END
 95
        8
302
GRIDFORMAT
  1
GRIDFORMAT_BEGIN
 90
        0
 91
        1
 62
     0
 92
       -2
340
0
 93
        0
 40
0.045
309
GRIDFORMAT_END
 95
       16
302
GRIDFORMAT
  1
GRIDFORMAT_BEGIN
 90
        0
 91
        1
 62
     0
 92
       -2
340
0
 93
        0
 40
0.045
309
GRIDFORMAT_END
 95
       32
302
GRIDFORMAT
  1
GRIDFORMAT_BEGIN
 90
        0
 91
        1
 62
     0
 92
       -2
340
0
 93
        0
 40
0.045
309
GRIDFORMAT_END
309
TABLEFORMAT_END
  1
CELLSTYLE_BEGIN
 90
        3
 91
        2
300
_DATA
309
CELLSTYLE_END
  0
CELLSTYLEMAP
  5
15672F
102
{ACAD_REACTORS
330
12A059
102
}
330
12A059
100
AcDbCellStyleMap
 90
        3
300
CELLSTYLE
  1
TABLEFORMAT_BEGIN
 90
        5
170
     1
 91
        0
 92
    32768
 62
   257
 93
        1
300
CONTENTFORMAT
  1
CONTENTFORMAT_BEGIN
 90
        0
 91
        0
 92
      512
 93
        0
300

 40
0.0
140
1.0
 94
        5
 62
     0
340
11
144
6.0
309
CONTENTFORMAT_END
171
     1
301
MARGIN
  1
CELLMARGIN_BEGIN
 40
1.5
 40
1.5
 40
1.5
 40
1.5
 40
0.18
 40
0.18
309
CELLMARGIN_END
 94
        6
 95
        1
302
GRIDFORMAT
  1
GRIDFORMAT_BEGIN
 90
        0
 91
        1
 62
     0
 92
       -2
340
0
 93
        0
 40
0.045
309
GRIDFORMAT_END
 95
        2
302
GRIDFORMAT
  1
GRIDFORMAT_BEGIN
 90
        0
 91
        1
 62
     0
 92
       -2
340
0
 93
        0
 40
0.045
309
GRIDFORMAT_END
 95
        4
302
GRIDFORMAT
  1
GRIDFORMAT_BEGIN
 90
        0
 91
        1
 62
     0
 92
       -2
340
0
 93
        0
 40
0.045
309
GRIDFORMAT_END
 95
        8
302
GRIDFORMAT
  1
GRIDFORMAT_BEGIN
 90
        0
 91
        1
 62
     0
 92
       -2
340
0
 93
        0
 40
0.045
309
GRIDFORMAT_END
 95
       16
302
GRIDFORMAT
  1
GRIDFORMAT_BEGIN
 90
        0
 91
        1
 62
     0
 92
       -2
340
0
 93
        0
 40
0.045
309
GRIDFORMAT_END
 95
       32
302
GRIDFORMAT
  1
GRIDFORMAT_BEGIN
 90
        0
 91
        1
 62
     0
 92
       -2
340
0
 93
        0
 40
0.045
309
GRIDFORMAT_END
309
TABLEFORMAT_END
  1
CELLSTYLE_BEGIN
 90
        1
 91
        1
300
_TITLE
309
CELLSTYLE_END
300
CELLSTYLE
  1
TABLEFORMAT_BEGIN
 90
        5
170
     1
 91
        0
 92
        0
 62
   257
 93
        1
300
CONTENTFORMAT
  1
CONTENTFORMAT_BEGIN
 90
        0
 91
        0
 92
      512
 93
        0
300

 40
0.0
140
1.0
 94
        5
 62
     0
340
11
144
4.5
309
CONTENTFORMAT_END
171
     1
301
MARGIN
  1
CELLMARGIN_BEGIN
 40
1.5
 40
1.5
 40
1.5
 40
1.5
 40
0.18
 40
0.18
309
CELLMARGIN_END
 94
        6
 95
        1
302
GRIDFORMAT
  1
GRIDFORMAT_BEGIN
 90
        0
 91
        1
 62
     0
 92
       -2
340
0
 93
        0
 40
0.045
309
GRIDFORMAT_END
 95
        2
302
GRIDFORMAT
  1
GRIDFORMAT_BEGIN
 90
        0
 91
        1
 62
     0
 92
       -2
340
0
 93
        0
 40
0.045
309
GRIDFORMAT_END
 95
        4
302
GRIDFORMAT
  1
GRIDFORMAT_BEGIN
 90
        0
 91
        1
 62
     0
 92
       -2
340
0
 93
        0
 40
0.045
309
GRIDFORMAT_END
 95
        8
302
GRIDFORMAT
  1
GRIDFORMAT_BEGIN
 90
        0
 91
        1
 62
     0
 92
       -2
340
0
 93
        0
 40
0.045
309
GRIDFORMAT_END
 95
       16
302
GRIDFORMAT
  1
GRIDFORMAT_BEGIN
 90
        0
 91
        1
 62
     0
 92
       -2
340
0
 93
        0
 40
0.045
309
GRIDFORMAT_END
 95
       32
302
GRIDFORMAT
  1
GRIDFORMAT_BEGIN
 90
        0
 91
        1
 62
     0
 92
       -2
340
0
 93
        0
 40
0.045
309
GRIDFORMAT_END
309
TABLEFORMAT_END
  1
CELLSTYLE_BEGIN
 90
        2
 91
        1
300
_HEADER
309
CELLSTYLE_END
300
CELLSTYLE
  1
TABLEFORMAT_BEGIN
 90
        5
170
     1
 91
        0
 92
        0
 62
   257
 93
        1
300
CONTENTFORMAT
  1
CONTENTFORMAT_BEGIN
 90
        0
 91
        0
 92
      512
 93
        0
300

 40
0.0
140
1.0
 94
        5
 62
     0
340
11
144
16.0
309
CONTENTFORMAT_END
171
     1
301
MARGIN
  1
CELLMARGIN_BEGIN
 40
1.5
 40
1.5
 40
1.5
 40
1.5
 40
0.18
 40
0.18
309
CELLMARGIN_END
 94
        6
 95
        1
302
GRIDFORMAT
  1
GRIDFORMAT_BEGIN
 90
        0
 91
        1
 62
     0
 92
       -2
340
0
 93
        0
 40
0.045
309
GRIDFORMAT_END
 95
        2
302
GRIDFORMAT
  1
GRIDFORMAT_BEGIN
 90
        0
 91
        1
 62
     0
 92
       -2
340
0
 93
        0
 40
0.045
309
GRIDFORMAT_END
 95
        4
302
GRIDFORMAT
  1
GRIDFORMAT_BEGIN
 90
        0
 91
        1
 62
     0
 92
       -2
340
0
 93
        0
 40
0.045
309
GRIDFORMAT_END
 95
        8
302
GRIDFORMAT
  1
GRIDFORMAT_BEGIN
 90
        0
 91
        1
 62
     0
 92
       -2
340
0
 93
        0
 40
0.045
309
GRIDFORMAT_END
 95
       16
302
GRIDFORMAT
  1
GRIDFORMAT_BEGIN
 90
        0
 91
        1
 62
     0
 92
       -2
340
0
 93
        0
 40
0.045
309
GRIDFORMAT_END
 95
       32
302
GRIDFORMAT
  1
GRIDFORMAT_BEGIN
 90
        0
 91
        1
 62
     0
 92
       -2
340
0
 93
        0
 40
0.045
309
GRIDFORMAT_END
309
TABLEFORMAT_END
  1
CELLSTYLE_BEGIN
 90
        3
 91
        2
300
_DATA
309
CELLSTYLE_END
  0
CELLSTYLEMAP
  5
15672E
102
{ACAD_REACTORS
330
12A057
102
}
330
12A057
100
AcDbCellStyleMap
 90
        3
300
CELLSTYLE
  1
TABLEFORMAT_BEGIN
 90
        5
170
     1
 91
        0
 92
    32768
 62
   257
 93
        1
300
CONTENTFORMAT
  1
CONTENTFORMAT_BEGIN
 90
        0
 91
        0
 92
      512
 93
        0
300

 40
0.0
140
1.0
 94
        5
 62
     0
340
11
144
6.0
309
CONTENTFORMAT_END
171
     1
301
MARGIN
  1
CELLMARGIN_BEGIN
 40
1.5
 40
1.5
 40
1.5
 40
1.5
 40
0.18
 40
0.18
309
CELLMARGIN_END
 94
        6
 95
        1
302
GRIDFORMAT
  1
GRIDFORMAT_BEGIN
 90
        0
 91
        1
 62
     0
 92
       -2
340
0
 93
        0
 40
0.045
309
GRIDFORMAT_END
 95
        2
302
GRIDFORMAT
  1
GRIDFORMAT_BEGIN
 90
        0
 91
        1
 62
     0
 92
       -2
340
0
 93
        0
 40
0.045
309
GRIDFORMAT_END
 95
        4
302
GRIDFORMAT
  1
GRIDFORMAT_BEGIN
 90
        0
 91
        1
 62
     0
 92
       -2
340
0
 93
        0
 40
0.045
309
GRIDFORMAT_END
 95
        8
302
GRIDFORMAT
  1
GRIDFORMAT_BEGIN
 90
        0
 91
        1
 62
     0
 92
       -2
340
0
 93
        0
 40
0.045
309
GRIDFORMAT_END
 95
       16
302
GRIDFORMAT
  1
GRIDFORMAT_BEGIN
 90
        0
 91
        1
 62
     0
 92
       -2
340
0
 93
        0
 40
0.045
309
GRIDFORMAT_END
 95
       32
302
GRIDFORMAT
  1
GRIDFORMAT_BEGIN
 90
        0
 91
        1
 62
     0
 92
       -2
340
0
 93
        0
 40
0.045
309
GRIDFORMAT_END
309
TABLEFORMAT_END
  1
CELLSTYLE_BEGIN
 90
        1
 91
        1
300
_TITLE
309
CELLSTYLE_END
300
CELLSTYLE
  1
TABLEFORMAT_BEGIN
 90
        5
170
     1
 91
        0
 92
        0
 62
   257
 93
        1
300
CONTENTFORMAT
  1
CONTENTFORMAT_BEGIN
 90
        0
 91
        0
 92
      512
 93
        0
300

 40
0.0
140
1.0
 94
        5
 62
     0
340
11
144
4.5
309
CONTENTFORMAT_END
171
     1
301
MARGIN
  1
CELLMARGIN_BEGIN
 40
1.5
 40
1.5
 40
1.5
 40
1.5
 40
0.18
 40
0.18
309
CELLMARGIN_END
 94
        6
 95
        1
302
GRIDFORMAT
  1
GRIDFORMAT_BEGIN
 90
        0
 91
        1
 62
     0
 92
       -2
340
0
 93
        0
 40
0.045
309
GRIDFORMAT_END
 95
        2
302
GRIDFORMAT
  1
GRIDFORMAT_BEGIN
 90
        0
 91
        1
 62
     0
 92
       -2
340
0
 93
        0
 40
0.045
309
GRIDFORMAT_END
 95
        4
302
GRIDFORMAT
  1
GRIDFORMAT_BEGIN
 90
        0
 91
        1
 62
     0
 92
       -2
340
0
 93
        0
 40
0.045
309
GRIDFORMAT_END
 95
        8
302
GRIDFORMAT
  1
GRIDFORMAT_BEGIN
 90
        0
 91
        1
 62
     0
 92
       -2
340
0
 93
        0
 40
0.045
309
GRIDFORMAT_END
 95
       16
302
GRIDFORMAT
  1
GRIDFORMAT_BEGIN
 90
        0
 91
        1
 62
     0
 92
       -2
340
0
 93
        0
 40
0.045
309
GRIDFORMAT_END
 95
       32
302
GRIDFORMAT
  1
GRIDFORMAT_BEGIN
 90
        0
 91
        1
 62
     0
 92
       -2
340
0
 93
        0
 40
0.045
309
GRIDFORMAT_END
309
TABLEFORMAT_END
  1
CELLSTYLE_BEGIN
 90
        2
 91
        1
300
_HEADER
309
CELLSTYLE_END
300
CELLSTYLE
  1
TABLEFORMAT_BEGIN
 90
        5
170
     1
 91
        0
 92
        0
 62
   257
 93
        1
300
CONTENTFORMAT
  1
CONTENTFORMAT_BEGIN
 90
        0
 91
        0
 92
      512
 93
        0
300

 40
0.0
140
1.0
 94
        2
 62
     0
340
11
144
4.5
309
CONTENTFORMAT_END
171
     1
301
MARGIN
  1
CELLMARGIN_BEGIN
 40
1.5
 40
1.5
 40
1.5
 40
1.5
 40
0.18
 40
0.18
309
CELLMARGIN_END
 94
        6
 95
        1
302
GRIDFORMAT
  1
GRIDFORMAT_BEGIN
 90
        0
 91
        1
 62
     0
 92
       -2
340
0
 93
        0
 40
0.045
309
GRIDFORMAT_END
 95
        2
302
GRIDFORMAT
  1
GRIDFORMAT_BEGIN
 90
        0
 91
        1
 62
     0
 92
       -2
340
0
 93
        0
 40
0.045
309
GRIDFORMAT_END
 95
        4
302
GRIDFORMAT
  1
GRIDFORMAT_BEGIN
 90
        0
 91
        1
 62
     0
 92
       -2
340
0
 93
        0
 40
0.045
309
GRIDFORMAT_END
 95
        8
302
GRIDFORMAT
  1
GRIDFORMAT_BEGIN
 90
        0
 91
        1
 62
     0
 92
       -2
340
0
 93
        0
 40
0.045
309
GRIDFORMAT_END
 95
       16
302
GRIDFORMAT
  1
GRIDFORMAT_BEGIN
 90
        0
 91
        1
 62
     0
 92
       -2
340
0
 93
        0
 40
0.045
309
GRIDFORMAT_END
 95
       32
302
GRIDFORMAT
  1
GRIDFORMAT_BEGIN
 90
        0
 91
        1
 62
     0
 92
       -2
340
0
 93
        0
 40
0.045
309
GRIDFORMAT_END
309
TABLEFORMAT_END
  1
CELLSTYLE_BEGIN
 90
        3
 91
        2
300
_DATA
309
CELLSTYLE_END
  0
CELLSTYLEMAP
  5
156730
102
{ACAD_REACTORS
330
12A05B
102
}
330
12A05B
100
AcDbCellStyleMap
 90
        3
300
CELLSTYLE
  1
TABLEFORMAT_BEGIN
 90
        5
170
     1
 91
        0
 92
    32768
 62
   257
 93
        1
300
CONTENTFORMAT
  1
CONTENTFORMAT_BEGIN
 90
        0
 91
        0
 92
      512
 93
        0
300

 40
0.0
140
1.0
 94
        5
 62
     0
340
11
144
6.0
309
CONTENTFORMAT_END
171
     1
301
MARGIN
  1
CELLMARGIN_BEGIN
 40
1.5
 40
1.5
 40
1.5
 40
1.5
 40
0.18
 40
0.18
309
CELLMARGIN_END
 94
        6
 95
        1
302
GRIDFORMAT
  1
GRIDFORMAT_BEGIN
 90
        0
 91
        1
 62
     0
 92
       -2
340
0
 93
        0
 40
0.045
309
GRIDFORMAT_END
 95
        2
302
GRIDFORMAT
  1
GRIDFORMAT_BEGIN
 90
        0
 91
        1
 62
     0
 92
       -2
340
0
 93
        0
 40
0.045
309
GRIDFORMAT_END
 95
        4
302
GRIDFORMAT
  1
GRIDFORMAT_BEGIN
 90
        0
 91
        1
 62
     0
 92
       -2
340
0
 93
        0
 40
0.045
309
GRIDFORMAT_END
 95
        8
302
GRIDFORMAT
  1
GRIDFORMAT_BEGIN
 90
        0
 91
        1
 62
     0
 92
       -2
340
0
 93
        0
 40
0.045
309
GRIDFORMAT_END
 95
       16
302
GRIDFORMAT
  1
GRIDFORMAT_BEGIN
 90
        0
 91
        1
 62
     0
 92
       -2
340
0
 93
        0
 40
0.045
309
GRIDFORMAT_END
 95
       32
302
GRIDFORMAT
  1
GRIDFORMAT_BEGIN
 90
        0
 91
        1
 62
     0
 92
       -2
340
0
 93
        0
 40
0.045
309
GRIDFORMAT_END
309
TABLEFORMAT_END
  1
CELLSTYLE_BEGIN
 90
        1
 91
        1
300
_TITLE
309
CELLSTYLE_END
300
CELLSTYLE
  1
TABLEFORMAT_BEGIN
 90
        5
170
     1
 91
        0
 92
        0
 62
   257
 93
        1
300
CONTENTFORMAT
  1
CONTENTFORMAT_BEGIN
 90
        0
 91
        0
 92
      512
 93
        0
300

 40
0.0
140
1.0
 94
        5
 62
     0
340
11
144
4.5
309
CONTENTFORMAT_END
171
     1
301
MARGIN
  1
CELLMARGIN_BEGIN
 40
1.5
 40
1.5
 40
1.5
 40
1.5
 40
0.18
 40
0.18
309
CELLMARGIN_END
 94
        6
 95
        1
302
GRIDFORMAT
  1
GRIDFORMAT_BEGIN
 90
        0
 91
        1
 62
     0
 92
       -2
340
0
 93
        0
 40
0.045
309
GRIDFORMAT_END
 95
        2
302
GRIDFORMAT
  1
GRIDFORMAT_BEGIN
 90
        0
 91
        1
 62
     0
 92
       -2
340
0
 93
        0
 40
0.045
309
GRIDFORMAT_END
 95
        4
302
GRIDFORMAT
  1
GRIDFORMAT_BEGIN
 90
        0
 91
        1
 62
     0
 92
       -2
340
0
 93
        0
 40
0.045
309
GRIDFORMAT_END
 95
        8
302
GRIDFORMAT
  1
GRIDFORMAT_BEGIN
 90
        0
 91
        1
 62
     0
 92
       -2
340
0
 93
        0
 40
0.045
309
GRIDFORMAT_END
 95
       16
302
GRIDFORMAT
  1
GRIDFORMAT_BEGIN
 90
        0
 91
        1
 62
     0
 92
       -2
340
0
 93
        0
 40
0.045
309
GRIDFORMAT_END
 95
       32
302
GRIDFORMAT
  1
GRIDFORMAT_BEGIN
 90
        0
 91
        1
 62
     0
 92
       -2
340
0
 93
        0
 40
0.045
309
GRIDFORMAT_END
309
TABLEFORMAT_END
  1
CELLSTYLE_BEGIN
 90
        2
 91
        1
300
_HEADER
309
CELLSTYLE_END
300
CELLSTYLE
  1
TABLEFORMAT_BEGIN
 90
        5
170
     1
 91
        0
 92
        0
 62
   257
 93
        1
300
CONTENTFORMAT
  1
CONTENTFORMAT_BEGIN
 90
        0
 91
        0
 92
      512
 93
        0
300

 40
0.0
140
1.0
 94
        5
 62
     0
340
11
144
10.5
309
CONTENTFORMAT_END
171
     1
301
MARGIN
  1
CELLMARGIN_BEGIN
 40
1.5
 40
1.5
 40
1.5
 40
1.5
 40
0.18
 40
0.18
309
CELLMARGIN_END
 94
        6
 95
        1
302
GRIDFORMAT
  1
GRIDFORMAT_BEGIN
 90
        0
 91
        1
 62
     0
 92
       -2
340
0
 93
        0
 40
0.045
309
GRIDFORMAT_END
 95
        2
302
GRIDFORMAT
  1
GRIDFORMAT_BEGIN
 90
        0
 91
        1
 62
     0
 92
       -2
340
0
 93
        0
 40
0.045
309
GRIDFORMAT_END
 95
        4
302
GRIDFORMAT
  1
GRIDFORMAT_BEGIN
 90
        0
 91
        1
 62
     0
 92
       -2
340
0
 93
        0
 40
0.045
309
GRIDFORMAT_END
 95
        8
302
GRIDFORMAT
  1
GRIDFORMAT_BEGIN
 90
        0
 91
        1
 62
     0
 92
       -2
340
0
 93
        0
 40
0.045
309
GRIDFORMAT_END
 95
       16
302
GRIDFORMAT
  1
GRIDFORMAT_BEGIN
 90
        0
 91
        1
 62
     0
 92
       -2
340
0
 93
        0
 40
0.045
309
GRIDFORMAT_END
 95
       32
302
GRIDFORMAT
  1
GRIDFORMAT_BEGIN
 90
        0
 91
        1
 62
     0
 92
       -2
340
0
 93
        0
 40
0.045
309
GRIDFORMAT_END
309
TABLEFORMAT_END
  1
CELLSTYLE_BEGIN
 90
        3
 91
        2
300
_DATA
309
CELLSTYLE_END
  0
CELLSTYLEMAP
  5
156731
102
{ACAD_REACTORS
330
12A05D
102
}
330
12A05D
100
AcDbCellStyleMap
 90
        3
300
CELLSTYLE
  1
TABLEFORMAT_BEGIN
 90
        5
170
     1
 91
        0
 92
    32768
 62
   257
 93
        1
300
CONTENTFORMAT
  1
CONTENTFORMAT_BEGIN
 90
        0
 91
        0
 92
      512
 93
        0
300

 40
0.0
140
1.0
 94
        5
 62
     0
340
11
144
6.0
309
CONTENTFORMAT_END
171
     1
301
MARGIN
  1
CELLMARGIN_BEGIN
 40
1.5
 40
1.5
 40
1.5
 40
1.5
 40
0.18
 40
0.18
309
CELLMARGIN_END
 94
        6
 95
        1
302
GRIDFORMAT
  1
GRIDFORMAT_BEGIN
 90
        0
 91
        1
 62
     0
 92
       -2
340
0
 93
        0
 40
0.045
309
GRIDFORMAT_END
 95
        2
302
GRIDFORMAT
  1
GRIDFORMAT_BEGIN
 90
        0
 91
        1
 62
     0
 92
       -2
340
0
 93
        0
 40
0.045
309
GRIDFORMAT_END
 95
        4
302
GRIDFORMAT
  1
GRIDFORMAT_BEGIN
 90
        0
 91
        1
 62
     0
 92
       -2
340
0
 93
        0
 40
0.045
309
GRIDFORMAT_END
 95
        8
302
GRIDFORMAT
  1
GRIDFORMAT_BEGIN
 90
        0
 91
        1
 62
     0
 92
       -2
340
0
 93
        0
 40
0.045
309
GRIDFORMAT_END
 95
       16
302
GRIDFORMAT
  1
GRIDFORMAT_BEGIN
 90
        0
 91
        1
 62
     0
 92
       -2
340
0
 93
        0
 40
0.045
309
GRIDFORMAT_END
 95
       32
302
GRIDFORMAT
  1
GRIDFORMAT_BEGIN
 90
        0
 91
        1
 62
     0
 92
       -2
340
0
 93
        0
 40
0.045
309
GRIDFORMAT_END
309
TABLEFORMAT_END
  1
CELLSTYLE_BEGIN
 90
        1
 91
        1
300
_TITLE
309
CELLSTYLE_END
300
CELLSTYLE
  1
TABLEFORMAT_BEGIN
 90
        5
170
     1
 91
        0
 92
        0
 62
   257
 93
        1
300
CONTENTFORMAT
  1
CONTENTFORMAT_BEGIN
 90
        0
 91
        0
 92
      512
 93
        0
300

 40
0.0
140
1.0
 94
        5
 62
     0
340
11
144
4.5
309
CONTENTFORMAT_END
171
     1
301
MARGIN
  1
CELLMARGIN_BEGIN
 40
1.5
 40
1.5
 40
1.5
 40
1.5
 40
0.18
 40
0.18
309
CELLMARGIN_END
 94
        6
 95
        1
302
GRIDFORMAT
  1
GRIDFORMAT_BEGIN
 90
        0
 91
        1
 62
     0
 92
       -2
340
0
 93
        0
 40
0.045
309
GRIDFORMAT_END
 95
        2
302
GRIDFORMAT
  1
GRIDFORMAT_BEGIN
 90
        0
 91
        1
 62
     0
 92
       -2
340
0
 93
        0
 40
0.045
309
GRIDFORMAT_END
 95
        4
302
GRIDFORMAT
  1
GRIDFORMAT_BEGIN
 90
        0
 91
        1
 62
     0
 92
       -2
340
0
 93
        0
 40
0.045
309
GRIDFORMAT_END
 95
        8
302
GRIDFORMAT
  1
GRIDFORMAT_BEGIN
 90
        0
 91
        1
 62
     0
 92
       -2
340
0
 93
        0
 40
0.045
309
GRIDFORMAT_END
 95
       16
302
GRIDFORMAT
  1
GRIDFORMAT_BEGIN
 90
        0
 91
        1
 62
     0
 92
       -2
340
0
 93
        0
 40
0.045
309
GRIDFORMAT_END
 95
       32
302
GRIDFORMAT
  1
GRIDFORMAT_BEGIN
 90
        0
 91
        1
 62
     0
 92
       -2
340
0
 93
        0
 40
0.045
309
GRIDFORMAT_END
309
TABLEFORMAT_END
  1
CELLSTYLE_BEGIN
 90
        2
 91
        1
300
_HEADER
309
CELLSTYLE_END
300
CELLSTYLE
  1
TABLEFORMAT_BEGIN
 90
        5
170
     1
 91
        0
 92
        0
 62
   257
 93
        1
300
CONTENTFORMAT
  1
CONTENTFORMAT_BEGIN
 90
        0
 91
        0
 92
        4
 93
        0
300

 40
0.0
140
1.0
 94
        5
 62
     0
340
11
144
28.5
309
CONTENTFORMAT_END
171
     1
301
MARGIN
  1
CELLMARGIN_BEGIN
 40
1.5
 40
1.5
 40
1.5
 40
1.5
 40
0.18
 40
0.18
309
CELLMARGIN_END
 94
        6
 95
        1
302
GRIDFORMAT
  1
GRIDFORMAT_BEGIN
 90
        0
 91
        1
 62
     0
 92
       -2
340
0
 93
        0
 40
0.045
309
GRIDFORMAT_END
 95
        2
302
GRIDFORMAT
  1
GRIDFORMAT_BEGIN
 90
        0
 91
        1
 62
     0
 92
       -2
340
0
 93
        0
 40
0.045
309
GRIDFORMAT_END
 95
        4
302
GRIDFORMAT
  1
GRIDFORMAT_BEGIN
 90
        0
 91
        1
 62
     0
 92
       -2
340
0
 93
        0
 40
0.045
309
GRIDFORMAT_END
 95
        8
302
GRIDFORMAT
  1
GRIDFORMAT_BEGIN
 90
        0
 91
        1
 62
     0
 92
       -2
340
0
 93
        0
 40
0.045
309
GRIDFORMAT_END
 95
       16
302
GRIDFORMAT
  1
GRIDFORMAT_BEGIN
 90
        0
 91
        1
 62
     0
 92
       -2
340
0
 93
        0
 40
0.045
309
GRIDFORMAT_END
 95
       32
302
GRIDFORMAT
  1
GRIDFORMAT_BEGIN
 90
        0
 91
        1
 62
     0
 92
       -2
340
0
 93
        0
 40
0.045
309
GRIDFORMAT_END
309
TABLEFORMAT_END
  1
CELLSTYLE_BEGIN
 90
        3
 91
        2
300
_DATA
309
CELLSTYLE_END
  0
CELLSTYLEMAP
  5
156732
102
{ACAD_REACTORS
330
12A05F
102
}
330
12A05F
100
AcDbCellStyleMap
 90
        3
300
CELLSTYLE
  1
TABLEFORMAT_BEGIN
 90
        5
170
     1
 91
        0
 92
    32768
 62
   257
 93
        1
300
CONTENTFORMAT
  1
CONTENTFORMAT_BEGIN
 90
        0
 91
        0
 92
      512
 93
        0
300

 40
0.0
140
1.0
 94
        5
 62
     0
340
11
144
6.0
309
CONTENTFORMAT_END
171
     1
301
MARGIN
  1
CELLMARGIN_BEGIN
 40
1.5
 40
1.5
 40
1.5
 40
1.5
 40
0.18
 40
0.18
309
CELLMARGIN_END
 94
        6
 95
        1
302
GRIDFORMAT
  1
GRIDFORMAT_BEGIN
 90
        0
 91
        1
 62
     0
 92
       -2
340
0
 93
        0
 40
0.045
309
GRIDFORMAT_END
 95
        2
302
GRIDFORMAT
  1
GRIDFORMAT_BEGIN
 90
        0
 91
        1
 62
     0
 92
       -2
340
0
 93
        0
 40
0.045
309
GRIDFORMAT_END
 95
        4
302
GRIDFORMAT
  1
GRIDFORMAT_BEGIN
 90
        0
 91
        1
 62
     0
 92
       -2
340
0
 93
        0
 40
0.045
309
GRIDFORMAT_END
 95
        8
302
GRIDFORMAT
  1
GRIDFORMAT_BEGIN
 90
        0
 91
        1
 62
     0
 92
       -2
340
0
 93
        0
 40
0.045
309
GRIDFORMAT_END
 95
       16
302
GRIDFORMAT
  1
GRIDFORMAT_BEGIN
 90
        0
 91
        1
 62
     0
 92
       -2
340
0
 93
        0
 40
0.045
309
GRIDFORMAT_END
 95
       32
302
GRIDFORMAT
  1
GRIDFORMAT_BEGIN
 90
        0
 91
        1
 62
     0
 92
       -2
340
0
 93
        0
 40
0.045
309
GRIDFORMAT_END
309
TABLEFORMAT_END
  1
CELLSTYLE_BEGIN
 90
        1
 91
        1
300
_TITLE
309
CELLSTYLE_END
300
CELLSTYLE
  1
TABLEFORMAT_BEGIN
 90
        5
170
     1
 91
        0
 92
        0
 62
   257
 93
        1
300
CONTENTFORMAT
  1
CONTENTFORMAT_BEGIN
 90
        0
 91
        0
 92
      512
 93
        0
300

 40
0.0
140
1.0
 94
        5
 62
     0
340
11
144
4.5
309
CONTENTFORMAT_END
171
     1
301
MARGIN
  1
CELLMARGIN_BEGIN
 40
1.5
 40
1.5
 40
1.5
 40
1.5
 40
0.18
 40
0.18
309
CELLMARGIN_END
 94
        6
 95
        1
302
GRIDFORMAT
  1
GRIDFORMAT_BEGIN
 90
        0
 91
        1
 62
     0
 92
       -2
340
0
 93
        0
 40
0.045
309
GRIDFORMAT_END
 95
        2
302
GRIDFORMAT
  1
GRIDFORMAT_BEGIN
 90
        0
 91
        1
 62
     0
 92
       -2
340
0
 93
        0
 40
0.045
309
GRIDFORMAT_END
 95
        4
302
GRIDFORMAT
  1
GRIDFORMAT_BEGIN
 90
        0
 91
        1
 62
     0
 92
       -2
340
0
 93
        0
 40
0.045
309
GRIDFORMAT_END
 95
        8
302
GRIDFORMAT
  1
GRIDFORMAT_BEGIN
 90
        0
 91
        1
 62
     0
 92
       -2
340
0
 93
        0
 40
0.045
309
GRIDFORMAT_END
 95
       16
302
GRIDFORMAT
  1
GRIDFORMAT_BEGIN
 90
        0
 91
        1
 62
     0
 92
       -2
340
0
 93
        0
 40
0.045
309
GRIDFORMAT_END
 95
       32
302
GRIDFORMAT
  1
GRIDFORMAT_BEGIN
 90
        0
 91
        1
 62
     0
 92
       -2
340
0
 93
        0
 40
0.045
309
GRIDFORMAT_END
309
TABLEFORMAT_END
  1
CELLSTYLE_BEGIN
 90
        2
 91
        1
300
_HEADER
309
CELLSTYLE_END
300
CELLSTYLE
  1
TABLEFORMAT_BEGIN
 90
        5
170
     1
 91
        0
 92
        0
 62
   257
 93
        1
300
CONTENTFORMAT
  1
CONTENTFORMAT_BEGIN
 90
        0
 91
        0
 92
        4
 93
        0
300

 40
0.0
140
1.0
 94
        5
 62
     0
340
11
144
18.0
309
CONTENTFORMAT_END
171
     1
301
MARGIN
  1
CELLMARGIN_BEGIN
 40
1.5
 40
1.5
 40
1.5
 40
1.5
 40
0.18
 40
0.18
309
CELLMARGIN_END
 94
        6
 95
        1
302
GRIDFORMAT
  1
GRIDFORMAT_BEGIN
 90
        0
 91
        1
 62
     0
 92
       -2
340
0
 93
        0
 40
0.045
309
GRIDFORMAT_END
 95
        2
302
GRIDFORMAT
  1
GRIDFORMAT_BEGIN
 90
        0
 91
        1
 62
     0
 92
       -2
340
0
 93
        0
 40
0.045
309
GRIDFORMAT_END
 95
        4
302
GRIDFORMAT
  1
GRIDFORMAT_BEGIN
 90
        0
 91
        1
 62
     0
 92
       -2
340
0
 93
        0
 40
0.045
309
GRIDFORMAT_END
 95
        8
302
GRIDFORMAT
  1
GRIDFORMAT_BEGIN
 90
        0
 91
        1
 62
     0
 92
       -2
340
0
 93
        0
 40
0.045
309
GRIDFORMAT_END
 95
       16
302
GRIDFORMAT
  1
GRIDFORMAT_BEGIN
 90
        0
 91
        1
 62
     0
 92
       -2
340
0
 93
        0
 40
0.045
309
GRIDFORMAT_END
 95
       32
302
GRIDFORMAT
  1
GRIDFORMAT_BEGIN
 90
        0
 91
        1
 62
     0
 92
       -2
340
0
 93
        0
 40
0.045
309
GRIDFORMAT_END
309
TABLEFORMAT_END
  1
CELLSTYLE_BEGIN
 90
        3
 91
        2
300
_DATA
309
CELLSTYLE_END
  0
ENDSEC
  0
SECTION
  2
ACDSDATA
 70
     2
 71
     8
  0
ACDSSCHEMA
 90
        0
  1
AcDb_Thumbnail_Schema
  2
AcDbDs::ID
280
    10
 91
        8
  2
Thumbnail_Data
280
    15
 91
        0
101
ACDSRECORD
 95
        0
 90
        1
  2
AcDbDs::TreatedAsObjectData
280
     1
291
     1
101
ACDSRECORD
 95
        0
 90
        2
  2
AcDbDs::Legacy
280
     1
291
     1
101
ACDSRECORD
  1
AcDbDs::ID
 90
        3
  2
AcDs:Indexable
280
     1
291
     1
101
ACDSRECORD
  1
AcDbDs::ID
 90
        4
  2
AcDbDs::HandleAttribute
280
     7
282
     1
  0
ACDSSCHEMA
 90
        1
  1
AcDbDs::TreatedAsObjectDataSchema
  2
AcDbDs::TreatedAsObjectData
280
     1
 91
        0
  0
ACDSSCHEMA
 90
        2
  1
AcDbDs::LegacySchema
  2
AcDbDs::Legacy
280
     1
 91
        0
  0
ACDSSCHEMA
 90
        3
  1
AcDbDs::IndexedPropertySchema
  2
AcDs:Indexable
280
     1
 91
        0
  0
ACDSSCHEMA
 90
        4
  1
AcDbDs::HandleAttributeSchema
  2
AcDbDs::HandleAttribute
280
     7
 91
        1
284
     1
  0
ACDSRECORD
 90
        0
  2
AcDbDs::ID
280
    10
320
51
  2
Thumbnail_Data
280
    15
 94
     1666
310
89504E470D0A1A0A0000000D49484452000000B40000007F0803000000713C187700000300504C5445FFFFFF000000FFFFFF0000000000000000000000000000000000000000000000000000330000660000990000CC0000FF0033000033330033660033990033CC0033FF0066000066330066660066990066CC0066FF0099
310
000099330099660099990099CC0099FF00CC0000CC3300CC6600CC9900CCCC00CCFF00FF0000FF3300FF6600FF9900FFCC00FFFF3300003300333300663300993300CC3300FF3333003333333333663333993333CC3333FF3366003366333366663366993366CC3366FF3399003399333399663399993399CC3399FF33CC00
310
33CC3333CC6633CC9933CCCC33CCFF33FF0033FF3333FF6633FF9933FFCC33FFFF6600006600336600666600996600CC6600FF6633006633336633666633996633CC6633FF6666006666336666666666996666CC6666FF6699006699336699666699996699CC6699FF66CC0066CC3366CC6666CC9966CCCC66CCFF66FF0066
310
FF3366FF6666FF9966FFCC66FFFF9900009900339900669900999900CC9900FF9933009933339933669933999933CC9933FF9966009966339966669966999966CC9966FF9999009999339999669999999999CC9999FF99CC0099CC3399CC6699CC9999CCCC99CCFF99FF0099FF3399FF6699FF9999FFCC99FFFFCC0000CC00
310
33CC0066CC0099CC00CCCC00FFCC3300CC3333CC3366CC3399CC33CCCC33FFCC6600CC6633CC6666CC6699CC66CCCC66FFCC9900CC9933CC9966CC9999CC99CCCC99FFCCCC00CCCC33CCCC66CCCC99CCCCCCCCCCFFCCFF00CCFF33CCFF66CCFF99CCFFCCCCFFFFFF0000FF0033FF0066FF0099FF00CCFF00FFFF3300FF3333
310
FF3366FF3399FF33CCFF33FFFF6600FF6633FF6666FF6699FF66CCFF66FFFF9900FF9933FF9966FF9999FF99CCFF99FFFFCC00FFCC33FFCC66FFCC99FFCCCCFFCCFFFFFF00FFFF33FFFF66FFFF99FFFFCCFFFFFF0000000D0D0D1A1A1A2828283535354343435050505D5D5D6B6B6B787878868686939393A1A1A1AEAEAEBB
310
BBBBC9C9C9D6D6D6E4E4E4F1F1F1FFFFFF000000000000000000000000000000000000000000000000000000000000790CAC0F0000033D4944415478DAED9C4B76AB300C86BB21EF7F9689E6CE0618FD7B607E2D3BC9CD030763D9D86AC569A1CD8B0F21F4EBC1C90F142E3F58D52D066DD0C5D00F4FFF7C64F79955F24CC1
310
6EF2D0135BD7A00DDAA00DBA31B429A2411F801E9933D743CF71E119B4415743635E68748406DDDFE338003847A4099AF82F0715D0DEFF8FF1111A0AA05F55C1655502180E4D19983CF4E5328FA555460F25D08B4A4B934A6807409D4F07D5A3C2908C49A01D0274F875CB52008D49A0892D0DB885A0C63D82573C7E8640D7
310
B860B6A20BA700D40CFAA422808868626802B159F10EED04A1B03F342F1FE9BECCCB4FB034F351536994427FAE333D1D55D01B8F3BE92108A14B9833D23EAA8580F8E0F3BA10BAB1A58F296295A1576020B4870FE7193E42DC36D3572E3E2C576E0CF8E0A2BC2EF2D406D14F044D8134D0123C437F04E34C0789C4D8324B5F
310
8347E4A370E682939B5A74215E4BDB602F65C191FC0E9B1778CF7C7AEB0C70A6F4DDD484A71A665B4D85D087639E4AE8507AED84C67768FA70329240D708E20E347B3C2229C55775B074FAB8E7B5B4E4864BD804FA7668F5D029320725F458D746E9A7BB67B2F4AD4890408305D1B398276DF10D04FAEE145F13140934B170
310
6F0962EF2C44D042081A8E988030E26DD3A252EF5D04C4E7AF1D92CF29FB1E934373A611620209267023FA1E48232147CDFA7967346B12AF26E86864D69F869DD353A0F158698B1E43A06DF869D0066DD006FD5A2A3DFDB39747C5C168DD604E0E7DDB759C065119348F9E6FD055D22E87A6B4EB088DB2AA9BE771A13C4B65
310
F72868CE94796E4F5404CD6D024EB15D6D092F874E057FDA50D1651A0FD345E83AB76E76211EB01825E2088D2DE8E4F0982AE445562C716A1BD6F47EA71392C7CD05BD7F2A36FB8E4DFA1E1DC563AFE3672D843F030DB3B4143AF6C75D8FAE5E4FE8A81E175DD069BC32D6D2E80F5DFAEAA914512BF4AA16DA1D94F176D054
310
0F9DAA89502964F6D30F9AF3E4CAD89132BC38B5C5C9D0540D8D07F4F60D2D5342279FC62564D5CB722A749C3E571701EB97FB987B42D76BE1AD6A81AA72EB7EBCD004BDF7E973424323F43A4A114F3CA4295A0856231AF418688DDF3A31E962D063A0ED2B8D0CDAA00DFA2F416BFC0E48534483FE15D00A977FE9916A5BAB
310
327FDE0000000049454E44AE426082
  0
ACDSRECORD
 90
        0
  2
AcDbDs::ID
280
    10
320
56
  2
Thumbnail_Data
280
    15
 94
     1399
310
89504E470D0A1A0A0000000D49484452000000B40000007F0803000000713C187700000300504C5445FFFFFF000000FFFFFF0000000000000000000000000000000000000000000000000000330000660000990000CC0000FF0033000033330033660033990033CC0033FF0066000066330066660066990066CC0066FF0099
310
000099330099660099990099CC0099FF00CC0000CC3300CC6600CC9900CCCC00CCFF00FF0000FF3300FF6600FF9900FFCC00FFFF3300003300333300663300993300CC3300FF3333003333333333663333993333CC3333FF3366003366333366663366993366CC3366FF3399003399333399663399993399CC3399FF33CC00
310
33CC3333CC6633CC9933CCCC33CCFF33FF0033FF3333FF6633FF9933FFCC33FFFF6600006600336600666600996600CC6600FF6633006633336633666633996633CC6633FF6666006666336666666666996666CC6666FF6699006699336699666699996699CC6699FF66CC0066CC3366CC6666CC9966CCCC66CCFF66FF0066
310
FF3366FF6666FF9966FFCC66FFFF9900009900339900669900999900CC9900FF9933009933339933669933999933CC9933FF9966009966339966669966999966CC9966FF9999009999339999669999999999CC9999FF99CC0099CC3399CC6699CC9999CCCC99CCFF99FF0099FF3399FF6699FF9999FFCC99FFFFCC0000CC00
310
33CC0066CC0099CC00CCCC00FFCC3300CC3333CC3366CC3399CC33CCCC33FFCC6600CC6633CC6666CC6699CC66CCCC66FFCC9900CC9933CC9966CC9999CC99CCCC99FFCCCC00CCCC33CCCC66CCCC99CCCCCCCCCCFFCCFF00CCFF33CCFF66CCFF99CCFFCCCCFFFFFF0000FF0033FF0066FF0099FF00CCFF00FFFF3300FF3333
310
FF3366FF3399FF33CCFF33FFFF6600FF6633FF6666FF6699FF66CCFF66FFFF9900FF9933FF9966FF9999FF99CCFF99FFFFCC00FFCC33FFCC66FFCC99FFCCCCFFCCFFFFFF00FFFF33FFFF66FFFF99FFFFCCFFFFFF0000000D0D0D1A1A1A2828283535354343435050505D5D5D6B6B6B787878868686939393A1A1A1AEAEAEBB
310
BBBBC9C9C9D6D6D6E4E4E4F1F1F1FFFFFF000000000000000000000000000000000000000000000000000000000000790CAC0F000002324944415478DAEDDC419682300C06602F945B722E36D9CF095CFD1770C57EA4D8AA0CAD528A24E3DFD9F8F4CDF3A38496243E4E17B81B97D30583B3E1130DA28F41A758FFFBCEAB0F
310
76FE9712DAECEC124D34D1443747734724FA7DF49137CDF5681B571ED144D7A361150DA28926FAE550CE34D18BE3EC72A69568C634D14437BD9F162D667A36930055F58816876840DDA1435C8BAA3F74F56413BD168DFDD1B08AE6364EF4A7D0D5EBF0B168F843633B1A8BDFB32BBA6A49D3C7FEC472B7C2DE8598413FF2ED
310
A355135A6DA22112663426092E661A32B115A5CCC6185A62A7504B4B8FB5998E41515C7AAC6EE3D2083D7C14ADEF87C76008FDE311ED6FA6B122A6CDA0AD26B644137D349AD938D144134D34D1AED122EA0E3DB6190B5F62140D8975193840877287E8F887540851ED3526E9E36B7B68194251EC96234AA83525E7D8E9ED61
310
0D3D7A430D52A73602023F258CA13D8D1DEB1E552D7BCCAA4BB39FD4EFFEF37AAD6E045C0F3736CE1FF8F1136D8D56EDD0C5D73DEA634452597A5E0E2977A7DF443F55DD748AB85446ACDBECAEAC4CB146C368807E9EF4AEEB227A4BA52653806C15D372CE1C79A88FAFBD1AE3A6B270C89276C906E8FBE99AC7DF78D9AC0C
310
6C481626F73564331A318AE7A76D3AC72B673A3FD175E8E2E6B2106C9BD0C575BFD58E88F53E2601446FCA5EC41F3A746D95E8FDD1E8C7BB6A6FE8EC2A6A79F580CB250F5CA789269A7D44A2BF0DEDF1A9133607D147A1F94823A28926FA9BD01E9F01C91D91E87F81F6377E0170A9A28B3039CCD00000000049454E44AE42
310
6082
  0
ENDSEC
  0
EOF
